osu file format v14

[General]
AudioFilename: Ceremony.mp3
AudioLeadIn: 0
PreviewTime: 164235
Countdown: 0
SampleSet: Soft
StackLeniency: 0.6
Mode: 3
LetterboxInBreaks: 0
SpecialStyle: 0
WidescreenStoryboard: 1

[Editor]
Bookmarks: 2556,42975,63186,83394,103604,123815,144024,164235,204656,245077,285498
DistanceSpacing: 0.8
BeatDivisor: 2
GridSize: 32
TimelineZoom: 2.1

[Metadata]
Title:Ceremony
TitleUnicode:Ceremony
Artist:ETIA.
ArtistUnicode:ETIA.
Creator:BulleBoot
Version:HD
Source:BMS
Tags:
BeatmapID:1185359
BeatmapSetID:560556

[Difficulty]
HPDrainRate:8.5
CircleSize:4
OverallDifficulty:8.5
ApproachRate:5
SliderMultiplier:1.4
SliderTickRate:1

[Events]
//Background and Video events
0,0,"Ceremony.jpg",0,0
//Break Periods
//Storyboard Layer 0 (Background)
//Storyboard Layer 1 (Fail)
//Storyboard Layer 2 (Pass)
//Storyboard Layer 3 (Foreground)
//Storyboard Sound Samples

[TimingPoints]
30,315.789473684211,4,2,0,5,1,0
83394,315.789473684211,4,2,0,5,1,1
123814,315.789473684211,4,2,0,5,1,0
164235,315.789473684211,4,2,0,5,1,1
184445,315.789473684211,4,2,0,5,1,0
224866,315.789473684211,4,2,0,5,1,1
245076,315.789473684211,4,2,0,5,1,0
285498,315.789473684211,4,2,0,5,1,0

[HitObjects]
64,192,2556,5,0,0:0:0:0:
320,192,2556,1,0,0:0:0:0:
192,192,2714,1,0,0:0:0:0:
64,192,2872,1,0,0:0:0:0:
320,192,2872,1,0,0:0:0:0:
192,192,3030,1,0,0:0:0:0:
448,192,3187,1,0,0:0:0:0:
64,192,3187,1,0,0:0:0:0:
320,192,3345,1,0,0:0:0:0:
64,192,3503,1,0,0:0:0:0:
448,192,3503,1,0,0:0:0:0:
320,192,3661,1,0,0:0:0:0:
64,192,3819,1,0,0:0:0:0:
192,192,3819,1,0,0:0:0:0:
320,192,3977,1,0,0:0:0:0:
64,192,4135,1,0,0:0:0:0:
192,192,4135,1,0,0:0:0:0:
320,192,4293,1,0,0:0:0:0:
192,192,4451,1,0,0:0:0:0:
448,192,4451,1,0,0:0:0:0:
64,192,4608,1,0,0:0:0:0:
192,192,4766,1,0,0:0:0:0:
448,192,4766,1,0,0:0:0:0:
64,192,4924,1,0,0:0:0:0:
320,192,5082,1,0,0:0:0:0:
448,192,5082,1,0,0:0:0:0:
192,192,5240,1,0,0:0:0:0:
320,192,5398,1,0,0:0:0:0:
448,192,5398,1,0,0:0:0:0:
192,192,5556,1,0,0:0:0:0:
64,192,5714,1,0,0:0:0:0:
320,192,5714,1,0,0:0:0:0:
448,192,5872,1,0,0:0:0:0:
64,192,6030,1,0,0:0:0:0:
320,192,6030,1,0,0:0:0:0:
448,192,6187,1,0,0:0:0:0:
64,192,6345,1,0,0:0:0:0:
192,192,6345,1,0,0:0:0:0:
448,192,6503,1,0,0:0:0:0:
64,192,6661,1,0,0:0:0:0:
192,192,6661,1,0,0:0:0:0:
448,192,6819,1,0,0:0:0:0:
192,192,6977,1,0,0:0:0:0:
320,192,6977,1,0,0:0:0:0:
448,192,7135,1,0,0:0:0:0:
192,192,7293,1,0,0:0:0:0:
320,192,7293,1,0,0:0:0:0:
448,192,7451,1,0,0:0:0:0:
64,192,7608,1,0,0:0:0:0:
192,192,7608,1,0,0:0:0:0:
448,192,7766,1,0,0:0:0:0:
64,192,7924,1,0,0:0:0:0:
192,192,7924,1,0,0:0:0:0:
320,192,7924,1,0,0:0:0:0:
448,192,8082,1,0,0:0:0:0:
64,192,8240,1,0,0:0:0:0:
320,192,8240,1,0,0:0:0:0:
448,192,8398,1,0,0:0:0:0:
64,192,8556,1,0,0:0:0:0:
320,192,8556,1,0,0:0:0:0:
192,192,8556,1,0,0:0:0:0:
448,192,8714,1,0,0:0:0:0:
320,192,8872,1,0,0:0:0:0:
64,192,8872,1,0,0:0:0:0:
192,192,9030,1,0,0:0:0:0:
64,192,9187,1,0,0:0:0:0:
448,192,9187,1,0,0:0:0:0:
320,192,9187,1,0,0:0:0:0:
192,192,9345,1,0,0:0:0:0:
320,192,9503,1,0,0:0:0:0:
448,192,9503,1,0,0:0:0:0:
64,192,9661,1,0,0:0:0:0:
192,192,9819,1,0,0:0:0:0:
320,192,9819,1,0,0:0:0:0:
448,192,9819,1,0,0:0:0:0:
64,192,9977,1,0,0:0:0:0:
192,192,10135,1,0,0:0:0:0:
320,192,10135,1,0,0:0:0:0:
64,192,10293,1,0,0:0:0:0:
192,192,10451,1,0,0:0:0:0:
320,192,10451,1,0,0:0:0:0:
448,192,10451,1,0,0:0:0:0:
64,192,10608,1,0,0:0:0:0:
192,192,10766,1,0,0:0:0:0:
320,192,10766,1,0,0:0:0:0:
448,192,10924,1,0,0:0:0:0:
64,192,11082,1,0,0:0:0:0:
320,192,11082,1,0,0:0:0:0:
192,192,11082,1,0,0:0:0:0:
448,192,11240,1,0,0:0:0:0:
192,192,11398,1,0,0:0:0:0:
64,192,11398,1,0,0:0:0:0:
448,192,11556,1,0,0:0:0:0:
64,192,11714,1,0,0:0:0:0:
192,192,11714,1,0,0:0:0:0:
320,192,11714,1,0,0:0:0:0:
448,192,11872,1,0,0:0:0:0:
192,192,12030,1,0,0:0:0:0:
320,192,12030,1,0,0:0:0:0:
64,192,12187,1,0,0:0:0:0:
192,192,12345,1,0,0:0:0:0:
320,192,12345,1,0,0:0:0:0:
448,192,12345,1,0,0:0:0:0:
64,192,12503,1,0,0:0:0:0:
192,192,12661,1,0,0:0:0:0:
448,192,12661,1,0,0:0:0:0:
320,192,12740,1,0,0:0:0:0:
192,192,12819,1,0,0:0:0:0:
64,192,12898,1,0,0:0:0:0:
192,192,12977,1,0,0:0:0:0:
320,192,12977,1,0,0:0:0:0:
448,192,13056,1,0,0:0:0:0:
320,192,13135,1,0,0:0:0:0:
448,192,13214,1,0,0:0:0:0:
64,192,13293,1,0,0:0:0:0:
192,192,13293,1,0,0:0:0:0:
320,192,13372,1,0,0:0:0:0:
192,192,13451,1,0,0:0:0:0:
320,192,13530,1,0,0:0:0:0:
64,192,13608,1,0,0:0:0:0:
448,192,13608,1,0,0:0:0:0:
320,192,13687,1,0,0:0:0:0:
192,192,13766,1,0,0:0:0:0:
64,192,13845,1,0,0:0:0:0:
320,192,13924,1,0,0:0:0:0:
448,192,13924,1,0,0:0:0:0:
192,192,14003,1,0,0:0:0:0:
320,192,14082,1,0,0:0:0:0:
448,192,14161,1,0,0:0:0:0:
64,192,14240,1,0,0:0:0:0:
192,192,14240,1,0,0:0:0:0:
320,192,14319,1,0,0:0:0:0:
192,192,14398,1,0,0:0:0:0:
320,192,14477,1,0,0:0:0:0:
64,192,14556,1,0,0:0:0:0:
448,192,14556,1,0,0:0:0:0:
320,192,14635,1,0,0:0:0:0:
192,192,14714,1,0,0:0:0:0:
448,192,14793,1,0,0:0:0:0:
192,192,14872,1,0,0:0:0:0:
320,192,14872,1,0,0:0:0:0:
64,192,14951,1,0,0:0:0:0:
192,192,15030,1,0,0:0:0:0:
64,192,15108,1,0,0:0:0:0:
448,192,15187,1,0,0:0:0:0:
192,192,15187,1,0,0:0:0:0:
320,192,15266,1,0,0:0:0:0:
448,192,15345,1,0,0:0:0:0:
192,192,15424,1,0,0:0:0:0:
64,192,15503,1,0,0:0:0:0:
320,192,15503,1,0,0:0:0:0:
192,192,15582,1,0,0:0:0:0:
448,192,15661,1,0,0:0:0:0:
192,192,15740,1,0,0:0:0:0:
64,192,15819,1,0,0:0:0:0:
448,192,15819,1,0,0:0:0:0:
320,192,15898,1,0,0:0:0:0:
448,192,15977,1,0,0:0:0:0:
192,192,16056,1,0,0:0:0:0:
64,192,16135,1,0,0:0:0:0:
448,192,16135,1,0,0:0:0:0:
192,192,16214,1,0,0:0:0:0:
320,192,16293,1,0,0:0:0:0:
64,192,16372,1,0,0:0:0:0:
320,192,16451,1,0,0:0:0:0:
448,192,16451,1,0,0:0:0:0:
192,192,16530,1,0,0:0:0:0:
64,192,16608,1,0,0:0:0:0:
448,192,16687,1,0,0:0:0:0:
192,192,16766,1,0,0:0:0:0:
320,192,16766,1,0,0:0:0:0:
64,192,16845,1,0,0:0:0:0:
448,192,16924,1,0,0:0:0:0:
320,192,17003,1,0,0:0:0:0:
64,192,17082,1,0,0:0:0:0:
192,192,17082,1,0,0:0:0:0:
320,192,17161,1,0,0:0:0:0:
192,192,17240,1,0,0:0:0:0:
64,192,17319,1,0,0:0:0:0:
448,192,17398,1,0,0:0:0:0:
192,192,17398,1,0,0:0:0:0:
320,192,17477,1,0,0:0:0:0:
192,192,17556,1,0,0:0:0:0:
320,192,17635,1,0,0:0:0:0:
64,192,17714,1,0,0:0:0:0:
448,192,17714,1,0,0:0:0:0:
320,192,17793,1,0,0:0:0:0:
192,192,17872,1,0,0:0:0:0:
320,192,17951,1,0,0:0:0:0:
64,192,18030,1,0,0:0:0:0:
448,192,18030,1,0,0:0:0:0:
192,192,18108,1,0,0:0:0:0:
320,192,18187,1,0,0:0:0:0:
192,192,18266,1,0,0:0:0:0:
320,192,18345,1,0,0:0:0:0:
448,192,18345,1,0,0:0:0:0:
192,192,18424,1,0,0:0:0:0:
448,192,18503,1,0,0:0:0:0:
320,192,18582,1,0,0:0:0:0:
64,192,18661,1,0,0:0:0:0:
192,192,18661,1,0,0:0:0:0:
320,192,18740,1,0,0:0:0:0:
64,192,18819,1,0,0:0:0:0:
192,192,18898,1,0,0:0:0:0:
320,192,18977,1,0,0:0:0:0:
448,192,18977,1,0,0:0:0:0:
192,192,19056,1,0,0:0:0:0:
64,192,19135,1,0,0:0:0:0:
192,192,19214,1,0,0:0:0:0:
64,192,19293,1,0,0:0:0:0:
320,192,19293,1,0,0:0:0:0:
192,192,19372,1,0,0:0:0:0:
448,192,19451,1,0,0:0:0:0:
320,192,19530,1,0,0:0:0:0:
64,192,19608,1,0,0:0:0:0:
448,192,19608,1,0,0:0:0:0:
192,192,19687,1,0,0:0:0:0:
320,192,19766,1,0,0:0:0:0:
64,192,19845,1,0,0:0:0:0:
320,192,19924,1,0,0:0:0:0:
448,192,19924,1,0,0:0:0:0:
192,192,20003,1,0,0:0:0:0:
64,192,20082,1,0,0:0:0:0:
192,192,20161,1,0,0:0:0:0:
448,192,20240,1,0,0:0:0:0:
64,192,20240,1,0,0:0:0:0:
320,192,20319,1,0,0:0:0:0:
192,192,20398,1,0,0:0:0:0:
320,192,20477,1,0,0:0:0:0:
64,192,20556,1,0,0:0:0:0:
448,192,20556,1,0,0:0:0:0:
192,192,20635,1,0,0:0:0:0:
64,192,20714,1,0,0:0:0:0:
192,192,20793,1,0,0:0:0:0:
320,192,20872,1,0,0:0:0:0:
448,192,20872,1,0,0:0:0:0:
192,192,20951,1,0,0:0:0:0:
448,192,21030,1,0,0:0:0:0:
192,192,21108,1,0,0:0:0:0:
64,192,21187,1,0,0:0:0:0:
320,192,21187,1,0,0:0:0:0:
192,192,21266,1,0,0:0:0:0:
448,192,21345,1,0,0:0:0:0:
320,192,21424,1,0,0:0:0:0:
64,192,21503,1,0,0:0:0:0:
320,192,21582,1,0,0:0:0:0:
192,192,21661,1,0,0:0:0:0:
448,192,21740,1,0,0:0:0:0:
64,192,21819,1,0,0:0:0:0:
448,192,21898,1,0,0:0:0:0:
192,192,21977,1,0,0:0:0:0:
320,192,22056,1,0,0:0:0:0:
64,192,22135,1,0,0:0:0:0:
320,192,22214,1,0,0:0:0:0:
192,192,22293,1,0,0:0:0:0:
448,192,22372,1,0,0:0:0:0:
64,192,22451,1,0,0:0:0:0:
448,192,22530,1,0,0:0:0:0:
192,192,22608,1,0,0:0:0:0:
320,192,22687,1,0,0:0:0:0:
64,192,22766,1,0,0:0:0:0:
448,192,22766,1,0,0:0:0:0:
192,192,22845,1,0,0:0:0:0:
320,192,22924,1,0,0:0:0:0:
192,192,23003,1,0,0:0:0:0:
64,192,23082,1,0,0:0:0:0:
448,192,23082,1,0,0:0:0:0:
320,192,23161,1,0,0:0:0:0:
192,192,23240,1,0,0:0:0:0:
320,192,23319,1,0,0:0:0:0:
64,192,23398,1,0,0:0:0:0:
192,192,23398,1,0,0:0:0:0:
448,192,23477,1,0,0:0:0:0:
320,192,23556,1,0,0:0:0:0:
192,192,23635,1,0,0:0:0:0:
64,192,23714,1,0,0:0:0:0:
448,192,23714,1,0,0:0:0:0:
320,192,23793,1,0,0:0:0:0:
192,192,23872,1,0,0:0:0:0:
448,192,23951,1,0,0:0:0:0:
64,192,24030,1,0,0:0:0:0:
320,192,24030,1,0,0:0:0:0:
192,192,24108,1,0,0:0:0:0:
448,192,24187,1,0,0:0:0:0:
64,192,24266,1,0,0:0:0:0:
192,192,24345,1,0,0:0:0:0:
320,192,24345,1,0,0:0:0:0:
448,192,24424,1,0,0:0:0:0:
64,192,24503,1,0,0:0:0:0:
320,192,24582,1,0,0:0:0:0:
64,192,24661,1,0,0:0:0:0:
192,192,24661,1,0,0:0:0:0:
448,192,24740,1,0,0:0:0:0:
64,192,24819,1,0,0:0:0:0:
320,192,24819,1,0,0:0:0:0:
192,192,24898,1,0,0:0:0:0:
64,192,24977,1,0,0:0:0:0:
320,192,24977,1,0,0:0:0:0:
192,192,25056,1,0,0:0:0:0:
64,192,25135,1,0,0:0:0:0:
320,192,25135,1,0,0:0:0:0:
192,192,25214,1,0,0:0:0:0:
64,192,25293,1,0,0:0:0:0:
448,192,25293,1,0,0:0:0:0:
320,192,25372,1,0,0:0:0:0:
64,192,25451,1,0,0:0:0:0:
448,192,25451,1,0,0:0:0:0:
320,192,25530,1,0,0:0:0:0:
64,192,25608,1,0,0:0:0:0:
192,192,25608,1,0,0:0:0:0:
448,192,25687,1,0,0:0:0:0:
320,192,25766,1,0,0:0:0:0:
192,192,25845,1,0,0:0:0:0:
64,192,25924,1,0,0:0:0:0:
320,192,25924,1,0,0:0:0:0:
448,192,26003,1,0,0:0:0:0:
320,192,26082,1,0,0:0:0:0:
192,192,26161,1,0,0:0:0:0:
64,192,26240,1,0,0:0:0:0:
320,192,26240,1,0,0:0:0:0:
192,192,26319,1,0,0:0:0:0:
448,192,26398,1,0,0:0:0:0:
192,192,26477,1,0,0:0:0:0:
64,192,26556,1,0,0:0:0:0:
320,192,26556,1,0,0:0:0:0:
448,192,26635,1,0,0:0:0:0:
320,192,26714,1,0,0:0:0:0:
448,192,26793,1,0,0:0:0:0:
64,192,26872,1,0,0:0:0:0:
192,192,26872,1,0,0:0:0:0:
320,192,26951,1,0,0:0:0:0:
64,192,27030,1,0,0:0:0:0:
192,192,27108,1,0,0:0:0:0:
448,192,27187,1,0,0:0:0:0:
320,192,27187,1,0,0:0:0:0:
192,192,27266,1,0,0:0:0:0:
448,192,27345,1,0,0:0:0:0:
192,192,27424,1,0,0:0:0:0:
64,192,27503,1,0,0:0:0:0:
320,192,27503,1,0,0:0:0:0:
192,192,27582,1,0,0:0:0:0:
448,192,27661,1,0,0:0:0:0:
320,192,27740,1,0,0:0:0:0:
64,192,27819,1,0,0:0:0:0:
192,192,27819,1,0,0:0:0:0:
448,192,27898,1,0,0:0:0:0:
64,192,27977,1,0,0:0:0:0:
320,192,28056,1,0,0:0:0:0:
192,192,28135,1,0,0:0:0:0:
448,192,28135,1,0,0:0:0:0:
320,192,28214,1,0,0:0:0:0:
448,192,28293,1,0,0:0:0:0:
192,192,28372,1,0,0:0:0:0:
320,192,28451,1,0,0:0:0:0:
448,192,28451,1,0,0:0:0:0:
192,192,28530,1,0,0:0:0:0:
64,192,28608,1,0,0:0:0:0:
192,192,28687,1,0,0:0:0:0:
448,192,28766,1,0,0:0:0:0:
64,192,28766,1,0,0:0:0:0:
192,192,28845,1,0,0:0:0:0:
320,192,28924,1,0,0:0:0:0:
192,192,29003,1,0,0:0:0:0:
320,192,29082,1,0,0:0:0:0:
448,192,29082,1,0,0:0:0:0:
64,192,29161,1,0,0:0:0:0:
192,192,29240,1,0,0:0:0:0:
448,192,29319,1,0,0:0:0:0:
64,192,29398,1,0,0:0:0:0:
192,192,29398,1,0,0:0:0:0:
320,192,29477,1,0,0:0:0:0:
448,192,29556,1,0,0:0:0:0:
192,192,29635,1,0,0:0:0:0:
64,192,29714,1,0,0:0:0:0:
320,192,29714,1,0,0:0:0:0:
448,192,29793,1,0,0:0:0:0:
320,192,29872,1,0,0:0:0:0:
64,192,29872,128,0,30030:0:0:0:0:
192,192,29951,1,0,0:0:0:0:
448,192,30030,128,0,30187:0:0:0:0:
320,192,30030,1,0,0:0:0:0:
192,192,30108,1,0,0:0:0:0:
64,192,30187,128,0,30345:0:0:0:0:
320,192,30187,1,0,0:0:0:0:
192,192,30266,1,0,0:0:0:0:
320,192,30345,1,0,0:0:0:0:
448,192,30424,1,0,0:0:0:0:
192,192,30503,1,0,0:0:0:0:
320,192,30582,1,0,0:0:0:0:
64,192,30661,1,0,0:0:0:0:
192,192,30661,1,0,0:0:0:0:
320,192,30740,1,0,0:0:0:0:
64,192,30819,1,0,0:0:0:0:
192,192,30898,1,0,0:0:0:0:
320,192,30977,1,0,0:0:0:0:
448,192,30977,1,0,0:0:0:0:
192,192,31056,1,0,0:0:0:0:
320,192,31135,1,0,0:0:0:0:
448,192,31214,1,0,0:0:0:0:
64,192,31293,1,0,0:0:0:0:
320,192,31293,1,0,0:0:0:0:
192,192,31372,1,0,0:0:0:0:
64,192,31451,1,0,0:0:0:0:
320,192,31530,1,0,0:0:0:0:
192,192,31608,1,0,0:0:0:0:
448,192,31608,1,0,0:0:0:0:
320,192,31687,1,0,0:0:0:0:
64,192,31766,1,0,0:0:0:0:
192,192,31845,1,0,0:0:0:0:
320,192,31924,1,0,0:0:0:0:
448,192,31924,1,0,0:0:0:0:
64,192,32003,1,0,0:0:0:0:
320,192,32082,1,0,0:0:0:0:
448,192,32161,1,0,0:0:0:0:
64,192,32240,1,0,0:0:0:0:
192,192,32240,1,0,0:0:0:0:
320,192,32319,1,0,0:0:0:0:
192,192,32398,1,0,0:0:0:0:
448,192,32477,1,0,0:0:0:0:
64,192,32556,1,0,0:0:0:0:
320,192,32556,1,0,0:0:0:0:
192,192,32635,1,0,0:0:0:0:
320,192,32714,1,0,0:0:0:0:
64,192,32793,1,0,0:0:0:0:
320,192,32872,1,0,0:0:0:0:
448,192,32872,1,0,0:0:0:0:
64,192,32951,1,0,0:0:0:0:
320,192,33030,1,0,0:0:0:0:
192,192,33108,1,0,0:0:0:0:
64,192,33187,1,0,0:0:0:0:
320,192,33187,1,0,0:0:0:0:
192,192,33266,1,0,0:0:0:0:
448,192,33345,1,0,0:0:0:0:
320,192,33424,1,0,0:0:0:0:
64,192,33503,1,0,0:0:0:0:
192,192,33503,1,0,0:0:0:0:
320,192,33582,1,0,0:0:0:0:
64,192,33661,1,0,0:0:0:0:
448,192,33740,1,0,0:0:0:0:
192,192,33819,1,0,0:0:0:0:
320,192,33819,1,0,0:0:0:0:
64,192,33898,1,0,0:0:0:0:
448,192,33977,1,0,0:0:0:0:
320,192,34056,1,0,0:0:0:0:
64,192,34135,1,0,0:0:0:0:
192,192,34135,1,0,0:0:0:0:
320,192,34214,1,0,0:0:0:0:
448,192,34293,1,0,0:0:0:0:
320,192,34372,1,0,0:0:0:0:
64,192,34451,1,0,0:0:0:0:
448,192,34451,1,0,0:0:0:0:
320,192,34530,1,0,0:0:0:0:
448,192,34608,1,0,0:0:0:0:
192,192,34687,1,0,0:0:0:0:
64,192,34766,1,0,0:0:0:0:
320,192,34766,1,0,0:0:0:0:
192,192,34845,1,0,0:0:0:0:
448,192,34924,1,0,0:0:0:0:
64,192,35003,1,0,0:0:0:0:
320,192,35082,1,0,0:0:0:0:
192,192,35082,1,0,0:0:0:0:
64,192,35398,1,0,0:0:0:0:
448,192,35398,1,0,0:0:0:0:
320,192,35477,1,0,0:0:0:0:
448,192,35556,1,0,0:0:0:0:
192,192,35635,1,0,0:0:0:0:
64,192,35714,1,0,0:0:0:0:
320,192,35714,1,0,0:0:0:0:
192,192,35793,1,0,0:0:0:0:
448,192,35872,1,0,0:0:0:0:
320,192,35951,1,0,0:0:0:0:
64,192,36030,1,0,0:0:0:0:
448,192,36030,1,0,0:0:0:0:
192,192,36108,1,0,0:0:0:0:
448,192,36187,1,0,0:0:0:0:
320,192,36266,1,0,0:0:0:0:
64,192,36345,1,0,0:0:0:0:
192,192,36345,1,0,0:0:0:0:
320,192,36424,1,0,0:0:0:0:
64,192,36503,1,0,0:0:0:0:
192,192,36503,1,0,0:0:0:0:
448,192,36582,1,0,0:0:0:0:
64,192,36661,1,0,0:0:0:0:
448,192,36740,1,0,0:0:0:0:
192,192,36819,1,0,0:0:0:0:
320,192,36898,1,0,0:0:0:0:
64,192,36977,1,0,0:0:0:0:
320,192,37056,1,0,0:0:0:0:
192,192,37135,1,0,0:0:0:0:
448,192,37214,1,0,0:0:0:0:
64,192,37293,1,0,0:0:0:0:
192,192,37372,1,0,0:0:0:0:
448,192,37451,1,0,0:0:0:0:
320,192,37530,1,0,0:0:0:0:
64,192,37608,1,0,0:0:0:0:
192,192,37687,1,0,0:0:0:0:
320,192,37766,1,0,0:0:0:0:
448,192,37845,1,0,0:0:0:0:
64,192,37924,1,0,0:0:0:0:
192,192,37924,1,0,0:0:0:0:
320,192,38003,1,0,0:0:0:0:
192,192,38082,1,0,0:0:0:0:
64,192,38161,1,0,0:0:0:0:
320,192,38161,1,0,0:0:0:0:
448,192,38240,1,0,0:0:0:0:
320,192,38319,1,0,0:0:0:0:
64,192,38398,1,0,0:0:0:0:
448,192,38398,1,0,0:0:0:0:
192,192,38477,1,0,0:0:0:0:
64,192,38556,1,0,0:0:0:0:
320,192,38635,1,0,0:0:0:0:
192,192,38635,1,0,0:0:0:0:
448,192,38714,1,0,0:0:0:0:
192,192,38793,1,0,0:0:0:0:
320,192,38872,1,0,0:0:0:0:
64,192,38872,1,0,0:0:0:0:
192,192,38951,1,0,0:0:0:0:
448,192,39030,1,0,0:0:0:0:
64,192,39030,1,0,0:0:0:0:
192,192,39108,1,0,0:0:0:0:
448,192,39187,1,0,0:0:0:0:
320,192,39187,1,0,0:0:0:0:
64,192,39266,1,0,0:0:0:0:
192,192,39266,1,0,0:0:0:0:
320,192,39345,1,0,0:0:0:0:
64,192,39424,1,0,0:0:0:0:
192,192,39503,1,0,0:0:0:0:
448,192,39503,1,0,0:0:0:0:
320,192,39582,1,0,0:0:0:0:
64,192,39661,1,0,0:0:0:0:
192,192,39661,1,0,0:0:0:0:
448,192,39740,1,0,0:0:0:0:
320,192,39819,1,0,0:0:0:0:
448,192,39898,1,0,0:0:0:0:
192,192,39898,1,0,0:0:0:0:
64,192,39977,1,0,0:0:0:0:
192,192,40056,1,0,0:0:0:0:
448,192,40135,1,0,0:0:0:0:
64,192,40135,1,0,0:0:0:0:
192,192,40214,1,0,0:0:0:0:
448,192,40293,1,0,0:0:0:0:
320,192,40293,1,0,0:0:0:0:
64,192,40372,1,0,0:0:0:0:
192,192,40451,1,0,0:0:0:0:
320,192,40451,1,0,0:0:0:0:
64,192,40530,1,0,0:0:0:0:
448,192,40608,1,0,0:0:0:0:
320,192,40687,1,0,0:0:0:0:
64,192,40766,1,0,0:0:0:0:
192,192,40766,1,0,0:0:0:0:
320,192,40845,1,0,0:0:0:0:
448,192,40924,1,0,0:0:0:0:
192,192,41003,1,0,0:0:0:0:
64,192,41082,1,0,0:0:0:0:
320,192,41082,1,0,0:0:0:0:
192,192,41161,1,0,0:0:0:0:
64,192,41240,1,0,0:0:0:0:
448,192,41319,1,0,0:0:0:0:
64,192,41398,1,0,0:0:0:0:
192,192,41398,1,0,0:0:0:0:
320,192,41398,1,0,0:0:0:0:
448,192,41477,1,0,0:0:0:0:
320,192,41556,1,0,0:0:0:0:
64,192,41556,1,0,0:0:0:0:
192,192,41556,1,0,0:0:0:0:
448,192,41635,1,0,0:0:0:0:
64,192,41714,1,0,0:0:0:0:
192,192,41714,1,0,0:0:0:0:
320,192,41793,1,0,0:0:0:0:
64,192,41872,1,0,0:0:0:0:
192,192,41872,1,0,0:0:0:0:
320,192,41951,1,0,0:0:0:0:
64,192,42030,1,0,0:0:0:0:
192,192,42030,1,0,0:0:0:0:
448,192,42108,1,0,0:0:0:0:
64,192,42187,1,0,0:0:0:0:
192,192,42187,1,0,0:0:0:0:
448,192,42266,1,0,0:0:0:0:
64,192,42345,1,0,0:0:0:0:
192,192,42345,1,0,0:0:0:0:
320,192,42345,1,0,0:0:0:0:
448,192,42424,1,0,0:0:0:0:
64,192,42503,1,0,0:0:0:0:
192,192,42503,1,0,0:0:0:0:
320,192,42503,1,0,0:0:0:0:
448,192,42582,1,0,0:0:0:0:
192,192,42661,1,0,0:0:0:0:
320,192,42661,1,0,0:0:0:0:
64,192,42740,1,0,0:0:0:0:
448,192,42740,1,0,0:0:0:0:
192,192,42819,1,0,0:0:0:0:
320,192,42819,1,0,0:0:0:0:
448,192,42898,1,0,0:0:0:0:
64,192,42977,1,0,0:0:0:0:
320,192,42977,1,0,0:0:0:0:
192,192,43056,1,0,0:0:0:0:
320,192,43135,1,0,0:0:0:0:
192,192,43214,1,0,0:0:0:0:
64,192,43293,1,0,0:0:0:0:
448,192,43293,1,0,0:0:0:0:
320,192,43372,1,0,0:0:0:0:
448,192,43451,1,0,0:0:0:0:
192,192,43530,1,0,0:0:0:0:
64,192,43608,1,0,0:0:0:0:
320,192,43608,1,0,0:0:0:0:
192,192,43687,1,0,0:0:0:0:
320,192,43766,1,0,0:0:0:0:
64,192,43845,1,0,0:0:0:0:
320,192,43924,1,0,0:0:0:0:
448,192,43924,1,0,0:0:0:0:
64,192,44003,1,0,0:0:0:0:
192,192,44082,1,0,0:0:0:0:
64,192,44161,1,0,0:0:0:0:
192,192,44240,1,0,0:0:0:0:
320,192,44240,1,0,0:0:0:0:
448,192,44319,1,0,0:0:0:0:
64,192,44398,1,0,0:0:0:0:
192,192,44477,1,0,0:0:0:0:
64,192,44556,1,0,0:0:0:0:
320,192,44556,1,0,0:0:0:0:
192,192,44635,1,0,0:0:0:0:
448,192,44714,1,0,0:0:0:0:
320,192,44793,1,0,0:0:0:0:
64,192,44872,1,0,0:0:0:0:
192,192,44872,1,0,0:0:0:0:
320,192,44951,1,0,0:0:0:0:
192,192,45030,1,0,0:0:0:0:
448,192,45108,1,0,0:0:0:0:
320,192,45187,1,0,0:0:0:0:
64,192,45187,1,0,0:0:0:0:
448,192,45266,1,0,0:0:0:0:
64,192,45345,1,0,0:0:0:0:
320,192,45424,1,0,0:0:0:0:
64,192,45503,1,0,0:0:0:0:
192,192,45503,1,0,0:0:0:0:
320,192,45582,1,0,0:0:0:0:
192,192,45661,1,0,0:0:0:0:
448,192,45740,1,0,0:0:0:0:
64,192,45819,1,0,0:0:0:0:
320,192,45819,1,0,0:0:0:0:
448,192,45898,1,0,0:0:0:0:
192,192,45977,1,0,0:0:0:0:
320,192,46056,1,0,0:0:0:0:
64,192,46135,1,0,0:0:0:0:
192,192,46135,1,0,0:0:0:0:
320,192,46214,1,0,0:0:0:0:
64,192,46293,1,0,0:0:0:0:
192,192,46372,1,0,0:0:0:0:
320,192,46451,1,0,0:0:0:0:
448,192,46451,1,0,0:0:0:0:
64,192,46530,1,0,0:0:0:0:
320,192,46608,1,0,0:0:0:0:
192,192,46687,1,0,0:0:0:0:
64,192,46766,1,0,0:0:0:0:
448,192,46766,1,0,0:0:0:0:
320,192,46845,1,0,0:0:0:0:
448,192,46924,1,0,0:0:0:0:
192,192,47003,1,0,0:0:0:0:
64,192,47082,1,0,0:0:0:0:
320,192,47082,1,0,0:0:0:0:
192,192,47161,1,0,0:0:0:0:
64,192,47240,1,0,0:0:0:0:
192,192,47319,1,0,0:0:0:0:
320,192,47398,1,0,0:0:0:0:
448,192,47398,1,0,0:0:0:0:
192,192,47477,1,0,0:0:0:0:
320,192,47556,1,0,0:0:0:0:
448,192,47635,1,0,0:0:0:0:
64,192,47714,1,0,0:0:0:0:
192,192,47714,1,0,0:0:0:0:
320,192,47793,1,0,0:0:0:0:
192,192,47872,1,0,0:0:0:0:
448,192,47951,1,0,0:0:0:0:
64,192,48030,1,0,0:0:0:0:
320,192,48030,1,0,0:0:0:0:
192,192,48108,1,0,0:0:0:0:
64,192,48187,1,0,0:0:0:0:
448,192,48266,1,0,0:0:0:0:
192,192,48345,1,0,0:0:0:0:
320,192,48345,1,0,0:0:0:0:
64,192,48424,1,0,0:0:0:0:
448,192,48503,1,0,0:0:0:0:
320,192,48582,1,0,0:0:0:0:
64,192,48661,1,0,0:0:0:0:
192,192,48661,1,0,0:0:0:0:
320,192,48740,1,0,0:0:0:0:
64,192,48819,1,0,0:0:0:0:
192,192,48898,1,0,0:0:0:0:
64,192,48977,1,0,0:0:0:0:
448,192,48977,1,0,0:0:0:0:
320,192,49056,1,0,0:0:0:0:
192,192,49135,1,0,0:0:0:0:
64,192,49214,1,0,0:0:0:0:
192,192,49293,1,0,0:0:0:0:
320,192,49293,1,0,0:0:0:0:
64,192,49372,1,0,0:0:0:0:
320,192,49451,1,0,0:0:0:0:
192,192,49530,1,0,0:0:0:0:
320,192,49608,1,0,0:0:0:0:
448,192,49608,1,0,0:0:0:0:
64,192,49687,1,0,0:0:0:0:
192,192,49766,1,0,0:0:0:0:
448,192,49845,1,0,0:0:0:0:
64,192,49924,1,0,0:0:0:0:
192,192,49924,1,0,0:0:0:0:
320,192,50003,1,0,0:0:0:0:
192,192,50082,1,0,0:0:0:0:
320,192,50161,1,0,0:0:0:0:
64,192,50240,1,0,0:0:0:0:
448,192,50240,1,0,0:0:0:0:
192,192,50319,1,0,0:0:0:0:
64,192,50398,1,0,0:0:0:0:
320,192,50477,1,0,0:0:0:0:
64,192,50556,1,0,0:0:0:0:
448,192,50556,1,0,0:0:0:0:
192,192,50635,1,0,0:0:0:0:
448,192,50714,1,0,0:0:0:0:
320,192,50793,1,0,0:0:0:0:
64,192,50872,1,0,0:0:0:0:
192,192,50872,1,0,0:0:0:0:
320,192,50951,1,0,0:0:0:0:
64,192,51030,1,0,0:0:0:0:
192,192,51108,1,0,0:0:0:0:
448,192,51187,1,0,0:0:0:0:
64,192,51187,1,0,0:0:0:0:
320,192,51266,1,0,0:0:0:0:
192,192,51345,1,0,0:0:0:0:
448,192,51424,1,0,0:0:0:0:
64,192,51503,1,0,0:0:0:0:
320,192,51503,1,0,0:0:0:0:
192,192,51582,1,0,0:0:0:0:
448,192,51661,1,0,0:0:0:0:
64,192,51740,1,0,0:0:0:0:
192,192,51819,1,0,0:0:0:0:
320,192,51819,1,0,0:0:0:0:
64,192,51898,1,0,0:0:0:0:
192,192,51977,1,0,0:0:0:0:
448,192,52056,1,0,0:0:0:0:
64,192,52135,1,0,0:0:0:0:
192,192,52135,1,0,0:0:0:0:
320,192,52214,1,0,0:0:0:0:
192,192,52293,1,0,0:0:0:0:
448,192,52372,1,0,0:0:0:0:
320,192,52451,1,0,0:0:0:0:
64,192,52451,1,0,0:0:0:0:
192,192,52530,1,0,0:0:0:0:
448,192,52608,1,0,0:0:0:0:
192,192,52687,1,0,0:0:0:0:
320,192,52766,1,0,0:0:0:0:
448,192,52766,1,0,0:0:0:0:
64,192,52845,1,0,0:0:0:0:
192,192,52924,1,0,0:0:0:0:
448,192,53003,1,0,0:0:0:0:
64,192,53082,1,0,0:0:0:0:
320,192,53082,1,0,0:0:0:0:
192,192,53161,1,0,0:0:0:0:
64,192,53240,1,0,0:0:0:0:
448,192,53319,1,0,0:0:0:0:
192,192,53398,1,0,0:0:0:0:
320,192,53398,1,0,0:0:0:0:
64,192,53477,1,0,0:0:0:0:
448,192,53556,1,0,0:0:0:0:
320,192,53635,1,0,0:0:0:0:
64,192,53714,1,0,0:0:0:0:
448,192,53714,1,0,0:0:0:0:
192,192,53793,1,0,0:0:0:0:
320,192,53872,1,0,0:0:0:0:
192,192,53951,1,0,0:0:0:0:
64,192,54030,1,0,0:0:0:0:
448,192,54030,1,0,0:0:0:0:
320,192,54108,1,0,0:0:0:0:
192,192,54187,1,0,0:0:0:0:
64,192,54266,1,0,0:0:0:0:
320,192,54345,1,0,0:0:0:0:
448,192,54345,1,0,0:0:0:0:
192,192,54424,1,0,0:0:0:0:
320,192,54503,1,0,0:0:0:0:
64,192,54582,1,0,0:0:0:0:
192,192,54661,1,0,0:0:0:0:
320,192,54661,1,0,0:0:0:0:
64,192,54740,1,0,0:0:0:0:
448,192,54819,1,0,0:0:0:0:
192,192,54898,1,0,0:0:0:0:
64,192,54977,1,0,0:0:0:0:
448,192,54977,1,0,0:0:0:0:
320,192,55056,1,0,0:0:0:0:
192,192,55135,1,0,0:0:0:0:
448,192,55214,1,0,0:0:0:0:
64,192,55293,1,0,0:0:0:0:
320,192,55293,1,0,0:0:0:0:
192,192,55372,1,0,0:0:0:0:
320,192,55451,1,0,0:0:0:0:
64,192,55530,1,0,0:0:0:0:
192,192,55608,1,0,0:0:0:0:
320,192,55608,1,0,0:0:0:0:
448,192,55687,1,0,0:0:0:0:
64,192,55766,1,0,0:0:0:0:
320,192,55845,1,0,0:0:0:0:
64,192,55924,1,0,0:0:0:0:
192,192,55924,1,0,0:0:0:0:
320,192,56003,1,0,0:0:0:0:
192,192,56082,1,0,0:0:0:0:
448,192,56161,1,0,0:0:0:0:
64,192,56240,1,0,0:0:0:0:
320,192,56240,1,0,0:0:0:0:
192,192,56319,1,0,0:0:0:0:
448,192,56398,1,0,0:0:0:0:
320,192,56477,1,0,0:0:0:0:
64,192,56556,1,0,0:0:0:0:
192,192,56556,1,0,0:0:0:0:
320,192,56635,1,0,0:0:0:0:
192,192,56714,1,0,0:0:0:0:
448,192,56793,1,0,0:0:0:0:
64,192,56872,1,0,0:0:0:0:
320,192,56872,1,0,0:0:0:0:
192,192,56951,1,0,0:0:0:0:
448,192,57030,1,0,0:0:0:0:
320,192,57108,1,0,0:0:0:0:
64,192,57187,1,0,0:0:0:0:
448,192,57187,1,0,0:0:0:0:
192,192,57266,1,0,0:0:0:0:
448,192,57345,1,0,0:0:0:0:
320,192,57424,1,0,0:0:0:0:
64,192,57503,1,0,0:0:0:0:
192,192,57503,1,0,0:0:0:0:
320,192,57582,1,0,0:0:0:0:
192,192,57661,1,0,0:0:0:0:
448,192,57740,1,0,0:0:0:0:
320,192,57819,1,0,0:0:0:0:
64,192,57819,1,0,0:0:0:0:
192,192,57898,1,0,0:0:0:0:
448,192,57977,1,0,0:0:0:0:
64,192,58056,1,0,0:0:0:0:
192,192,58135,1,0,0:0:0:0:
320,192,58135,1,0,0:0:0:0:
448,192,58135,1,0,0:0:0:0:
64,192,58214,1,0,0:0:0:0:
320,192,58293,1,0,0:0:0:0:
192,192,58372,1,0,0:0:0:0:
64,192,58451,1,0,0:0:0:0:
448,192,58451,1,0,0:0:0:0:
320,192,58451,1,0,0:0:0:0:
192,192,58530,1,0,0:0:0:0:
320,192,58608,1,0,0:0:0:0:
448,192,58687,1,0,0:0:0:0:
64,192,58766,1,0,0:0:0:0:
192,192,58766,1,0,0:0:0:0:
320,192,58766,1,0,0:0:0:0:
448,192,58845,1,0,0:0:0:0:
192,192,58924,1,0,0:0:0:0:
320,192,59003,1,0,0:0:0:0:
64,192,59082,1,0,0:0:0:0:
192,192,59082,1,0,0:0:0:0:
448,192,59082,1,0,0:0:0:0:
320,192,59161,1,0,0:0:0:0:
448,192,59240,1,0,0:0:0:0:
192,192,59319,1,0,0:0:0:0:
64,192,59398,1,0,0:0:0:0:
320,192,59398,1,0,0:0:0:0:
448,192,59398,1,0,0:0:0:0:
192,192,59477,1,0,0:0:0:0:
448,192,59556,1,0,0:0:0:0:
64,192,59635,1,0,0:0:0:0:
192,192,59714,1,0,0:0:0:0:
320,192,59714,1,0,0:0:0:0:
448,192,59714,1,0,0:0:0:0:
64,192,59793,1,0,0:0:0:0:
320,192,59872,1,0,0:0:0:0:
448,192,59951,1,0,0:0:0:0:
64,192,60030,1,0,0:0:0:0:
192,192,60030,1,0,0:0:0:0:
320,192,60030,1,0,0:0:0:0:
448,192,60108,1,0,0:0:0:0:
64,192,60187,1,0,0:0:0:0:
192,192,60266,1,0,0:0:0:0:
64,192,60345,1,0,0:0:0:0:
448,192,60345,1,0,0:0:0:0:
320,192,60345,1,0,0:0:0:0:
192,192,60424,1,0,0:0:0:0:
320,192,60503,1,0,0:0:0:0:
448,192,60582,1,0,0:0:0:0:
64,192,60661,1,0,0:0:0:0:
192,192,60661,1,0,0:0:0:0:
320,192,60740,1,0,0:0:0:0:
448,192,60740,1,0,0:0:0:0:
64,192,60819,1,0,0:0:0:0:
192,192,60819,1,0,0:0:0:0:
320,192,60898,1,0,0:0:0:0:
64,192,60977,1,0,0:0:0:0:
192,192,60977,1,0,0:0:0:0:
320,192,61056,1,0,0:0:0:0:
448,192,61056,1,0,0:0:0:0:
64,192,61135,1,0,0:0:0:0:
192,192,61135,1,0,0:0:0:0:
320,192,61214,1,0,0:0:0:0:
64,192,61293,1,0,0:0:0:0:
192,192,61293,1,0,0:0:0:0:
320,192,61372,1,0,0:0:0:0:
448,192,61372,1,0,0:0:0:0:
64,192,61451,1,0,0:0:0:0:
192,192,61451,1,0,0:0:0:0:
320,192,61530,1,0,0:0:0:0:
64,192,61608,1,0,0:0:0:0:
192,192,61608,1,0,0:0:0:0:
320,192,61687,1,0,0:0:0:0:
448,192,61687,1,0,0:0:0:0:
64,192,61766,1,0,0:0:0:0:
192,192,61766,1,0,0:0:0:0:
320,192,61845,1,0,0:0:0:0:
64,192,61924,1,0,0:0:0:0:
192,192,61924,1,0,0:0:0:0:
448,192,61924,1,0,0:0:0:0:
64,192,62240,1,0,0:0:0:0:
320,192,62240,1,0,0:0:0:0:
448,192,62240,1,0,0:0:0:0:
64,192,62556,1,0,0:0:0:0:
192,192,62556,1,0,0:0:0:0:
448,192,62556,1,0,0:0:0:0:
64,192,62872,1,0,0:0:0:0:
192,192,62872,1,0,0:0:0:0:
320,192,62872,1,0,0:0:0:0:
448,192,62872,1,0,0:0:0:0:
64,192,63187,1,0,0:0:0:0:
320,192,63187,1,0,0:0:0:0:
192,192,63266,1,0,0:0:0:0:
448,192,63345,1,0,0:0:0:0:
320,192,63424,1,0,0:0:0:0:
64,192,63503,1,0,0:0:0:0:
448,192,63503,1,0,0:0:0:0:
192,192,63582,1,0,0:0:0:0:
320,192,63661,1,0,0:0:0:0:
448,192,63740,1,0,0:0:0:0:
64,192,63819,1,0,0:0:0:0:
192,192,63819,1,0,0:0:0:0:
320,192,63898,1,0,0:0:0:0:
192,192,63977,1,0,0:0:0:0:
64,192,64056,1,0,0:0:0:0:
192,192,64135,1,0,0:0:0:0:
320,192,64135,1,0,0:0:0:0:
448,192,64214,1,0,0:0:0:0:
64,192,64293,1,0,0:0:0:0:
192,192,64372,1,0,0:0:0:0:
64,192,64451,1,0,0:0:0:0:
320,192,64451,1,0,0:0:0:0:
192,192,64530,1,0,0:0:0:0:
448,192,64608,1,0,0:0:0:0:
320,192,64687,1,0,0:0:0:0:
64,192,64766,1,0,0:0:0:0:
192,192,64766,1,0,0:0:0:0:
320,192,64845,1,0,0:0:0:0:
448,192,64924,1,0,0:0:0:0:
320,192,65003,1,0,0:0:0:0:
64,192,65082,1,0,0:0:0:0:
192,192,65082,1,0,0:0:0:0:
320,192,65161,1,0,0:0:0:0:
192,192,65240,1,0,0:0:0:0:
448,192,65240,1,0,0:0:0:0:
320,192,65319,1,0,0:0:0:0:
192,192,65398,1,0,0:0:0:0:
448,192,65398,1,0,0:0:0:0:
320,192,65477,1,0,0:0:0:0:
192,192,65556,1,0,0:0:0:0:
448,192,65556,1,0,0:0:0:0:
320,192,65635,1,0,0:0:0:0:
448,192,65714,1,0,0:0:0:0:
64,192,65714,1,0,0:0:0:0:
192,192,65793,1,0,0:0:0:0:
320,192,65872,1,0,0:0:0:0:
64,192,65951,1,0,0:0:0:0:
192,192,66030,1,0,0:0:0:0:
320,192,66030,1,0,0:0:0:0:
448,192,66108,1,0,0:0:0:0:
64,192,66187,1,0,0:0:0:0:
192,192,66266,1,0,0:0:0:0:
320,192,66345,1,0,0:0:0:0:
448,192,66345,1,0,0:0:0:0:
192,192,66424,1,0,0:0:0:0:
320,192,66503,1,0,0:0:0:0:
64,192,66582,1,0,0:0:0:0:
192,192,66661,1,0,0:0:0:0:
320,192,66661,1,0,0:0:0:0:
448,192,66740,1,0,0:0:0:0:
64,192,66819,1,0,0:0:0:0:
192,192,66898,1,0,0:0:0:0:
64,192,66977,1,0,0:0:0:0:
320,192,66977,1,0,0:0:0:0:
448,192,67056,1,0,0:0:0:0:
192,192,67135,1,0,0:0:0:0:
320,192,67214,1,0,0:0:0:0:
64,192,67293,1,0,0:0:0:0:
192,192,67293,1,0,0:0:0:0:
320,192,67372,1,0,0:0:0:0:
448,192,67451,1,0,0:0:0:0:
192,192,67530,1,0,0:0:0:0:
64,192,67608,1,0,0:0:0:0:
320,192,67608,1,0,0:0:0:0:
192,192,67687,1,0,0:0:0:0:
448,192,67766,1,0,0:0:0:0:
64,192,67845,1,0,0:0:0:0:
320,192,67924,1,0,0:0:0:0:
448,192,67924,1,0,0:0:0:0:
192,192,68003,1,0,0:0:0:0:
320,192,68082,1,0,0:0:0:0:
64,192,68161,1,0,0:0:0:0:
192,192,68240,1,0,0:0:0:0:
448,192,68240,1,0,0:0:0:0:
320,192,68319,1,0,0:0:0:0:
64,192,68398,1,0,0:0:0:0:
192,192,68477,1,0,0:0:0:0:
64,192,68556,1,0,0:0:0:0:
320,192,68556,1,0,0:0:0:0:
448,192,68635,1,0,0:0:0:0:
192,192,68714,1,0,0:0:0:0:
448,192,68793,1,0,0:0:0:0:
64,192,68872,1,0,0:0:0:0:
192,192,68872,1,0,0:0:0:0:
320,192,68951,1,0,0:0:0:0:
448,192,69030,1,0,0:0:0:0:
192,192,69108,1,0,0:0:0:0:
320,192,69187,1,0,0:0:0:0:
448,192,69187,1,0,0:0:0:0:
64,192,69266,1,0,0:0:0:0:
192,192,69345,1,0,0:0:0:0:
64,192,69424,1,0,0:0:0:0:
192,192,69503,1,0,0:0:0:0:
320,192,69503,1,0,0:0:0:0:
448,192,69582,1,0,0:0:0:0:
64,192,69661,1,0,0:0:0:0:
320,192,69740,1,0,0:0:0:0:
64,192,69819,1,0,0:0:0:0:
192,192,69819,1,0,0:0:0:0:
448,192,69898,1,0,0:0:0:0:
64,192,69977,1,0,0:0:0:0:
320,192,70056,1,0,0:0:0:0:
192,192,70135,1,0,0:0:0:0:
448,192,70135,1,0,0:0:0:0:
320,192,70214,1,0,0:0:0:0:
64,192,70293,1,0,0:0:0:0:
192,192,70293,128,0,70451:0:0:0:0:
448,192,70372,1,0,0:0:0:0:
320,192,70451,128,0,70608:0:0:0:0:
64,192,70530,1,0,0:0:0:0:
192,192,70608,128,0,70766:0:0:0:0:
448,192,70687,1,0,0:0:0:0:
64,192,70766,1,0,0:0:0:0:
320,192,70845,1,0,0:0:0:0:
448,192,70924,1,0,0:0:0:0:
192,192,71003,1,0,0:0:0:0:
64,192,71082,1,0,0:0:0:0:
320,192,71082,1,0,0:0:0:0:
192,192,71161,1,0,0:0:0:0:
448,192,71240,1,0,0:0:0:0:
320,192,71319,1,0,0:0:0:0:
64,192,71398,1,0,0:0:0:0:
192,192,71398,1,0,0:0:0:0:
320,192,71477,1,0,0:0:0:0:
64,192,71556,1,0,0:0:0:0:
192,192,71635,1,0,0:0:0:0:
64,192,71714,1,0,0:0:0:0:
320,192,71714,1,0,0:0:0:0:
192,192,71793,1,0,0:0:0:0:
448,192,71872,1,0,0:0:0:0:
192,192,71951,1,0,0:0:0:0:
320,192,72030,1,0,0:0:0:0:
448,192,72030,1,0,0:0:0:0:
64,192,72108,1,0,0:0:0:0:
192,192,72187,1,0,0:0:0:0:
448,192,72266,1,0,0:0:0:0:
64,192,72345,1,0,0:0:0:0:
320,192,72345,1,0,0:0:0:0:
192,192,72424,1,0,0:0:0:0:
448,192,72503,1,0,0:0:0:0:
320,192,72582,1,0,0:0:0:0:
64,192,72661,1,0,0:0:0:0:
192,192,72661,1,0,0:0:0:0:
320,192,72740,1,0,0:0:0:0:
64,192,72819,1,0,0:0:0:0:
192,192,72898,1,0,0:0:0:0:
64,192,72977,1,0,0:0:0:0:
448,192,72977,1,0,0:0:0:0:
320,192,73056,1,0,0:0:0:0:
192,192,73135,1,0,0:0:0:0:
448,192,73214,1,0,0:0:0:0:
64,192,73293,1,0,0:0:0:0:
192,192,73293,1,0,0:0:0:0:
64,192,73608,1,0,0:0:0:0:
320,192,73608,1,0,0:0:0:0:
448,192,73608,1,0,0:0:0:0:
192,192,73687,1,0,0:0:0:0:
448,192,73766,1,0,0:0:0:0:
320,192,73845,1,0,0:0:0:0:
64,192,73924,1,0,0:0:0:0:
448,192,73924,1,0,0:0:0:0:
192,192,74003,1,0,0:0:0:0:
320,192,74082,1,0,0:0:0:0:
448,192,74161,1,0,0:0:0:0:
64,192,74240,1,0,0:0:0:0:
192,192,74240,1,0,0:0:0:0:
320,192,74319,1,0,0:0:0:0:
64,192,74398,1,0,0:0:0:0:
192,192,74477,1,0,0:0:0:0:
64,192,74556,1,0,0:0:0:0:
448,192,74556,1,0,0:0:0:0:
320,192,74635,1,0,0:0:0:0:
448,192,74714,1,0,0:0:0:0:
192,192,74793,1,0,0:0:0:0:
64,192,74872,1,0,0:0:0:0:
320,192,74872,1,0,0:0:0:0:
192,192,74951,1,0,0:0:0:0:
448,192,75030,1,0,0:0:0:0:
320,192,75108,1,0,0:0:0:0:
64,192,75187,1,0,0:0:0:0:
192,192,75187,1,0,0:0:0:0:
320,192,75266,1,0,0:0:0:0:
448,192,75345,1,0,0:0:0:0:
64,192,75345,1,0,0:0:0:0:
192,192,75424,1,0,0:0:0:0:
64,192,75503,1,0,0:0:0:0:
448,192,75503,1,0,0:0:0:0:
320,192,75582,1,0,0:0:0:0:
448,192,75661,1,0,0:0:0:0:
64,192,75661,1,0,0:0:0:0:
192,192,75740,1,0,0:0:0:0:
64,192,75819,1,0,0:0:0:0:
448,192,75819,1,0,0:0:0:0:
320,192,75898,1,0,0:0:0:0:
192,192,75977,1,0,0:0:0:0:
320,192,76056,1,0,0:0:0:0:
64,192,76135,1,0,0:0:0:0:
192,192,76135,1,0,0:0:0:0:
320,192,76214,1,0,0:0:0:0:
448,192,76293,1,0,0:0:0:0:
192,192,76372,1,0,0:0:0:0:
64,192,76451,1,0,0:0:0:0:
320,192,76451,1,0,0:0:0:0:
192,192,76530,1,0,0:0:0:0:
448,192,76608,1,0,0:0:0:0:
320,192,76687,1,0,0:0:0:0:
64,192,76766,1,0,0:0:0:0:
192,192,76766,1,0,0:0:0:0:
320,192,76845,1,0,0:0:0:0:
64,192,76924,1,0,0:0:0:0:
192,192,77003,1,0,0:0:0:0:
320,192,77082,1,0,0:0:0:0:
448,192,77082,1,0,0:0:0:0:
192,192,77161,1,0,0:0:0:0:
320,192,77240,1,0,0:0:0:0:
64,192,77319,1,0,0:0:0:0:
192,192,77398,1,0,0:0:0:0:
448,192,77398,1,0,0:0:0:0:
320,192,77477,1,0,0:0:0:0:
192,192,77556,1,0,0:0:0:0:
448,192,77635,1,0,0:0:0:0:
64,192,77714,1,0,0:0:0:0:
192,192,77714,1,0,0:0:0:0:
320,192,77793,1,0,0:0:0:0:
64,192,77872,1,0,0:0:0:0:
448,192,77951,1,0,0:0:0:0:
192,192,78030,1,0,0:0:0:0:
64,192,78030,1,0,0:0:0:0:
320,192,78108,1,0,0:0:0:0:
192,192,78187,1,0,0:0:0:0:
448,192,78187,1,0,0:0:0:0:
320,192,78266,1,0,0:0:0:0:
64,192,78345,1,0,0:0:0:0:
192,192,78345,1,0,0:0:0:0:
448,192,78345,1,0,0:0:0:0:
192,192,78503,1,0,0:0:0:0:
448,192,78503,1,0,0:0:0:0:
320,192,78503,1,0,0:0:0:0:
64,192,78661,1,0,0:0:0:0:
320,192,78661,1,0,0:0:0:0:
448,192,78661,1,0,0:0:0:0:
64,192,78819,1,0,0:0:0:0:
192,192,78819,1,0,0:0:0:0:
320,192,78819,1,0,0:0:0:0:
64,192,78977,1,0,0:0:0:0:
448,192,78977,1,0,0:0:0:0:
320,192,78977,1,0,0:0:0:0:
64,192,79135,1,0,0:0:0:0:
192,192,79135,1,0,0:0:0:0:
448,192,79135,1,0,0:0:0:0:
64,192,79293,1,0,0:0:0:0:
192,192,79293,1,0,0:0:0:0:
320,192,79293,1,0,0:0:0:0:
192,192,79451,1,0,0:0:0:0:
320,192,79451,1,0,0:0:0:0:
448,192,79451,1,0,0:0:0:0:
64,192,79608,1,0,0:0:0:0:
192,192,79608,1,0,0:0:0:0:
448,192,79608,1,0,0:0:0:0:
320,192,79766,1,0,0:0:0:0:
64,192,79766,1,0,0:0:0:0:
448,192,79766,1,0,0:0:0:0:
192,192,79924,1,0,0:0:0:0:
320,192,79924,1,0,0:0:0:0:
448,192,79924,1,0,0:0:0:0:
64,192,80082,1,0,0:0:0:0:
448,192,80082,1,0,0:0:0:0:
192,192,80082,1,0,0:0:0:0:
64,192,80240,1,0,0:0:0:0:
192,192,80240,1,0,0:0:0:0:
320,192,80240,1,0,0:0:0:0:
64,192,80398,1,0,0:0:0:0:
320,192,80398,1,0,0:0:0:0:
448,192,80398,1,0,0:0:0:0:
448,192,80556,1,0,0:0:0:0:
320,192,80556,1,0,0:0:0:0:
192,192,80556,1,0,0:0:0:0:
320,192,80714,1,0,0:0:0:0:
448,192,80714,1,0,0:0:0:0:
192,192,80793,1,0,0:0:0:0:
64,192,80793,1,0,0:0:0:0:
320,192,80872,1,0,0:0:0:0:
448,192,80872,1,0,0:0:0:0:
192,192,80951,1,0,0:0:0:0:
64,192,80951,1,0,0:0:0:0:
320,192,81030,1,0,0:0:0:0:
448,192,81030,1,0,0:0:0:0:
192,192,81108,1,0,0:0:0:0:
64,192,81108,1,0,0:0:0:0:
320,192,81187,1,0,0:0:0:0:
448,192,81187,1,0,0:0:0:0:
192,192,81266,1,0,0:0:0:0:
64,192,81266,1,0,0:0:0:0:
320,192,81345,1,0,0:0:0:0:
448,192,81345,1,0,0:0:0:0:
192,192,81424,1,0,0:0:0:0:
64,192,81424,1,0,0:0:0:0:
320,192,81503,1,0,0:0:0:0:
448,192,81503,1,0,0:0:0:0:
64,192,81582,1,0,0:0:0:0:
192,192,81602,1,0,0:0:0:0:
320,192,81622,1,0,0:0:0:0:
448,192,81641,1,0,0:0:0:0:
64,192,81661,1,0,0:0:0:0:
192,192,81681,1,0,0:0:0:0:
320,192,81701,1,0,0:0:0:0:
448,192,81720,1,0,0:0:0:0:
320,192,81819,1,0,0:0:0:0:
192,192,81819,1,0,0:0:0:0:
64,192,81898,1,0,0:0:0:0:
192,192,81918,1,0,0:0:0:0:
320,192,81937,1,0,0:0:0:0:
448,192,81957,1,0,0:0:0:0:
64,192,81977,1,0,0:0:0:0:
192,192,81997,1,0,0:0:0:0:
320,192,82016,1,0,0:0:0:0:
448,192,82036,1,0,0:0:0:0:
320,192,82135,1,0,0:0:0:0:
192,192,82135,1,0,0:0:0:0:
320,192,82451,1,0,0:0:0:0:
192,192,82451,1,0,0:0:0:0:
64,192,82451,1,0,0:0:0:0:
448,192,82451,1,0,0:0:0:0:
192,192,82608,1,0,0:0:0:0:
448,192,82608,1,0,0:0:0:0:
320,192,82608,1,0,0:0:0:0:
64,192,82608,1,0,0:0:0:0:
64,192,82924,1,0,0:0:0:0:
192,192,82924,1,0,0:0:0:0:
320,192,82924,1,0,0:0:0:0:
448,192,82924,1,0,0:0:0:0:
320,192,83394,1,0,0:0:0:0:
64,192,83394,128,0,85604:0:0:0:0:
320,192,83709,1,0,0:0:0:0:
448,192,84025,1,0,0:0:0:0:
192,192,84025,1,0,0:0:0:0:
192,192,84341,1,0,0:0:0:0:
320,192,84657,1,0,0:0:0:0:
192,192,84815,1,0,0:0:0:0:
448,192,84815,1,0,0:0:0:0:
320,192,84972,1,0,0:0:0:0:
448,192,85288,128,0,85920:0:0:0:0:
192,192,85920,128,0,88288:0:0:0:0:
320,192,85920,1,0,0:0:0:0:
64,192,85920,1,0,0:0:0:0:
320,192,86236,1,0,0:0:0:0:
64,192,86551,1,0,0:0:0:0:
448,192,86551,1,0,0:0:0:0:
64,192,86867,1,0,0:0:0:0:
320,192,87183,1,0,0:0:0:0:
64,192,87341,1,0,0:0:0:0:
448,192,87341,1,0,0:0:0:0:
320,192,87499,1,0,0:0:0:0:
448,192,87815,128,0,88288:0:0:0:0:
320,192,88446,128,0,89551:0:0:0:0:
448,192,88446,128,0,89551:0:0:0:0:
192,192,89551,1,0,0:0:0:0:
64,192,89630,1,0,0:0:0:0:
192,192,89709,128,0,90341:0:0:0:0:
448,192,89709,128,0,90815:0:0:0:0:
64,192,90341,128,0,90815:0:0:0:0:
192,192,90972,128,0,92078:0:0:0:0:
320,192,90972,128,0,92078:0:0:0:0:
448,192,92078,1,0,0:0:0:0:
64,192,92157,1,0,0:0:0:0:
192,192,92236,128,0,93341:0:0:0:0:
320,192,92236,128,0,93341:0:0:0:0:
448,192,93183,1,0,0:0:0:0:
64,192,93288,1,0,0:0:0:0:
448,192,93394,1,0,0:0:0:0:
320,192,93499,1,0,0:0:0:0:
192,192,93499,1,0,0:0:0:0:
64,192,93499,1,0,0:0:0:0:
192,192,93972,1,0,0:0:0:0:
64,192,93972,1,0,0:0:0:0:
448,192,93972,1,0,0:0:0:0:
448,192,94446,1,0,0:0:0:0:
320,192,94446,1,0,0:0:0:0:
192,192,94446,1,0,0:0:0:0:
64,192,94920,1,0,0:0:0:0:
448,192,94920,1,0,0:0:0:0:
320,192,94920,1,0,0:0:0:0:
320,192,95394,1,0,0:0:0:0:
192,192,95394,1,0,0:0:0:0:
64,192,95394,1,0,0:0:0:0:
448,192,95709,1,0,0:0:0:0:
320,192,95709,1,0,0:0:0:0:
192,192,95709,1,0,0:0:0:0:
64,192,96025,1,0,0:0:0:0:
448,192,96025,1,0,0:0:0:0:
320,192,96025,1,0,0:0:0:0:
448,192,96499,1,0,0:0:0:0:
320,192,96499,1,0,0:0:0:0:
192,192,96499,1,0,0:0:0:0:
192,192,96972,1,0,0:0:0:0:
64,192,96972,1,0,0:0:0:0:
448,192,96972,1,0,0:0:0:0:
448,192,97446,1,0,0:0:0:0:
320,192,97446,1,0,0:0:0:0:
192,192,97446,1,0,0:0:0:0:
320,192,97920,1,0,0:0:0:0:
192,192,97920,1,0,0:0:0:0:
64,192,97920,1,0,0:0:0:0:
64,192,98236,1,0,0:0:0:0:
448,192,98236,1,0,0:0:0:0:
320,192,98236,1,0,0:0:0:0:
448,192,98551,1,0,0:0:0:0:
320,192,98551,1,0,0:0:0:0:
192,192,98551,1,0,0:0:0:0:
64,192,99025,1,0,0:0:0:0:
192,192,99025,1,0,0:0:0:0:
320,192,99025,1,0,0:0:0:0:
448,192,99499,1,0,0:0:0:0:
192,192,99499,1,0,0:0:0:0:
64,192,99499,1,0,0:0:0:0:
448,192,99972,1,0,0:0:0:0:
320,192,99972,1,0,0:0:0:0:
64,192,99972,1,0,0:0:0:0:
64,192,100446,1,0,0:0:0:0:
192,192,100446,1,0,0:0:0:0:
448,192,100446,1,0,0:0:0:0:
448,192,100762,1,0,0:0:0:0:
320,192,100762,1,0,0:0:0:0:
64,192,100762,1,0,0:0:0:0:
448,192,101078,128,0,102025:0:0:0:0:
192,192,102183,1,0,0:0:0:0:
64,192,102262,1,0,0:0:0:0:
192,192,102341,128,0,103446:0:0:0:0:
320,192,103183,1,0,0:0:0:0:
64,192,103288,1,0,0:0:0:0:
320,192,103394,1,0,0:0:0:0:
448,192,103499,1,0,0:0:0:0:
64,192,103604,1,0,0:0:0:0:
320,192,103604,1,0,0:0:0:0:
192,192,103604,1,0,0:0:0:0:
192,192,103762,1,0,0:0:0:0:
192,192,103920,1,0,0:0:0:0:
64,192,104078,1,0,0:0:0:0:
320,192,104078,1,0,0:0:0:0:
448,192,104078,1,0,0:0:0:0:
320,192,104236,1,0,0:0:0:0:
320,192,104394,1,0,0:0:0:0:
64,192,104551,1,0,0:0:0:0:
192,192,104551,1,0,0:0:0:0:
448,192,104551,1,0,0:0:0:0:
192,192,104709,1,0,0:0:0:0:
192,192,104867,1,0,0:0:0:0:
64,192,105025,1,0,0:0:0:0:
320,192,105025,1,0,0:0:0:0:
448,192,105025,1,0,0:0:0:0:
320,192,105183,1,0,0:0:0:0:
320,192,105341,1,0,0:0:0:0:
64,192,105499,1,0,0:0:0:0:
192,192,105499,1,0,0:0:0:0:
448,192,105499,1,0,0:0:0:0:
320,192,105657,1,0,0:0:0:0:
64,192,105815,1,0,0:0:0:0:
192,192,105815,1,0,0:0:0:0:
320,192,105815,1,0,0:0:0:0:
320,192,105972,1,0,0:0:0:0:
448,192,106130,1,0,0:0:0:0:
320,192,106130,1,0,0:0:0:0:
64,192,106130,1,0,0:0:0:0:
192,192,106288,1,0,0:0:0:0:
192,192,106446,1,0,0:0:0:0:
64,192,106604,1,0,0:0:0:0:
192,192,106604,1,0,0:0:0:0:
320,192,106604,1,0,0:0:0:0:
320,192,106762,1,0,0:0:0:0:
320,192,106920,1,0,0:0:0:0:
64,192,107078,1,0,0:0:0:0:
192,192,107078,1,0,0:0:0:0:
448,192,107078,1,0,0:0:0:0:
192,192,107236,1,0,0:0:0:0:
192,192,107394,1,0,0:0:0:0:
64,192,107551,1,0,0:0:0:0:
320,192,107551,1,0,0:0:0:0:
448,192,107551,1,0,0:0:0:0:
320,192,107709,1,0,0:0:0:0:
320,192,107867,1,0,0:0:0:0:
64,192,108025,1,0,0:0:0:0:
192,192,108025,1,0,0:0:0:0:
448,192,108025,1,0,0:0:0:0:
192,192,108183,1,0,0:0:0:0:
64,192,108341,1,0,0:0:0:0:
320,192,108341,1,0,0:0:0:0:
448,192,108341,1,0,0:0:0:0:
192,192,108446,1,0,0:0:0:0:
320,192,108551,1,0,0:0:0:0:
64,192,108657,1,0,0:0:0:0:
192,192,108657,1,0,0:0:0:0:
448,192,108657,1,0,0:0:0:0:
192,192,108815,1,0,0:0:0:0:
192,192,108972,1,0,0:0:0:0:
64,192,109130,1,0,0:0:0:0:
320,192,109130,1,0,0:0:0:0:
448,192,109130,1,0,0:0:0:0:
320,192,109288,1,0,0:0:0:0:
320,192,109446,1,0,0:0:0:0:
448,192,109604,1,0,0:0:0:0:
320,192,109604,1,0,0:0:0:0:
192,192,109604,1,0,0:0:0:0:
192,192,109762,1,0,0:0:0:0:
192,192,109920,1,0,0:0:0:0:
64,192,110078,1,0,0:0:0:0:
192,192,110078,1,0,0:0:0:0:
320,192,110078,1,0,0:0:0:0:
320,192,110236,1,0,0:0:0:0:
320,192,110394,1,0,0:0:0:0:
64,192,110551,1,0,0:0:0:0:
192,192,110551,1,0,0:0:0:0:
448,192,110551,1,0,0:0:0:0:
192,192,110709,1,0,0:0:0:0:
64,192,110867,1,0,0:0:0:0:
448,192,110867,1,0,0:0:0:0:
320,192,110867,1,0,0:0:0:0:
320,192,111025,1,0,0:0:0:0:
64,192,111183,1,0,0:0:0:0:
320,192,111183,1,0,0:0:0:0:
448,192,111183,1,0,0:0:0:0:
192,192,111341,1,0,0:0:0:0:
192,192,111499,1,0,0:0:0:0:
64,192,111657,1,0,0:0:0:0:
192,192,111657,1,0,0:0:0:0:
448,192,111657,1,0,0:0:0:0:
320,192,111815,1,0,0:0:0:0:
320,192,111972,1,0,0:0:0:0:
192,192,112130,1,0,0:0:0:0:
320,192,112130,1,0,0:0:0:0:
448,192,112130,1,0,0:0:0:0:
64,192,112288,1,0,0:0:0:0:
64,192,112446,1,0,0:0:0:0:
64,192,112604,1,0,0:0:0:0:
192,192,112604,1,0,0:0:0:0:
320,192,112604,1,0,0:0:0:0:
448,192,112762,1,0,0:0:0:0:
448,192,112920,1,0,0:0:0:0:
64,192,113078,1,0,0:0:0:0:
320,192,113078,1,0,0:0:0:0:
448,192,113078,1,0,0:0:0:0:
192,192,113236,1,0,0:0:0:0:
64,192,113394,1,0,0:0:0:0:
448,192,113394,1,0,0:0:0:0:
320,192,113394,1,0,0:0:0:0:
192,192,113499,1,0,0:0:0:0:
448,192,113604,1,0,0:0:0:0:
320,192,113709,1,0,0:0:0:0:
64,192,113709,1,0,0:0:0:0:
192,192,113709,1,0,0:0:0:0:
320,192,113867,1,0,0:0:0:0:
192,192,114025,1,0,0:0:0:0:
64,192,114025,1,0,0:0:0:0:
320,192,114183,1,0,0:0:0:0:
448,192,114183,1,0,0:0:0:0:
192,192,114341,1,0,0:0:0:0:
64,192,114499,1,0,0:0:0:0:
192,192,114499,1,0,0:0:0:0:
320,192,114657,1,0,0:0:0:0:
448,192,114657,1,0,0:0:0:0:
320,192,114815,1,0,0:0:0:0:
192,192,114972,1,0,0:0:0:0:
64,192,115130,1,0,0:0:0:0:
192,192,115130,1,0,0:0:0:0:
320,192,115288,1,0,0:0:0:0:
448,192,115288,1,0,0:0:0:0:
192,192,115446,1,0,0:0:0:0:
64,192,115604,1,0,0:0:0:0:
192,192,115604,1,0,0:0:0:0:
448,192,115604,1,0,0:0:0:0:
320,192,115762,1,0,0:0:0:0:
64,192,115920,1,0,0:0:0:0:
448,192,115920,1,0,0:0:0:0:
192,192,115920,1,0,0:0:0:0:
320,192,116078,1,0,0:0:0:0:
448,192,116236,1,0,0:0:0:0:
192,192,116236,1,0,0:0:0:0:
320,192,116236,1,0,0:0:0:0:
64,192,116394,1,0,0:0:0:0:
64,192,116551,1,0,0:0:0:0:
192,192,116551,1,0,0:0:0:0:
320,192,116709,1,0,0:0:0:0:
448,192,116709,1,0,0:0:0:0:
320,192,116867,1,0,0:0:0:0:
64,192,117025,1,0,0:0:0:0:
192,192,117025,1,0,0:0:0:0:
320,192,117183,1,0,0:0:0:0:
448,192,117183,1,0,0:0:0:0:
320,192,117341,1,0,0:0:0:0:
192,192,117499,1,0,0:0:0:0:
64,192,117657,1,0,0:0:0:0:
192,192,117657,1,0,0:0:0:0:
320,192,117815,1,0,0:0:0:0:
448,192,117815,1,0,0:0:0:0:
64,192,117972,1,0,0:0:0:0:
64,192,118130,1,0,0:0:0:0:
320,192,118130,1,0,0:0:0:0:
448,192,118130,1,0,0:0:0:0:
192,192,118288,1,0,0:0:0:0:
64,192,118446,1,0,0:0:0:0:
448,192,118446,1,0,0:0:0:0:
192,192,118551,1,0,0:0:0:0:
448,192,118551,1,0,0:0:0:0:
64,192,118657,1,0,0:0:0:0:
320,192,118657,1,0,0:0:0:0:
192,192,118762,1,0,0:0:0:0:
320,192,118762,1,0,0:0:0:0:
64,192,118920,1,0,0:0:0:0:
192,192,119078,1,0,0:0:0:0:
320,192,119078,1,0,0:0:0:0:
64,192,119236,1,0,0:0:0:0:
448,192,119236,1,0,0:0:0:0:
320,192,119394,1,0,0:0:0:0:
192,192,119551,1,0,0:0:0:0:
320,192,119551,1,0,0:0:0:0:
64,192,119709,1,0,0:0:0:0:
448,192,119709,1,0,0:0:0:0:
64,192,119867,1,0,0:0:0:0:
448,192,119867,1,0,0:0:0:0:
192,192,120025,1,0,0:0:0:0:
192,192,120183,1,0,0:0:0:0:
320,192,120183,1,0,0:0:0:0:
64,192,120341,1,0,0:0:0:0:
448,192,120341,1,0,0:0:0:0:
320,192,120499,1,0,0:0:0:0:
64,192,120657,1,0,0:0:0:0:
192,192,120657,1,0,0:0:0:0:
448,192,120657,1,0,0:0:0:0:
192,192,120815,1,0,0:0:0:0:
64,192,120972,1,0,0:0:0:0:
320,192,120972,1,0,0:0:0:0:
448,192,120972,1,0,0:0:0:0:
192,192,121130,1,0,0:0:0:0:
64,192,121288,1,0,0:0:0:0:
192,192,121288,1,0,0:0:0:0:
320,192,121288,1,0,0:0:0:0:
448,192,121288,1,0,0:0:0:0:
192,192,121604,1,0,0:0:0:0:
320,192,121604,1,0,0:0:0:0:
64,192,121762,1,0,0:0:0:0:
192,192,121762,1,0,0:0:0:0:
320,192,121762,1,0,0:0:0:0:
448,192,121762,1,0,0:0:0:0:
64,192,122078,1,0,0:0:0:0:
192,192,122078,1,0,0:0:0:0:
320,192,122078,1,0,0:0:0:0:
448,192,122078,1,0,0:0:0:0:
64,192,122394,1,0,0:0:0:0:
192,192,122394,1,0,0:0:0:0:
320,192,122394,1,0,0:0:0:0:
448,192,122394,1,0,0:0:0:0:
64,192,122551,1,0,0:0:0:0:
192,192,122709,1,0,0:0:0:0:
448,192,122867,1,0,0:0:0:0:
320,192,122946,1,0,0:0:0:0:
448,192,123025,1,0,0:0:0:0:
192,192,123104,1,0,0:0:0:0:
64,192,123183,1,0,0:0:0:0:
320,192,123262,1,0,0:0:0:0:
192,192,123341,1,0,0:0:0:0:
448,192,123420,1,0,0:0:0:0:
192,192,123499,1,0,0:0:0:0:
448,192,123578,1,0,0:0:0:0:
320,192,123657,1,0,0:0:0:0:
448,192,123736,1,0,0:0:0:0:
64,192,123814,1,0,0:0:0:0:
192,192,123814,1,0,0:0:0:0:
320,192,123892,1,0,0:0:0:0:
448,192,123971,1,0,0:0:0:0:
320,192,124050,1,0,0:0:0:0:
64,192,124129,1,0,0:0:0:0:
192,192,124129,1,0,0:0:0:0:
320,192,124208,1,0,0:0:0:0:
192,192,124287,1,0,0:0:0:0:
448,192,124287,1,0,0:0:0:0:
320,192,124366,1,0,0:0:0:0:
64,192,124445,1,0,0:0:0:0:
192,192,124445,1,0,0:0:0:0:
320,192,124524,1,0,0:0:0:0:
448,192,124603,1,0,0:0:0:0:
64,192,124603,1,0,0:0:0:0:
320,192,124682,1,0,0:0:0:0:
192,192,124761,1,0,0:0:0:0:
448,192,124761,1,0,0:0:0:0:
320,192,124840,1,0,0:0:0:0:
448,192,124919,1,0,0:0:0:0:
64,192,124919,1,0,0:0:0:0:
192,192,124998,1,0,0:0:0:0:
64,192,125077,1,0,0:0:0:0:
320,192,125077,1,0,0:0:0:0:
192,192,125156,1,0,0:0:0:0:
64,192,125235,1,0,0:0:0:0:
320,192,125235,1,0,0:0:0:0:
192,192,125314,1,0,0:0:0:0:
320,192,125392,1,0,0:0:0:0:
448,192,125392,1,0,0:0:0:0:
192,192,125471,1,0,0:0:0:0:
448,192,125550,1,0,0:0:0:0:
320,192,125629,1,0,0:0:0:0:
64,192,125708,1,0,0:0:0:0:
448,192,125708,1,0,0:0:0:0:
192,192,125787,1,0,0:0:0:0:
320,192,125866,1,0,0:0:0:0:
448,192,125945,1,0,0:0:0:0:
64,192,126024,1,0,0:0:0:0:
192,192,126024,1,0,0:0:0:0:
320,192,126103,1,0,0:0:0:0:
192,192,126182,1,0,0:0:0:0:
448,192,126261,1,0,0:0:0:0:
192,192,126340,1,0,0:0:0:0:
320,192,126340,1,0,0:0:0:0:
448,192,126419,1,0,0:0:0:0:
64,192,126498,1,0,0:0:0:0:
320,192,126498,1,0,0:0:0:0:
192,192,126577,1,0,0:0:0:0:
320,192,126656,1,0,0:0:0:0:
448,192,126656,1,0,0:0:0:0:
192,192,126735,1,0,0:0:0:0:
64,192,126814,1,0,0:0:0:0:
320,192,126892,1,0,0:0:0:0:
192,192,126971,1,0,0:0:0:0:
448,192,126971,1,0,0:0:0:0:
320,192,127050,1,0,0:0:0:0:
64,192,127129,1,0,0:0:0:0:
320,192,127208,1,0,0:0:0:0:
448,192,127287,1,0,0:0:0:0:
64,192,127287,1,0,0:0:0:0:
192,192,127366,1,0,0:0:0:0:
320,192,127445,1,0,0:0:0:0:
64,192,127445,1,0,0:0:0:0:
192,192,127524,1,0,0:0:0:0:
64,192,127603,1,0,0:0:0:0:
448,192,127603,1,0,0:0:0:0:
320,192,127682,1,0,0:0:0:0:
64,192,127761,1,0,0:0:0:0:
192,192,127761,1,0,0:0:0:0:
320,192,127840,1,0,0:0:0:0:
64,192,127919,1,0,0:0:0:0:
448,192,127919,1,0,0:0:0:0:
192,192,127998,1,0,0:0:0:0:
320,192,128077,1,0,0:0:0:0:
448,192,128077,1,0,0:0:0:0:
192,192,128156,1,0,0:0:0:0:
64,192,128235,1,0,0:0:0:0:
320,192,128235,1,0,0:0:0:0:
192,192,128314,1,0,0:0:0:0:
64,192,128392,1,0,0:0:0:0:
448,192,128392,1,0,0:0:0:0:
320,192,128471,1,0,0:0:0:0:
64,192,128550,1,0,0:0:0:0:
192,192,128550,1,0,0:0:0:0:
320,192,128629,1,0,0:0:0:0:
448,192,128708,1,0,0:0:0:0:
192,192,128708,1,0,0:0:0:0:
64,192,128787,1,0,0:0:0:0:
320,192,128866,1,0,0:0:0:0:
192,192,128866,1,0,0:0:0:0:
448,192,128945,1,0,0:0:0:0:
320,192,129024,1,0,0:0:0:0:
64,192,129024,1,0,0:0:0:0:
192,192,129103,1,0,0:0:0:0:
64,192,129182,1,0,0:0:0:0:
320,192,129182,1,0,0:0:0:0:
192,192,129261,1,0,0:0:0:0:
448,192,129340,1,0,0:0:0:0:
320,192,129340,1,0,0:0:0:0:
64,192,129419,1,0,0:0:0:0:
320,192,129498,1,0,0:0:0:0:
192,192,129498,1,0,0:0:0:0:
448,192,129577,1,0,0:0:0:0:
64,192,129656,1,0,0:0:0:0:
320,192,129735,1,0,0:0:0:0:
192,192,129814,1,0,0:0:0:0:
64,192,129814,1,0,0:0:0:0:
448,192,129892,1,0,0:0:0:0:
320,192,129971,1,0,0:0:0:0:
192,192,129971,1,0,0:0:0:0:
64,192,130050,1,0,0:0:0:0:
320,192,130129,1,0,0:0:0:0:
448,192,130129,1,0,0:0:0:0:
64,192,130208,1,0,0:0:0:0:
192,192,130287,1,0,0:0:0:0:
448,192,130287,1,0,0:0:0:0:
64,192,130366,1,0,0:0:0:0:
320,192,130445,1,0,0:0:0:0:
192,192,130445,1,0,0:0:0:0:
448,192,130524,1,0,0:0:0:0:
320,192,130603,1,0,0:0:0:0:
192,192,130682,1,0,0:0:0:0:
320,192,130761,1,0,0:0:0:0:
64,192,130761,1,0,0:0:0:0:
192,192,130840,1,0,0:0:0:0:
320,192,130919,1,0,0:0:0:0:
448,192,130998,1,0,0:0:0:0:
320,192,131077,1,0,0:0:0:0:
64,192,131077,1,0,0:0:0:0:
192,192,131156,1,0,0:0:0:0:
448,192,131235,1,0,0:0:0:0:
320,192,131235,1,0,0:0:0:0:
192,192,131314,1,0,0:0:0:0:
448,192,131392,1,0,0:0:0:0:
64,192,131392,1,0,0:0:0:0:
320,192,131471,1,0,0:0:0:0:
448,192,131550,1,0,0:0:0:0:
64,192,131550,1,0,0:0:0:0:
192,192,131629,1,0,0:0:0:0:
320,192,131708,1,0,0:0:0:0:
448,192,131708,1,0,0:0:0:0:
192,192,131787,1,0,0:0:0:0:
320,192,131866,1,0,0:0:0:0:
192,192,131945,1,0,0:0:0:0:
320,192,132024,1,0,0:0:0:0:
64,192,132024,1,0,0:0:0:0:
192,192,132103,1,0,0:0:0:0:
64,192,132182,1,0,0:0:0:0:
192,192,132261,1,0,0:0:0:0:
64,192,132340,1,0,0:0:0:0:
448,192,132340,1,0,0:0:0:0:
320,192,132419,1,0,0:0:0:0:
192,192,132498,1,0,0:0:0:0:
448,192,132498,1,0,0:0:0:0:
320,192,132577,1,0,0:0:0:0:
192,192,132656,1,0,0:0:0:0:
64,192,132656,1,0,0:0:0:0:
320,192,132735,1,0,0:0:0:0:
192,192,132814,1,0,0:0:0:0:
448,192,132814,1,0,0:0:0:0:
320,192,132892,1,0,0:0:0:0:
64,192,132971,1,0,0:0:0:0:
448,192,132971,1,0,0:0:0:0:
192,192,133050,1,0,0:0:0:0:
320,192,133129,1,0,0:0:0:0:
448,192,133129,1,0,0:0:0:0:
64,192,133208,1,0,0:0:0:0:
320,192,133287,1,0,0:0:0:0:
192,192,133287,1,0,0:0:0:0:
448,192,133366,1,0,0:0:0:0:
64,192,133445,1,0,0:0:0:0:
320,192,133445,1,0,0:0:0:0:
192,192,133524,1,0,0:0:0:0:
64,192,133603,1,0,0:0:0:0:
448,192,133603,1,0,0:0:0:0:
320,192,133682,1,0,0:0:0:0:
64,192,133761,1,0,0:0:0:0:
192,192,133761,1,0,0:0:0:0:
320,192,133840,1,0,0:0:0:0:
192,192,133919,1,0,0:0:0:0:
448,192,133919,1,0,0:0:0:0:
320,192,133998,1,0,0:0:0:0:
64,192,134077,1,0,0:0:0:0:
448,192,134156,1,0,0:0:0:0:
192,192,134235,1,0,0:0:0:0:
320,192,134235,1,0,0:0:0:0:
448,192,134314,1,0,0:0:0:0:
320,192,134392,1,0,0:0:0:0:
64,192,134392,1,0,0:0:0:0:
192,192,134471,1,0,0:0:0:0:
64,192,134550,1,0,0:0:0:0:
448,192,134550,1,0,0:0:0:0:
320,192,134629,1,0,0:0:0:0:
192,192,134708,1,0,0:0:0:0:
64,192,134708,1,0,0:0:0:0:
320,192,134787,1,0,0:0:0:0:
448,192,134866,1,0,0:0:0:0:
192,192,134866,1,0,0:0:0:0:
64,192,134945,1,0,0:0:0:0:
320,192,135024,1,0,0:0:0:0:
448,192,135024,1,0,0:0:0:0:
192,192,135103,1,0,0:0:0:0:
64,192,135182,1,0,0:0:0:0:
448,192,135182,1,0,0:0:0:0:
320,192,135261,1,0,0:0:0:0:
192,192,135340,1,0,0:0:0:0:
64,192,135340,1,0,0:0:0:0:
448,192,135419,1,0,0:0:0:0:
320,192,135498,1,0,0:0:0:0:
192,192,135498,1,0,0:0:0:0:
64,192,135577,1,0,0:0:0:0:
320,192,135656,1,0,0:0:0:0:
192,192,135735,1,0,0:0:0:0:
320,192,135814,1,0,0:0:0:0:
448,192,135814,1,0,0:0:0:0:
64,192,135892,1,0,0:0:0:0:
192,192,135971,1,0,0:0:0:0:
448,192,136050,1,0,0:0:0:0:
320,192,136129,1,0,0:0:0:0:
64,192,136129,1,0,0:0:0:0:
192,192,136208,1,0,0:0:0:0:
64,192,136287,1,0,0:0:0:0:
320,192,136366,1,0,0:0:0:0:
192,192,136445,1,0,0:0:0:0:
448,192,136445,1,0,0:0:0:0:
320,192,136524,1,0,0:0:0:0:
448,192,136603,1,0,0:0:0:0:
64,192,136603,1,0,0:0:0:0:
192,192,136682,1,0,0:0:0:0:
320,192,136761,1,0,0:0:0:0:
64,192,136761,1,0,0:0:0:0:
192,192,136840,1,0,0:0:0:0:
320,192,136919,1,0,0:0:0:0:
64,192,136998,1,0,0:0:0:0:
320,192,137077,1,0,0:0:0:0:
448,192,137077,1,0,0:0:0:0:
192,192,137156,1,0,0:0:0:0:
320,192,137235,1,0,0:0:0:0:
192,192,137314,1,0,0:0:0:0:
320,192,137392,1,0,0:0:0:0:
64,192,137392,1,0,0:0:0:0:
448,192,137471,1,0,0:0:0:0:
192,192,137550,1,0,0:0:0:0:
320,192,137550,1,0,0:0:0:0:
64,192,137629,1,0,0:0:0:0:
192,192,137708,1,0,0:0:0:0:
448,192,137708,1,0,0:0:0:0:
320,192,137787,1,0,0:0:0:0:
64,192,137866,1,0,0:0:0:0:
448,192,137866,1,0,0:0:0:0:
192,192,137945,1,0,0:0:0:0:
64,192,138024,1,0,0:0:0:0:
320,192,138024,1,0,0:0:0:0:
192,192,138103,1,0,0:0:0:0:
64,192,138182,1,0,0:0:0:0:
448,192,138182,1,0,0:0:0:0:
320,192,138261,1,0,0:0:0:0:
64,192,138340,1,0,0:0:0:0:
448,192,138340,1,0,0:0:0:0:
192,192,138419,1,0,0:0:0:0:
64,192,138498,1,0,0:0:0:0:
448,192,138498,1,0,0:0:0:0:
320,192,138577,1,0,0:0:0:0:
64,192,138656,1,0,0:0:0:0:
192,192,138656,1,0,0:0:0:0:
320,192,138735,1,0,0:0:0:0:
448,192,138814,1,0,0:0:0:0:
192,192,138814,1,0,0:0:0:0:
320,192,138892,1,0,0:0:0:0:
192,192,138971,1,0,0:0:0:0:
320,192,139050,1,0,0:0:0:0:
192,192,139129,1,0,0:0:0:0:
320,192,139208,1,0,0:0:0:0:
192,192,139287,1,0,0:0:0:0:
320,192,139366,1,0,0:0:0:0:
192,192,139445,1,0,0:0:0:0:
320,192,139524,1,0,0:0:0:0:
192,192,139603,1,0,0:0:0:0:
320,192,139682,1,0,0:0:0:0:
192,192,139761,1,0,0:0:0:0:
320,192,139840,1,0,0:0:0:0:
192,192,139919,1,0,0:0:0:0:
320,192,139998,1,0,0:0:0:0:
192,192,140077,1,0,0:0:0:0:
320,192,140156,1,0,0:0:0:0:
192,192,140235,1,0,0:0:0:0:
64,192,140235,1,0,0:0:0:0:
320,192,140314,1,0,0:0:0:0:
192,192,140392,1,0,0:0:0:0:
64,192,140392,1,0,0:0:0:0:
320,192,140471,1,0,0:0:0:0:
192,192,140550,1,0,0:0:0:0:
64,192,140550,1,0,0:0:0:0:
320,192,140629,1,0,0:0:0:0:
192,192,140708,1,0,0:0:0:0:
64,192,140708,1,0,0:0:0:0:
320,192,140787,1,0,0:0:0:0:
64,192,140866,1,0,0:0:0:0:
192,192,140866,1,0,0:0:0:0:
320,192,140945,1,0,0:0:0:0:
64,192,141024,1,0,0:0:0:0:
192,192,141024,1,0,0:0:0:0:
320,192,141103,1,0,0:0:0:0:
64,192,141182,1,0,0:0:0:0:
192,192,141182,1,0,0:0:0:0:
320,192,141261,1,0,0:0:0:0:
64,192,141340,1,0,0:0:0:0:
192,192,141340,1,0,0:0:0:0:
320,192,141419,1,0,0:0:0:0:
192,192,141498,1,0,0:0:0:0:
64,192,141498,1,0,0:0:0:0:
320,192,141577,1,0,0:0:0:0:
448,192,141577,1,0,0:0:0:0:
192,192,141656,1,0,0:0:0:0:
64,192,141656,1,0,0:0:0:0:
320,192,141735,1,0,0:0:0:0:
448,192,141735,1,0,0:0:0:0:
192,192,141814,1,0,0:0:0:0:
64,192,141814,1,0,0:0:0:0:
320,192,141892,1,0,0:0:0:0:
448,192,141892,1,0,0:0:0:0:
192,192,141971,1,0,0:0:0:0:
64,192,141971,1,0,0:0:0:0:
320,192,142050,1,0,0:0:0:0:
448,192,142050,1,0,0:0:0:0:
64,192,142129,1,0,0:0:0:0:
192,192,142169,1,0,0:0:0:0:
320,192,142208,1,0,0:0:0:0:
448,192,142248,1,0,0:0:0:0:
64,192,142287,1,0,0:0:0:0:
192,192,142327,1,0,0:0:0:0:
320,192,142366,1,0,0:0:0:0:
448,192,142406,1,0,0:0:0:0:
64,192,142445,1,0,0:0:0:0:
192,192,142485,1,0,0:0:0:0:
320,192,142524,1,0,0:0:0:0:
448,192,142564,1,0,0:0:0:0:
64,192,142603,1,0,0:0:0:0:
192,192,142642,1,0,0:0:0:0:
320,192,142682,1,0,0:0:0:0:
448,192,142721,1,0,0:0:0:0:
64,192,142761,1,0,0:0:0:0:
192,192,142761,1,0,0:0:0:0:
320,192,142761,1,0,0:0:0:0:
320,192,142919,1,0,0:0:0:0:
448,192,142919,1,0,0:0:0:0:
64,192,143077,1,0,0:0:0:0:
192,192,143077,1,0,0:0:0:0:
448,192,143077,1,0,0:0:0:0:
192,192,143235,1,0,0:0:0:0:
320,192,143235,1,0,0:0:0:0:
64,192,143392,1,0,0:0:0:0:
320,192,143392,1,0,0:0:0:0:
448,192,143392,1,0,0:0:0:0:
64,192,143550,1,0,0:0:0:0:
192,192,143550,1,0,0:0:0:0:
192,192,143708,1,0,0:0:0:0:
320,192,143708,1,0,0:0:0:0:
448,192,143708,1,0,0:0:0:0:
448,192,143866,1,0,0:0:0:0:
64,192,143866,1,0,0:0:0:0:
64,192,144024,1,0,0:0:0:0:
192,192,144024,1,0,0:0:0:0:
320,192,144103,1,0,0:0:0:0:
448,192,144182,1,0,0:0:0:0:
320,192,144261,1,0,0:0:0:0:
64,192,144340,1,0,0:0:0:0:
448,192,144340,1,0,0:0:0:0:
192,192,144419,1,0,0:0:0:0:
64,192,144498,1,0,0:0:0:0:
320,192,144577,1,0,0:0:0:0:
192,192,144656,1,0,0:0:0:0:
448,192,144656,1,0,0:0:0:0:
320,192,144735,1,0,0:0:0:0:
64,192,144814,1,0,0:0:0:0:
192,192,144892,1,0,0:0:0:0:
320,192,144971,1,0,0:0:0:0:
448,192,144971,1,0,0:0:0:0:
192,192,145050,1,0,0:0:0:0:
64,192,145129,1,0,0:0:0:0:
448,192,145208,1,0,0:0:0:0:
192,192,145287,1,0,0:0:0:0:
320,192,145287,1,0,0:0:0:0:
64,192,145366,1,0,0:0:0:0:
448,192,145445,1,0,0:0:0:0:
320,192,145524,1,0,0:0:0:0:
64,192,145603,1,0,0:0:0:0:
192,192,145603,1,0,0:0:0:0:
448,192,145682,1,0,0:0:0:0:
320,192,145761,1,0,0:0:0:0:
448,192,145840,1,0,0:0:0:0:
64,192,145919,1,0,0:0:0:0:
320,192,145919,1,0,0:0:0:0:
192,192,145998,1,0,0:0:0:0:
320,192,146077,1,0,0:0:0:0:
192,192,146156,1,0,0:0:0:0:
64,192,146235,1,0,0:0:0:0:
448,192,146235,1,0,0:0:0:0:
320,192,146314,1,0,0:0:0:0:
192,192,146392,1,0,0:0:0:0:
64,192,146471,1,0,0:0:0:0:
320,192,146550,1,0,0:0:0:0:
448,192,146550,1,0,0:0:0:0:
192,192,146629,1,0,0:0:0:0:
320,192,146708,1,0,0:0:0:0:
64,192,146787,1,0,0:0:0:0:
192,192,146866,1,0,0:0:0:0:
448,192,146866,1,0,0:0:0:0:
64,192,146945,1,0,0:0:0:0:
320,192,147024,1,0,0:0:0:0:
192,192,147103,1,0,0:0:0:0:
64,192,147182,1,0,0:0:0:0:
448,192,147182,1,0,0:0:0:0:
320,192,147261,1,0,0:0:0:0:
64,192,147340,1,0,0:0:0:0:
192,192,147419,1,0,0:0:0:0:
64,192,147498,1,0,0:0:0:0:
320,192,147498,1,0,0:0:0:0:
192,192,147577,1,0,0:0:0:0:
64,192,147656,1,0,0:0:0:0:
192,192,147735,1,0,0:0:0:0:
320,192,147814,1,0,0:0:0:0:
448,192,147814,1,0,0:0:0:0:
192,192,147892,1,0,0:0:0:0:
448,192,147971,1,0,0:0:0:0:
320,192,148050,1,0,0:0:0:0:
64,192,148129,1,0,0:0:0:0:
192,192,148129,1,0,0:0:0:0:
320,192,148208,1,0,0:0:0:0:
192,192,148287,1,0,0:0:0:0:
448,192,148366,1,0,0:0:0:0:
64,192,148445,1,0,0:0:0:0:
320,192,148445,1,0,0:0:0:0:
192,192,148524,1,0,0:0:0:0:
64,192,148603,1,0,0:0:0:0:
448,192,148682,1,0,0:0:0:0:
192,192,148761,1,0,0:0:0:0:
320,192,148761,1,0,0:0:0:0:
64,192,148840,1,0,0:0:0:0:
320,192,148919,1,0,0:0:0:0:
64,192,148998,1,0,0:0:0:0:
192,192,149077,1,0,0:0:0:0:
448,192,149077,1,0,0:0:0:0:
320,192,149156,1,0,0:0:0:0:
64,192,149235,1,0,0:0:0:0:
448,192,149235,1,0,0:0:0:0:
320,192,149314,1,0,0:0:0:0:
64,192,149392,1,0,0:0:0:0:
448,192,149392,1,0,0:0:0:0:
192,192,149471,1,0,0:0:0:0:
64,192,149550,1,0,0:0:0:0:
320,192,149550,1,0,0:0:0:0:
192,192,149629,1,0,0:0:0:0:
64,192,149708,1,0,0:0:0:0:
448,192,149708,1,0,0:0:0:0:
320,192,149787,1,0,0:0:0:0:
64,192,149866,1,0,0:0:0:0:
448,192,149866,1,0,0:0:0:0:
192,192,149945,1,0,0:0:0:0:
64,192,150024,1,0,0:0:0:0:
448,192,150024,1,0,0:0:0:0:
320,192,150103,1,0,0:0:0:0:
64,192,150182,1,0,0:0:0:0:
448,192,150182,1,0,0:0:0:0:
192,192,150261,1,0,0:0:0:0:
448,192,150340,1,0,0:0:0:0:
320,192,150419,1,0,0:0:0:0:
64,192,150498,1,0,0:0:0:0:
448,192,150498,1,0,0:0:0:0:
320,192,150577,1,0,0:0:0:0:
64,192,150656,1,0,0:0:0:0:
448,192,150656,1,0,0:0:0:0:
192,192,150735,1,0,0:0:0:0:
64,192,150814,1,0,0:0:0:0:
448,192,150814,1,0,0:0:0:0:
192,192,150892,1,0,0:0:0:0:
64,192,150971,1,0,0:0:0:0:
320,192,150971,1,0,0:0:0:0:
192,192,151050,1,0,0:0:0:0:
64,192,151129,1,0,0:0:0:0:
448,192,151129,1,0,0:0:0:0:
320,192,151208,1,0,0:0:0:0:
192,192,151287,1,0,0:0:0:0:
448,192,151287,1,0,0:0:0:0:
320,192,151366,1,0,0:0:0:0:
64,192,151445,1,0,0:0:0:0:
448,192,151445,1,0,0:0:0:0:
192,192,151524,1,0,0:0:0:0:
64,192,151603,1,0,0:0:0:0:
448,192,151603,1,0,0:0:0:0:
320,192,151682,1,0,0:0:0:0:
64,192,151761,1,0,0:0:0:0:
448,192,151761,1,0,0:0:0:0:
192,192,151840,1,0,0:0:0:0:
64,192,151919,1,0,0:0:0:0:
448,192,151919,1,0,0:0:0:0:
320,192,151998,1,0,0:0:0:0:
64,192,152077,1,0,0:0:0:0:
448,192,152077,1,0,0:0:0:0:
192,192,152156,1,0,0:0:0:0:
64,192,152235,1,0,0:0:0:0:
448,192,152235,1,0,0:0:0:0:
192,192,152314,1,0,0:0:0:0:
64,192,152392,1,0,0:0:0:0:
448,192,152392,1,0,0:0:0:0:
320,192,152471,1,0,0:0:0:0:
64,192,152550,1,0,0:0:0:0:
448,192,152550,1,0,0:0:0:0:
320,192,152629,1,0,0:0:0:0:
64,192,152708,1,0,0:0:0:0:
448,192,152708,1,0,0:0:0:0:
192,192,152787,1,0,0:0:0:0:
64,192,152866,1,0,0:0:0:0:
320,192,152945,1,0,0:0:0:0:
64,192,153024,1,0,0:0:0:0:
448,192,153024,1,0,0:0:0:0:
192,192,153103,1,0,0:0:0:0:
64,192,153182,1,0,0:0:0:0:
320,192,153182,1,0,0:0:0:0:
192,192,153261,1,0,0:0:0:0:
64,192,153340,1,0,0:0:0:0:
448,192,153340,1,0,0:0:0:0:
320,192,153419,1,0,0:0:0:0:
448,192,153498,1,0,0:0:0:0:
192,192,153498,1,0,0:0:0:0:
320,192,153577,1,0,0:0:0:0:
64,192,153656,1,0,0:0:0:0:
448,192,153656,1,0,0:0:0:0:
192,192,153735,1,0,0:0:0:0:
64,192,153814,1,0,0:0:0:0:
320,192,153814,1,0,0:0:0:0:
448,192,153892,1,0,0:0:0:0:
64,192,153971,1,0,0:0:0:0:
320,192,153971,1,0,0:0:0:0:
192,192,154050,1,0,0:0:0:0:
64,192,154129,128,0,154445:0:0:0:0:
192,192,154208,1,0,0:0:0:0:
320,192,154287,1,0,0:0:0:0:
448,192,154366,1,0,0:0:0:0:
192,192,154445,1,0,0:0:0:0:
64,192,154603,128,0,154919:0:0:0:0:
320,192,154682,1,0,0:0:0:0:
448,192,154761,1,0,0:0:0:0:
192,192,154840,1,0,0:0:0:0:
320,192,154919,1,0,0:0:0:0:
64,192,155077,128,0,155392:0:0:0:0:
448,192,155156,1,0,0:0:0:0:
192,192,155235,1,0,0:0:0:0:
320,192,155314,1,0,0:0:0:0:
448,192,155392,1,0,0:0:0:0:
64,192,155550,128,0,155866:0:0:0:0:
320,192,155629,1,0,0:0:0:0:
448,192,155708,1,0,0:0:0:0:
192,192,155787,1,0,0:0:0:0:
320,192,155866,1,0,0:0:0:0:
64,192,156024,128,0,156182:0:0:0:0:
320,192,156024,1,0,0:0:0:0:
448,192,156103,1,0,0:0:0:0:
320,192,156182,1,0,0:0:0:0:
448,192,156261,1,0,0:0:0:0:
64,192,156340,128,0,156498:0:0:0:0:
320,192,156340,1,0,0:0:0:0:
448,192,156419,1,0,0:0:0:0:
320,192,156498,1,0,0:0:0:0:
192,192,156577,1,0,0:0:0:0:
448,192,156656,128,0,156971:0:0:0:0:
320,192,156735,1,0,0:0:0:0:
192,192,156814,1,0,0:0:0:0:
64,192,156892,1,0,0:0:0:0:
320,192,156971,1,0,0:0:0:0:
448,192,157129,128,0,157445:0:0:0:0:
192,192,157208,1,0,0:0:0:0:
64,192,157287,1,0,0:0:0:0:
320,192,157366,1,0,0:0:0:0:
192,192,157445,1,0,0:0:0:0:
448,192,157603,128,0,157919:0:0:0:0:
64,192,157682,1,0,0:0:0:0:
320,192,157761,1,0,0:0:0:0:
192,192,157840,1,0,0:0:0:0:
64,192,157919,1,0,0:0:0:0:
448,192,158077,128,0,158392:0:0:0:0:
192,192,158156,1,0,0:0:0:0:
64,192,158235,1,0,0:0:0:0:
320,192,158314,1,0,0:0:0:0:
192,192,158392,1,0,0:0:0:0:
448,192,158550,128,0,158708:0:0:0:0:
192,192,158550,1,0,0:0:0:0:
64,192,158629,1,0,0:0:0:0:
192,192,158708,1,0,0:0:0:0:
64,192,158787,1,0,0:0:0:0:
448,192,158866,128,0,159024:0:0:0:0:
192,192,158866,1,0,0:0:0:0:
64,192,158945,1,0,0:0:0:0:
192,192,159024,1,0,0:0:0:0:
320,192,159103,1,0,0:0:0:0:
64,192,159182,1,0,0:0:0:0:
192,192,159182,1,0,0:0:0:0:
448,192,159182,1,0,0:0:0:0:
64,192,159340,1,0,0:0:0:0:
320,192,159340,1,0,0:0:0:0:
448,192,159340,1,0,0:0:0:0:
64,192,159498,1,0,0:0:0:0:
192,192,159498,1,0,0:0:0:0:
448,192,159498,1,0,0:0:0:0:
192,192,159656,1,0,0:0:0:0:
320,192,159656,1,0,0:0:0:0:
448,192,159656,1,0,0:0:0:0:
64,192,159814,1,0,0:0:0:0:
320,192,159814,1,0,0:0:0:0:
448,192,159814,1,0,0:0:0:0:
64,192,159971,1,0,0:0:0:0:
192,192,159971,1,0,0:0:0:0:
448,192,159971,1,0,0:0:0:0:
64,192,160129,1,0,0:0:0:0:
192,192,160129,1,0,0:0:0:0:
320,192,160129,1,0,0:0:0:0:
64,192,160287,1,0,0:0:0:0:
192,192,160307,1,0,0:0:0:0:
320,192,160327,1,0,0:0:0:0:
448,192,160346,1,0,0:0:0:0:
64,192,160366,1,0,0:0:0:0:
192,192,160386,1,0,0:0:0:0:
320,192,160406,1,0,0:0:0:0:
448,192,160425,1,0,0:0:0:0:
64,192,160445,1,0,0:0:0:0:
192,192,160445,1,0,0:0:0:0:
64,192,160603,1,0,0:0:0:0:
320,192,160603,1,0,0:0:0:0:
448,192,160603,1,0,0:0:0:0:
64,192,160761,1,0,0:0:0:0:
192,192,160761,1,0,0:0:0:0:
448,192,160761,1,0,0:0:0:0:
192,192,160919,1,0,0:0:0:0:
320,192,160919,1,0,0:0:0:0:
448,192,160919,1,0,0:0:0:0:
64,192,161077,1,0,0:0:0:0:
320,192,161077,1,0,0:0:0:0:
448,192,161077,1,0,0:0:0:0:
64,192,161235,1,0,0:0:0:0:
192,192,161254,1,0,0:0:0:0:
320,192,161274,1,0,0:0:0:0:
448,192,161294,1,0,0:0:0:0:
64,192,161314,1,0,0:0:0:0:
192,192,161333,1,0,0:0:0:0:
320,192,161353,1,0,0:0:0:0:
448,192,161373,1,0,0:0:0:0:
64,192,161392,1,0,0:0:0:0:
192,192,161392,1,0,0:0:0:0:
64,192,161550,1,0,0:0:0:0:
192,192,161570,1,0,0:0:0:0:
320,192,161590,1,0,0:0:0:0:
448,192,161610,1,0,0:0:0:0:
64,192,161629,1,0,0:0:0:0:
192,192,161649,1,0,0:0:0:0:
320,192,161669,1,0,0:0:0:0:
448,192,161689,1,0,0:0:0:0:
64,192,161708,1,0,0:0:0:0:
192,192,161708,1,0,0:0:0:0:
64,192,161866,1,0,0:0:0:0:
448,192,161866,1,0,0:0:0:0:
192,192,161866,1,0,0:0:0:0:
448,192,162024,1,0,0:0:0:0:
64,192,162024,1,0,0:0:0:0:
320,192,162024,1,0,0:0:0:0:
192,192,162182,1,0,0:0:0:0:
320,192,162182,1,0,0:0:0:0:
448,192,162182,1,0,0:0:0:0:
64,192,162340,1,0,0:0:0:0:
192,192,162340,1,0,0:0:0:0:
320,192,162419,1,0,0:0:0:0:
448,192,162419,1,0,0:0:0:0:
64,192,162498,1,0,0:0:0:0:
192,192,162498,1,0,0:0:0:0:
320,192,162577,1,0,0:0:0:0:
448,192,162577,1,0,0:0:0:0:
64,192,162656,1,0,0:0:0:0:
192,192,162656,1,0,0:0:0:0:
320,192,162735,1,0,0:0:0:0:
448,192,162735,1,0,0:0:0:0:
64,192,162814,1,0,0:0:0:0:
192,192,162814,1,0,0:0:0:0:
320,192,162892,1,0,0:0:0:0:
448,192,162892,1,0,0:0:0:0:
64,192,162971,1,0,0:0:0:0:
192,192,162971,1,0,0:0:0:0:
448,192,163287,1,0,0:0:0:0:
320,192,163327,1,0,0:0:0:0:
64,192,163366,1,0,0:0:0:0:
192,192,163406,1,0,0:0:0:0:
448,192,163445,1,0,0:0:0:0:
320,192,163485,1,0,0:0:0:0:
64,192,163524,1,0,0:0:0:0:
192,192,163564,1,0,0:0:0:0:
320,192,163603,1,0,0:0:0:0:
448,192,163642,1,0,0:0:0:0:
192,192,163682,1,0,0:0:0:0:
64,192,163721,1,0,0:0:0:0:
320,192,163761,1,0,0:0:0:0:
448,192,163800,1,0,0:0:0:0:
192,192,163840,1,0,0:0:0:0:
64,192,163879,1,0,0:0:0:0:
320,192,163919,1,0,0:0:0:0:
192,192,163958,1,0,0:0:0:0:
448,192,163998,1,0,0:0:0:0:
64,192,164037,1,0,0:0:0:0:
320,192,164077,1,0,0:0:0:0:
192,192,164116,1,0,0:0:0:0:
448,192,164156,1,0,0:0:0:0:
64,192,164195,1,0,0:0:0:0:
448,192,164235,1,0,0:0:0:0:
320,192,164235,1,0,0:0:0:0:
64,192,164392,1,0,0:0:0:0:
192,192,164392,1,0,0:0:0:0:
64,192,164550,1,0,0:0:0:0:
320,192,164550,1,0,0:0:0:0:
448,192,164708,1,0,0:0:0:0:
320,192,164708,1,0,0:0:0:0:
448,192,165024,1,0,0:0:0:0:
192,192,165024,1,0,0:0:0:0:
64,192,165340,1,0,0:0:0:0:
448,192,165340,1,0,0:0:0:0:
64,192,165656,1,0,0:0:0:0:
320,192,165656,1,0,0:0:0:0:
320,192,165813,1,0,0:0:0:0:
192,192,165813,1,0,0:0:0:0:
320,192,166129,1,0,0:0:0:0:
448,192,166129,1,0,0:0:0:0:
448,192,166445,1,0,0:0:0:0:
192,192,166445,1,0,0:0:0:0:
320,192,166919,1,0,0:0:0:0:
448,192,166919,1,0,0:0:0:0:
64,192,167077,1,0,0:0:0:0:
320,192,167077,1,0,0:0:0:0:
192,192,167392,1,0,0:0:0:0:
320,192,167392,1,0,0:0:0:0:
64,192,167708,1,0,0:0:0:0:
320,192,167708,1,0,0:0:0:0:
192,192,167866,1,0,0:0:0:0:
448,192,167866,1,0,0:0:0:0:
64,192,168024,1,0,0:0:0:0:
192,192,168024,1,0,0:0:0:0:
448,192,168182,1,0,0:0:0:0:
192,192,168182,1,0,0:0:0:0:
64,192,168340,1,0,0:0:0:0:
320,192,168340,1,0,0:0:0:0:
192,192,168498,1,0,0:0:0:0:
448,192,168498,1,0,0:0:0:0:
320,192,168656,1,0,0:0:0:0:
448,192,168656,1,0,0:0:0:0:
64,192,168971,1,0,0:0:0:0:
320,192,168971,1,0,0:0:0:0:
192,192,169129,1,0,0:0:0:0:
320,192,169129,1,0,0:0:0:0:
448,192,169287,128,0,171340:0:0:0:0:
320,192,169445,1,0,0:0:0:0:
192,192,169603,1,0,0:0:0:0:
320,192,169919,1,0,0:0:0:0:
192,192,170235,1,0,0:0:0:0:
320,192,170392,1,0,0:0:0:0:
64,192,170708,1,0,0:0:0:0:
192,192,170866,1,0,0:0:0:0:
192,192,171182,1,0,0:0:0:0:
320,192,171340,128,0,171813:0:0:0:0:
64,192,171498,1,0,0:0:0:0:
192,192,171656,1,0,0:0:0:0:
448,192,171813,128,0,173077:0:0:0:0:
320,192,171971,1,0,0:0:0:0:
192,192,172129,1,0,0:0:0:0:
320,192,172445,1,0,0:0:0:0:
64,192,172761,1,0,0:0:0:0:
192,192,172919,1,0,0:0:0:0:
64,192,173077,128,0,173708:0:0:0:0:
192,192,173235,1,0,0:0:0:0:
448,192,173313,1,0,0:0:0:0:
320,192,173392,1,0,0:0:0:0:
192,192,173550,1,0,0:0:0:0:
320,192,173708,128,0,174103:0:0:0:0:
192,192,173866,1,0,0:0:0:0:
448,192,174024,1,0,0:0:0:0:
64,192,174103,128,0,174340:0:0:0:0:
192,192,174182,1,0,0:0:0:0:
448,192,174340,128,0,176866:0:0:0:0:
320,192,174340,1,0,0:0:0:0:
64,192,174498,1,0,0:0:0:0:
192,192,174656,1,0,0:0:0:0:
320,192,174813,1,0,0:0:0:0:
64,192,174971,1,0,0:0:0:0:
192,192,175129,1,0,0:0:0:0:
64,192,175287,1,0,0:0:0:0:
320,192,175445,1,0,0:0:0:0:
192,192,175603,1,0,0:0:0:0:
320,192,175761,1,0,0:0:0:0:
64,192,175919,1,0,0:0:0:0:
192,192,176077,1,0,0:0:0:0:
320,192,176235,1,0,0:0:0:0:
64,192,176392,1,0,0:0:0:0:
192,192,176550,1,0,0:0:0:0:
320,192,176708,1,0,0:0:0:0:
64,192,176866,1,0,0:0:0:0:
448,192,177024,1,0,0:0:0:0:
320,192,177182,1,0,0:0:0:0:
64,192,177340,1,0,0:0:0:0:
448,192,177498,1,0,0:0:0:0:
64,192,177656,1,0,0:0:0:0:
320,192,177656,1,0,0:0:0:0:
192,192,177813,1,0,0:0:0:0:
320,192,177813,1,0,0:0:0:0:
192,192,177971,1,0,0:0:0:0:
448,192,177971,1,0,0:0:0:0:
64,192,178129,1,0,0:0:0:0:
320,192,178129,1,0,0:0:0:0:
192,192,178287,1,0,0:0:0:0:
320,192,178287,1,0,0:0:0:0:
320,192,178445,1,0,0:0:0:0:
448,192,178445,1,0,0:0:0:0:
64,192,178603,1,0,0:0:0:0:
192,192,178603,1,0,0:0:0:0:
448,192,178761,1,0,0:0:0:0:
192,192,178761,1,0,0:0:0:0:
64,192,178919,1,0,0:0:0:0:
192,192,178919,1,0,0:0:0:0:
320,192,179077,1,0,0:0:0:0:
448,192,179235,1,0,0:0:0:0:
64,192,179392,1,0,0:0:0:0:
448,192,179550,1,0,0:0:0:0:
320,192,179708,1,0,0:0:0:0:
64,192,179866,1,0,0:0:0:0:
448,192,180024,1,0,0:0:0:0:
64,192,180182,1,0,0:0:0:0:
192,192,180340,1,0,0:0:0:0:
320,192,180498,1,0,0:0:0:0:
192,192,180656,1,0,0:0:0:0:
320,192,180813,1,0,0:0:0:0:
448,192,180971,1,0,0:0:0:0:
64,192,181129,1,0,0:0:0:0:
320,192,181287,1,0,0:0:0:0:
64,192,181445,1,0,0:0:0:0:
192,192,181603,1,0,0:0:0:0:
320,192,181761,1,0,0:0:0:0:
64,192,181919,1,0,0:0:0:0:
448,192,182077,1,0,0:0:0:0:
192,192,182077,1,0,0:0:0:0:
192,192,182235,1,0,0:0:0:0:
320,192,182235,1,0,0:0:0:0:
64,192,182392,1,0,0:0:0:0:
192,192,182550,1,0,0:0:0:0:
448,192,182550,1,0,0:0:0:0:
64,192,182708,1,0,0:0:0:0:
192,192,182866,1,0,0:0:0:0:
320,192,182866,1,0,0:0:0:0:
192,192,183024,1,0,0:0:0:0:
448,192,183024,1,0,0:0:0:0:
64,192,183182,128,0,183340:0:0:0:0:
192,192,183340,128,0,183498:0:0:0:0:
448,192,183498,128,0,183656:0:0:0:0:
64,192,183656,128,0,183813:0:0:0:0:
320,192,183813,128,0,183971:0:0:0:0:
64,192,183971,128,0,184129:0:0:0:0:
192,192,184129,128,0,184287:0:0:0:0:
320,192,184287,128,0,184445:0:0:0:0:
64,192,184445,1,0,0:0:0:0:
192,192,184445,1,0,0:0:0:0:
448,192,184523,1,0,0:0:0:0:
64,192,184602,1,0,0:0:0:0:
192,192,184681,1,0,0:0:0:0:
448,192,184760,1,0,0:0:0:0:
64,192,184760,1,0,0:0:0:0:
320,192,184839,1,0,0:0:0:0:
64,192,184918,1,0,0:0:0:0:
192,192,184918,1,0,0:0:0:0:
448,192,184997,1,0,0:0:0:0:
320,192,185076,1,0,0:0:0:0:
64,192,185155,1,0,0:0:0:0:
192,192,185234,1,0,0:0:0:0:
448,192,185234,1,0,0:0:0:0:
320,192,185313,1,0,0:0:0:0:
192,192,185392,1,0,0:0:0:0:
448,192,185471,1,0,0:0:0:0:
192,192,185550,1,0,0:0:0:0:
64,192,185550,1,0,0:0:0:0:
320,192,185629,1,0,0:0:0:0:
64,192,185708,1,0,0:0:0:0:
448,192,185787,1,0,0:0:0:0:
192,192,185866,1,0,0:0:0:0:
64,192,185866,1,0,0:0:0:0:
320,192,185945,1,0,0:0:0:0:
192,192,186023,1,0,0:0:0:0:
448,192,186023,1,0,0:0:0:0:
320,192,186102,1,0,0:0:0:0:
64,192,186181,1,0,0:0:0:0:
320,192,186260,1,0,0:0:0:0:
192,192,186339,1,0,0:0:0:0:
448,192,186339,1,0,0:0:0:0:
320,192,186418,1,0,0:0:0:0:
192,192,186497,1,0,0:0:0:0:
64,192,186576,1,0,0:0:0:0:
192,192,186655,1,0,0:0:0:0:
320,192,186655,1,0,0:0:0:0:
448,192,186734,1,0,0:0:0:0:
64,192,186813,1,0,0:0:0:0:
192,192,186892,1,0,0:0:0:0:
448,192,186971,1,0,0:0:0:0:
192,192,187050,1,0,0:0:0:0:
320,192,187129,1,0,0:0:0:0:
64,192,187129,1,0,0:0:0:0:
448,192,187208,1,0,0:0:0:0:
192,192,187287,1,0,0:0:0:0:
320,192,187287,1,0,0:0:0:0:
64,192,187366,1,0,0:0:0:0:
320,192,187445,1,0,0:0:0:0:
64,192,187523,1,0,0:0:0:0:
192,192,187602,1,0,0:0:0:0:
448,192,187602,1,0,0:0:0:0:
320,192,187681,1,0,0:0:0:0:
192,192,187760,1,0,0:0:0:0:
320,192,187839,1,0,0:0:0:0:
64,192,187918,1,0,0:0:0:0:
192,192,187918,1,0,0:0:0:0:
320,192,187997,1,0,0:0:0:0:
192,192,188076,1,0,0:0:0:0:
448,192,188076,1,0,0:0:0:0:
320,192,188155,1,0,0:0:0:0:
64,192,188234,1,0,0:0:0:0:
448,192,188234,1,0,0:0:0:0:
320,192,188313,1,0,0:0:0:0:
192,192,188392,1,0,0:0:0:0:
64,192,188392,1,0,0:0:0:0:
448,192,188471,1,0,0:0:0:0:
192,192,188550,1,0,0:0:0:0:
320,192,188550,1,0,0:0:0:0:
64,192,188629,1,0,0:0:0:0:
192,192,188708,1,0,0:0:0:0:
448,192,188708,1,0,0:0:0:0:
320,192,188787,1,0,0:0:0:0:
448,192,188866,1,0,0:0:0:0:
192,192,188866,1,0,0:0:0:0:
320,192,188945,1,0,0:0:0:0:
64,192,189023,1,0,0:0:0:0:
320,192,189102,1,0,0:0:0:0:
192,192,189181,1,0,0:0:0:0:
64,192,189181,1,0,0:0:0:0:
448,192,189260,1,0,0:0:0:0:
320,192,189339,1,0,0:0:0:0:
192,192,189339,1,0,0:0:0:0:
64,192,189418,1,0,0:0:0:0:
448,192,189497,1,0,0:0:0:0:
64,192,189576,1,0,0:0:0:0:
192,192,189655,1,0,0:0:0:0:
448,192,189655,1,0,0:0:0:0:
320,192,189734,1,0,0:0:0:0:
64,192,189813,1,0,0:0:0:0:
192,192,189813,1,0,0:0:0:0:
320,192,189892,1,0,0:0:0:0:
448,192,189971,1,0,0:0:0:0:
64,192,190050,1,0,0:0:0:0:
320,192,190129,1,0,0:0:0:0:
448,192,190129,1,0,0:0:0:0:
192,192,190208,1,0,0:0:0:0:
320,192,190287,1,0,0:0:0:0:
64,192,190366,1,0,0:0:0:0:
192,192,190445,1,0,0:0:0:0:
448,192,190445,1,0,0:0:0:0:
320,192,190523,1,0,0:0:0:0:
64,192,190602,1,0,0:0:0:0:
192,192,190602,1,0,0:0:0:0:
320,192,190681,1,0,0:0:0:0:
448,192,190760,1,0,0:0:0:0:
64,192,190839,1,0,0:0:0:0:
192,192,190918,1,0,0:0:0:0:
320,192,190918,1,0,0:0:0:0:
448,192,190997,1,0,0:0:0:0:
320,192,191076,1,0,0:0:0:0:
64,192,191076,1,0,0:0:0:0:
192,192,191155,1,0,0:0:0:0:
64,192,191234,1,0,0:0:0:0:
448,192,191313,1,0,0:0:0:0:
320,192,191392,1,0,0:0:0:0:
192,192,191392,1,0,0:0:0:0:
448,192,191471,1,0,0:0:0:0:
64,192,191550,1,0,0:0:0:0:
320,192,191629,1,0,0:0:0:0:
448,192,191708,1,0,0:0:0:0:
192,192,191708,1,0,0:0:0:0:
64,192,191787,1,0,0:0:0:0:
448,192,191866,1,0,0:0:0:0:
320,192,191866,1,0,0:0:0:0:
192,192,191945,1,0,0:0:0:0:
64,192,192023,1,0,0:0:0:0:
448,192,192102,1,0,0:0:0:0:
320,192,192181,1,0,0:0:0:0:
64,192,192181,1,0,0:0:0:0:
448,192,192260,1,0,0:0:0:0:
192,192,192339,1,0,0:0:0:0:
320,192,192339,1,0,0:0:0:0:
64,192,192418,1,0,0:0:0:0:
448,192,192497,1,0,0:0:0:0:
192,192,192576,1,0,0:0:0:0:
320,192,192655,1,0,0:0:0:0:
64,192,192655,1,0,0:0:0:0:
192,192,192734,1,0,0:0:0:0:
64,192,192813,1,0,0:0:0:0:
192,192,192892,1,0,0:0:0:0:
320,192,192971,1,0,0:0:0:0:
448,192,192971,1,0,0:0:0:0:
64,192,193050,1,0,0:0:0:0:
192,192,193129,1,0,0:0:0:0:
320,192,193129,1,0,0:0:0:0:
64,192,193208,1,0,0:0:0:0:
448,192,193287,1,0,0:0:0:0:
192,192,193287,1,0,0:0:0:0:
320,192,193366,1,0,0:0:0:0:
64,192,193445,1,0,0:0:0:0:
448,192,193445,1,0,0:0:0:0:
192,192,193523,1,0,0:0:0:0:
64,192,193602,1,0,0:0:0:0:
320,192,193602,1,0,0:0:0:0:
192,192,193681,1,0,0:0:0:0:
64,192,193760,1,0,0:0:0:0:
448,192,193760,1,0,0:0:0:0:
320,192,193839,1,0,0:0:0:0:
192,192,193918,1,0,0:0:0:0:
448,192,193918,1,0,0:0:0:0:
320,192,193997,1,0,0:0:0:0:
64,192,194076,1,0,0:0:0:0:
448,192,194076,1,0,0:0:0:0:
192,192,194155,1,0,0:0:0:0:
64,192,194234,1,0,0:0:0:0:
320,192,194234,1,0,0:0:0:0:
192,192,194313,1,0,0:0:0:0:
64,192,194392,1,0,0:0:0:0:
448,192,194392,1,0,0:0:0:0:
192,192,194471,1,0,0:0:0:0:
320,192,194550,1,0,0:0:0:0:
448,192,194550,1,0,0:0:0:0:
64,192,194629,1,0,0:0:0:0:
448,192,194708,1,0,0:0:0:0:
64,192,194787,1,0,0:0:0:0:
192,192,194866,1,0,0:0:0:0:
320,192,194866,1,0,0:0:0:0:
448,192,194945,1,0,0:0:0:0:
320,192,195023,1,0,0:0:0:0:
64,192,195023,1,0,0:0:0:0:
192,192,195102,1,0,0:0:0:0:
320,192,195181,1,0,0:0:0:0:
448,192,195260,1,0,0:0:0:0:
192,192,195339,1,0,0:0:0:0:
320,192,195339,1,0,0:0:0:0:
64,192,195418,1,0,0:0:0:0:
448,192,195497,1,0,0:0:0:0:
64,192,195576,1,0,0:0:0:0:
192,192,195655,1,0,0:0:0:0:
448,192,195655,1,0,0:0:0:0:
320,192,195734,1,0,0:0:0:0:
192,192,195813,1,0,0:0:0:0:
320,192,195892,1,0,0:0:0:0:
64,192,195971,1,0,0:0:0:0:
192,192,195971,1,0,0:0:0:0:
320,192,196050,1,0,0:0:0:0:
192,192,196129,1,0,0:0:0:0:
448,192,196129,1,0,0:0:0:0:
320,192,196208,1,0,0:0:0:0:
64,192,196287,1,0,0:0:0:0:
192,192,196366,1,0,0:0:0:0:
320,192,196445,1,0,0:0:0:0:
64,192,196445,1,0,0:0:0:0:
192,192,196523,1,0,0:0:0:0:
448,192,196602,1,0,0:0:0:0:
320,192,196681,1,0,0:0:0:0:
192,192,196760,1,0,0:0:0:0:
64,192,196760,1,0,0:0:0:0:
320,192,196839,1,0,0:0:0:0:
448,192,196918,1,0,0:0:0:0:
192,192,196997,1,0,0:0:0:0:
320,192,197076,1,0,0:0:0:0:
64,192,197155,1,0,0:0:0:0:
448,192,197234,1,0,0:0:0:0:
192,192,197234,1,0,0:0:0:0:
320,192,197313,1,0,0:0:0:0:
64,192,197392,1,0,0:0:0:0:
192,192,197392,1,0,0:0:0:0:
448,192,197471,1,0,0:0:0:0:
320,192,197550,1,0,0:0:0:0:
64,192,197629,1,0,0:0:0:0:
192,192,197708,1,0,0:0:0:0:
448,192,197708,1,0,0:0:0:0:
320,192,197787,1,0,0:0:0:0:
64,192,197866,1,0,0:0:0:0:
192,192,197945,1,0,0:0:0:0:
448,192,198023,1,0,0:0:0:0:
64,192,198023,1,0,0:0:0:0:
192,192,198102,1,0,0:0:0:0:
448,192,198181,1,0,0:0:0:0:
320,192,198181,1,0,0:0:0:0:
192,192,198260,1,0,0:0:0:0:
64,192,198339,1,0,0:0:0:0:
320,192,198339,1,0,0:0:0:0:
448,192,198418,1,0,0:0:0:0:
192,192,198497,1,0,0:0:0:0:
320,192,198497,1,0,0:0:0:0:
64,192,198576,1,0,0:0:0:0:
320,192,198655,1,0,0:0:0:0:
448,192,198655,1,0,0:0:0:0:
192,192,198734,1,0,0:0:0:0:
64,192,198813,1,0,0:0:0:0:
448,192,198813,1,0,0:0:0:0:
320,192,198892,1,0,0:0:0:0:
448,192,198971,1,0,0:0:0:0:
192,192,198971,1,0,0:0:0:0:
320,192,199050,1,0,0:0:0:0:
64,192,199129,1,0,0:0:0:0:
192,192,199129,1,0,0:0:0:0:
448,192,199208,1,0,0:0:0:0:
320,192,199287,1,0,0:0:0:0:
192,192,199287,1,0,0:0:0:0:
64,192,199366,1,0,0:0:0:0:
320,192,199445,1,0,0:0:0:0:
448,192,199445,1,0,0:0:0:0:
192,192,199523,1,0,0:0:0:0:
64,192,199602,1,0,0:0:0:0:
448,192,199681,1,0,0:0:0:0:
320,192,199760,1,0,0:0:0:0:
192,192,199760,1,0,0:0:0:0:
448,192,199839,1,0,0:0:0:0:
320,192,199918,1,0,0:0:0:0:
64,192,199918,1,0,0:0:0:0:
192,192,199997,1,0,0:0:0:0:
64,192,200076,1,0,0:0:0:0:
448,192,200155,1,0,0:0:0:0:
320,192,200234,1,0,0:0:0:0:
192,192,200234,1,0,0:0:0:0:
64,192,200313,1,0,0:0:0:0:
320,192,200392,1,0,0:0:0:0:
64,192,200471,1,0,0:0:0:0:
192,192,200550,1,0,0:0:0:0:
448,192,200550,1,0,0:0:0:0:
64,192,200629,1,0,0:0:0:0:
448,192,200708,1,0,0:0:0:0:
320,192,200708,1,0,0:0:0:0:
192,192,200787,1,0,0:0:0:0:
64,192,200866,1,0,0:0:0:0:
320,192,200945,1,0,0:0:0:0:
192,192,201023,1,0,0:0:0:0:
448,192,201023,1,0,0:0:0:0:
64,192,201102,1,0,0:0:0:0:
320,192,201181,1,0,0:0:0:0:
192,192,201181,1,0,0:0:0:0:
448,192,201260,1,0,0:0:0:0:
320,192,201339,1,0,0:0:0:0:
192,192,201418,1,0,0:0:0:0:
320,192,201497,1,0,0:0:0:0:
448,192,201497,1,0,0:0:0:0:
64,192,201576,1,0,0:0:0:0:
192,192,201655,1,0,0:0:0:0:
448,192,201734,1,0,0:0:0:0:
320,192,201813,1,0,0:0:0:0:
64,192,201813,1,0,0:0:0:0:
192,192,201892,1,0,0:0:0:0:
448,192,201971,1,0,0:0:0:0:
64,192,201971,1,0,0:0:0:0:
320,192,202050,1,0,0:0:0:0:
64,192,202129,1,0,0:0:0:0:
192,192,202129,1,0,0:0:0:0:
320,192,202208,1,0,0:0:0:0:
448,192,202208,1,0,0:0:0:0:
64,192,202287,1,0,0:0:0:0:
192,192,202287,1,0,0:0:0:0:
320,192,202366,1,0,0:0:0:0:
448,192,202366,1,0,0:0:0:0:
64,192,202445,1,0,0:0:0:0:
192,192,202445,1,0,0:0:0:0:
320,192,202523,1,0,0:0:0:0:
448,192,202523,1,0,0:0:0:0:
64,192,202602,1,0,0:0:0:0:
192,192,202602,1,0,0:0:0:0:
320,192,202681,1,0,0:0:0:0:
448,192,202681,1,0,0:0:0:0:
192,192,202760,1,0,0:0:0:0:
64,192,202760,1,0,0:0:0:0:
320,192,202839,1,0,0:0:0:0:
448,192,202839,1,0,0:0:0:0:
64,192,202918,1,0,0:0:0:0:
192,192,202918,1,0,0:0:0:0:
320,192,202997,1,0,0:0:0:0:
448,192,202997,1,0,0:0:0:0:
64,192,203076,1,0,0:0:0:0:
192,192,203076,1,0,0:0:0:0:
320,192,203155,1,0,0:0:0:0:
448,192,203155,1,0,0:0:0:0:
64,192,203234,1,0,0:0:0:0:
192,192,203234,1,0,0:0:0:0:
320,192,203313,1,0,0:0:0:0:
448,192,203313,1,0,0:0:0:0:
64,192,203392,1,0,0:0:0:0:
192,192,203392,1,0,0:0:0:0:
320,192,203471,1,0,0:0:0:0:
448,192,203550,1,0,0:0:0:0:
64,192,203550,1,0,0:0:0:0:
320,192,203629,1,0,0:0:0:0:
448,192,203708,1,0,0:0:0:0:
192,192,203708,1,0,0:0:0:0:
320,192,203787,1,0,0:0:0:0:
448,192,203866,1,0,0:0:0:0:
320,192,203945,1,0,0:0:0:0:
64,192,204023,1,0,0:0:0:0:
192,192,204023,1,0,0:0:0:0:
448,192,204023,1,0,0:0:0:0:
320,192,204102,1,0,0:0:0:0:
192,192,204181,1,0,0:0:0:0:
64,192,204260,1,0,0:0:0:0:
448,192,204260,1,0,0:0:0:0:
320,192,204260,1,0,0:0:0:0:
192,192,204339,1,0,0:0:0:0:
448,192,204418,1,0,0:0:0:0:
64,192,204497,1,0,0:0:0:0:
192,192,204497,1,0,0:0:0:0:
320,192,204497,1,0,0:0:0:0:
448,192,204576,1,0,0:0:0:0:
320,192,204655,1,0,0:0:0:0:
192,192,204655,1,0,0:0:0:0:
64,192,204734,1,0,0:0:0:0:
320,192,204813,1,0,0:0:0:0:
64,192,204892,1,0,0:0:0:0:
192,192,204971,1,0,0:0:0:0:
448,192,204971,1,0,0:0:0:0:
64,192,205050,1,0,0:0:0:0:
320,192,205129,1,0,0:0:0:0:
192,192,205129,1,0,0:0:0:0:
64,192,205208,1,0,0:0:0:0:
448,192,205287,1,0,0:0:0:0:
320,192,205366,1,0,0:0:0:0:
192,192,205445,1,0,0:0:0:0:
448,192,205445,1,0,0:0:0:0:
320,192,205523,1,0,0:0:0:0:
64,192,205602,1,0,0:0:0:0:
192,192,205681,1,0,0:0:0:0:
320,192,205760,1,0,0:0:0:0:
448,192,205760,1,0,0:0:0:0:
192,192,205839,1,0,0:0:0:0:
448,192,205918,1,0,0:0:0:0:
320,192,205997,1,0,0:0:0:0:
192,192,206076,1,0,0:0:0:0:
64,192,206076,1,0,0:0:0:0:
448,192,206155,1,0,0:0:0:0:
320,192,206234,1,0,0:0:0:0:
64,192,206234,1,0,0:0:0:0:
192,192,206313,1,0,0:0:0:0:
448,192,206392,1,0,0:0:0:0:
192,192,206471,1,0,0:0:0:0:
320,192,206550,1,0,0:0:0:0:
448,192,206550,1,0,0:0:0:0:
64,192,206629,1,0,0:0:0:0:
192,192,206708,1,0,0:0:0:0:
448,192,206787,1,0,0:0:0:0:
320,192,206866,1,0,0:0:0:0:
64,192,206866,1,0,0:0:0:0:
192,192,206945,1,0,0:0:0:0:
320,192,207023,1,0,0:0:0:0:
64,192,207102,1,0,0:0:0:0:
192,192,207181,1,0,0:0:0:0:
448,192,207181,1,0,0:0:0:0:
64,192,207260,1,0,0:0:0:0:
320,192,207339,1,0,0:0:0:0:
192,192,207339,1,0,0:0:0:0:
448,192,207418,1,0,0:0:0:0:
192,192,207497,1,0,0:0:0:0:
64,192,207497,1,0,0:0:0:0:
320,192,207576,1,0,0:0:0:0:
448,192,207655,1,0,0:0:0:0:
64,192,207734,1,0,0:0:0:0:
192,192,207813,1,0,0:0:0:0:
448,192,207813,1,0,0:0:0:0:
320,192,207892,1,0,0:0:0:0:
192,192,207971,1,0,0:0:0:0:
448,192,208050,1,0,0:0:0:0:
64,192,208129,1,0,0:0:0:0:
192,192,208129,1,0,0:0:0:0:
320,192,208208,1,0,0:0:0:0:
192,192,208287,1,0,0:0:0:0:
448,192,208287,1,0,0:0:0:0:
320,192,208366,1,0,0:0:0:0:
64,192,208445,1,0,0:0:0:0:
192,192,208445,1,0,0:0:0:0:
448,192,208523,1,0,0:0:0:0:
192,192,208602,1,0,0:0:0:0:
320,192,208602,1,0,0:0:0:0:
64,192,208681,1,0,0:0:0:0:
320,192,208760,1,0,0:0:0:0:
448,192,208760,1,0,0:0:0:0:
192,192,208839,1,0,0:0:0:0:
64,192,208918,1,0,0:0:0:0:
448,192,208997,1,0,0:0:0:0:
320,192,209076,1,0,0:0:0:0:
64,192,209076,1,0,0:0:0:0:
192,192,209155,1,0,0:0:0:0:
320,192,209234,1,0,0:0:0:0:
64,192,209313,1,0,0:0:0:0:
192,192,209392,1,0,0:0:0:0:
320,192,209392,1,0,0:0:0:0:
448,192,209471,1,0,0:0:0:0:
320,192,209550,1,0,0:0:0:0:
64,192,209550,1,0,0:0:0:0:
192,192,209629,1,0,0:0:0:0:
64,192,209708,1,0,0:0:0:0:
448,192,209708,1,0,0:0:0:0:
192,192,209787,1,0,0:0:0:0:
320,192,209866,1,0,0:0:0:0:
64,192,209866,1,0,0:0:0:0:
448,192,209945,1,0,0:0:0:0:
192,192,210023,1,0,0:0:0:0:
320,192,210023,1,0,0:0:0:0:
64,192,210102,1,0,0:0:0:0:
192,192,210181,1,0,0:0:0:0:
448,192,210260,1,0,0:0:0:0:
320,192,210339,1,0,0:0:0:0:
64,192,210339,1,0,0:0:0:0:
192,192,210418,1,0,0:0:0:0:
64,192,210497,1,0,0:0:0:0:
448,192,210576,1,0,0:0:0:0:
192,192,210655,1,0,0:0:0:0:
64,192,210655,1,0,0:0:0:0:
448,192,210734,1,0,0:0:0:0:
320,192,210813,1,0,0:0:0:0:
64,192,210813,1,0,0:0:0:0:
192,192,210892,1,0,0:0:0:0:
448,192,210971,1,0,0:0:0:0:
320,192,211050,1,0,0:0:0:0:
192,192,211129,1,0,0:0:0:0:
64,192,211129,1,0,0:0:0:0:
448,192,211208,1,0,0:0:0:0:
320,192,211287,1,0,0:0:0:0:
64,192,211287,1,0,0:0:0:0:
192,192,211366,1,0,0:0:0:0:
448,192,211445,1,0,0:0:0:0:
192,192,211523,1,0,0:0:0:0:
320,192,211602,1,0,0:0:0:0:
448,192,211602,1,0,0:0:0:0:
64,192,211681,1,0,0:0:0:0:
320,192,211760,1,0,0:0:0:0:
64,192,211839,1,0,0:0:0:0:
192,192,211918,1,0,0:0:0:0:
448,192,211918,1,0,0:0:0:0:
64,192,211997,1,0,0:0:0:0:
320,192,212076,1,0,0:0:0:0:
192,192,212076,1,0,0:0:0:0:
64,192,212155,1,0,0:0:0:0:
192,192,212234,1,0,0:0:0:0:
448,192,212234,1,0,0:0:0:0:
320,192,212313,1,0,0:0:0:0:
64,192,212392,1,0,0:0:0:0:
448,192,212392,1,0,0:0:0:0:
192,192,212471,1,0,0:0:0:0:
64,192,212550,1,0,0:0:0:0:
320,192,212550,1,0,0:0:0:0:
448,192,212629,1,0,0:0:0:0:
64,192,212708,1,0,0:0:0:0:
192,192,212787,1,0,0:0:0:0:
320,192,212866,1,0,0:0:0:0:
448,192,212866,1,0,0:0:0:0:
64,192,212945,1,0,0:0:0:0:
320,192,213023,1,0,0:0:0:0:
448,192,213102,1,0,0:0:0:0:
192,192,213181,1,0,0:0:0:0:
64,192,213181,1,0,0:0:0:0:
448,192,213260,1,0,0:0:0:0:
320,192,213339,1,0,0:0:0:0:
192,192,213339,1,0,0:0:0:0:
448,192,213418,1,0,0:0:0:0:
64,192,213497,1,0,0:0:0:0:
320,192,213497,1,0,0:0:0:0:
448,192,213576,1,0,0:0:0:0:
192,192,213655,1,0,0:0:0:0:
320,192,213655,1,0,0:0:0:0:
64,192,213734,1,0,0:0:0:0:
320,192,213813,1,0,0:0:0:0:
448,192,213813,1,0,0:0:0:0:
64,192,213892,1,0,0:0:0:0:
192,192,213971,1,0,0:0:0:0:
448,192,214050,1,0,0:0:0:0:
320,192,214129,1,0,0:0:0:0:
64,192,214129,1,0,0:0:0:0:
192,192,214208,1,0,0:0:0:0:
64,192,214287,1,0,0:0:0:0:
448,192,214366,1,0,0:0:0:0:
192,192,214445,1,0,0:0:0:0:
320,192,214445,1,0,0:0:0:0:
64,192,214523,1,0,0:0:0:0:
320,192,214602,1,0,0:0:0:0:
448,192,214602,1,0,0:0:0:0:
192,192,214681,1,0,0:0:0:0:
320,192,214760,1,0,0:0:0:0:
64,192,214760,1,0,0:0:0:0:
192,192,214839,1,0,0:0:0:0:
64,192,214918,1,0,0:0:0:0:
448,192,214918,1,0,0:0:0:0:
320,192,214997,1,0,0:0:0:0:
192,192,215076,1,0,0:0:0:0:
64,192,215076,1,0,0:0:0:0:
448,192,215155,1,0,0:0:0:0:
320,192,215234,1,0,0:0:0:0:
64,192,215234,1,0,0:0:0:0:
192,192,215313,1,0,0:0:0:0:
448,192,215392,1,0,0:0:0:0:
320,192,215471,1,0,0:0:0:0:
192,192,215550,1,0,0:0:0:0:
64,192,215550,1,0,0:0:0:0:
320,192,215629,1,0,0:0:0:0:
64,192,215708,1,0,0:0:0:0:
192,192,215787,1,0,0:0:0:0:
320,192,215866,1,0,0:0:0:0:
448,192,215866,1,0,0:0:0:0:
64,192,215945,1,0,0:0:0:0:
448,192,216023,1,0,0:0:0:0:
192,192,216023,1,0,0:0:0:0:
320,192,216102,1,0,0:0:0:0:
192,192,216181,1,0,0:0:0:0:
64,192,216181,1,0,0:0:0:0:
448,192,216260,1,0,0:0:0:0:
320,192,216339,1,0,0:0:0:0:
64,192,216339,1,0,0:0:0:0:
192,192,216418,1,0,0:0:0:0:
448,192,216497,1,0,0:0:0:0:
64,192,216576,1,0,0:0:0:0:
320,192,216655,1,0,0:0:0:0:
448,192,216655,1,0,0:0:0:0:
192,192,216734,1,0,0:0:0:0:
64,192,216813,1,0,0:0:0:0:
448,192,216892,1,0,0:0:0:0:
320,192,216971,1,0,0:0:0:0:
64,192,216971,1,0,0:0:0:0:
192,192,217050,1,0,0:0:0:0:
64,192,217129,1,0,0:0:0:0:
320,192,217208,1,0,0:0:0:0:
64,192,217287,1,0,0:0:0:0:
448,192,217287,1,0,0:0:0:0:
192,192,217366,1,0,0:0:0:0:
320,192,217445,1,0,0:0:0:0:
448,192,217445,1,0,0:0:0:0:
64,192,217523,1,0,0:0:0:0:
192,192,217602,1,0,0:0:0:0:
320,192,217602,1,0,0:0:0:0:
64,192,217681,1,0,0:0:0:0:
448,192,217760,1,0,0:0:0:0:
320,192,217839,1,0,0:0:0:0:
192,192,217918,1,0,0:0:0:0:
64,192,217918,1,0,0:0:0:0:
448,192,217997,1,0,0:0:0:0:
192,192,218076,1,0,0:0:0:0:
448,192,218155,1,0,0:0:0:0:
64,192,218234,1,0,0:0:0:0:
320,192,218234,1,0,0:0:0:0:
192,192,218313,1,0,0:0:0:0:
448,192,218392,1,0,0:0:0:0:
320,192,218392,1,0,0:0:0:0:
64,192,218471,1,0,0:0:0:0:
320,192,218550,1,0,0:0:0:0:
64,192,218629,1,0,0:0:0:0:
192,192,218708,1,0,0:0:0:0:
448,192,218708,1,0,0:0:0:0:
64,192,218787,1,0,0:0:0:0:
320,192,218866,1,0,0:0:0:0:
192,192,218866,1,0,0:0:0:0:
448,192,218945,1,0,0:0:0:0:
64,192,219023,1,0,0:0:0:0:
320,192,219023,1,0,0:0:0:0:
192,192,219102,1,0,0:0:0:0:
320,192,219181,1,0,0:0:0:0:
448,192,219181,1,0,0:0:0:0:
64,192,219260,1,0,0:0:0:0:
448,192,219339,1,0,0:0:0:0:
320,192,219418,1,0,0:0:0:0:
192,192,219497,1,0,0:0:0:0:
64,192,219497,1,0,0:0:0:0:
448,192,219576,1,0,0:0:0:0:
320,192,219655,1,0,0:0:0:0:
64,192,219655,1,0,0:0:0:0:
192,192,219734,1,0,0:0:0:0:
448,192,219813,1,0,0:0:0:0:
64,192,219813,1,0,0:0:0:0:
320,192,219813,1,0,0:0:0:0:
192,192,219892,1,0,0:0:0:0:
320,192,219971,1,0,0:0:0:0:
448,192,219971,1,0,0:0:0:0:
192,192,220129,1,0,0:0:0:0:
448,192,220129,1,0,0:0:0:0:
320,192,220208,1,0,0:0:0:0:
64,192,220287,1,0,0:0:0:0:
448,192,220366,1,0,0:0:0:0:
192,192,220445,1,0,0:0:0:0:
64,192,220445,1,0,0:0:0:0:
448,192,220523,1,0,0:0:0:0:
320,192,220602,1,0,0:0:0:0:
448,192,220681,1,0,0:0:0:0:
192,192,220760,1,0,0:0:0:0:
320,192,220760,1,0,0:0:0:0:
64,192,220839,1,0,0:0:0:0:
320,192,220918,1,0,0:0:0:0:
448,192,220918,1,0,0:0:0:0:
192,192,220997,1,0,0:0:0:0:
448,192,221076,1,0,0:0:0:0:
64,192,221076,1,0,0:0:0:0:
320,192,221076,1,0,0:0:0:0:
192,192,221155,1,0,0:0:0:0:
64,192,221234,1,0,0:0:0:0:
448,192,221234,1,0,0:0:0:0:
192,192,221313,1,0,0:0:0:0:
320,192,221392,1,0,0:0:0:0:
64,192,221392,1,0,0:0:0:0:
448,192,221471,1,0,0:0:0:0:
192,192,221550,1,0,0:0:0:0:
448,192,221629,1,0,0:0:0:0:
320,192,221708,1,0,0:0:0:0:
64,192,221708,1,0,0:0:0:0:
192,192,221787,1,0,0:0:0:0:
448,192,221866,1,0,0:0:0:0:
64,192,221945,1,0,0:0:0:0:
192,192,222023,1,0,0:0:0:0:
448,192,222023,1,0,0:0:0:0:
64,192,222102,1,0,0:0:0:0:
320,192,222181,1,0,0:0:0:0:
448,192,222181,1,0,0:0:0:0:
192,192,222260,1,0,0:0:0:0:
64,192,222339,1,0,0:0:0:0:
320,192,222339,1,0,0:0:0:0:
448,192,222339,1,0,0:0:0:0:
192,192,222418,1,0,0:0:0:0:
320,192,222497,1,0,0:0:0:0:
448,192,222497,1,0,0:0:0:0:
64,192,222576,1,0,0:0:0:0:
192,192,222655,1,0,0:0:0:0:
320,192,222655,1,0,0:0:0:0:
448,192,222734,1,0,0:0:0:0:
64,192,222813,1,0,0:0:0:0:
320,192,222813,1,0,0:0:0:0:
192,192,222892,1,0,0:0:0:0:
320,192,222971,1,0,0:0:0:0:
64,192,222971,1,0,0:0:0:0:
448,192,222971,1,0,0:0:0:0:
192,192,223050,1,0,0:0:0:0:
448,192,223129,1,0,0:0:0:0:
320,192,223129,1,0,0:0:0:0:
64,192,223208,1,0,0:0:0:0:
192,192,223287,1,0,0:0:0:0:
320,192,223287,1,0,0:0:0:0:
64,192,223366,1,0,0:0:0:0:
192,192,223445,1,0,0:0:0:0:
448,192,223445,1,0,0:0:0:0:
320,192,223523,1,0,0:0:0:0:
64,192,223602,1,0,0:0:0:0:
192,192,223602,1,0,0:0:0:0:
320,192,223681,1,0,0:0:0:0:
448,192,223681,1,0,0:0:0:0:
64,192,223760,1,0,0:0:0:0:
192,192,223760,1,0,0:0:0:0:
320,192,223839,1,0,0:0:0:0:
448,192,223839,1,0,0:0:0:0:
64,192,223918,1,0,0:0:0:0:
192,192,223918,1,0,0:0:0:0:
320,192,223997,1,0,0:0:0:0:
448,192,223997,1,0,0:0:0:0:
64,192,224076,1,0,0:0:0:0:
192,192,224096,1,0,0:0:0:0:
320,192,224116,1,0,0:0:0:0:
448,192,224135,1,0,0:0:0:0:
64,192,224155,1,0,0:0:0:0:
192,192,224175,1,0,0:0:0:0:
320,192,224195,1,0,0:0:0:0:
448,192,224214,1,0,0:0:0:0:
64,192,224234,1,0,0:0:0:0:
192,192,224234,1,0,0:0:0:0:
192,192,224392,1,0,0:0:0:0:
64,192,224471,1,0,0:0:0:0:
320,192,224471,1,0,0:0:0:0:
448,192,224471,1,0,0:0:0:0:
320,192,224629,1,0,0:0:0:0:
64,192,224708,1,0,0:0:0:0:
192,192,224708,1,0,0:0:0:0:
448,192,224708,1,0,0:0:0:0:
320,192,224866,1,0,0:0:0:0:
64,192,224866,1,0,0:0:0:0:
192,192,224944,1,0,0:0:0:0:
448,192,225023,1,0,0:0:0:0:
320,192,225102,1,0,0:0:0:0:
192,192,225181,1,0,0:0:0:0:
448,192,225181,1,0,0:0:0:0:
64,192,225260,1,0,0:0:0:0:
320,192,225339,1,0,0:0:0:0:
192,192,225339,1,0,0:0:0:0:
448,192,225418,1,0,0:0:0:0:
64,192,225497,1,0,0:0:0:0:
192,192,225497,1,0,0:0:0:0:
320,192,225576,1,0,0:0:0:0:
192,192,225655,1,0,0:0:0:0:
448,192,225655,1,0,0:0:0:0:
320,192,225734,1,0,0:0:0:0:
64,192,225813,1,0,0:0:0:0:
448,192,225813,1,0,0:0:0:0:
192,192,225892,1,0,0:0:0:0:
320,192,225971,1,0,0:0:0:0:
448,192,225971,1,0,0:0:0:0:
64,192,226050,1,0,0:0:0:0:
192,192,226129,1,0,0:0:0:0:
320,192,226129,1,0,0:0:0:0:
448,192,226208,1,0,0:0:0:0:
192,192,226287,1,0,0:0:0:0:
64,192,226287,1,0,0:0:0:0:
448,192,226366,1,0,0:0:0:0:
64,192,226444,1,0,0:0:0:0:
192,192,226444,1,0,0:0:0:0:
320,192,226523,1,0,0:0:0:0:
448,192,226602,1,0,0:0:0:0:
64,192,226681,1,0,0:0:0:0:
320,192,226760,1,0,0:0:0:0:
448,192,226760,1,0,0:0:0:0:
192,192,226839,1,0,0:0:0:0:
64,192,226918,1,0,0:0:0:0:
448,192,226997,1,0,0:0:0:0:
320,192,227076,1,0,0:0:0:0:
64,192,227076,1,0,0:0:0:0:
192,192,227155,1,0,0:0:0:0:
320,192,227234,1,0,0:0:0:0:
448,192,227313,1,0,0:0:0:0:
64,192,227392,1,0,0:0:0:0:
192,192,227392,1,0,0:0:0:0:
448,192,227471,1,0,0:0:0:0:
320,192,227550,1,0,0:0:0:0:
192,192,227550,1,0,0:0:0:0:
448,192,227629,1,0,0:0:0:0:
64,192,227708,1,0,0:0:0:0:
192,192,227708,1,0,0:0:0:0:
320,192,227787,1,0,0:0:0:0:
448,192,227866,1,0,0:0:0:0:
64,192,227944,1,0,0:0:0:0:
192,192,228023,1,0,0:0:0:0:
448,192,228023,1,0,0:0:0:0:
320,192,228102,1,0,0:0:0:0:
64,192,228181,1,0,0:0:0:0:
320,192,228260,1,0,0:0:0:0:
64,192,228339,1,0,0:0:0:0:
192,192,228339,1,0,0:0:0:0:
448,192,228418,1,0,0:0:0:0:
192,192,228497,1,0,0:0:0:0:
320,192,228497,1,0,0:0:0:0:
448,192,228576,1,0,0:0:0:0:
64,192,228655,1,0,0:0:0:0:
320,192,228655,1,0,0:0:0:0:
448,192,228734,1,0,0:0:0:0:
192,192,228813,1,0,0:0:0:0:
320,192,228813,1,0,0:0:0:0:
64,192,228892,1,0,0:0:0:0:
448,192,228971,1,0,0:0:0:0:
192,192,228971,1,0,0:0:0:0:
320,192,229050,1,0,0:0:0:0:
192,192,229129,1,0,0:0:0:0:
64,192,229129,1,0,0:0:0:0:
448,192,229208,1,0,0:0:0:0:
320,192,229287,1,0,0:0:0:0:
64,192,229287,1,0,0:0:0:0:
192,192,229366,1,0,0:0:0:0:
448,192,229444,1,0,0:0:0:0:
320,192,229523,1,0,0:0:0:0:
192,192,229602,1,0,0:0:0:0:
64,192,229602,1,0,0:0:0:0:
448,192,229681,1,0,0:0:0:0:
320,192,229760,1,0,0:0:0:0:
64,192,229760,1,0,0:0:0:0:
192,192,229839,1,0,0:0:0:0:
320,192,229918,1,0,0:0:0:0:
448,192,229918,1,0,0:0:0:0:
64,192,229997,1,0,0:0:0:0:
320,192,230076,1,0,0:0:0:0:
192,192,230076,1,0,0:0:0:0:
448,192,230155,1,0,0:0:0:0:
64,192,230234,1,0,0:0:0:0:
320,192,230234,1,0,0:0:0:0:
192,192,230313,1,0,0:0:0:0:
448,192,230392,1,0,0:0:0:0:
64,192,230471,1,0,0:0:0:0:
192,192,230550,1,0,0:0:0:0:
448,192,230550,1,0,0:0:0:0:
320,192,230629,1,0,0:0:0:0:
448,192,230708,1,0,0:0:0:0:
192,192,230787,1,0,0:0:0:0:
64,192,230866,1,0,0:0:0:0:
320,192,230866,1,0,0:0:0:0:
192,192,230944,1,0,0:0:0:0:
448,192,231023,1,0,0:0:0:0:
320,192,231023,1,0,0:0:0:0:
192,192,231102,1,0,0:0:0:0:
64,192,231181,1,0,0:0:0:0:
448,192,231181,1,0,0:0:0:0:
320,192,231260,1,0,0:0:0:0:
192,192,231339,1,0,0:0:0:0:
64,192,231339,1,0,0:0:0:0:
448,192,231418,1,0,0:0:0:0:
320,192,231497,1,0,0:0:0:0:
192,192,231497,1,0,0:0:0:0:
448,192,231576,1,0,0:0:0:0:
64,192,231655,1,0,0:0:0:0:
192,192,231734,1,0,0:0:0:0:
320,192,231813,1,0,0:0:0:0:
64,192,231813,1,0,0:0:0:0:
192,192,231892,1,0,0:0:0:0:
448,192,231971,1,0,0:0:0:0:
320,192,232050,1,0,0:0:0:0:
192,192,232129,1,0,0:0:0:0:
64,192,232129,1,0,0:0:0:0:
448,192,232208,1,0,0:0:0:0:
320,192,232287,1,0,0:0:0:0:
64,192,232287,1,0,0:0:0:0:
192,192,232366,1,0,0:0:0:0:
64,192,232444,1,0,0:0:0:0:
448,192,232444,1,0,0:0:0:0:
192,192,232523,1,0,0:0:0:0:
320,192,232602,1,0,0:0:0:0:
448,192,232602,1,0,0:0:0:0:
64,192,232681,1,0,0:0:0:0:
192,192,232760,1,0,0:0:0:0:
320,192,232760,1,0,0:0:0:0:
448,192,232839,1,0,0:0:0:0:
64,192,232918,1,0,0:0:0:0:
448,192,232997,1,0,0:0:0:0:
320,192,233076,1,0,0:0:0:0:
64,192,233076,1,0,0:0:0:0:
192,192,233155,1,0,0:0:0:0:
64,192,233234,1,0,0:0:0:0:
448,192,233313,1,0,0:0:0:0:
192,192,233392,1,0,0:0:0:0:
320,192,233392,1,0,0:0:0:0:
64,192,233471,1,0,0:0:0:0:
320,192,233550,1,0,0:0:0:0:
448,192,233550,1,0,0:0:0:0:
64,192,233629,1,0,0:0:0:0:
192,192,233708,1,0,0:0:0:0:
448,192,233708,1,0,0:0:0:0:
320,192,233787,1,0,0:0:0:0:
192,192,233866,1,0,0:0:0:0:
64,192,233866,1,0,0:0:0:0:
448,192,233944,1,0,0:0:0:0:
320,192,234023,1,0,0:0:0:0:
64,192,234023,1,0,0:0:0:0:
192,192,234102,1,0,0:0:0:0:
448,192,234181,1,0,0:0:0:0:
64,192,234260,1,0,0:0:0:0:
320,192,234339,1,0,0:0:0:0:
192,192,234339,1,0,0:0:0:0:
448,192,234418,1,0,0:0:0:0:
320,192,234497,1,0,0:0:0:0:
448,192,234576,1,0,0:0:0:0:
192,192,234655,1,0,0:0:0:0:
64,192,234655,1,0,0:0:0:0:
448,192,234734,1,0,0:0:0:0:
320,192,234813,1,0,0:0:0:0:
64,192,234813,1,0,0:0:0:0:
192,192,234892,1,0,0:0:0:0:
320,192,234971,1,0,0:0:0:0:
64,192,234971,1,0,0:0:0:0:
448,192,235050,1,0,0:0:0:0:
320,192,235129,1,0,0:0:0:0:
64,192,235208,1,0,0:0:0:0:
192,192,235287,1,0,0:0:0:0:
320,192,235287,1,0,0:0:0:0:
64,192,235366,1,0,0:0:0:0:
192,192,235444,1,0,0:0:0:0:
448,192,235444,1,0,0:0:0:0:
320,192,235523,1,0,0:0:0:0:
64,192,235602,1,0,0:0:0:0:
448,192,235681,1,0,0:0:0:0:
192,192,235760,1,0,0:0:0:0:
320,192,235760,1,0,0:0:0:0:
64,192,235839,1,0,0:0:0:0:
448,192,235918,1,0,0:0:0:0:
64,192,235997,1,0,0:0:0:0:
192,192,236076,1,0,0:0:0:0:
448,192,236076,1,0,0:0:0:0:
320,192,236155,1,0,0:0:0:0:
192,192,236234,1,0,0:0:0:0:
64,192,236313,1,0,0:0:0:0:
192,192,236392,1,0,0:0:0:0:
448,192,236392,1,0,0:0:0:0:
64,192,236471,1,0,0:0:0:0:
320,192,236550,1,0,0:0:0:0:
448,192,236550,1,0,0:0:0:0:
192,192,236629,1,0,0:0:0:0:
448,192,236708,1,0,0:0:0:0:
64,192,236787,1,0,0:0:0:0:
448,192,236866,1,0,0:0:0:0:
320,192,236866,1,0,0:0:0:0:
192,192,236944,1,0,0:0:0:0:
448,192,237023,1,0,0:0:0:0:
64,192,237102,1,0,0:0:0:0:
192,192,237181,1,0,0:0:0:0:
448,192,237181,1,0,0:0:0:0:
320,192,237260,1,0,0:0:0:0:
192,192,237339,1,0,0:0:0:0:
64,192,237418,1,0,0:0:0:0:
448,192,237497,1,0,0:0:0:0:
192,192,237576,1,0,0:0:0:0:
320,192,237655,1,0,0:0:0:0:
64,192,237655,1,0,0:0:0:0:
448,192,237734,1,0,0:0:0:0:
192,192,237813,1,0,0:0:0:0:
64,192,237813,1,0,0:0:0:0:
320,192,237892,1,0,0:0:0:0:
448,192,237971,1,0,0:0:0:0:
64,192,238050,1,0,0:0:0:0:
192,192,238129,1,0,0:0:0:0:
320,192,238129,1,0,0:0:0:0:
64,192,238208,1,0,0:0:0:0:
448,192,238287,1,0,0:0:0:0:
320,192,238366,1,0,0:0:0:0:
64,192,238444,1,0,0:0:0:0:
192,192,238444,1,0,0:0:0:0:
320,192,238523,1,0,0:0:0:0:
192,192,238602,1,0,0:0:0:0:
448,192,238602,1,0,0:0:0:0:
320,192,238681,1,0,0:0:0:0:
64,192,238760,1,0,0:0:0:0:
320,192,238839,1,0,0:0:0:0:
192,192,238918,1,0,0:0:0:0:
64,192,238918,1,0,0:0:0:0:
448,192,238997,1,0,0:0:0:0:
320,192,239076,1,0,0:0:0:0:
64,192,239076,1,0,0:0:0:0:
192,192,239155,1,0,0:0:0:0:
448,192,239234,1,0,0:0:0:0:
64,192,239313,1,0,0:0:0:0:
320,192,239392,1,0,0:0:0:0:
448,192,239392,1,0,0:0:0:0:
192,192,239471,1,0,0:0:0:0:
64,192,239550,1,0,0:0:0:0:
320,192,239629,1,0,0:0:0:0:
192,192,239708,1,0,0:0:0:0:
64,192,239708,1,0,0:0:0:0:
320,192,239787,1,0,0:0:0:0:
448,192,239866,1,0,0:0:0:0:
192,192,239866,1,0,0:0:0:0:
320,192,239944,1,0,0:0:0:0:
192,192,240023,1,0,0:0:0:0:
320,192,240102,1,0,0:0:0:0:
192,192,240181,1,0,0:0:0:0:
320,192,240260,1,0,0:0:0:0:
192,192,240339,1,0,0:0:0:0:
320,192,240418,1,0,0:0:0:0:
192,192,240497,1,0,0:0:0:0:
320,192,240576,1,0,0:0:0:0:
192,192,240655,1,0,0:0:0:0:
320,192,240734,1,0,0:0:0:0:
192,192,240813,1,0,0:0:0:0:
320,192,240892,1,0,0:0:0:0:
192,192,240971,1,0,0:0:0:0:
320,192,241050,1,0,0:0:0:0:
192,192,241129,1,0,0:0:0:0:
320,192,241208,1,0,0:0:0:0:
192,192,241287,1,0,0:0:0:0:
320,192,241366,1,0,0:0:0:0:
448,192,241366,1,0,0:0:0:0:
192,192,241444,1,0,0:0:0:0:
320,192,241523,1,0,0:0:0:0:
448,192,241523,1,0,0:0:0:0:
192,192,241602,1,0,0:0:0:0:
320,192,241681,1,0,0:0:0:0:
448,192,241681,1,0,0:0:0:0:
192,192,241760,1,0,0:0:0:0:
320,192,241839,1,0,0:0:0:0:
448,192,241839,1,0,0:0:0:0:
192,192,241918,1,0,0:0:0:0:
320,192,241997,1,0,0:0:0:0:
448,192,241997,1,0,0:0:0:0:
192,192,242076,1,0,0:0:0:0:
320,192,242155,1,0,0:0:0:0:
448,192,242155,1,0,0:0:0:0:
192,192,242234,1,0,0:0:0:0:
320,192,242313,1,0,0:0:0:0:
448,192,242313,1,0,0:0:0:0:
192,192,242392,1,0,0:0:0:0:
320,192,242471,1,0,0:0:0:0:
448,192,242471,1,0,0:0:0:0:
64,192,242550,1,0,0:0:0:0:
192,192,242550,1,0,0:0:0:0:
320,192,242629,1,0,0:0:0:0:
448,192,242629,1,0,0:0:0:0:
64,192,242708,1,0,0:0:0:0:
192,192,242708,1,0,0:0:0:0:
320,192,242787,1,0,0:0:0:0:
448,192,242787,1,0,0:0:0:0:
192,192,242866,1,0,0:0:0:0:
64,192,242866,1,0,0:0:0:0:
320,192,242944,1,0,0:0:0:0:
448,192,242944,1,0,0:0:0:0:
192,192,243023,1,0,0:0:0:0:
64,192,243023,1,0,0:0:0:0:
320,192,243102,1,0,0:0:0:0:
448,192,243102,1,0,0:0:0:0:
192,192,243181,1,0,0:0:0:0:
64,192,243181,1,0,0:0:0:0:
320,192,243260,1,0,0:0:0:0:
64,192,243339,1,0,0:0:0:0:
192,192,243339,1,0,0:0:0:0:
448,192,243339,1,0,0:0:0:0:
320,192,243418,1,0,0:0:0:0:
64,192,243497,1,0,0:0:0:0:
448,192,243497,1,0,0:0:0:0:
192,192,243576,1,0,0:0:0:0:
448,192,243655,1,0,0:0:0:0:
320,192,243655,1,0,0:0:0:0:
64,192,243655,1,0,0:0:0:0:
192,192,243734,1,0,0:0:0:0:
448,192,243813,1,0,0:0:0:0:
64,192,243813,128,0,245076:0:0:0:0:
448,192,243971,128,0,244129:0:0:0:0:
320,192,244129,128,0,244287:0:0:0:0:
192,192,244287,128,0,244444:0:0:0:0:
448,192,244444,128,0,244602:0:0:0:0:
320,192,244602,128,0,244760:0:0:0:0:
448,192,244760,128,0,244918:0:0:0:0:
320,192,244918,128,0,245076:0:0:0:0:
192,192,245076,1,0,0:0:0:0:
448,192,245076,1,0,0:0:0:0:
64,192,245154,1,0,0:0:0:0:
320,192,245233,1,0,0:0:0:0:
192,192,245312,1,0,0:0:0:0:
448,192,245391,1,0,0:0:0:0:
320,192,245391,1,0,0:0:0:0:
64,192,245470,1,0,0:0:0:0:
192,192,245549,1,0,0:0:0:0:
64,192,245628,1,0,0:0:0:0:
192,192,245707,1,0,0:0:0:0:
448,192,245707,1,0,0:0:0:0:
320,192,245786,1,0,0:0:0:0:
64,192,245865,1,0,0:0:0:0:
448,192,245944,1,0,0:0:0:0:
64,192,246023,1,0,0:0:0:0:
192,192,246023,1,0,0:0:0:0:
320,192,246102,1,0,0:0:0:0:
192,192,246181,1,0,0:0:0:0:
64,192,246260,1,0,0:0:0:0:
192,192,246339,1,0,0:0:0:0:
448,192,246339,1,0,0:0:0:0:
320,192,246418,1,0,0:0:0:0:
64,192,246497,1,0,0:0:0:0:
192,192,246576,1,0,0:0:0:0:
448,192,246654,1,0,0:0:0:0:
320,192,246654,1,0,0:0:0:0:
64,192,246733,1,0,0:0:0:0:
192,192,246812,1,0,0:0:0:0:
448,192,246891,1,0,0:0:0:0:
64,192,246970,1,0,0:0:0:0:
320,192,246970,1,0,0:0:0:0:
192,192,247049,1,0,0:0:0:0:
64,192,247128,1,0,0:0:0:0:
192,192,247207,1,0,0:0:0:0:
448,192,247286,1,0,0:0:0:0:
320,192,247286,1,0,0:0:0:0:
64,192,247365,1,0,0:0:0:0:
192,192,247444,1,0,0:0:0:0:
448,192,247523,1,0,0:0:0:0:
64,192,247602,1,0,0:0:0:0:
320,192,247602,1,0,0:0:0:0:
192,192,247681,1,0,0:0:0:0:
64,192,247760,1,0,0:0:0:0:
320,192,247839,1,0,0:0:0:0:
64,192,247918,1,0,0:0:0:0:
448,192,247918,1,0,0:0:0:0:
192,192,247997,1,0,0:0:0:0:
320,192,248076,1,0,0:0:0:0:
64,192,248154,1,0,0:0:0:0:
192,192,248233,1,0,0:0:0:0:
448,192,248233,1,0,0:0:0:0:
320,192,248312,1,0,0:0:0:0:
64,192,248391,1,0,0:0:0:0:
192,192,248470,1,0,0:0:0:0:
448,192,248549,1,0,0:0:0:0:
320,192,248549,1,0,0:0:0:0:
64,192,248628,1,0,0:0:0:0:
448,192,248707,1,0,0:0:0:0:
320,192,248786,1,0,0:0:0:0:
64,192,248865,1,0,0:0:0:0:
448,192,248865,1,0,0:0:0:0:
192,192,248944,1,0,0:0:0:0:
64,192,249023,1,0,0:0:0:0:
320,192,249102,1,0,0:0:0:0:
192,192,249181,1,0,0:0:0:0:
448,192,249181,1,0,0:0:0:0:
320,192,249260,1,0,0:0:0:0:
64,192,249339,1,0,0:0:0:0:
448,192,249418,1,0,0:0:0:0:
64,192,249497,1,0,0:0:0:0:
192,192,249497,1,0,0:0:0:0:
320,192,249576,1,0,0:0:0:0:
192,192,249654,1,0,0:0:0:0:
64,192,249733,1,0,0:0:0:0:
320,192,249812,1,0,0:0:0:0:
448,192,249812,1,0,0:0:0:0:
192,192,249891,1,0,0:0:0:0:
448,192,249970,1,0,0:0:0:0:
64,192,250049,1,0,0:0:0:0:
192,192,250128,1,0,0:0:0:0:
320,192,250128,1,0,0:0:0:0:
64,192,250207,1,0,0:0:0:0:
448,192,250286,1,0,0:0:0:0:
320,192,250365,1,0,0:0:0:0:
64,192,250444,1,0,0:0:0:0:
192,192,250444,1,0,0:0:0:0:
448,192,250523,1,0,0:0:0:0:
192,192,250602,1,0,0:0:0:0:
320,192,250681,1,0,0:0:0:0:
64,192,250760,1,0,0:0:0:0:
448,192,250760,1,0,0:0:0:0:
192,192,250839,1,0,0:0:0:0:
320,192,250918,1,0,0:0:0:0:
192,192,250997,1,0,0:0:0:0:
64,192,251076,1,0,0:0:0:0:
320,192,251076,1,0,0:0:0:0:
192,192,251154,1,0,0:0:0:0:
448,192,251233,1,0,0:0:0:0:
320,192,251312,1,0,0:0:0:0:
192,192,251391,1,0,0:0:0:0:
448,192,251391,1,0,0:0:0:0:
64,192,251470,1,0,0:0:0:0:
448,192,251549,1,0,0:0:0:0:
192,192,251628,1,0,0:0:0:0:
64,192,251707,1,0,0:0:0:0:
320,192,251707,1,0,0:0:0:0:
192,192,251786,1,0,0:0:0:0:
448,192,251865,1,0,0:0:0:0:
320,192,251944,1,0,0:0:0:0:
64,192,252023,1,0,0:0:0:0:
448,192,252023,1,0,0:0:0:0:
192,192,252102,1,0,0:0:0:0:
64,192,252181,1,0,0:0:0:0:
320,192,252260,1,0,0:0:0:0:
64,192,252339,1,0,0:0:0:0:
192,192,252339,1,0,0:0:0:0:
448,192,252418,1,0,0:0:0:0:
192,192,252497,1,0,0:0:0:0:
320,192,252576,1,0,0:0:0:0:
64,192,252654,1,0,0:0:0:0:
448,192,252654,1,0,0:0:0:0:
320,192,252733,1,0,0:0:0:0:
64,192,252812,1,0,0:0:0:0:
192,192,252891,1,0,0:0:0:0:
448,192,252970,1,0,0:0:0:0:
320,192,252970,1,0,0:0:0:0:
192,192,253049,1,0,0:0:0:0:
320,192,253128,1,0,0:0:0:0:
64,192,253207,1,0,0:0:0:0:
448,192,253286,1,0,0:0:0:0:
192,192,253286,1,0,0:0:0:0:
320,192,253365,1,0,0:0:0:0:
192,192,253444,1,0,0:0:0:0:
64,192,253523,1,0,0:0:0:0:
192,192,253602,1,0,0:0:0:0:
320,192,253602,1,0,0:0:0:0:
448,192,253681,1,0,0:0:0:0:
192,192,253760,1,0,0:0:0:0:
64,192,253839,1,0,0:0:0:0:
192,192,253918,1,0,0:0:0:0:
448,192,253918,1,0,0:0:0:0:
320,192,253997,1,0,0:0:0:0:
64,192,254076,1,0,0:0:0:0:
192,192,254154,1,0,0:0:0:0:
64,192,254233,1,0,0:0:0:0:
448,192,254233,1,0,0:0:0:0:
320,192,254312,1,0,0:0:0:0:
192,192,254391,1,0,0:0:0:0:
448,192,254470,1,0,0:0:0:0:
64,192,254549,1,0,0:0:0:0:
320,192,254549,1,0,0:0:0:0:
192,192,254628,1,0,0:0:0:0:
448,192,254707,1,0,0:0:0:0:
320,192,254786,1,0,0:0:0:0:
64,192,254865,1,0,0:0:0:0:
192,192,254865,1,0,0:0:0:0:
448,192,254944,1,0,0:0:0:0:
320,192,255023,1,0,0:0:0:0:
192,192,255023,1,0,0:0:0:0:
448,192,255102,1,0,0:0:0:0:
64,192,255181,1,0,0:0:0:0:
320,192,255181,1,0,0:0:0:0:
192,192,255260,1,0,0:0:0:0:
448,192,255339,1,0,0:0:0:0:
320,192,255418,1,0,0:0:0:0:
64,192,255497,1,0,0:0:0:0:
192,192,255497,1,0,0:0:0:0:
448,192,255576,1,0,0:0:0:0:
64,192,255654,1,0,0:0:0:0:
192,192,255733,1,0,0:0:0:0:
64,192,255812,1,0,0:0:0:0:
448,192,255812,1,0,0:0:0:0:
320,192,255891,1,0,0:0:0:0:
192,192,255970,1,0,0:0:0:0:
64,192,256049,1,0,0:0:0:0:
320,192,256128,1,0,0:0:0:0:
192,192,256128,1,0,0:0:0:0:
448,192,256207,1,0,0:0:0:0:
64,192,256286,1,0,0:0:0:0:
192,192,256365,1,0,0:0:0:0:
64,192,256444,1,0,0:0:0:0:
320,192,256444,1,0,0:0:0:0:
192,192,256523,1,0,0:0:0:0:
448,192,256602,1,0,0:0:0:0:
320,192,256681,1,0,0:0:0:0:
64,192,256760,1,0,0:0:0:0:
192,192,256760,1,0,0:0:0:0:
448,192,256839,1,0,0:0:0:0:
64,192,256918,1,0,0:0:0:0:
192,192,256997,1,0,0:0:0:0:
448,192,257076,1,0,0:0:0:0:
320,192,257076,1,0,0:0:0:0:
64,192,257154,1,0,0:0:0:0:
448,192,257233,1,0,0:0:0:0:
192,192,257312,1,0,0:0:0:0:
64,192,257391,1,0,0:0:0:0:
320,192,257391,1,0,0:0:0:0:
192,192,257470,1,0,0:0:0:0:
448,192,257549,1,0,0:0:0:0:
64,192,257628,1,0,0:0:0:0:
320,192,257707,1,0,0:0:0:0:
192,192,257707,1,0,0:0:0:0:
448,192,257786,1,0,0:0:0:0:
64,192,257865,1,0,0:0:0:0:
320,192,257944,1,0,0:0:0:0:
64,192,258023,1,0,0:0:0:0:
192,192,258023,1,0,0:0:0:0:
320,192,258102,1,0,0:0:0:0:
64,192,258181,1,0,0:0:0:0:
448,192,258260,1,0,0:0:0:0:
64,192,258339,1,0,0:0:0:0:
320,192,258339,1,0,0:0:0:0:
192,192,258418,1,0,0:0:0:0:
64,192,258497,1,0,0:0:0:0:
320,192,258576,1,0,0:0:0:0:
192,192,258654,1,0,0:0:0:0:
448,192,258654,1,0,0:0:0:0:
64,192,258733,1,0,0:0:0:0:
320,192,258812,1,0,0:0:0:0:
192,192,258891,1,0,0:0:0:0:
64,192,258970,1,0,0:0:0:0:
448,192,258970,1,0,0:0:0:0:
320,192,259049,1,0,0:0:0:0:
192,192,259128,1,0,0:0:0:0:
320,192,259207,1,0,0:0:0:0:
64,192,259286,1,0,0:0:0:0:
192,192,259286,1,0,0:0:0:0:
448,192,259365,1,0,0:0:0:0:
320,192,259444,1,0,0:0:0:0:
192,192,259523,1,0,0:0:0:0:
64,192,259602,1,0,0:0:0:0:
448,192,259602,1,0,0:0:0:0:
192,192,259681,1,0,0:0:0:0:
320,192,259760,1,0,0:0:0:0:
192,192,259839,1,0,0:0:0:0:
320,192,259918,1,0,0:0:0:0:
448,192,259918,1,0,0:0:0:0:
64,192,259997,1,0,0:0:0:0:
192,192,260076,1,0,0:0:0:0:
64,192,260154,1,0,0:0:0:0:
192,192,260233,1,0,0:0:0:0:
448,192,260233,1,0,0:0:0:0:
320,192,260312,1,0,0:0:0:0:
448,192,260391,1,0,0:0:0:0:
192,192,260470,1,0,0:0:0:0:
64,192,260549,1,0,0:0:0:0:
320,192,260549,1,0,0:0:0:0:
192,192,260628,1,0,0:0:0:0:
64,192,260707,1,0,0:0:0:0:
448,192,260786,1,0,0:0:0:0:
192,192,260865,1,0,0:0:0:0:
320,192,260865,1,0,0:0:0:0:
64,192,260944,1,0,0:0:0:0:
320,192,261023,1,0,0:0:0:0:
192,192,261102,1,0,0:0:0:0:
320,192,261181,1,0,0:0:0:0:
448,192,261181,1,0,0:0:0:0:
64,192,261260,1,0,0:0:0:0:
320,192,261339,1,0,0:0:0:0:
448,192,261418,1,0,0:0:0:0:
64,192,261497,1,0,0:0:0:0:
320,192,261497,1,0,0:0:0:0:
192,192,261576,1,0,0:0:0:0:
64,192,261654,1,0,0:0:0:0:
448,192,261733,1,0,0:0:0:0:
192,192,261812,1,0,0:0:0:0:
320,192,261812,1,0,0:0:0:0:
64,192,261891,1,0,0:0:0:0:
448,192,261970,1,0,0:0:0:0:
320,192,262049,1,0,0:0:0:0:
64,192,262128,1,0,0:0:0:0:
192,192,262128,1,0,0:0:0:0:
320,192,262207,1,0,0:0:0:0:
64,192,262286,1,0,0:0:0:0:
192,192,262365,1,0,0:0:0:0:
64,192,262444,1,0,0:0:0:0:
448,192,262444,1,0,0:0:0:0:
320,192,262523,1,0,0:0:0:0:
192,192,262602,1,0,0:0:0:0:
320,192,262681,1,0,0:0:0:0:
192,192,262760,1,0,0:0:0:0:
448,192,262760,1,0,0:0:0:0:
64,192,262839,1,0,0:0:0:0:
320,192,262918,1,0,0:0:0:0:
192,192,262997,1,0,0:0:0:0:
64,192,263076,1,0,0:0:0:0:
320,192,263076,1,0,0:0:0:0:
192,192,263154,1,0,0:0:0:0:
320,192,263233,1,0,0:0:0:0:
448,192,263312,1,0,0:0:0:0:
64,192,263391,1,0,0:0:0:0:
192,192,263391,1,0,0:0:0:0:
320,192,263470,1,0,0:0:0:0:
64,192,263549,1,0,0:0:0:0:
448,192,263628,1,0,0:0:0:0:
320,192,263707,1,0,0:0:0:0:
192,192,263707,1,0,0:0:0:0:
64,192,263786,1,0,0:0:0:0:
448,192,263865,1,0,0:0:0:0:
320,192,263944,1,0,0:0:0:0:
64,192,264023,1,0,0:0:0:0:
448,192,264023,1,0,0:0:0:0:
192,192,264102,1,0,0:0:0:0:
320,192,264181,1,0,0:0:0:0:
64,192,264260,1,0,0:0:0:0:
192,192,264339,1,0,0:0:0:0:
448,192,264339,1,0,0:0:0:0:
320,192,264418,1,0,0:0:0:0:
64,192,264497,1,0,0:0:0:0:
192,192,264576,1,0,0:0:0:0:
448,192,264654,1,0,0:0:0:0:
64,192,264654,1,0,0:0:0:0:
320,192,264733,1,0,0:0:0:0:
192,192,264812,1,0,0:0:0:0:
320,192,264891,1,0,0:0:0:0:
64,192,264970,1,0,0:0:0:0:
192,192,264970,1,0,0:0:0:0:
448,192,265049,1,0,0:0:0:0:
64,192,265128,1,0,0:0:0:0:
320,192,265128,1,0,0:0:0:0:
448,192,265207,1,0,0:0:0:0:
192,192,265286,1,0,0:0:0:0:
320,192,265286,1,0,0:0:0:0:
448,192,265365,1,0,0:0:0:0:
64,192,265444,1,0,0:0:0:0:
320,192,265523,1,0,0:0:0:0:
64,192,265602,1,0,0:0:0:0:
448,192,265602,1,0,0:0:0:0:
192,192,265681,1,0,0:0:0:0:
448,192,265760,1,0,0:0:0:0:
320,192,265839,1,0,0:0:0:0:
64,192,265918,1,0,0:0:0:0:
192,192,265918,1,0,0:0:0:0:
320,192,265997,1,0,0:0:0:0:
64,192,266076,1,0,0:0:0:0:
192,192,266154,1,0,0:0:0:0:
448,192,266233,1,0,0:0:0:0:
320,192,266233,1,0,0:0:0:0:
192,192,266312,1,0,0:0:0:0:
448,192,266391,1,0,0:0:0:0:
320,192,266470,1,0,0:0:0:0:
64,192,266549,1,0,0:0:0:0:
448,192,266549,1,0,0:0:0:0:
192,192,266628,1,0,0:0:0:0:
448,192,266707,1,0,0:0:0:0:
192,192,266786,1,0,0:0:0:0:
64,192,266865,1,0,0:0:0:0:
320,192,266865,1,0,0:0:0:0:
192,192,266944,1,0,0:0:0:0:
448,192,267023,1,0,0:0:0:0:
64,192,267102,1,0,0:0:0:0:
192,192,267181,1,0,0:0:0:0:
320,192,267181,1,0,0:0:0:0:
448,192,267260,1,0,0:0:0:0:
64,192,267339,1,0,0:0:0:0:
192,192,267418,1,0,0:0:0:0:
64,192,267497,1,0,0:0:0:0:
320,192,267497,1,0,0:0:0:0:
192,192,267576,1,0,0:0:0:0:
64,192,267654,1,0,0:0:0:0:
320,192,267733,1,0,0:0:0:0:
64,192,267812,1,0,0:0:0:0:
448,192,267812,1,0,0:0:0:0:
192,192,267891,1,0,0:0:0:0:
320,192,267970,1,0,0:0:0:0:
64,192,268049,1,0,0:0:0:0:
448,192,268128,1,0,0:0:0:0:
320,192,268128,1,0,0:0:0:0:
192,192,268207,1,0,0:0:0:0:
448,192,268286,1,0,0:0:0:0:
64,192,268365,1,0,0:0:0:0:
320,192,268444,1,0,0:0:0:0:
192,192,268444,1,0,0:0:0:0:
448,192,268523,1,0,0:0:0:0:
64,192,268602,1,0,0:0:0:0:
192,192,268681,1,0,0:0:0:0:
320,192,268760,1,0,0:0:0:0:
448,192,268760,1,0,0:0:0:0:
192,192,268839,1,0,0:0:0:0:
448,192,268918,1,0,0:0:0:0:
64,192,268997,1,0,0:0:0:0:
192,192,269076,1,0,0:0:0:0:
448,192,269076,1,0,0:0:0:0:
320,192,269154,1,0,0:0:0:0:
64,192,269233,1,0,0:0:0:0:
448,192,269312,1,0,0:0:0:0:
64,192,269391,1,0,0:0:0:0:
192,192,269391,1,0,0:0:0:0:
320,192,269470,1,0,0:0:0:0:
448,192,269549,1,0,0:0:0:0:
192,192,269628,1,0,0:0:0:0:
64,192,269707,1,0,0:0:0:0:
320,192,269707,1,0,0:0:0:0:
192,192,269786,1,0,0:0:0:0:
448,192,269865,1,0,0:0:0:0:
64,192,269944,1,0,0:0:0:0:
192,192,270023,1,0,0:0:0:0:
320,192,270023,1,0,0:0:0:0:
448,192,270102,1,0,0:0:0:0:
64,192,270181,1,0,0:0:0:0:
192,192,270260,1,0,0:0:0:0:
64,192,270339,1,0,0:0:0:0:
448,192,270339,1,0,0:0:0:0:
320,192,270418,1,0,0:0:0:0:
192,192,270497,1,0,0:0:0:0:
448,192,270576,1,0,0:0:0:0:
64,192,270654,1,0,0:0:0:0:
192,192,270654,1,0,0:0:0:0:
320,192,270733,1,0,0:0:0:0:
64,192,270812,1,0,0:0:0:0:
448,192,270891,1,0,0:0:0:0:
64,192,270970,1,0,0:0:0:0:
192,192,270970,1,0,0:0:0:0:
320,192,271049,1,0,0:0:0:0:
64,192,271128,1,0,0:0:0:0:
448,192,271207,1,0,0:0:0:0:
320,192,271286,1,0,0:0:0:0:
192,192,271286,1,0,0:0:0:0:
448,192,271365,1,0,0:0:0:0:
320,192,271444,1,0,0:0:0:0:
192,192,271523,1,0,0:0:0:0:
64,192,271602,1,0,0:0:0:0:
448,192,271602,1,0,0:0:0:0:
320,192,271681,1,0,0:0:0:0:
64,192,271760,1,0,0:0:0:0:
192,192,271839,1,0,0:0:0:0:
64,192,271918,1,0,0:0:0:0:
320,192,271918,1,0,0:0:0:0:
192,192,271997,1,0,0:0:0:0:
448,192,272076,1,0,0:0:0:0:
320,192,272154,1,0,0:0:0:0:
192,192,272233,1,0,0:0:0:0:
448,192,272233,1,0,0:0:0:0:
320,192,272312,1,0,0:0:0:0:
64,192,272391,1,0,0:0:0:0:
192,192,272470,1,0,0:0:0:0:
64,192,272549,1,0,0:0:0:0:
320,192,272549,1,0,0:0:0:0:
192,192,272628,1,0,0:0:0:0:
448,192,272707,1,0,0:0:0:0:
64,192,272786,1,0,0:0:0:0:
192,192,272865,1,0,0:0:0:0:
320,192,272865,1,0,0:0:0:0:
448,192,272944,1,0,0:0:0:0:
64,192,273023,1,0,0:0:0:0:
448,192,273102,1,0,0:0:0:0:
64,192,273181,1,0,0:0:0:0:
192,192,273181,1,0,0:0:0:0:
320,192,273260,1,0,0:0:0:0:
192,192,273339,1,0,0:0:0:0:
448,192,273418,1,0,0:0:0:0:
320,192,273497,1,0,0:0:0:0:
64,192,273497,1,0,0:0:0:0:
192,192,273576,1,0,0:0:0:0:
64,192,273654,1,0,0:0:0:0:
448,192,273733,1,0,0:0:0:0:
192,192,273812,1,0,0:0:0:0:
320,192,273812,1,0,0:0:0:0:
448,192,273891,1,0,0:0:0:0:
64,192,273970,1,0,0:0:0:0:
320,192,274049,1,0,0:0:0:0:
192,192,274128,1,0,0:0:0:0:
448,192,274128,1,0,0:0:0:0:
320,192,274207,1,0,0:0:0:0:
64,192,274286,1,0,0:0:0:0:
192,192,274365,1,0,0:0:0:0:
320,192,274444,1,0,0:0:0:0:
448,192,274444,1,0,0:0:0:0:
192,192,274523,1,0,0:0:0:0:
64,192,274602,1,0,0:0:0:0:
448,192,274681,1,0,0:0:0:0:
64,192,274760,1,0,0:0:0:0:
320,192,274760,1,0,0:0:0:0:
192,192,274839,1,0,0:0:0:0:
64,192,274918,1,0,0:0:0:0:
448,192,274997,1,0,0:0:0:0:
192,192,275076,1,0,0:0:0:0:
320,192,275076,1,0,0:0:0:0:
448,192,275154,1,0,0:0:0:0:
64,192,275233,1,0,0:0:0:0:
320,192,275233,1,0,0:0:0:0:
192,192,275312,1,0,0:0:0:0:
64,192,275391,1,0,0:0:0:0:
448,192,275391,1,0,0:0:0:0:
192,192,275470,1,0,0:0:0:0:
448,192,275549,1,0,0:0:0:0:
320,192,275628,1,0,0:0:0:0:
448,192,275707,1,0,0:0:0:0:
192,192,275707,1,0,0:0:0:0:
64,192,275786,1,0,0:0:0:0:
448,192,275865,1,0,0:0:0:0:
320,192,275944,1,0,0:0:0:0:
64,192,276023,1,0,0:0:0:0:
192,192,276023,1,0,0:0:0:0:
448,192,276102,1,0,0:0:0:0:
192,192,276181,1,0,0:0:0:0:
320,192,276260,1,0,0:0:0:0:
64,192,276339,1,0,0:0:0:0:
448,192,276339,1,0,0:0:0:0:
320,192,276418,1,0,0:0:0:0:
192,192,276497,1,0,0:0:0:0:
320,192,276576,1,0,0:0:0:0:
192,192,276654,1,0,0:0:0:0:
448,192,276654,1,0,0:0:0:0:
64,192,276733,1,0,0:0:0:0:
320,192,276812,1,0,0:0:0:0:
192,192,276891,1,0,0:0:0:0:
64,192,276970,1,0,0:0:0:0:
320,192,276970,1,0,0:0:0:0:
192,192,277049,1,0,0:0:0:0:
448,192,277128,1,0,0:0:0:0:
320,192,277207,1,0,0:0:0:0:
64,192,277286,1,0,0:0:0:0:
192,192,277286,1,0,0:0:0:0:
320,192,277365,1,0,0:0:0:0:
448,192,277444,1,0,0:0:0:0:
64,192,277523,1,0,0:0:0:0:
320,192,277602,1,0,0:0:0:0:
448,192,277602,1,0,0:0:0:0:
192,192,277681,1,0,0:0:0:0:
320,192,277760,1,0,0:0:0:0:
64,192,277839,1,0,0:0:0:0:
192,192,277918,1,0,0:0:0:0:
320,192,277918,1,0,0:0:0:0:
64,192,277997,1,0,0:0:0:0:
448,192,278076,1,0,0:0:0:0:
320,192,278154,1,0,0:0:0:0:
64,192,278233,1,0,0:0:0:0:
448,192,278233,1,0,0:0:0:0:
192,192,278312,1,0,0:0:0:0:
448,192,278391,1,0,0:0:0:0:
320,192,278470,1,0,0:0:0:0:
64,192,278549,1,0,0:0:0:0:
192,192,278549,1,0,0:0:0:0:
320,192,278628,1,0,0:0:0:0:
64,192,278707,1,0,0:0:0:0:
448,192,278786,1,0,0:0:0:0:
320,192,278865,1,0,0:0:0:0:
192,192,278865,1,0,0:0:0:0:
448,192,278944,1,0,0:0:0:0:
192,192,279023,1,0,0:0:0:0:
320,192,279102,1,0,0:0:0:0:
192,192,279181,1,0,0:0:0:0:
448,192,279181,1,0,0:0:0:0:
320,192,279260,1,0,0:0:0:0:
64,192,279339,1,0,0:0:0:0:
192,192,279418,1,0,0:0:0:0:
64,192,279497,1,0,0:0:0:0:
448,192,279497,1,0,0:0:0:0:
320,192,279576,1,0,0:0:0:0:
64,192,279654,1,0,0:0:0:0:
192,192,279733,1,0,0:0:0:0:
64,192,279812,1,0,0:0:0:0:
320,192,279812,1,0,0:0:0:0:
192,192,279891,1,0,0:0:0:0:
448,192,279970,1,0,0:0:0:0:
320,192,280049,1,0,0:0:0:0:
192,192,280128,1,0,0:0:0:0:
448,192,280128,1,0,0:0:0:0:
320,192,280207,1,0,0:0:0:0:
448,192,280286,1,0,0:0:0:0:
64,192,280365,1,0,0:0:0:0:
320,192,280444,1,0,0:0:0:0:
448,192,280444,1,0,0:0:0:0:
192,192,280523,1,0,0:0:0:0:
64,192,280602,1,0,0:0:0:0:
320,192,280681,1,0,0:0:0:0:
64,192,280760,1,0,0:0:0:0:
192,192,280760,1,0,0:0:0:0:
448,192,280839,1,0,0:0:0:0:
192,192,280918,1,0,0:0:0:0:
320,192,280997,1,0,0:0:0:0:
64,192,281076,1,0,0:0:0:0:
448,192,281076,1,0,0:0:0:0:
320,192,281154,1,0,0:0:0:0:
64,192,281233,1,0,0:0:0:0:
192,192,281312,1,0,0:0:0:0:
64,192,281391,1,0,0:0:0:0:
320,192,281391,1,0,0:0:0:0:
192,192,281470,1,0,0:0:0:0:
448,192,281549,1,0,0:0:0:0:
320,192,281628,1,0,0:0:0:0:
64,192,281707,1,0,0:0:0:0:
192,192,281707,1,0,0:0:0:0:
448,192,281786,1,0,0:0:0:0:
64,192,281865,1,0,0:0:0:0:
192,192,281944,1,0,0:0:0:0:
320,192,282023,1,0,0:0:0:0:
448,192,282023,1,0,0:0:0:0:
192,192,282102,1,0,0:0:0:0:
448,192,282181,1,0,0:0:0:0:
320,192,282260,1,0,0:0:0:0:
64,192,282339,1,0,0:0:0:0:
192,192,282339,1,0,0:0:0:0:
320,192,282418,1,0,0:0:0:0:
448,192,282497,1,0,0:0:0:0:
320,192,282576,1,0,0:0:0:0:
192,192,282654,1,0,0:0:0:0:
448,192,282654,1,0,0:0:0:0:
320,192,282733,1,0,0:0:0:0:
64,192,282812,1,0,0:0:0:0:
192,192,282891,1,0,0:0:0:0:
64,192,282970,1,0,0:0:0:0:
448,192,282970,1,0,0:0:0:0:
192,192,283049,1,0,0:0:0:0:
320,192,283128,1,0,0:0:0:0:
64,192,283207,1,0,0:0:0:0:
448,192,283286,1,0,0:0:0:0:
320,192,283286,1,0,0:0:0:0:
192,192,283365,1,0,0:0:0:0:
320,192,283444,1,0,0:0:0:0:
448,192,283523,1,0,0:0:0:0:
64,192,283602,1,0,0:0:0:0:
192,192,283602,1,0,0:0:0:0:
320,192,283681,1,0,0:0:0:0:
192,192,283760,1,0,0:0:0:0:
448,192,283839,1,0,0:0:0:0:
320,192,283918,1,0,0:0:0:0:
64,192,283918,1,0,0:0:0:0:
192,192,283997,1,0,0:0:0:0:
64,192,284076,1,0,0:0:0:0:
448,192,284154,1,0,0:0:0:0:
192,192,284233,1,0,0:0:0:0:
320,192,284233,1,0,0:0:0:0:
448,192,284312,1,0,0:0:0:0:
64,192,284391,1,0,0:0:0:0:
192,192,284470,1,0,0:0:0:0:
448,192,284549,1,0,0:0:0:0:
320,192,284549,1,0,0:0:0:0:
64,192,284628,1,0,0:0:0:0:
448,192,284707,1,0,0:0:0:0:
320,192,284786,1,0,0:0:0:0:
64,192,284865,1,0,0:0:0:0:
448,192,284865,1,0,0:0:0:0:
192,192,284944,1,0,0:0:0:0:
320,192,285023,1,0,0:0:0:0:
64,192,285102,1,0,0:0:0:0:
192,192,285181,1,0,0:0:0:0:
448,192,285181,1,0,0:0:0:0:
320,192,285260,1,0,0:0:0:0:
64,192,285339,1,0,0:0:0:0:
448,192,285339,1,0,0:0:0:0:
192,192,285418,1,0,0:0:0:0:
64,192,285497,1,0,0:0:0:0:
320,192,285497,1,0,0:0:0:0:
448,192,285576,1,0,0:0:0:0:
320,192,285655,1,0,0:0:0:0:
192,192,285734,1,0,0:0:0:0:
64,192,285813,1,0,0:0:0:0:
320,192,285813,1,0,0:0:0:0:
448,192,285813,1,0,0:0:0:0:
192,192,285971,1,0,0:0:0:0:
64,192,286129,1,0,0:0:0:0:
192,192,286129,1,0,0:0:0:0:
320,192,286208,1,0,0:0:0:0:
448,192,286287,1,0,0:0:0:0:
192,192,286366,1,0,0:0:0:0:
64,192,286445,1,0,0:0:0:0:
320,192,286445,1,0,0:0:0:0:
448,192,286445,1,0,0:0:0:0:
192,192,286603,1,0,0:0:0:0:
192,192,286761,1,0,0:0:0:0:
320,192,286761,1,0,0:0:0:0:
448,192,286840,1,0,0:0:0:0:
64,192,286919,1,0,0:0:0:0:
192,192,286998,1,0,0:0:0:0:
64,192,287076,1,0,0:0:0:0:
448,192,287076,1,0,0:0:0:0:
320,192,287076,1,0,0:0:0:0:
320,192,287234,1,0,0:0:0:0:
64,192,287392,1,0,0:0:0:0:
448,192,287392,1,0,0:0:0:0:
320,192,287471,1,0,0:0:0:0:
192,192,287550,1,0,0:0:0:0:
64,192,287629,1,0,0:0:0:0:
192,192,287708,1,0,0:0:0:0:
320,192,287708,1,0,0:0:0:0:
448,192,287708,1,0,0:0:0:0:
448,192,287866,1,0,0:0:0:0:
64,192,288024,1,0,0:0:0:0:
320,192,288024,1,0,0:0:0:0:
192,192,288103,1,0,0:0:0:0:
448,192,288182,1,0,0:0:0:0:
192,192,288261,1,0,0:0:0:0:
64,192,288340,1,0,0:0:0:0:
448,192,288340,1,0,0:0:0:0:
320,192,288340,1,0,0:0:0:0:
192,192,288498,1,0,0:0:0:0:
448,192,288655,1,0,0:0:0:0:
192,192,288655,1,0,0:0:0:0:
320,192,288734,1,0,0:0:0:0:
64,192,288813,1,0,0:0:0:0:
320,192,288892,1,0,0:0:0:0:
64,192,288971,1,0,0:0:0:0:
192,192,288971,1,0,0:0:0:0:
448,192,288971,1,0,0:0:0:0:
320,192,289129,1,0,0:0:0:0:
64,192,289287,1,0,0:0:0:0:
192,192,289287,1,0,0:0:0:0:
320,192,289366,1,0,0:0:0:0:
192,192,289445,1,0,0:0:0:0:
320,192,289524,1,0,0:0:0:0:
64,192,289603,1,0,0:0:0:0:
448,192,289603,1,0,0:0:0:0:
192,192,289603,1,0,0:0:0:0:
320,192,289761,1,0,0:0:0:0:
320,192,289919,1,0,0:0:0:0:
448,192,289919,1,0,0:0:0:0:
192,192,289998,1,0,0:0:0:0:
320,192,290076,1,0,0:0:0:0:
192,192,290155,1,0,0:0:0:0:
64,192,290234,1,0,0:0:0:0:
320,192,290234,1,0,0:0:0:0:
448,192,290234,1,0,0:0:0:0:
192,192,290392,1,0,0:0:0:0:
64,192,290550,1,0,0:0:0:0:
320,192,290550,1,0,0:0:0:0:
192,192,290629,1,0,0:0:0:0:
448,192,290708,1,0,0:0:0:0:
320,192,290787,1,0,0:0:0:0:
64,192,290866,1,0,0:0:0:0:
192,192,290866,1,0,0:0:0:0:
448,192,290866,1,0,0:0:0:0:
320,192,291024,1,0,0:0:0:0:
448,192,291182,1,0,0:0:0:0:
320,192,291182,1,0,0:0:0:0:
192,192,291261,1,0,0:0:0:0:
64,192,291340,1,0,0:0:0:0:
320,192,291419,1,0,0:0:0:0:
192,192,291498,1,0,0:0:0:0:
64,192,291498,1,0,0:0:0:0:
448,192,291498,1,0,0:0:0:0:
320,192,291655,1,0,0:0:0:0:
64,192,291813,1,0,0:0:0:0:
448,192,291813,1,0,0:0:0:0:
192,192,291892,1,0,0:0:0:0:
448,192,291971,1,0,0:0:0:0:
64,192,292050,1,0,0:0:0:0:
448,192,292129,1,0,0:0:0:0:
320,192,292129,1,0,0:0:0:0:
192,192,292129,1,0,0:0:0:0:
192,192,292287,1,0,0:0:0:0:
64,192,292445,1,0,0:0:0:0:
320,192,292445,1,0,0:0:0:0:
192,192,292524,1,0,0:0:0:0:
448,192,292603,1,0,0:0:0:0:
320,192,292682,1,0,0:0:0:0:
64,192,292761,1,0,0:0:0:0:
448,192,292761,1,0,0:0:0:0:
192,192,292761,1,0,0:0:0:0:
320,192,292919,1,0,0:0:0:0:
448,192,293076,1,0,0:0:0:0:
320,192,293076,1,0,0:0:0:0:
64,192,293155,1,0,0:0:0:0:
192,192,293234,1,0,0:0:0:0:
448,192,293313,1,0,0:0:0:0:
320,192,293392,1,0,0:0:0:0:
192,192,293392,1,0,0:0:0:0:
64,192,293392,1,0,0:0:0:0:
320,192,293550,1,0,0:0:0:0:
448,192,293708,1,0,0:0:0:0:
192,192,293708,1,0,0:0:0:0:
64,192,293787,1,0,0:0:0:0:
320,192,293866,1,0,0:0:0:0:
192,192,293945,1,0,0:0:0:0:
448,192,294024,1,0,0:0:0:0:
320,192,294024,1,0,0:0:0:0:
64,192,294024,1,0,0:0:0:0:
448,192,294182,1,0,0:0:0:0:
192,192,294340,1,0,0:0:0:0:
64,192,294340,1,0,0:0:0:0:
320,192,294419,1,0,0:0:0:0:
192,192,294498,1,0,0:0:0:0:
320,192,294576,1,0,0:0:0:0:
64,192,294655,1,0,0:0:0:0:
192,192,294655,1,0,0:0:0:0:
448,192,294655,1,0,0:0:0:0:
64,192,294813,1,0,0:0:0:0:
192,192,294971,1,0,0:0:0:0:
448,192,294971,1,0,0:0:0:0:
320,192,295050,1,0,0:0:0:0:
64,192,295129,1,0,0:0:0:0:
192,192,295208,1,0,0:0:0:0:
64,192,295287,1,0,0:0:0:0:
448,192,295287,1,0,0:0:0:0:
320,192,295366,1,0,0:0:0:0:
64,192,295445,1,0,0:0:0:0:
448,192,295445,1,0,0:0:0:0:
192,192,295524,1,0,0:0:0:0:
64,192,295603,1,0,0:0:0:0:
448,192,295603,1,0,0:0:0:0:
320,192,295603,1,0,0:0:0:0:
192,192,295682,1,0,0:0:0:0:
64,192,295761,1,0,0:0:0:0:
320,192,295840,1,0,0:0:0:0:
64,192,295919,1,0,0:0:0:0:
192,192,295919,1,0,0:0:0:0:
448,192,295919,1,0,0:0:0:0:
320,192,296076,1,0,0:0:0:0:
64,192,296234,1,0,0:0:0:0:
192,192,296234,1,0,0:0:0:0:
448,192,296313,1,0,0:0:0:0:
64,192,296392,1,0,0:0:0:0:
192,192,296471,1,0,0:0:0:0:
64,192,296550,1,0,0:0:0:0:
320,192,296550,1,0,0:0:0:0:
448,192,296550,1,0,0:0:0:0:
448,192,296708,1,0,0:0:0:0:
64,192,296866,1,0,0:0:0:0:
320,192,296866,1,0,0:0:0:0:
192,192,296945,1,0,0:0:0:0:
320,192,297024,1,0,0:0:0:0:
64,192,297103,1,0,0:0:0:0:
192,192,297182,1,0,0:0:0:0:
320,192,297182,1,0,0:0:0:0:
448,192,297182,1,0,0:0:0:0:
320,192,297340,1,0,0:0:0:0:
64,192,297498,1,0,0:0:0:0:
448,192,297498,1,0,0:0:0:0:
320,192,297576,1,0,0:0:0:0:
64,192,297655,1,0,0:0:0:0:
192,192,297734,1,0,0:0:0:0:
64,192,297813,1,0,0:0:0:0:
320,192,297813,1,0,0:0:0:0:
448,192,297813,1,0,0:0:0:0:
192,192,297971,1,0,0:0:0:0:
320,192,298129,1,0,0:0:0:0:
448,192,298129,1,0,0:0:0:0:
192,192,298208,1,0,0:0:0:0:
64,192,298287,1,0,0:0:0:0:
320,192,298366,1,0,0:0:0:0:
64,192,298445,1,0,0:0:0:0:
192,192,298445,1,0,0:0:0:0:
448,192,298445,1,0,0:0:0:0:
64,192,298603,1,0,0:0:0:0:
192,192,298761,1,0,0:0:0:0:
320,192,298761,1,0,0:0:0:0:
64,192,298840,1,0,0:0:0:0:
320,192,298919,1,0,0:0:0:0:
192,192,298998,1,0,0:0:0:0:
64,192,299076,1,0,0:0:0:0:
320,192,299076,1,0,0:0:0:0:
448,192,299076,1,0,0:0:0:0:
320,192,299234,1,0,0:0:0:0:
64,192,299392,1,0,0:0:0:0:
192,192,299392,1,0,0:0:0:0:
320,192,299471,1,0,0:0:0:0:
64,192,299550,1,0,0:0:0:0:
192,192,299629,1,0,0:0:0:0:
64,192,299708,1,0,0:0:0:0:
320,192,299708,1,0,0:0:0:0:
448,192,299708,1,0,0:0:0:0:
64,192,299866,1,0,0:0:0:0:
448,192,300024,1,0,0:0:0:0:
320,192,300024,1,0,0:0:0:0:
64,192,300103,1,0,0:0:0:0:
448,192,300182,1,0,0:0:0:0:
192,192,300261,1,0,0:0:0:0:
64,192,300340,1,0,0:0:0:0:
448,192,300340,1,0,0:0:0:0:
320,192,300340,1,0,0:0:0:0:
64,192,300498,1,0,0:0:0:0:
192,192,300498,1,0,0:0:0:0:
448,192,300498,1,0,0:0:0:0:
64,192,300655,1,0,0:0:0:0:
448,192,300655,1,0,0:0:0:0:
320,192,300655,1,0,0:0:0:0:
192,192,300734,1,0,0:0:0:0:
64,192,300813,1,0,0:0:0:0:
192,192,300892,1,0,0:0:0:0:
64,192,300971,1,0,0:0:0:0:
320,192,300971,1,0,0:0:0:0:
448,192,300971,1,0,0:0:0:0:
192,192,301050,1,0,0:0:0:0:
64,192,301129,1,0,0:0:0:0:
192,192,301208,1,0,0:0:0:0:
64,192,301287,1,0,0:0:0:0:
320,192,301287,1,0,0:0:0:0:
448,192,301287,1,0,0:0:0:0:
192,192,301366,1,0,0:0:0:0:
64,192,301445,1,0,0:0:0:0:
192,192,301524,1,0,0:0:0:0:
64,192,301603,1,0,0:0:0:0:
320,192,301603,1,0,0:0:0:0:
448,192,301603,1,0,0:0:0:0:
192,192,301682,1,0,0:0:0:0:
64,192,301761,1,0,0:0:0:0:
320,192,301840,1,0,0:0:0:0:
448,192,301919,1,0,0:0:0:0:
64,192,301919,1,0,0:0:0:0:
192,192,301919,1,0,0:0:0:0:
320,192,301998,1,0,0:0:0:0:
448,192,302076,1,0,0:0:0:0:
320,192,302155,1,0,0:0:0:0:
64,192,302234,1,0,0:0:0:0:
192,192,302234,1,0,0:0:0:0:
448,192,302234,1,0,0:0:0:0:
320,192,302313,1,0,0:0:0:0:
448,192,302392,1,0,0:0:0:0:
320,192,302471,1,0,0:0:0:0:
64,192,302550,1,0,0:0:0:0:
192,192,302550,1,0,0:0:0:0:
448,192,302550,1,0,0:0:0:0:
320,192,302629,1,0,0:0:0:0:
448,192,302708,1,0,0:0:0:0:
320,192,302787,1,0,0:0:0:0:
64,192,302866,1,0,0:0:0:0:
192,192,302866,1,0,0:0:0:0:
448,192,302866,1,0,0:0:0:0:
320,192,302945,1,0,0:0:0:0:
448,192,303024,1,0,0:0:0:0:
320,192,303103,1,0,0:0:0:0:
64,192,303182,1,0,0:0:0:0:
192,192,303182,1,0,0:0:0:0:
320,192,303261,1,0,0:0:0:0:
448,192,303261,1,0,0:0:0:0:
64,192,303340,1,0,0:0:0:0:
192,192,303340,1,0,0:0:0:0:
320,192,303419,1,0,0:0:0:0:
448,192,303419,1,0,0:0:0:0:
64,192,303498,1,0,0:0:0:0:
192,192,303498,1,0,0:0:0:0:
320,192,303576,1,0,0:0:0:0:
448,192,303576,1,0,0:0:0:0:
64,192,303655,1,0,0:0:0:0:
192,192,303655,1,0,0:0:0:0:
320,192,303734,1,0,0:0:0:0:
448,192,303734,1,0,0:0:0:0:
64,192,303813,1,0,0:0:0:0:
192,192,303813,1,0,0:0:0:0:
320,192,303892,1,0,0:0:0:0:
448,192,303892,1,0,0:0:0:0:
64,192,303971,1,0,0:0:0:0:
192,192,303971,1,0,0:0:0:0:
320,192,304050,1,0,0:0:0:0:
448,192,304050,1,0,0:0:0:0:
64,192,304129,1,0,0:0:0:0:
320,192,304169,1,0,0:0:0:0:
192,192,304208,1,0,0:0:0:0:
448,192,304248,1,0,0:0:0:0:
64,192,304287,1,0,0:0:0:0:
320,192,304326,1,0,0:0:0:0:
192,192,304366,1,0,0:0:0:0:
448,192,304405,1,0,0:0:0:0:
64,192,304445,1,0,0:0:0:0:
192,192,304445,1,0,0:0:0:0:
320,192,304603,1,0,0:0:0:0:
64,192,304603,1,0,0:0:0:0:
192,192,304603,1,0,0:0:0:0:
448,192,304682,1,0,0:0:0:0:
320,192,304761,1,0,0:0:0:0:
192,192,304761,1,0,0:0:0:0:
64,192,304919,1,0,0:0:0:0:
192,192,304919,1,0,0:0:0:0:
320,192,304919,1,0,0:0:0:0:
448,192,304998,1,0,0:0:0:0:
64,192,305076,1,0,0:0:0:0:
320,192,305076,1,0,0:0:0:0:
192,192,305155,1,0,0:0:0:0:
320,192,305234,1,0,0:0:0:0:
448,192,305313,1,0,0:0:0:0:
64,192,305392,1,0,0:0:0:0:
192,192,305392,1,0,0:0:0:0:
320,192,305471,1,0,0:0:0:0:
64,192,305550,1,0,0:0:0:0:
192,192,305570,1,0,0:0:0:0:
320,192,305590,1,0,0:0:0:0:
448,192,305609,1,0,0:0:0:0:
320,192,305669,1,0,0:0:0:0:
448,192,305688,1,0,0:0:0:0:
64,192,305708,128,0,306971:0:0:0:0:
192,192,305708,128,0,308234:0:0:0:0:
320,192,306971,128,0,310761:0:0:0:0:
448,192,308234,128,0,310761:0:0:0:0:
