osu file format v14

[General]
AudioFilename: audio.mp3
AudioLeadIn: 0
PreviewTime: 108462
Countdown: 0
SampleSet: Soft
StackLeniency: 0.7
Mode: 0
LetterboxInBreaks: 0
WidescreenStoryboard: 0

[Editor]
DistanceSpacing: 1.5
BeatDivisor: 8
GridSize: 8
TimelineZoom: 4.1

[Metadata]
Title:Akasagarbha (Hardcore Mix)
TitleUnicode:Akasagarbha (Hardcore Mix)
Artist:ETIA.
ArtistUnicode:ETIA.
Creator:Hicool
Version:ChunWui Lee
Source:BMS
Tags:
BeatmapID:1769773
BeatmapSetID:846205

[Difficulty]
HPDrainRate:6
CircleSize:4
OverallDifficulty:9
ApproachRate:9.8
SliderMultiplier:1.6
SliderTickRate:2

[Events]
//Background and Video events
0,0,"header.jpg",0,0
//Break Periods
2,88975,97671
2,130225,131577
//Storyboard Layer 0 (Background)
//Storyboard Layer 1 (Fail)
//Storyboard Layer 2 (Pass)
//Storyboard Layer 3 (Foreground)
//Storyboard Layer 4 (Overlay)
//Storyboard Sound Samples

[TimingPoints]
1275,312.5,4,2,1,80,1,0
8775,-100,4,2,1,80,0,0
27525,-83.3333333333333,4,2,1,80,0,0
28775,-76.9230769230769,4,2,1,100,0,0
38775,-76.9230769230769,4,2,1,100,0,0
39087,-52.6315789473684,4,2,1,100,0,0
39243,-76.9230769230769,4,2,1,100,0,0
47681,-100,4,2,1,100,0,0
48775,-83.3333333333333,4,2,1,100,0,0
67525,-333.333333333334,4,2,1,100,0,0
68775,-83.3333333333333,4,2,1,100,0,0
87525,-166.666666666667,4,2,1,100,0,0
88150,-43.4782608695652,4,2,1,100,0,0
98150,-83.3333333333333,4,2,1,100,0,0
105025,-71.4285714285714,4,2,1,100,0,0
106275,-62.5,4,2,1,100,0,0
106743,-55.5555555555556,4,2,1,100,0,0
107056,-50,4,2,1,100,0,0
108462,-66.6666666666667,4,2,1,100,0,0
108775,-55.5555555555556,4,2,1,100,0,0
118150,-33.3333333333333,4,2,1,100,0,0
118384,-25,4,2,1,100,0,0
118462,-25,4,2,2,100,0,0
118540,-25,4,2,1,100,0,0
118618,-55.5555555555556,4,2,1,100,0,0
119243,-40,4,2,1,100,0,0
123150,-55.5555555555556,4,2,1,100,0,0
124087,-55.5555555555556,4,2,2,100,0,0
124165,-55.5555555555556,4,2,1,100,0,0
124712,-55.5555555555556,4,2,2,100,0,0
124790,-55.5555555555556,4,2,1,100,0,0
125337,-55.5555555555556,4,2,2,100,0,0
125415,-55.5555555555556,4,2,1,100,0,0
125962,-55.5555555555556,4,2,2,100,0,0
126040,-55.5555555555556,4,2,1,100,0,0
131900,-399.999999999997,4,2,1,100,0,0
132525,-79.9999999999999,4,2,1,100,0,0
151275,-133.333333333333,4,2,1,100,0,0
160962,-90.9090909090909,4,2,1,100,0,0
163775,-33.3333333333333,4,2,1,100,0,0
165025,-83.3333333333333,4,2,1,100,0,0
169712,-62.5,4,2,1,100,0,0
170025,-62.5,4,2,1,100,0,0
179400,-33.3333333333333,4,2,1,100,0,0
179634,-25,4,2,1,100,0,0
179712,-25,4,2,2,100,0,0
179790,-25,4,2,1,100,0,0
180025,-55.5555555555556,4,2,1,100,0,0
180493,-40,4,2,1,100,0,0
184400,-55.5555555555556,4,2,1,100,0,0
185337,-55.5555555555556,4,2,2,100,0,0
185415,-55.5555555555556,4,2,1,100,0,0
186587,-55.5555555555556,4,2,2,100,0,0
186665,-55.5555555555556,4,2,1,100,0,0
188306,-62.5,4,2,1,100,0,0
190025,-71.4285714285714,4,2,1,100,0,0
192525,-83.3333333333333,4,2,1,100,0,0
205650,-55.5555555555556,4,2,1,100,0,0
210025,-133.333333333333,4,2,1,100,0,0

[Colours]
Combo1 : 255,255,255
Combo2 : 255,255,255
Combo3 : 255,255,255
Combo4 : 255,255,255

[HitObjects]
66,132,1275,5,0,0:0:0:0:
66,132,3150,5,0,0:0:0:0:
140,177,3462,1,0,0:0:0:0:
126,258,3775,1,2,0:0:0:0:
120,270,4400,1,0,0:0:0:0:
114,285,5025,1,0,0:0:0:0:
181,357,5493,1,0,0:0:0:0:
195,354,5962,5,0,0:0:0:0:
362,312,6275,1,0,0:0:0:0:
273,271,6431,1,0,0:0:0:0:
255,179,6587,1,0,0:0:0:0:
312,100,6743,1,0,0:0:0:0:
323,108,7056,1,0,0:0:0:0:
180,246,7212,1,0,0:0:0:0:
131,53,7525,5,2,0:0:0:0:
133,58,7993,1,2,0:0:0:0:
137,65,8462,2,0,L|150:97,6,20,2|0|0|0|0|0|0,0:0|0:0|0:0|0:0|0:0|0:0|0:0,0:0:0:0:
156,123,8775,6,0,B|116:113|116:113|78:123,1,80,2|0,0:0|0:0,0:0:0:0:
138,268,9087,6,0,B|178:278|178:278|215:267,1,80,2|0,0:0|0:0,0:0:0:0:
285,196,9400,1,2,0:0:0:0:
225,350,9556,1,0,0:0:0:0:
138,268,9712,1,2,0:0:0:0:
370,307,9868,1,0,0:0:0:0:
370,307,9946,1,0,0:0:0:0:
370,306,10025,6,0,P|383:268|377:229,1,80,2|0,0:0|0:0,0:0:0:0:
215,146,10337,2,0,P|201:183|207:222,1,80,2|0,0:0|0:0,0:0:0:0:
341,384,10650,1,2,0:0:0:0:
370,306,10806,1,0,0:0:0:0:
292,277,10962,1,2,0:0:0:0:
263,355,11118,1,0,0:0:0:0:
438,212,11275,6,0,L|345:217,1,80,2|0,0:0|0:0,0:0:0:0:
183,350,11587,2,0,L|276:355,1,80,2|0,0:0|0:0,0:0:0:0:
113,177,11900,1,2,0:0:0:0:
87,268,12056,1,0,0:0:0:0:
270,222,12212,1,2,0:0:0:0:
139,86,12368,1,0,0:0:0:0:
178,245,12525,5,2,0:0:0:0:
205,155,12681,1,0,2:0:0:0:
87,268,12837,1,2,0:0:0:0:
270,222,12993,1,0,0:0:0:0:
113,177,13150,1,2,0:0:0:0:
153,336,13306,1,0,0:0:0:0:
205,155,13462,1,2,2:0:0:0:
22,200,13618,1,0,2:0:0:0:
153,336,13775,6,0,P|171:301|170:261,1,80,2|0,0:0|0:0,0:0:0:0:
22,200,14087,2,0,P|42:233|77:252,1,80,2|0,0:0|0:0,0:0:0:0:
205,155,14400,2,0,P|165:156|132:177,1,80,2|0,0:0|0:0,0:0:0:0:
153,336,14712,1,2,0:0:0:0:
335,290,14868,1,0,0:0:0:0:
335,290,14946,1,0,0:0:0:0:
335,290,15025,6,0,L|249:275,1,80,2|0,0:0|0:0,0:0:0:0:
131,211,15337,2,0,L|187:144,1,80,2|0,0:0|0:0,0:0:0:0:
301,74,15650,2,0,L|331:156,1,80,2|0,0:0|0:0,0:0:0:0:
362,365,15962,2,0,L|334:289,1,80,2|0,0:0|0:0,0:0:0:0:
53,197,16275,6,0,L|131:211,1,80,2|0,0:0|0:0,0:0:0:0:
352,13,16587,2,0,L|301:75,1,80,2|0,0:0|0:0,0:0:0:0:
222,163,16900,1,2,0:0:0:0:
139,58,17056,1,0,0:0:0:0:
141,77,17134,1,0,0:0:0:0:
143,94,17212,1,2,0:0:0:0:
222,163,17368,1,0,0:0:0:0:
55,86,17525,6,0,B|25:89|-6:76|-6:76|5:91,1,80,2|0,0:0|0:0,0:0:0:0:
241,178,17837,2,0,B|271:181|302:168|302:168|291:183,1,80,2|0,0:0|0:0,0:0:0:0:
50,265,18150,2,0,B|20:268|-11:255|-11:255|0:270,1,80,2|0,0:0|0:0,0:0:0:0:
235,353,18462,1,2,0:0:0:0:
235,353,18618,1,2,0:0:0:0:
50,265,18775,6,0,P|32:229|37:190,1,80,2|0,0:0|0:0,0:0:0:0:
87,110,19087,1,2,0:0:0:0:
171,156,19243,1,0,0:0:0:0:
244,89,19400,1,2,0:0:0:0:
273,94,19478,1,0,0:0:0:0:
297,99,19556,1,0,0:0:0:0:
344,180,19712,1,2,0:0:0:0:
315,185,19790,1,0,0:0:0:0:
291,190,19868,1,0,0:0:0:0:
230,274,20025,5,2,0:0:0:0:
259,279,20103,1,0,0:0:0:0:
283,284,20181,1,0,0:0:0:0:
330,365,20337,1,2,0:0:0:0:
301,370,20415,1,0,0:0:0:0:
277,375,20493,1,0,0:0:0:0:
95,288,20650,5,2,0:0:0:0:
100,312,20728,1,0,0:0:0:0:
105,341,20806,1,0,0:0:0:0:
293,231,20962,1,2,0:0:0:0:
288,255,21040,1,0,0:0:0:0:
283,284,21118,1,0,0:0:0:0:
138,152,21275,5,2,0:0:0:0:
143,176,21353,1,0,0:0:0:0:
148,205,21431,1,0,0:0:0:0:
383,122,21587,1,2,0:0:0:0:
378,146,21665,1,0,0:0:0:0:
373,175,21743,1,0,0:0:0:0:
189,45,21900,5,2,0:0:0:0:
213,50,21978,1,0,0:0:0:0:
242,55,22056,1,0,0:0:0:0:
138,152,22212,1,2,0:0:0:0:
114,157,22290,1,0,0:0:0:0:
85,162,22368,1,0,0:0:0:0:
220,239,22525,5,2,0:0:0:0:
244,244,22603,1,0,0:0:0:0:
273,249,22681,1,0,0:0:0:0:
169,346,22837,1,2,0:0:0:0:
145,351,22915,1,0,0:0:0:0:
116,356,22993,1,0,0:0:0:0:
16,270,23150,5,2,0:0:0:0:
16,270,23228,1,0,0:0:0:0:
16,270,23306,1,0,0:0:0:0:
220,239,23462,1,2,0:0:0:0:
85,162,23618,1,2,0:0:0:0:
306,364,23775,6,0,B|321:327|321:327|316:276,1,80,2|0,0:0|0:0,0:0:0:0:
231,162,24087,2,0,B|216:199|216:199|221:250,1,80,2|0,0:0|0:0,0:0:0:0:
393,341,24400,1,2,0:0:0:0:
441,221,24556,1,0,0:0:0:0:
226,332,24712,1,2,0:0:0:0:
226,332,24790,1,0,0:0:0:0:
226,332,24868,1,0,0:0:0:0:
39,259,25025,5,2,0:0:0:0:
59,241,25103,1,0,0:0:0:0:
87,241,25181,1,0,0:0:0:0:
244,115,25337,5,2,0:0:0:0:
249,142,25415,1,0,0:0:0:0:
235,166,25493,1,0,0:0:0:0:
265,364,25650,1,2,0:0:0:0:
240,355,25728,1,0,0:0:0:0:
226,332,25806,1,0,0:0:0:0:
244,115,25962,1,2,0:0:0:0:
413,248,26118,1,0,0:0:0:0:
146,337,26275,6,0,L|107:341,2,40,2|0|0,0:0|0:0|0:0,0:0:0:0:
373,244,26587,2,0,L|413:248,2,40,2|0|0,0:0|0:0|0:0,0:0:0:0:
125,142,26900,2,0,L|86:146,2,40,2|0|0,0:0|0:0|0:0,0:0:0:0:
399,36,27212,2,0,L|346:31,1,40,2|0,0:0|0:0,0:0:0:0:
255,192,27368,2,0,L|308:187,1,40,2|0,0:0|0:0,0:0:0:0:
444,123,27525,6,0,B|373:126|373:126|339:106|339:106|251:111,1,191.999994140625,2|0,0:0|0:0,0:0:0:0:
62,342,27993,2,0,B|133:345|133:345|167:325|167:325|255:330,1,191.999994140625,2|0,0:0|0:0,0:0:0:0:
422,273,28462,2,0,P|417:262|408:253,7,23.9999992675781,10|10|10|10|10|10|10|10,0:0|0:0|0:0|0:0|0:0|0:0|0:0|0:0,0:0:0:0:
333,300,28775,6,0,L|342:189,1,103.999995239258,2|0,0:0|0:0,0:0:0:0:
398,117,29087,1,10,0:0:0:0:
249,219,29243,2,0,B|199:231|199:231|146:223,1,103.999995239258,0|2,0:0|0:0,0:0:0:0:
59,212,29556,1,0,0:0:0:0:
177,353,29712,1,10,0:0:0:0:
177,353,29764,1,0,0:0:0:0:
177,353,29816,1,0,0:0:0:0:
177,353,29868,1,0,0:0:0:0:
354,179,30025,6,0,P|362:230|343:278,1,103.999995239258,2|0,0:0|0:0,0:0:0:0:
249,219,30337,1,10,0:0:0:0:
367,80,30493,2,0,P|415:97|446:138,2,103.999995239258,0|2|0,0:0|0:0|0:0,0:0:0:0:
249,219,30962,1,10,0:0:0:0:
155,40,31118,1,0,0:0:0:0:
155,40,31196,1,0,0:0:0:0:
155,40,31275,6,0,L|258:30,1,103.999995239258,2|0,0:0|0:0,0:0:0:0:
367,80,31587,1,10,0:0:0:0:
153,277,31743,2,0,P|133:229|142:179,2,103.999995239258,0|2|0,0:0|0:0|0:0,0:0:0:0:
249,219,32212,1,10,0:0:0:0:
69,379,32368,1,0,0:0:0:0:
359,345,32525,6,0,L|255:335,1,103.999995239258,2|0,0:0|0:0,0:0:0:0:
38,188,32837,2,0,L|141:178,1,103.999995239258,10|0,0:0|0:0,0:0:0:0:
402,34,33150,2,0,L|298:24,1,103.999995239258,2|0,0:0|0:0,0:0:0:0:
200,16,33462,1,10,0:0:0:0:
200,16,33618,1,0,0:0:0:0:
402,236,33775,6,0,B|365:134|437:132|401:32,1,207.999990478516,2|10,0:0|0:0,0:0:0:0:
302,140,34243,1,0,0:0:0:0:
493,92,34400,1,2,0:0:0:0:
305,32,34556,1,0,0:0:0:0:
305,32,34634,1,0,0:0:0:0:
305,32,34712,1,10,0:0:0:0:
474,197,34868,1,0,0:0:0:0:
246,260,35025,6,0,B|198:232|198:232|86:240,1,155.999992858887,2|0,0:0|0:0,0:0:0:0:
60,245,35337,1,10,0:0:0:0:
277,335,35493,2,0,B|313:314|345:318|345:318|317:300,1,103.999995239258,0|2,0:0|0:0,0:0:0:0:
246,260,35806,1,0,0:0:0:0:
386,352,35962,2,0,B|414:335|414:335|382:339|346:318,1,103.999995239258,10|0,0:0|0:0,0:0:0:0:
267,119,36275,6,0,P|209:165|225:237,1,155.999992858887,2|0,0:0|0:0,0:0:0:0:
246,260,36588,1,10,0:0:0:0:
421,197,36743,2,0,B|381:191|381:191|357:204|357:204|320:200,1,103.999995239258,0|2,0:0|0:0,0:0:0:0:
196,190,37056,1,0,0:0:0:0:
256,365,37212,2,0,B|296:359|296:359|320:372|320:372|356:368,1,103.999995239258,10|0,0:0|0:0,0:0:0:0:
165,380,37525,5,2,0:0:0:0:
314,258,37681,1,0,2:0:0:0:
204,276,37837,1,10,2:0:0:0:
384,344,37994,1,0,2:0:0:0:
244,172,38150,1,2,2:0:0:0:
452,98,38306,1,2,0:0:0:0:
458,111,38384,1,2,0:0:0:0:
464,122,38462,2,0,L|455:179,1,51.999997619629,10|0,0:0|0:0,0:0:0:0:
474,251,38618,2,0,L|465:302,1,51.999997619629,10|0,0:0|0:0,0:0:0:0:
358,365,38775,6,0,B|298:352|298:352|270:367|270:367|207:357,1,155.999992858887,2|0,0:0|0:0,0:0:0:0:
168,351,39087,1,10,0:0:0:0:
272,178,39243,2,0,P|322:172|362:204,1,103.999995239258,0|2,0:0|0:0,0:0:0:0:
393,287,39556,1,0,0:0:0:0:
336,87,39712,1,10,0:0:0:0:
336,87,39764,1,0,0:0:0:0:
336,87,39816,1,0,0:0:0:0:
336,87,39868,1,0,0:0:0:0:
227,259,40025,6,0,B|176:265|176:232|127:238,1,103.999995239258,2|0,0:0|0:0,0:0:0:0:
43,287,40337,1,10,0:0:0:0:
303,195,40493,2,0,P|331:237|325:288,2,103.999995239258,0|2|0,0:0|0:0|0:0,0:0:0:0:
227,259,40962,1,10,0:0:0:0:
273,78,41118,1,0,0:0:0:0:
474,244,41275,6,0,L|367:231,1,103.999995239258,2|0,0:0|0:0,0:0:0:0:
303,195,41587,1,10,0:0:0:0:
303,381,41743,2,0,P|331:339|325:288,2,103.999995239258,0|2|0,0:0|0:0|0:0,0:0:0:0:
227,259,42212,1,10,0:0:0:0:
168,367,42368,1,0,0:0:0:0:
406,262,42525,6,0,P|383:216|336:196,1,103.999995239258,2|0,0:0|0:0,0:0:0:0:
120,286,42837,2,0,P|170:290|211:259,1,103.999995239258,10|0,0:0|0:0,0:0:0:0:
241,27,43150,2,0,P|213:69|219:120,1,103.999995239258,2|0,0:0|0:0,0:0:0:0:
324,287,43462,1,10,0:0:0:0:
324,287,43618,1,2,0:0:0:0:
142,107,43775,2,0,B|107:128|47:132|47:132|78:139|97:157,1,155.999992858887,2|0,0:0|0:0,0:0:0:0:
163,202,44087,1,10,0:0:0:0:
274,154,44243,1,0,0:0:0:0:
148,350,44400,6,0,B|138:239|138:239|162:201,1,155.999992858887,2|0,0:0|0:0,0:0:0:0:
274,154,44712,1,10,0:0:0:0:
343,263,44868,5,0,0:0:0:0:
465,78,45025,2,0,B|384:80|384:80|353:72|353:72|310:73,1,155.999992858887,2|0,0:0|0:0,0:0:0:0:
310,73,45337,1,10,0:0:0:0:
258,248,45493,2,0,P|283:203|273:153,1,103.999995239258,0|2,0:0|0:0,0:0:0:0:
76,66,45806,1,0,0:0:0:0:
67,76,45884,1,0,0:0:0:0:
59,87,45962,2,0,L|65:190,1,103.999995239258,10|0,0:0|0:0,0:0:0:0:
176,334,46275,6,0,P|237:290|310:309,1,155.999992858887,2|0,0:0|0:0,0:0:0:0:
370,371,46587,1,10,0:0:0:0:
472,302,46743,2,0,L|478:192,1,103.999995239258,0|2,0:0|0:0,0:0:0:0:
302,107,47056,2,0,L|307:210,1,103.999995239258,0|10,0:0|0:0,0:0:0:0:
379,283,47368,1,0,0:0:0:0:
93,170,47525,1,2,0:0:0:0:
307,210,47681,6,0,L|386:201,1,80
172,161,47993,2,0,L|92:169,1,80
273,36,48306,1,2,0:0:0:0:
281,43,48384,1,2,0:0:0:0:
288,48,48462,1,8,0:0:0:0:
172,161,48618,1,2,0:0:0:0:
384,287,48775,6,0,P|365:219|416:159,1,143.999995605469,2|0,0:0|0:0,0:0:0:0:
481,128,49087,2,0,B|448:91|448:91|401:85,1,95.9999970703126,10|0,0:0|0:0,0:0:0:0:
280,170,49400,1,2,0:0:0:0:
448,237,49556,1,0,0:0:0:0:
384,82,49712,1,10,0:0:0:0:
210,231,49868,1,0,0:0:0:0:
210,231,49946,1,0,0:0:0:0:
209,230,50025,6,0,P|183:190|187:143,1,95.9999970703126,2|0,0:0|0:0,0:0:0:0:
59,293,50337,2,0,P|84:253|81:206,1,95.9999970703126,10|0,0:0|0:0,0:0:0:0:
41,116,50650,1,2,0:0:0:0:
280,170,50806,1,0,0:0:0:0:
138,55,50962,1,10,0:0:0:0:
237,290,51118,1,0,0:0:0:0:
237,290,51196,1,0,0:0:0:0:
237,290,51275,6,0,L|247:194,1,95.9999970703126,2|4,0:0|3:2,0:0:0:0:
260,98,51587,1,12,3:2:0:0:
3,230,51743,2,0,B|39:247|71:223|71:223|116:219|140:240,1,143.999995605469,4|0,3:2|0:0,0:0:0:0:
167,263,52056,1,4,3:2:0:0:
349,220,52212,1,14,3:2:0:0:
172,125,52368,1,4,3:2:0:0:
234,323,52525,5,2,0:0:0:0:
271,155,52681,1,4,3:2:0:0:
80,268,52837,1,14,3:2:0:0:
275,59,52993,2,0,B|339:54|342:110|407:104,1,143.999995605469,4|0,3:2|0:0,0:0:0:0:
446,103,53306,1,4,3:2:0:0:
231,187,53462,1,14,3:2:0:0:
430,277,53618,1,6,3:2:0:0:
178,375,53775,6,0,P|137:318|68:319,1,143.999995605469,2|0,0:0|0:0,0:0:0:0:
40,231,54087,2,0,P|85:220|113:182,1,95.9999970703126,10|0,0:0|0:0,0:0:0:0:
89,69,54400,1,2,0:0:0:0:
213,232,54556,1,0,0:0:0:0:
203,38,54712,1,10,0:0:0:0:
106,265,54868,1,0,0:0:0:0:
106,265,54946,1,0,0:0:0:0:
105,265,55025,6,0,P|58:271|14:253,1,95.9999970703126,2|0,0:0|0:0,0:0:0:0:
232,115,55337,2,0,P|279:108|323:126,1,95.9999970703126,10|0,0:0|0:0,0:0:0:0:
429,197,55650,1,2,0:0:0:0:
372,32,55806,1,0,0:0:0:0:
267,214,55962,1,10,0:0:0:0:
439,101,56118,1,0,0:0:0:0:
439,101,56196,1,0,0:0:0:0:
439,100,56275,6,0,P|485:107|517:142,1,95.9999970703126,2|4,0:0|3:2,0:0:0:0:
471,263,56587,1,14,3:2:0:0:
308,359,56743,2,0,B|245:342|245:342|221:351|221:351|168:340,1,143.999995605469,4|0,3:2|0:0,0:0:0:0:
120,330,57056,1,4,3:2:0:0:
357,272,57212,1,14,3:2:0:0:
172,154,57368,1,4,3:2:0:0:
257,323,57525,5,2,0:0:0:0:
298,142,57681,1,4,3:2:0:0:
163,14,57837,1,14,3:2:0:0:
247,213,57993,1,4,3:2:0:0:
435,128,58150,1,2,0:0:0:0:
295,16,58306,1,2,3:2:0:0:
295,16,58384,1,2,0:0:0:0:
295,16,58462,2,0,P|295:45|302:86,1,47.9999985351563,10|0,3:2|0:0,0:0:0:0:
435,128,58618,2,0,P|435:150|431:176,1,47.9999985351563,10|0,3:2|0:0,0:0:0:0:
297,276,58775,6,0,P|230:252|166:282,1,143.999995605469,2|0,0:0|0:0,0:0:0:0:
130,359,59087,2,0,P|94:328|85:282,1,95.9999970703126,10|0,0:0|0:0,0:0:0:0:
133,170,59400,1,2,0:0:0:0:
235,331,59556,1,0,0:0:0:0:
309,105,59712,1,10,0:0:0:0:
206,225,59868,1,0,0:0:0:0:
206,225,59946,1,0,0:0:0:0:
207,225,60025,6,0,P|222:180|216:132,1,95.9999970703126,2|0,0:0|0:0,0:0:0:0:
367,285,60337,2,0,P|351:240|357:192,1,95.9999970703126,10|0,0:0|0:0,0:0:0:0:
399,107,60650,1,2,0:0:0:0:
151,172,60806,1,0,0:0:0:0:
423,231,60962,1,10,0:0:0:0:
224,86,61118,1,0,0:0:0:0:
224,86,61196,1,0,0:0:0:0:
224,86,61275,5,2,0:0:0:0:
327,264,61431,1,4,3:2:0:0:
149,367,61587,1,14,3:2:0:0:
313,170,61743,2,0,B|379:165|379:165|396:175|396:175|454:172,1,143.999995605469,4|0,3:2|0:0,0:0:0:0:
489,171,62056,1,4,3:2:0:0:
384,57,62212,1,14,3:2:0:0:
438,277,62368,1,4,3:2:0:0:
480,85,62525,5,2,0:0:0:0:
296,244,62681,1,4,3:2:0:0:
159,141,62837,1,14,3:2:0:0:
223,351,62993,2,0,B|251:281|203:281|222:209,1,143.999995605469,4|0,3:2|0:0,0:0:0:0:
232,176,63306,1,4,3:2:0:0:
91,304,63462,1,14,3:2:0:0:
359,265,63618,1,6,3:2:0:0:
146,117,63775,6,0,P|185:173|254:166,1,143.999995605469,2|0,0:0|0:0,0:0:0:0:
331,121,64087,2,0,B|374:96|374:96|416:111,1,95.9999970703126,10|0,0:0|0:0,0:0:0:0:
507,146,64400,1,2,0:0:0:0:
431,309,64556,1,0,0:0:0:0:
382,185,64712,1,10,0:0:0:0:
511,251,64868,1,0,0:0:0:0:
306,352,65025,6,0,B|235:318|235:366|166:344,1,143.999995605469,2|0,0:0|0:0,0:0:0:0:
81,373,65337,2,0,L|73:274,1,95.9999970703126,10|0,0:0|0:0,0:0:0:0:
67,158,65650,1,2,0:0:0:0:
196,272,65806,1,0,0:0:0:0:
147,79,65962,1,10,0:0:0:0:
276,193,66118,1,0,0:0:0:0:
174,373,66275,5,2,0:0:0:0:
151,345,66353,1,0,0:0:0:0:
139,311,66431,1,0,0:0:0:0:
139,275,66509,1,0,0:0:0:0:
151,241,66587,1,10,0:0:0:0:
174,213,66665,1,0,0:0:0:0:
205,195,66743,1,0,0:0:0:0:
240,188,66821,1,0,0:0:0:0:
275,192,66900,6,0,L|326:204,1,47.9999985351563,2|0,0:0|0:0,0:0:0:0:
446,108,67056,2,0,L|395:119,1,47.9999985351563
397,246,67212,2,0,L|408:195,1,47.9999985351563,10|0,0:0|0:0,0:0:0:0:
312,76,67368,2,0,L|323:126,1,47.9999985351563
468,287,67525,6,0,L|486:188,1,95.9999970703126,2|0,0:0|0:0,0:0:0:0:
110,286,68306,1,0,0:0:0:0:
130,296,68384,1,2,0:0:0:0:
150,307,68462,1,10,0:0:0:0:
241,255,68618,1,2,0:0:0:0:
45,219,68775,6,0,P|18:258|43:349,1,143.999995605469,2|0,0:0|0:0,0:0:0:0:
115,384,69087,2,0,L|219:369,1,95.9999970703126,10|0,0:0|0:0,0:0:0:0:
344,384,69400,1,2,0:0:0:0:
214,268,69556,1,0,0:0:0:0:
344,384,69712,1,10,0:0:0:0:
245,174,69868,1,0,0:0:0:0:
245,174,69946,1,0,0:0:0:0:
245,174,70025,6,0,L|141:189,1,95.9999970703126,2|0,0:0|0:0,0:0:0:0:
324,288,70337,2,0,L|428:273,1,95.9999970703126,10|0,0:0|0:0,0:0:0:0:
302,54,70650,2,0,L|198:69,1,95.9999970703126,2|0,0:0|0:0,0:0:0:0:
95,135,70962,1,10,0:0:0:0:
262,233,71118,1,0,0:0:0:0:
121,358,71275,6,0,P|131:312|135:263,1,95.9999970703126,2|4,0:0|3:2,0:0:0:0:
92,136,71587,1,14,3:2:0:0:
262,233,71743,2,0,P|331:240|388:198,1,143.999995605469,4|0,3:2|0:0,0:0:0:0:
406,163,72056,1,4,3:2:0:0:
348,332,72212,1,14,3:2:0:0:
307,154,72368,1,4,3:2:0:0:
511,341,72525,6,0,P|464:330|416:326,1,95.9999970703126,2|4,0:0|0:0,0:0:0:0:
289,370,72837,1,14,0:0:0:0:
471,248,72993,1,4,3:2:0:0:
205,138,73150,1,2,0:0:0:0:
303,282,73306,1,0,0:0:0:0:
400,165,73462,2,0,P|408:142|411:118,1,47.9999985351563,10|0,3:2|0:0,0:0:0:0:
316,72,73618,2,0,P|318:95|327:118,1,47.9999985351563,2|0,3:2|0:0,0:0:0:0:
431,263,73775,6,0,P|387:208|318:213,1,143.999995605469,2|0,0:0|0:0,0:0:0:0:
237,277,74087,2,0,L|226:181,1,95.9999970703126,10|0,0:0|0:0,0:0:0:0:
215,73,74400,1,2,0:0:0:0:
114,219,74556,1,0,0:0:0:0:
293,135,74712,1,10,0:0:0:0:
47,50,74868,1,0,0:0:0:0:
47,50,74946,1,0,0:0:0:0:
47,50,75025,6,0,L|58:146,1,95.9999970703126,2|0,0:0|0:0,0:0:0:0:
158,353,75337,2,0,P|200:296|278:301,1,143.999995605469,10|0,0:0|0:0,0:0:0:0:
360,326,75650,2,0,L|349:230,1,95.9999970703126,2|0,0:0|0:0,0:0:0:0:
482,152,75962,1,10,0:0:0:0:
471,247,76118,1,0,0:0:0:0:
207,128,76275,5,2,0:0:0:0:
324,238,76431,1,4,3:2:0:0:
320,122,76587,1,14,3:2:0:0:
192,309,76743,2,0,B|125:282|115:330|51:307,1,143.999995605469,4|0,3:2|0:0,0:0:0:0:
21,295,77056,5,4,3:2:0:0:
110,188,77212,1,14,3:2:0:0:
223,208,77368,1,4,3:2:0:0:
267,330,77525,1,2,0:0:0:0:
289,339,77681,5,4,3:2:0:0:
400,293,77837,1,14,3:2:0:0:
442,189,77993,1,4,3:2:0:0:
418,71,78150,1,2,0:0:0:0:
181,166,78306,1,2,0:0:0:0:
195,182,78384,1,2,0:0:0:0:
210,197,78462,2,0,P|233:198|257:197,1,47.9999985351563,10|0,0:0|0:0,0:0:0:0:
299,48,78618,2,0,P|275:46|251:47,1,47.9999985351563,10|0,0:0|0:0,0:0:0:0:
35,29,78775,6,0,B|36:85|36:85|52:112|52:112|55:167,1,143.999995605469,2|0,0:0|0:0,0:0:0:0:
61,255,79087,2,0,B|120:236|120:236|152:240,1,95.9999970703126,10|0,0:0|0:0,0:0:0:0:
304,259,79400,1,2,0:0:0:0:
227,367,79556,1,0,0:0:0:0:
448,329,79712,1,10,0:0:0:0:
407,312,79790,1,0,0:0:0:0:
367,318,79868,1,0,0:0:0:0:
339,346,79946,1,0,0:0:0:0:
328,384,80025,6,0,L|308:242,1,143.999995605469,2|0,0:0|0:0,0:0:0:0:
302,207,80337,1,10,0:0:0:0:
213,322,80493,1,0,0:0:0:0:
407,253,80650,1,2,0:0:0:0:
173,148,80806,1,0,0:0:0:0:
232,338,80962,1,10,0:0:0:0:
321,86,81118,1,0,0:0:0:0:
73,38,81275,6,0,B|46:76|46:76|49:125,1,95.9999970703126,2|4,0:0|3:2,0:0:0:0:
60,209,81587,1,14,3:2:0:0:
257,184,81743,1,4,3:2:0:0:
58,229,81900,1,2,0:0:0:0:
191,107,82056,1,4,3:2:0:0:
230,283,82212,1,14,3:2:0:0:
363,161,82368,1,4,3:2:0:0:
42,232,82525,5,2,0:0:0:0:
189,98,82681,1,4,3:2:0:0:
231,291,82837,1,14,3:2:0:0:
378,157,82993,1,4,3:2:0:0:
25,236,83150,5,2,0:0:0:0:
186,88,83306,1,0,0:0:0:0:
234,301,83462,1,10,0:0:0:0:
395,153,83618,1,2,0:0:0:0:
395,153,83696,1,2,0:0:0:0:
395,153,83775,6,0,L|511:145,1,95.9999970703126,2|0,0:0|0:0,0:0:0:0:
234,301,84087,2,0,P|186:254|109:260,1,143.999995605469,10|0,0:0|0:0,0:0:0:0:
81,275,84400,2,0,L|91:374,1,95.9999970703126,2|0,0:0|0:0,0:0:0:0:
234,301,84712,1,10,0:0:0:0:
122,168,84868,1,0,0:0:0:0:
122,168,84946,1,0,0:0:0:0:
122,168,85025,6,0,P|109:107|128:72,1,95.9999970703126,2|0,0:0|0:0,0:0:0:0:
329,163,85337,1,10,0:0:0:0:
270,250,85493,2,0,P|224:258|178:244,1,95.9999970703126,0|2,0:0|0:0,0:0:0:0:
329,163,85806,1,0,0:0:0:0:
458,349,85962,2,0,P|476:306|468:259,1,95.9999970703126,10|0,0:0|0:0,0:0:0:0:
278,306,86275,6,0,P|256:315|232:319,5,47.9999985351563,2|0|0|0|10|0,0:0|0:0|0:0|0:0|0:0|0:0,0:0:0:0:
168,268,86743,2,0,P|148:253|133:235,3,47.9999985351563,0|0|2|0,0:0|0:0|0:0|0:0,0:0:0:0:
146,154,87056,2,0,P|148:130|156:107,1,47.9999985351563
343,115,87212,2,0,P|363:130|378:148,1,47.9999985351563,10|0,0:0|0:0,0:0:0:0:
278,306,87368,2,0,P|256:315|232:319,1,47.9999985351563
255,189,87525,6,0,L|239:190,15,11.9999996337891,2|0|0|0|0|0|0|0|0|0|0|0|0|0|0|0,0:0|0:0|0:0|0:0|0:0|0:0|0:0|0:0|0:0|0:0|0:0|0:0|0:0|0:0|0:0|0:0,0:0:0:0:
179,234,88150,2,0,L|115:225,15,46.0000008773804
66,277,88775,5,10,0:0:0:0:
164,147,98150,5,0,0:0:0:0:
212,242,98306,1,0,0:0:0:0:
234,107,98462,1,0,0:0:0:0:
143,279,98618,1,0,0:0:0:0:
293,184,98775,6,0,P|337:167|382:179,1,95.9999970703126,2|0,0:0|0:0,0:0:0:0:
470,225,99087,1,0,0:0:0:0:
293,184,99243,1,0,0:0:0:0:
400,83,99400,2,0,P|395:60|395:32,2,47.9999985351563
293,184,99712,2,0,P|298:161|298:133,2,47.9999985351563
196,73,100025,6,0,P|191:50|191:22,2,47.9999985351563
89,174,100337,2,0,P|94:151|94:123,2,47.9999985351563
167,332,100650,2,0,L|216:323,2,47.9999985351563
288,210,100962,2,0,L|239:201,2,47.9999985351563
128,252,101275,5,0,0:0:0:0:
128,252,101353,1,0,0:0:0:0:
128,252,101431,1,0,0:0:0:0:
255,340,101587,1,0,0:0:0:0:
210,166,101743,1,0,0:0:0:0:
210,166,101821,1,0,0:0:0:0:
210,166,101900,1,0,0:0:0:0:
111,348,102056,1,0,0:0:0:0:
293,266,102212,1,0,0:0:0:0:
323,270,102290,1,0,0:0:0:0:
346,273,102368,1,0,0:0:0:0:
191,193,102525,5,0,0:0:0:0:
161,197,102603,1,0,0:0:0:0:
138,200,102681,1,0,0:0:0:0:
297,123,102837,5,0,0:0:0:0:
327,127,102915,1,0,0:0:0:0:
350,130,102993,1,0,0:0:0:0:
195,50,103150,5,0,0:0:0:0:
165,54,103228,1,0,0:0:0:0:
142,57,103306,1,0,0:0:0:0:
255,345,103462,5,0,0:0:0:0:
255,345,103540,1,0,0:0:0:0:
255,345,103618,1,0,0:0:0:0:
350,218,103775,5,10,0:0:0:0:
350,218,103853,1,0,0:0:0:0:
350,218,103931,1,0,0:0:0:0:
350,218,104009,1,0,0:0:0:0:
350,218,104087,1,0,0:0:0:0:
350,218,104165,1,0,0:0:0:0:
350,218,104243,1,0,0:0:0:0:
350,218,104321,1,0,0:0:0:0:
350,218,104400,1,0,0:0:0:0:
350,218,104478,1,0,0:0:0:0:
350,218,104556,1,0,0:0:0:0:
350,218,104634,1,0,0:0:0:0:
350,218,104712,1,0,0:0:0:0:
350,218,104790,1,0,0:0:0:0:
350,218,104868,2,0,L|299:225,1,47.9999985351563
227,305,105025,5,10,0:0:0:0:
227,305,105103,1,0,0:0:0:0:
227,305,105181,1,0,0:0:0:0:
227,305,105259,1,0,0:0:0:0:
227,305,105337,1,0,0:0:0:0:
227,305,105415,1,0,0:0:0:0:
227,305,105493,1,0,0:0:0:0:
227,305,105571,1,0,0:0:0:0:
227,305,105650,1,0,0:0:0:0:
227,305,105728,1,0,0:0:0:0:
227,305,105806,1,0,0:0:0:0:
227,305,105884,1,0,0:0:0:0:
227,305,105962,1,0,0:0:0:0:
227,305,106040,1,0,0:0:0:0:
227,305,106118,2,0,L|151:293,1,55.9999982910157
207,175,106275,5,10,0:0:0:0:
207,175,106353,1,0,0:0:0:0:
207,175,106431,1,0,0:0:0:0:
207,175,106509,1,0,0:0:0:0:
207,175,106587,2,0,L|271:165,1,64
56,204,106743,5,10,0:0:0:0:
56,204,106821,1,0,0:0:0:0:
56,204,106900,2,0,L|-15:195,1,71.9999978027344
147,106,107056,5,10,0:0:0:0:
147,106,107134,1,0,0:0:0:0:
147,105,107212,2,0,P|156:67|155:27,1,80,10|0,0:0|0:0,0:0:0:0:
239,235,107368,6,0,P|229:196|230:156,1,80,10|0,0:0|0:0,0:0:0:0:
288,70,107525,5,10,0:0:0:0:
288,70,107603,1,0,0:0:0:0:
288,70,107681,1,0,0:0:0:0:
288,70,107759,1,0,0:0:0:0:
288,70,107837,2,0,L|278:159,1,80
239,235,107993,5,10,0:0:0:0:
239,235,108071,1,0,0:0:0:0:
239,235,108150,1,0,0:0:0:0:
308,293,108228,1,0,0:0:0:0:
380,266,108306,1,0,0:0:0:0:
394,192,108384,1,0,0:0:0:0:
333,144,108462,6,8,L|303:149,7,30.0000011444092
253,242,108775,2,0,P|219:183|151:191,1,143.999995605469,2|0,0:0|0:0,0:0:0:0:
65,247,109009,1,0,0:0:0:0:
65,247,109087,2,0,P|70:282|66:318,1,71.9999978027344,10|0,0:0|0:0,0:0:0:0:
151,190,109243,2,0,P|147:154|153:119,1,71.9999978027344
226,57,109400,1,2,0:0:0:0:
301,113,109478,6,0,B|368:135|380:89|440:108,1,143.999995605469
446,26,109712,2,0,P|410:22|374:29,1,71.9999978027344,10|0,0:0|0:0,0:0:0:0:
312,196,109868,2,0,P|347:199|383:192,1,71.9999978027344
222,160,110025,6,0,P|203:226|253:275,1,143.999995605469,2|0,0:0|0:0,0:0:0:0:
359,285,110259,1,0,0:0:0:0:
359,285,110337,2,0,L|350:363,1,71.9999978027344,10|0,0:0|0:0,0:0:0:0:
238,381,110493,1,0,0:0:0:0:
192,372,110571,1,0,0:0:0:0:
146,362,110650,1,2,0:0:0:0:
101,353,110728,6,0,B|90:284|90:284|99:256|99:256|93:211,1,143.999995605469
170,116,110962,2,0,P|188:146|221:159,1,71.9999978027344,10|0,0:0|0:0,0:0:0:0:
283,30,111118,2,0,P|252:48|239:81,1,71.9999978027344
305,206,111275,6,0,B|360:197|360:197|390:208|390:208|447:202,1,143.999995605469,2|0,0:0|0:0,0:0:0:0:
489,117,111509,1,0,0:0:0:0:
489,117,111587,2,0,L|414:123,1,71.9999978027344,10|0,0:0|0:0,0:0:0:0:
304,205,111743,2,0,L|233:200,1,71.9999978027344
101,353,111900,1,2,0:0:0:0:
101,353,111978,2,0,B|90:284|90:284|99:256|99:256|93:211,1,143.999995605469
179,59,112212,5,10,0:0:0:0:
256,73,112290,1,0,0:0:0:0:
333,88,112368,2,0,L|431:76,1,71.9999978027344
411,353,112525,2,0,B|422:284|422:284|413:256|413:256|418:211,1,143.999995605469,2|0,0:0|0:0,0:0:0:0:
333,88,112759,1,0,0:0:0:0:
333,88,112837,2,0,L|345:186,1,71.9999978027344,10|0,0:0|0:0,0:0:0:0:
411,353,112993,2,0,L|419:281,1,71.9999978027344
256,73,113150,6,0,B|261:117|261:117|252:145|252:145|263:214,1,143.999995605469,2|0,0:0|0:0,0:0:0:0:
499,312,113384,1,0,0:0:0:0:
499,312,113462,2,0,L|507:240,1,71.9999978027344,10|0,0:0|0:0,0:0:0:0:
162,163,113618,1,2,0:0:0:0:
162,163,113696,1,2,0:0:0:0:
162,163,113775,6,0,P|229:155|263:214,1,143.999995605469,2|0,0:0|0:0,0:0:0:0:
188,331,114009,1,0,0:0:0:0:
187,330,114087,2,0,P|151:322|116:317,1,71.9999978027344,10|0,0:0|0:0,0:0:0:0:
9,188,114243,2,0,P|44:180|79:175,1,71.9999978027344
290,360,114400,1,2,0:0:0:0:
290,360,114478,6,0,B|295:316|295:316|286:288|286:288|291:217,1,143.999995605469
380,277,114712,2,0,P|415:282|451:279,1,71.9999978027344,10|0,0:0|0:0,0:0:0:0:
332,131,114868,2,0,P|296:125|260:128,1,71.9999978027344
44,328,115025,6,0,B|114:333|114:333|142:324|142:324|186:329,1,143.999995605469,2|0,0:0|0:0,0:0:0:0:
278,280,115259,1,0,0:0:0:0:
278,279,115337,2,0,P|290:246|287:210,1,71.9999978027344,10|0,0:0|0:0,0:0:0:0:
145,195,115493,2,0,P|167:222|200:237,1,71.9999978027344
468,56,115650,6,0,B|398:51|398:51|370:60|370:60|326:55,1,143.999995605469,2|0,0:0|0:0,0:0:0:0:
209,117,115884,1,0,0:0:0:0:
209,117,115962,2,0,L|203:36,1,71.9999978027344,10|0,0:0|0:0,0:0:0:0:
324,207,116118,2,0,L|330:126,1,71.9999978027344
109,122,116275,5,2,0:0:0:0:
105,157,116353,1,0,0:0:0:0:
102,193,116431,1,0,0:0:0:0:
98,229,116509,1,0,0:0:0:0:
95,265,116587,1,10,0:0:0:0:
403,122,116743,5,0,0:0:0:0:
406,157,116821,1,0,0:0:0:0:
409,193,116899,1,2,0:0:0:0:
413,229,116977,1,0,0:0:0:0:
416,265,117055,1,0,0:0:0:0:
256,367,117212,5,10,0:0:0:0:
243,333,117290,1,0,0:0:0:0:
270,314,117368,1,0,0:0:0:0:
238,289,117446,1,0,0:0:0:0:
277,268,117525,1,2,0:0:0:0:
234,239,117603,1,0,0:0:0:0:
282,207,117681,1,0,0:0:0:0:
222,177,117759,1,0,0:0:0:0:
284,150,117837,1,10,0:0:0:0:
215,114,117915,1,0,0:0:0:0:
291,87,117993,1,0,0:0:0:0:
210,46,118071,1,0,0:0:0:0:
295,20,118150,6,0,P|246:120|135:102,1,240.000009155274,2|0,0:0|0:0,0:0:0:0:
111,110,118384,2,0,P|253:147|316:13,1,320
54,41,118618,1,2,0:0:0:0:
54,41,118696,1,2,0:0:0:0:
53,41,118775,6,0,P|19:137|93:207,1,215.999993408203,2|0,0:0|0:0,0:0:0:0:
125,207,119087,1,2,0:0:0:0:
150,204,119139,1,0,0:0:0:0:
179,198,119191,1,0,0:0:0:0:
208,193,119243,2,0,B|358:166|358:166|286:295,1,300,10|0,0:0|0:0,0:0:0:0:
273,324,119556,1,0,0:0:0:0:
6,308,119712,5,10,0:0:0:0:
41,273,119790,1,0,0:0:0:0:
89,260,119868,1,2,0:0:0:0:
137,271,119946,1,2,0:0:0:0:
175,303,120025,1,2,0:0:0:0:
337,376,120181,5,0,0:0:0:0:
380,353,120259,1,0,0:0:0:0:
404,310,120337,1,10,0:0:0:0:
404,260,120415,1,0,0:0:0:0:
378,219,120493,1,0,0:0:0:0:
154,58,120650,5,2,0:0:0:0:
127,99,120728,1,0,0:0:0:0:
126,148,120806,1,0,0:0:0:0:
151,191,120884,1,0,0:0:0:0:
194,214,120962,1,10,0:0:0:0:
244,214,121040,1,0,0:0:0:0:
292,203,121118,1,0,0:0:0:0:
341,203,121196,1,0,0:0:0:0:
385,226,121274,1,2,0:0:0:0:
410,269,121352,1,0,0:0:0:0:
409,318,121431,1,0,2:0:0:0:
383,360,121509,1,0,2:0:0:0:
337,376,121587,1,10,0:0:0:0:
427,46,121743,5,0,0:0:0:0:
433,104,121821,1,0,0:0:0:0:
403,156,121899,1,2,0:0:0:0:
350,180,121977,1,0,0:0:0:0:
292,169,122055,1,0,0:0:0:0:
251,127,122133,1,0,0:0:0:0:
210,85,122212,1,10,0:0:0:0:
152,74,122290,1,0,0:0:0:0:
99,98,122368,1,0,0:0:0:0:
69,150,122446,1,0,0:0:0:0:
76,209,122524,5,2,0:0:0:0:
117,251,122603,1,0,0:0:0:0:
175,262,122681,1,0,0:0:0:0:
228,238,122759,1,0,0:0:0:0:
281,214,122837,1,10,0:0:0:0:
339,225,122915,1,0,0:0:0:0:
363,278,122993,1,0,0:0:0:0:
352,336,123071,1,0,0:0:0:0:
302,367,123150,6,0,L|215:356,1,71.9999978027344,2|0,0:0|0:0,0:0:0:0:
147,381,123306,1,0,0:0:0:0:
147,381,123384,6,0,L|60:370,1,71.9999978027344,0|10,0:0|0:0,0:0:0:0:
9,284,123540,1,0,0:0:0:0:
9,284,123618,6,0,L|96:273,1,71.9999978027344,10|0,0:0|0:0,0:0:0:0:
148,132,123775,6,0,B|233:131|233:131|278:167,1,143.999995605469,2|0,0:0|0:0,0:0:0:0:
356,136,124009,2,0,B|306:95|306:95|315:16,1,143.999995605469
469,129,124243,2,0,P|471:164|454:196,1,71.9999978027344
377,330,124400,6,0,P|348:267|281:248,1,143.999995605469,2|0,0:0|0:0,0:0:0:0:
148,344,124634,2,0,B|217:368|217:368|283:343,1,143.999995605469
438,263,124868,2,0,L|439:191,1,71.9999978027344,2|0,0:0|0:0,0:0:0:0:
314,25,125025,6,0,B|278:86|278:86|281:159,1,143.999995605469,2|0,0:0|0:0,0:0:0:0:
181,253,125259,2,0,B|215:191|215:191|281:158,1,143.999995605469,0|0,2:0|2:0,2:0:0:0:
394,369,125493,2,0,L|316:356,1,71.9999978027344
38,276,125650,6,0,L|194:250,1,143.999995605469,2|0,0:0|0:0,0:0:0:0:
364,165,125884,2,0,B|326:103|326:103|280:157,1,143.999995605469,2|0,0:0|0:0,0:0:0:0:
406,251,126118,2,0,P|435:230|452:199,1,71.9999978027344,10|0,0:0|0:0,0:0:0:0:
331,30,126275,6,0,L|244:16,1,71.9999978027344
80,192,126431,2,0,L|167:178,1,71.9999978027344,2|0,0:0|0:0,0:0:0:0:
317,359,126587,2,0,L|230:345,1,71.9999978027344,2|0,0:0|0:0,0:0:0:0:
364,165,126743,2,0,L|361:254,1,71.9999978027344,2|0,0:0|0:0,0:0:0:0:
245,347,126900,6,2,L|248:258,1,71.9999978027344
457,218,127055,2,2,L|454:307,1,71.9999978027344
152,294,127212,2,2,L|155:205,1,71.9999978027344
331,30,127368,2,10,L|342:84,3,35.9999989013672
324,106,127525,5,2,0:0:0:0:
489,36,127681,1,0,0:0:0:0:
405,247,127837,1,10,0:0:0:0:
73,47,127993,1,0,0:0:0:0:
73,47,128071,1,0,0:0:0:0:
73,47,128150,6,0,L|83:200,1,143.999995605469,10|0,0:0|0:0,0:0:0:0:
237,358,128384,2,0,L|246:214,1,143.999995605469,2|0,0:0|0:0,0:0:0:0:
360,122,128618,2,0,L|374:199,1,71.9999978027344,2|0,0:0|0:0,0:0:0:0:
406,330,128775,5,2,0:0:0:0:
507,231,128931,1,2,0:0:0:0:
473,95,129087,1,10,2:0:0:0:
372,192,129243,1,2,0:0:0:0:
338,204,129321,1,2,0:0:0:0:
302,204,129399,1,2,0:0:0:0:
269,192,129477,1,2,0:0:0:0:
241,169,129555,1,2,0:0:0:0:
233,301,129712,5,10,0:0:0:0:
123,229,129868,1,2,0:0:0:0:
6,289,130025,1,2,2:0:0:0:
185,181,132056,5,2,0:0:0:0:
185,181,132134,1,2,0:0:0:0:
185,181,132212,2,0,L|214:177,1,30,10|0,0:0|0:0,0:0:0:0:
289,224,132525,6,0,P|305:172|287:126,1,100,2|4,0:0|3:2,0:0:0:0:
229,56,132837,1,14,3:2:0:0:
58,294,132993,2,0,B|130:308|130:260|202:268,1,150,4|0,3:2|0:0,0:0:0:0:
239,274,133306,1,4,3:2:0:0:
81,199,133462,1,14,3:2:0:0:
183,351,133618,1,4,3:2:0:0:
214,158,133775,5,2,0:0:0:0:
25,285,133931,1,4,3:2:0:0:
150,59,134087,1,14,3:2:0:0:
383,253,134243,2,0,B|311:267|311:219|238:227,1,150,4|0,3:2|0:0,0:0:0:0:
202,233,134556,1,4,3:2:0:0:
401,125,134712,1,14,3:2:0:0:
171,31,134868,1,4,3:2:0:0:
300,291,135025,6,0,P|326:223|290:160,1,150,2|0,0:0|0:0,0:0:0:0:
212,128,135337,2,0,L|111:137,1,100,10|0,0:0|0:0,0:0:0:0:
26,173,135650,1,2,0:0:0:0:
156,24,135806,1,0,0:0:0:0:
145,242,135962,1,10,0:0:0:0:
303,123,136118,1,0,0:0:0:0:
303,123,136196,1,0,0:0:0:0:
303,123,136275,6,0,B|368:110|368:110|400:89,1,100,2|0,0:0|0:0,0:0:0:0:
229,215,136587,2,0,B|294:227|294:227|326:248,1,100,10|0,0:0|0:0,0:0:0:0:
399,307,136900,1,2,0:0:0:0:
303,123,137056,1,0,0:0:0:0:
215,351,137212,1,10,0:0:0:0:
430,223,137368,1,0,0:0:0:0:
430,223,137446,1,0,0:0:0:0:
430,223,137525,6,0,L|438:118,1,100,2|4,0:0|3:2,0:0:0:0:
334,30,137837,1,14,3:2:0:0:
123,196,137993,2,0,B|167:209|196:179|196:179|236:170|260:198,1,150,4|0,3:2|0:0,0:0:0:0:
285,226,138306,1,4,3:2:0:0:
73,309,138462,1,14,3:2:0:0:
145,117,138618,1,4,3:2:0:0:
292,343,138775,5,2,0:0:0:0:
438,269,138931,1,4,3:2:0:0:
266,332,139087,1,14,3:2:0:0:
463,279,139243,1,4,3:2:0:0:
241,312,139400,2,0,P|282:285|334:290,1,100,2|2,0:0|0:0,0:0:0:0:
347,369,139634,1,2,0:0:0:0:
339,338,139712,2,0,P|333:313|330:288,1,50,10|0,0:0|0:0,0:0:0:0:
470,249,139868,2,0,P|476:224|479:199,1,50,10|0,0:0|0:0,0:0:0:0:
385,44,140025,6,0,P|344:16|292:21,1,100,2|0,0:0|0:0,0:0:0:0:
163,170,140337,2,0,P|203:197|255:192,1,100,10|0,0:0|0:0,0:0:0:0:
348,146,140650,1,2,0:0:0:0:
278,298,140806,1,0,0:0:0:0:
235,83,140962,1,10,0:0:0:0:
460,256,141118,1,0,0:0:0:0:
460,256,141196,1,0,0:0:0:0:
460,256,141275,6,0,B|390:246|390:246|350:262,1,100,2|0,0:0|0:0,0:0:0:0:
95,336,141587,2,0,B|165:346|165:346|192:335,1,100,10|0,0:0|0:0,0:0:0:0:
267,200,141900,1,2,0:0:0:0:
46,263,142056,1,0,0:0:0:0:
274,303,142212,1,10,0:0:0:0:
153,71,142368,1,0,0:0:0:0:
153,71,142446,1,0,0:0:0:0:
153,70,142525,6,0,P|133:115|146:163,1,100,2|4,0:0|3:2,0:0:0:0:
210,241,142837,1,14,3:2:0:0:
458,67,142993,2,0,B|404:59|404:59|351:66|351:66|302:60,1,150,4|0,3:2|0:0,0:0:0:0:
266,56,143306,1,4,3:2:0:0:
352,241,143462,1,14,3:2:0:0:
146,163,143618,1,4,3:2:0:0:
283,18,143774,5,2,0:0:0:0:
244,232,143931,1,4,3:2:0:0:
92,69,144087,1,14,3:2:0:0:
311,144,144243,1,4,3:2:0:0:
131,285,144400,1,2,0:0:0:0:
204,76,144556,1,2,0:0:0:0:
204,76,144634,1,2,0:0:0:0:
204,76,144712,2,0,P|208:100|211:125,1,50,10|0,0:0|0:0,0:0:0:0:
416,221,144868,2,0,P|419:196|423:171,1,50,10|0,0:0|0:0,0:0:0:0:
311,5,145025,6,0,P|316:79|319:154,1,150,2|0,0:0|0:0,0:0:0:0:
291,255,145337,2,0,P|339:238|395:228,1,100,10|0,0:0|0:0,0:0:0:0:
452,294,145650,1,2,0:0:0:0:
221,129,145806,1,0,0:0:0:0:
302,341,145962,1,10,0:0:0:0:
401,150,146118,1,0,0:0:0:0:
401,150,146196,1,0,0:0:0:0:
399,149,146275,6,0,B|332:126|320:176|252:159,1,150,2|0,0:0|0:0,0:0:0:0:
192,94,146587,2,0,P|161:141|168:191,1,100,10|0,0:0|0:0,0:0:0:0:
326,358,146900,1,0,0:0:0:0:
361,189,147056,1,0,0:0:0:0:
218,328,147212,1,10,0:0:0:0:
252,159,147368,1,0,0:0:0:0:
431,295,147525,5,2,0:0:0:0:
389,268,147603,1,0,0:0:0:0:
339,261,147681,1,0,0:0:0:0:
292,275,147759,1,0,0:0:0:0:
254,308,147837,1,10,0:0:0:0:
207,322,147915,1,0,0:0:0:0:
157,315,147993,1,0,0:0:0:0:
116,289,148071,1,0,0:0:0:0:
83,251,148150,5,2,0:0:0:0:
69,203,148228,1,0,0:0:0:0:
76,153,148306,1,0,0:0:0:0:
102,112,148384,1,0,0:0:0:0:
140,79,148462,1,10,0:0:0:0:
188,65,148540,1,0,0:0:0:0:
238,72,148618,1,0,0:0:0:0:
279,98,148696,1,0,0:0:0:0:
324,138,148775,6,0,L|370:131,11,33.3333333333333
231,195,149400,6,0,L|185:188,11,33.3333333333333
330,271,150025,5,10,0:0:0:0:
334,276,150650,1,0,0:0:0:0:
338,282,151275,5,0,0:0:0:0:
338,282,151509,2,0,L|273:269,1,60.0000022888184
202,261,151795,2,0,L|169:272,2,20.0000007629395
327,204,152056,1,0,0:0:0:0:
147,131,152212,2,0,L|117:141,3,20.0000007629395
108,65,152446,1,0,0:0:0:0:
108,65,152525,5,0,0:0:0:0:
410,194,152993,1,0,0:0:0:0:
255,347,153306,1,0,0:0:0:0:
231,234,153462,1,0,0:0:0:0:
360,323,153618,2,0,L|386:314,3,20.0000007629395
360,323,154243,5,0,0:0:0:0:
329,293,154321,1,0,0:0:0:0:
290,281,154400,1,0,0:0:0:0:
249,292,154478,1,0,0:0:0:0:
214,318,154556,1,0,0:0:0:0:
168,327,154634,1,0,0:0:0:0:
128,304,154712,1,0,0:0:0:0:
104,260,154790,1,0,0:0:0:0:
119,212,154868,1,0,0:0:0:0:
161,180,154946,1,0,0:0:0:0:
214,192,155025,5,0,0:0:0:0:
214,192,155493,1,0,0:0:0:0:
214,192,155806,1,0,0:0:0:0:
103,215,155962,1,0,0:0:0:0:
103,215,156040,1,0,0:0:0:0:
103,215,156118,1,0,0:0:0:0:
219,88,156275,6,0,L|257:100,2,40.000001525879
290,245,156587,2,0,L|329:233,2,40.000001525879
213,192,156900,2,0,P|201:218|194:248,1,60.0000022888184
385,355,157212,1,0,0:0:0:0:
290,245,157368,1,0,0:0:0:0:
248,369,157525,5,0,0:0:0:0:
405,326,157993,1,0,0:0:0:0:
173,285,158306,1,0,0:0:0:0:
214,53,158618,1,0,0:0:0:0:
444,94,158931,5,0,0:0:0:0:
155,204,159087,2,0,L|116:194,2,40.000001525879
65,275,159400,2,0,L|26:265,2,40.000001525879
156,348,159712,1,0,0:0:0:0:
191,313,159790,1,0,0:0:0:0:
240,306,159868,1,0,0:0:0:0:
284,328,159946,1,0,0:0:0:0:
334,384,160025,6,0,L|452:368,1,120.000004577637,10|0,0:0|0:0,0:0:0:0:
178,384,160493,2,0,L|59:368,1,120.000004577637,10|0,0:0|0:0,0:0:0:0:
160,222,160962,5,0,0:0:0:0:
202,233,161040,1,0,0:0:0:0:
227,268,161118,2,0,L|239:310,1,44.0000013427735
325,256,161275,1,0,0:0:0:0:
299,221,161353,1,0,0:0:0:0:
299,178,161431,1,0,0:0:0:0:
327,144,161509,1,0,0:0:0:0:
368,133,161587,2,0,L|416:143,1,44.0000013427735
465,291,161743,5,0,0:0:0:0:
428,314,161821,1,0,0:0:0:0:
385,316,161899,1,0,0:0:0:0:
347,295,161977,1,0,0:0:0:0:
325,256,162056,1,0,0:0:0:0:
288,232,162134,1,0,0:0:0:0:
245,230,162212,1,0,0:0:0:0:
207,251,162290,1,0,0:0:0:0:
185,289,162368,2,0,L|191:341,1,44.0000013427735
327,374,162525,5,10,0:0:0:0:
364,353,162603,1,0,0:0:0:0:
386,315,162681,1,0,0:0:0:0:
385,272,162759,1,0,0:0:0:0:
362,234,162837,1,0,0:0:0:0:
324,214,162915,1,0,0:0:0:0:
281,216,162993,1,0,0:0:0:0:
238,218,163071,1,0,0:0:0:0:
201,197,163149,1,0,0:0:0:0:
177,160,163227,1,0,0:0:0:0:
176,117,163305,1,0,0:0:0:0:
198,79,163383,1,0,0:0:0:0:
236,57,163461,1,0,0:0:0:0:
304,69,163540,1,0,0:0:0:0:
344,131,163618,1,0,0:0:0:0:
321,202,163696,1,0,0:0:0:0:
249,224,163775,6,0,B|191:220|167:193|167:193|134:210|77:194,1,180.000006866455,10|0,0:0|0:0,0:0:0:0:
59,331,163983,6,0,B|117:335|141:362|141:362|174:345|230:360,1,180.000006866455,10|0,0:0|0:0,0:0:0:0:
432,191,164191,6,0,B|390:167|347:194|347:194|298:182|265:220,1,180.000006866455,10|0,0:0|0:0,0:0:0:0:
245,356,164400,6,0,B|287:380|330:353|330:353|379:365|412:327,1,180.000006866455,10|0,0:0|0:0,0:0:0:0:
59,331,164634,5,10,0:0:0:0:
432,191,164816,5,10,0:0:0:0:
131,33,165025,5,0,0:0:0:0:
102,77,165103,1,0,0:0:0:0:
114,128,165181,1,0,0:0:0:0:
159,155,165259,1,0,0:0:0:0:
210,141,165337,2,0,L|260:127,1,47.9999985351563,10|0,0:0|0:0,0:0:0:0:
381,33,165493,1,0,0:0:0:0:
410,77,165571,1,0,0:0:0:0:
398,128,165649,1,0,0:0:0:0:
353,155,165727,1,0,0:0:0:0:
302,141,165805,6,0,L|252:127,1,47.9999985351563,10|0,0:0|0:0,0:0:0:0:
152,314,165962,1,0,0:0:0:0:
152,314,166040,1,0,0:0:0:0:
152,314,166118,6,0,L|138:264,1,47.9999985351563,10|0,0:0|0:0,0:0:0:0:
165,145,166275,1,10,0:0:0:0:
207,124,166353,1,0,0:0:0:0:
255,128,166431,1,0,0:0:0:0:
294,155,166509,1,0,0:0:0:0:
315,197,166587,1,10,0:0:0:0:
357,218,166665,1,8,0:0:0:0:
405,214,166743,1,8,0:0:0:0:
444,187,166821,1,8,0:0:0:0:
465,145,166900,6,0,L|451:95,1,47.9999985351563,10|0,0:0|0:0,0:0:0:0:
354,34,167056,2,0,L|368:84,1,47.9999985351563,10|0,0:0|0:0,0:0:0:0:
476,156,167212,2,0,L|459:96,1,47.9999985351563
342,22,167368,2,0,L|359:82,1,47.9999985351563,10|0,0:0|0:0,0:0:0:0:
429,260,167525,5,10,0:0:0:0:
429,260,167603,1,0,0:0:0:0:
429,260,167681,2,0,L|466:247,3,31.9999990234375,10|10|10|10,0:0|0:0|0:0|0:0,0:0:0:0:
346,376,167915,1,0,0:0:0:0:
346,376,167993,6,0,L|309:363,3,31.9999990234375,10|10|10|10,0:0|0:0|0:0|0:0,0:0:0:0:
193,331,168228,1,10,0:0:0:0:
165,294,168306,1,10,0:0:0:0:
166,244,168384,1,10,0:0:0:0:
209,206,168462,1,10,0:0:0:0:
276,214,168540,1,10,0:0:0:0:
341,246,168618,1,10,0:0:0:0:
413,227,168696,1,10,0:0:0:0:
446,161,168775,5,10,0:0:0:0:
205,191,169556,1,10,0:0:0:0:
205,191,169634,1,10,0:0:0:0:
205,191,169712,2,8,L|265:183,5,42.6666666666667,10|8|8|8|8|8,0:0|0:0|0:0|0:0|0:0|0:0,0:0:0:0:
328,248,170025,6,0,P|354:184|437:183,1,128,2|0,0:0|0:0,0:0:0:0:
497,349,170259,1,0,0:0:0:0:
472,372,170337,2,0,L|387:361,1,64,10|0,0:0|0:0,0:0:0:0:
327,247,170493,2,0,L|264:256,1,64
128,379,170650,1,2,0:0:0:0:
128,379,170728,2,0,B|145:314|145:314|122:257,1,128
6,159,170962,6,0,B|-8:188|-8:188|0:218,1,64,10|0,0:0|0:0,0:0:0:0:
150,50,171118,2,0,B|121:36|121:36|90:44,1,64
220,219,171275,6,0,B|276:209|276:209|293:195|293:195|341:185,1,128,2|0,0:0|0:0,0:0:0:0:
430,171,171509,1,0,0:0:0:0:
352,124,171587,2,0,P|339:153|341:185,1,64,10|0,0:0|0:0,0:0:0:0:
415,300,171743,1,0,0:0:0:0:
440,323,171821,1,0,0:0:0:0:
465,343,171900,2,0,L|382:360,1,64,2|0,0:0|0:0,0:0:0:0:
309,179,172056,1,0,0:0:0:0:
272,153,172134,1,0,0:0:0:0:
228,166,172212,6,0,P|211:193|204:224,1,64,10|0,0:0|0:0,0:0:0:0:
93,352,172368,2,0,P|86:321|70:294,1,64
0,148,172525,6,0,P|58:170|116:149,1,128,2|0,0:0|0:0,0:0:0:0:
227,38,172759,1,0,0:0:0:0:
256,15,172837,2,0,L|324:25,1,64,10|0,0:0|0:0,0:0:0:0:
442,135,172993,2,0,P|449:167|449:199,1,64
307,374,173150,1,2,0:0:0:0:
307,374,173228,2,0,B|258:365|258:365|235:371|235:371|181:362,1,128
449,199,173462,5,10,0:0:0:0:
457,233,173540,1,0,0:0:0:0:
464,269,173618,2,0,P|428:314|391:316,1,64
186,157,173775,6,0,B|261:151|261:151|285:154|285:154|331:148,1,128,2|0,0:0|0:0,0:0:0:0:
353,372,174009,1,0,0:0:0:0:
353,372,174087,2,0,P|335:347|333:315,1,64,10|0,0:0|0:0,0:0:0:0:
154,128,174243,2,0,L|217:121,1,64
463,34,174400,6,0,B|469:109|469:109|466:133|466:133|469:161,1,128,2|0,0:0|0:0,0:0:0:0:
87,297,174634,1,0,2:0:0:0:
110,272,174712,2,0,L|173:265,1,64,10|0,0:0|0:0,0:0:0:0:
479,342,174868,1,2,0:0:0:0:
479,342,174946,1,2,0:0:0:0:
479,342,175025,6,0,B|470:291|470:291|473:265|473:265|466:215,1,128,2|0,0:0|0:0,0:0:0:0:
257,104,175259,1,0,0:0:0:0:
236,130,175337,2,0,L|241:198,1,64,10|0,0:0|0:0,0:0:0:0:
346,300,175493,2,0,L|350:236,1,64
101,170,175650,1,2,0:0:0:0:
101,170,175728,6,0,B|108:239|108:239|104:267|104:267|107:297,1,128
256,368,175962,2,0,P|303:354|332:350,1,64,10|0,0:0|0:0,0:0:0:0:
236,130,176118,2,0,P|205:119|174:113,1,64
421,265,176275,6,0,B|439:204|439:204|421:141,1,128,2|0,0:0|0:0,0:0:0:0:
235,241,176509,1,0,0:0:0:0:
235,241,176587,2,0,L|298:230,1,64,10|0,0:0|0:0,0:0:0:0:
389,384,176743,2,0,L|325:373,1,64
89,333,176900,6,0,B|86:303|86:303|90:275|90:275|83:206,1,128,2|0,0:0|0:0,0:0:0:0:
193,96,177134,1,0,0:0:0:0:
193,96,177212,2,0,P|217:115|232:144,1,64,10|0,0:0|0:0,0:0:0:0:
103,66,177368,2,0,P|117:37|142:17,1,64
462,143,177525,5,2,0:0:0:0:
446,141,177603,1,0,0:0:0:0:
430,139,177681,1,0,0:0:0:0:
414,137,177759,1,0,0:0:0:0:
398,135,177837,1,10,0:0:0:0:
27,240,177993,5,0,0:0:0:0:
53,237,178071,1,0,0:0:0:0:
80,234,178149,1,2,0:0:0:0:
108,230,178227,1,0,0:0:0:0:
135,227,178305,1,0,0:0:0:0:
447,301,178462,5,10,0:0:0:0:
410,351,178540,1,0,0:0:0:0:
348,353,178618,1,0,0:0:0:0:
308,306,178696,1,0,0:0:0:0:
319,246,178775,1,2,0:0:0:0:
331,185,178853,1,0,0:0:0:0:
290,138,178931,1,0,0:0:0:0:
228,141,179009,1,0,0:0:0:0:
192,191,179088,1,10,0:0:0:0:
217,247,179166,1,0,0:0:0:0:
188,302,179244,1,0,0:0:0:0:
127,314,179322,1,0,0:0:0:0:
80,261,179400,6,0,B|105:138|105:138|153:180|210:173,1,240.000009155274,2|0,0:0|0:0,0:0:0:0:
321,165,179634,2,0,B|375:119|367:28|367:28|294:52|240:7|240:7|211:26,1,320
255,323,179868,1,0,0:0:0:0:
255,323,179946,1,0,0:0:0:0:
255,323,180025,6,0,B|316:325|373:343|373:343|404:303|390:252,1,215.999993408203,2|0,0:0|0:0,0:0:0:0:
386,226,180337,1,0,0:0:0:0:
381,205,180389,1,0,0:0:0:0:
375,187,180441,1,0,0:0:0:0:
371,171,180493,2,0,B|314:140|314:140|351:81|351:81|408:112|408:112|373:172|373:172|314:140,1,300,10|0,0:0|0:0,0:0:0:0:
371,171,180806,1,0,0:0:0:0:
177,320,180962,5,10,0:0:0:0:
133,343,181040,1,0,0:0:0:0:
84,339,181118,1,2,0:0:0:0:
44,310,181196,1,0,0:0:0:0:
26,264,181274,1,2,0:0:0:0:
305,368,181431,5,0,0:0:0:0:
332,327,181509,1,0,0:0:0:0:
339,278,181587,1,8,0:0:0:0:
322,231,181665,1,0,0:0:0:0:
285,197,181743,1,0,0:0:0:0:
103,27,181900,5,2,0:0:0:0:
62,55,181978,1,0,0:0:0:0:
39,100,182056,1,0,0:0:0:0:
43,149,182134,1,0,0:0:0:0:
70,190,182212,1,8,0:0:0:0:
115,211,182290,1,0,0:0:0:0:
164,208,182368,1,0,0:0:0:0:
204,180,182446,1,0,0:0:0:0:
227,137,182524,1,2,0:0:0:0:
250,93,182603,1,0,0:0:0:0:
290,66,182681,1,0,0:0:0:0:
340,62,182759,1,0,0:0:0:0:
383,83,182837,1,10,0:0:0:0:
185,354,182993,5,0,0:0:0:0:
132,361,183071,1,0,0:0:0:0:
83,341,183149,1,2,0:0:0:0:
52,301,183227,1,0,0:0:0:0:
43,249,183305,1,0,0:0:0:0:
64,201,183383,1,0,0:0:0:0:
104,170,183461,1,10,0:0:0:0:
154,162,183539,1,0,0:0:0:0:
204,180,183617,1,0,0:0:0:0:
252,199,183696,1,0,0:0:0:0:
302,192,183774,5,2,0:0:0:0:
343,160,183852,1,0,0:0:0:0:
363,113,183930,1,0,0:0:0:0:
355,60,184009,1,0,0:0:0:0:
323,20,184087,1,10,0:0:0:0:
275,0,184165,1,0,0:0:0:0:
225,6,184243,1,0,0:0:0:0:
183,39,184322,1,0,0:0:0:0:
163,87,184400,6,0,L|171:158,1,71.9999978027344,2|0,0:0|0:0,0:0:0:0:
68,275,184556,1,0,0:0:0:0:
68,275,184634,6,0,L|76:203,1,71.9999978027344,0|10,0:0|0:0,0:0:0:0:
233,340,184790,1,0,0:0:0:0:
233,340,184868,6,0,L|224:268,1,71.9999978027344,10|0,0:0|0:0,0:0:0:0:
323,99,185025,6,0,B|427:80|427:80|407:123,1,143.999995605469,2|0,0:0|0:0,0:0:0:0:
276,190,185259,2,0,B|207:200|204:147|139:154,1,143.999995605469
40,205,185493,2,0,P|29:239|33:281,1,71.9999978027344
181,367,185650,6,0,B|282:339|282:339|333:354,1,143.999995605469,10|0,0:0|0:0,0:0:0:0:
441,300,185884,2,0,B|352:268|352:268|362:219,1,143.999995605469,10|0,0:0|0:0,0:0:0:0:
404,97,186118,2,0,P|432:108|462:146,1,71.9999978027344,10|0,0:0|0:0,0:0:0:0:
247,271,186275,6,0,B|236:188|236:188|199:139,1,143.999995605469,2|0,0:0|0:0,0:0:0:0:
353,302,186509,2,0,B|342:231|342:231|393:179,1,143.999995605469
497,376,186743,2,0,L|425:364,1,71.9999978027344
121,298,186900,6,0,B|167:255|167:255|246:270,1,143.999995605469,2|8,0:0|0:0,0:0:0:0:
429,80,187134,2,0,B|403:124|403:124|311:139,1,143.999995605469
125,25,187368,1,10,0:0:0:0:
125,25,187446,1,0,0:0:0:0:
125,25,187525,6,0,P|139:57|137:93,1,71.9999978027344,2|0,0:0|0:0,0:0:0:0:
97,189,187681,2,0,P|75:217|44:234,1,71.9999978027344,2|0,0:0|0:0,0:0:0:0:
213,175,187837,2,0,P|245:160|281:162,1,71.9999978027344,8|0,0:0|0:0,0:0:0:0:
376,203,187993,2,0,P|404:224|421:255,1,71.9999978027344,2|0,0:0|0:0,0:0:0:0:
177,378,188150,2,0,L|169:299,1,71.9999978027344,2|2,0:0|0:0,0:0:0:0:
233,39,188306,5,2,0:0:0:0:
288,67,188384,1,2,0:0:0:0:
303,127,188462,1,2,0:0:0:0:
268,178,188540,1,2,0:0:0:0:
206,186,188618,1,2,0:0:0:0:
149,162,188696,1,2,0:0:0:0:
93,189,188774,5,2,0:0:0:0:
76,248,188853,1,0,0:0:0:0:
93,306,188931,1,0,0:0:0:0:
149,334,189009,1,0,0:0:0:0:
206,310,189087,1,10,0:0:0:0:
268,318,189165,1,0,0:0:0:0:
324,339,189243,1,0,0:0:0:0:
379,317,189321,1,0,0:0:0:0:
414,265,189400,6,0,P|412:233|399:204,1,64,10|0,0:0|0:0,0:0:0:0:
271,365,189556,1,0,0:0:0:0:
271,365,189634,6,0,P|298:348|317:322,1,64,10|0,0:0|0:0,0:0:0:0:
399,204,189790,1,0,0:0:0:0:
399,204,189868,6,0,P|412:233|414:265,1,64,10|0,0:0|0:0,0:0:0:0:
190,298,190025,6,0,B|127:293|127:293|101:261|101:261|69:289|69:289|-7:284,1,223.999993164063,10|0,0:0|0:0,0:0:0:0:
322,298,190493,2,0,B|385:293|385:293|411:261|411:261|443:289|443:289|519:284,1,223.999993164063,10|0,0:0|0:0,0:0:0:0:
105,102,190962,5,0,0:0:0:0:
105,102,191014,1,0,0:0:0:0:
105,102,191066,1,0,0:0:0:0:
105,102,191118,1,0,0:0:0:0:
342,355,191275,6,0,P|294:263|191:284,1,223.999993164063,10|0,0:0|0:0,0:0:0:0:
191,284,191743,2,0,P|88:305|41:213,1,223.999993164063,10|0,0:0|0:0,0:0:0:0:
41,212,192212,5,10,0:0:0:0:
346,269,192368,1,10,0:0:0:0:
207,195,192525,6,0,P|184:236|190:283,1,95.9999970703126,2|0,0:0|0:0,0:0:0:0:
264,358,192837,1,10,0:0:0:0:
231,104,192993,6,0,P|183:104|146:133,2,95.9999970703126,0|2|0,0:0|0:0|0:0,0:0:0:0:
351,162,193462,1,10,0:0:0:0:
274,28,193618,1,0,0:0:0:0:
379,267,193775,6,0,P|420:244|443:203,1,95.9999970703126,2|0,0:0|0:0,0:0:0:0:
253,245,194087,2,0,P|251:292|275:332,1,95.9999970703126,10|0,0:0|0:0,0:0:0:0:
335,147,194400,2,0,P|294:121|247:122,1,95.9999970703126,2|0,0:0|0:0,0:0:0:0:
135,279,194712,1,10,0:0:0:0:
135,279,194868,1,0,0:0:0:0:
2,149,195024,6,0,B|51:165|77:203|77:203|117:181|172:191,1,191.999994140625,2|10,0:0|0:0,0:0:0:0:
271,207,195493,1,0,0:0:0:0:
103,98,195650,1,2,0:0:0:0:
179,290,195806,1,0,0:0:0:0:
179,290,195884,1,0,0:0:0:0:
179,290,195962,1,10,0:0:0:0:
237,115,196118,1,0,0:0:0:0:
94,334,196275,6,0,P|76:285|132:209,1,143.999995605469,2|0,0:0|0:0,0:0:0:0:
173,197,196587,1,10,0:0:0:0:
260,343,196743,2,0,L|355:333,1,95.9999970703126,0|2,0:0|0:0,0:0:0:0:
179,290,197056,1,0,0:0:0:0:
393,384,197212,2,0,L|403:289,1,95.9999970703126,10|0,0:0|0:0,0:0:0:0:
438,81,197525,6,0,P|378:128|302:81,1,143.999995605469,2|0,0:0|0:0,0:0:0:0:
288,63,197837,1,10,0:0:0:0:
85,142,197993,2,0,L|75:237,1,95.9999970703126,0|2,0:0|0:0,0:0:0:0:
214,365,198306,1,0,0:0:0:0:
289,299,198462,2,0,L|279:204,1,95.9999970703126,10|0,0:0|0:0,0:0:0:0:
85,142,198775,5,2,0:0:0:0:
74,237,198931,1,0,0:0:0:0:
289,299,199087,1,10,0:0:0:0:
278,203,199243,1,0,0:0:0:0:
164,358,199400,5,2,0:0:0:0:
399,319,199556,1,2,0:0:0:0:
411,297,199634,1,2,0:0:0:0:
423,276,199712,2,0,P|423:253|421:229,1,47.9999985351563,10|0,0:0|0:0,0:0:0:0:
247,179,199868,2,0,P|245:202|244:226,1,47.9999985351563,10|0,0:0|0:0,0:0:0:0:
332,354,200025,6,0,B|339:282|339:282|331:255|331:255|338:163,1,191.999994140625,10|0,0:0|0:0,0:0:0:0:
74,300,200493,2,0,B|66:208|66:208|74:181|74:181|67:109,1,191.999994140625,10|0,0:0|0:0,0:0:0:0:
332,231,200962,1,10,0:0:0:0:
332,231,201014,1,0,0:0:0:0:
332,231,201066,1,0,0:0:0:0:
332,231,201118,1,10,0:0:0:0:
198,355,201275,6,0,P|156:335|108:327,1,95.9999970703126,2|0,0:0|0:0,0:0:0:0:
23,365,201587,1,10,0:0:0:0:
244,254,201743,2,0,B|257:194|257:194|244:159,2,95.9999970703126,0|2|0,0:0|0:0|0:0,0:0:0:0:
344,352,202212,1,10,0:0:0:0:
244,161,202368,1,0,0:0:0:0:
425,297,202525,6,0,P|429:249|440:202,1,95.9999970703126,2|0,0:0|0:0,0:0:0:0:
377,123,202837,1,10,0:0:0:0:
259,348,202993,2,0,P|254:300|243:253,2,95.9999970703126,0|2|0,0:0|0:0|0:0,0:0:0:0:
151,318,203462,1,10,0:0:0:0:
344,239,203618,1,0,0:0:0:0:
62,160,203775,6,0,P|106:176|154:180,1,95.9999970703126,2|0,0:0|0:0,0:0:0:0:
380,39,204087,2,0,P|343:70|317:110,1,95.9999970703126,10|0,0:0|0:0,0:0:0:0:
320,376,204400,2,0,P|311:328|291:285,1,95.9999970703126,2|0,0:0|0:0,0:0:0:0:
257,192,204712,1,10,0:0:0:0:
154,325,204868,1,2,0:0:0:0:
154,325,204946,1,2,0:0:0:0:
154,325,205025,6,0,P|193:314|211:313,1,47.9999985351563,2|0,0:0|0:0,0:0:0:0:
329,247,205181,2,0,P|290:236|272:235,1,47.9999985351563
345,384,205337,2,0,P|368:378|390:370,1,47.9999985351563,10|0,0:0|0:0,0:0:0:0:
442,165,205493,1,0,0:0:0:0:
433,154,205571,1,0,0:0:0:0:
422,143,205650,6,0,B|361:157|361:157|330:152|330:152|281:162,1,143.999995605469,10|0,0:0|0:0,0:0:0:0:
122,263,205884,2,0,B|136:202|136:202|131:171|131:171|141:122,1,143.999995605469,10|0,0:0|0:0,0:0:0:0:
66,55,206118,2,0,L|49:134,1,71.9999978027344,10|0,0:0|0:0,0:0:0:0:
32,208,206275,5,2,0:0:0:0:
193,348,206431,1,0,0:0:0:0:
193,348,206509,1,0,0:0:0:0:
193,348,206587,2,0,B|297:334|297:334|332:349,1,143.999995605469,10|0,0:0|0:0,0:0:0:0:
435,268,206821,1,0,0:0:0:0:
435,268,206900,2,0,B|365:237|365:237|393:171,1,143.999995605469,10|0,0:0|0:0,0:0:0:0:
322,65,207134,2,0,B|252:218|252:218|191:227,1,215.999993408203,10|10,0:0|0:0,0:0:0:0:
58,59,207525,6,0,L|63:130,1,71.9999978027344,2|0,0:0|0:0,0:0:0:0:
181,361,207681,2,0,L|186:289,1,71.9999978027344,2|0,0:0|0:0,0:0:0:0:
317,9,207837,2,0,L|322:80,1,71.9999978027344,2|0,0:0|0:0,0:0:0:0:
468,360,207993,2,0,L|473:288,1,71.9999978027344,2|0,0:0|0:0,0:0:0:0:
219,22,208150,5,2,0:0:0:0:
152,0,208228,1,2,0:0:0:0:
89,31,208306,1,2,0:0:0:0:
66,97,208384,1,2,0:0:0:0:
80,166,208462,1,2,0:0:0:0:
138,205,208540,1,2,0:0:0:0:
207,192,208618,1,2,0:0:0:0:
269,161,208696,1,2,0:0:0:0:
336,183,208774,5,2,0:0:0:0:
382,236,208852,1,0,0:0:0:0:
377,306,208930,1,0,0:0:0:0:
325,354,209008,1,0,0:0:0:0:
286,293,209087,1,10,0:0:0:0:
286,223,209165,1,0,0:0:0:0:
334,172,209243,1,0,0:0:0:0:
406,169,209321,1,0,0:0:0:0:
468,207,209400,6,0,P|477:232|473:280,1,71.9999978027344,10|0,0:0|0:0,0:0:0:0:
407,96,209556,1,0,0:0:0:0:
407,96,209635,6,0,P|424:75|467:55,1,71.9999978027344,10|0,0:0|0:0,0:0:0:0:
342,204,209790,1,0,0:0:0:0:
342,204,209869,6,0,P|315:199|276:171,1,71.9999978027344,10|0,0:0|0:0,0:0:0:0:
103,27,210025,5,2,0:0:0:0:
107,40,210337,1,10,0:0:0:0:
