osu file format v14

[General]
AudioFilename: audio.mp3
AudioLeadIn: 0
PreviewTime: 17831
Countdown: 0
SampleSet: Soft
StackLeniency: 0.7
Mode: 3
LetterboxInBreaks: 0
SpecialStyle: 0
WidescreenStoryboard: 0

[Editor]
DistanceSpacing: 0.8
BeatDivisor: 4
GridSize: 4
TimelineZoom: 2.199999

[Metadata]
Title:9TH5IN
TitleUnicode:9TH5IN
Artist:ETIA.
ArtistUnicode:ETIA.
Creator:Touru0711
Version:MAXIMUM
Source:SOUND VOLTEX VIVID WAVE
Tags:FAMoss The 9th KAC Original Song Contest Arcade Konami Bemani sdvx video game electronic instrumental HEXA DIVER 幻想御伽篇 Gensou Otogi Hen Chateau Rowelle
BeatmapID:2942054
BeatmapSetID:1127597

[Difficulty]
HPDrainRate:8.2
CircleSize:4
OverallDifficulty:8.2
ApproachRate:5
SliderMultiplier:1.4
SliderTickRate:1

[Events]
//Background and Video events
0,0,"background.jpg",0,0
//Break Periods
//Storyboard Layer 0 (Background)
//Storyboard Layer 1 (Fail)
//Storyboard Layer 2 (Pass)
//Storyboard Layer 3 (Foreground)
//Storyboard Layer 4 (Overlay)
//Storyboard Sound Samples

[TimingPoints]
534,270.27027027027,4,2,2,60,1,0
9182,-100,4,2,1,60,0,0
69858,-100,4,2,2,60,0,0
74047,-100,4,2,1,20,0,0
75128,-100,4,2,1,30,0,0
76209,-100,4,2,1,40,0,0
77290,-100,4,2,1,50,0,0
78371,-100,4,2,1,60,0,0
83777,-100,4,2,1,60,0,1
101074,-100,4,2,1,60,0,0

[HitObjects]
320,192,534,128,0,669:0:0:0:0:
448,192,534,128,0,1209:0:0:0:0:
64,192,669,128,0,804:0:0:0:0:
192,192,804,128,0,939:0:0:0:0:
320,192,939,128,0,1209:0:0:0:0:
64,192,1209,128,0,1344:0:0:0:0:
192,192,1344,128,0,1479:0:0:0:0:
448,192,1479,128,0,1615:0:0:0:0:
64,192,1615,128,0,1750:0:0:0:0:
320,192,1615,128,0,2020:0:0:0:0:
192,192,1750,128,0,1885:0:0:0:0:
448,192,1885,128,0,2020:0:0:0:0:
64,192,2020,128,0,2155:0:0:0:0:
192,192,2020,128,0,2425:0:0:0:0:
64,192,2425,128,0,2696:0:0:0:0:
192,192,2696,128,0,2831:0:0:0:0:
448,192,2696,128,0,3101:0:0:0:0:
320,192,2831,128,0,2966:0:0:0:0:
64,192,2966,128,0,3101:0:0:0:0:
192,192,3101,128,0,3236:0:0:0:0:
320,192,3101,128,0,3506:0:0:0:0:
64,192,3506,128,0,3777:0:0:0:0:
448,192,3506,128,0,3642:0:0:0:0:
192,192,3642,128,0,3777:0:0:0:0:
320,192,3777,128,0,3912:0:0:0:0:
448,192,3777,128,0,4317:0:0:0:0:
64,192,3912,128,0,4047:0:0:0:0:
192,192,4047,128,0,4182:0:0:0:0:
320,192,4182,128,0,4317:0:0:0:0:
64,192,4317,128,0,4858:0:0:0:0:
192,192,4317,128,0,4452:0:0:0:0:
448,192,4452,128,0,4588:0:0:0:0:
320,192,4588,128,0,4723:0:0:0:0:
192,192,4723,128,0,4858:0:0:0:0:
320,192,4858,128,0,4993:0:0:0:0:
448,192,4858,128,0,5533:0:0:0:0:
64,192,4993,128,0,5128:0:0:0:0:
192,192,5128,128,0,5263:0:0:0:0:
64,192,5263,128,0,5533:0:0:0:0:
320,192,5263,128,0,5533:0:0:0:0:
192,192,5533,128,0,5669:0:0:0:0:
320,192,5669,128,0,5804:0:0:0:0:
448,192,5804,128,0,5939:0:0:0:0:
64,192,5939,128,0,6344:0:0:0:0:
192,192,5939,128,0,6074:0:0:0:0:
320,192,6074,128,0,6209:0:0:0:0:
192,192,6209,128,0,6344:0:0:0:0:
320,192,6344,128,0,6750:0:0:0:0:
448,192,6344,128,0,6750:0:0:0:0:
64,192,6750,128,0,7020:0:0:0:0:
192,192,6750,128,0,7020:0:0:0:0:
320,192,7020,128,0,7425:0:0:0:0:
448,192,7020,128,0,7155:0:0:0:0:
64,192,7155,128,0,7290:0:0:0:0:
192,192,7290,128,0,7425:0:0:0:0:
64,192,7425,1,0,0:0:0:0:
448,192,7425,1,0,0:0:0:0:
64,192,7561,128,0,7966:0:0:0:0:
448,192,7561,128,0,7966:0:0:0:0:
320,192,7696,128,0,7831:0:0:0:0:
192,192,7831,128,0,7966:0:0:0:0:
320,192,7966,128,0,8101:0:0:0:0:
64,192,8101,128,0,8371:0:0:0:0:
448,192,8101,1,0,0:0:0:0:
192,192,8191,1,0,0:0:0:0:
320,192,8281,1,0,0:0:0:0:
192,192,8371,128,0,8642:0:0:0:0:
448,192,8371,1,0,0:0:0:0:
320,192,8461,1,0,0:0:0:0:
64,192,8552,1,0,0:0:0:0:
320,192,8642,128,0,8912:0:0:0:0:
448,192,8642,1,0,0:0:0:0:
192,192,8732,1,0,0:0:0:0:
64,192,8822,1,0,0:0:0:0:
192,192,8912,1,0,0:0:0:0:
448,192,8912,1,0,0:0:0:0:
64,192,9002,1,0,0:0:0:0:
320,192,9092,1,0,0:0:0:0:
64,192,9182,1,2,0:0:0:0:
192,192,9182,1,4,0:0:0:0:
448,192,9182,128,0,9588:0:0:0:0:
320,192,9272,1,0,0:0:0:0:
192,192,9362,1,0,0:0:0:0:
64,192,9452,1,0,0:0:0:0:
192,192,9543,1,0,0:0:0:0:
320,192,9588,128,0,9993:0:0:0:0:
64,192,9633,1,0,0:0:0:0:
192,192,9723,1,0,0:0:0:0:
448,192,9813,1,0,0:0:0:0:
64,192,9903,1,0,0:0:0:0:
192,192,9993,128,0,10263:0:0:0:0:
448,192,9993,1,0,0:0:0:0:
64,192,10083,1,0,0:0:0:0:
320,192,10173,1,0,0:0:0:0:
64,192,10263,128,0,10804:0:0:0:0:
448,192,10263,1,0,0:0:0:0:
320,192,10353,1,0,0:0:0:0:
192,192,10443,1,0,0:0:0:0:
448,192,10533,1,0,0:0:0:0:
320,192,10624,1,0,0:0:0:0:
192,192,10714,1,0,0:0:0:0:
320,192,10804,128,0,11344:0:0:0:0:
448,192,10804,1,0,0:0:0:0:
64,192,10894,1,0,0:0:0:0:
192,192,10984,1,0,0:0:0:0:
448,192,11074,1,0,0:0:0:0:
64,192,11164,1,0,0:0:0:0:
192,192,11254,1,0,0:0:0:0:
64,192,11344,1,0,0:0:0:0:
448,192,11344,128,0,11750:0:0:0:0:
320,192,11434,1,0,0:0:0:0:
192,192,11524,1,0,0:0:0:0:
64,192,11615,1,0,0:0:0:0:
192,192,11705,1,0,0:0:0:0:
320,192,11750,128,0,12155:0:0:0:0:
64,192,11795,1,0,0:0:0:0:
448,192,11885,1,0,0:0:0:0:
192,192,11975,1,0,0:0:0:0:
64,192,12065,1,0,0:0:0:0:
192,192,12155,1,0,0:0:0:0:
448,192,12155,1,0,0:0:0:0:
64,192,12245,1,0,0:0:0:0:
448,192,12335,1,0,0:0:0:0:
192,192,12425,128,0,12831:0:0:0:0:
320,192,12425,1,0,0:0:0:0:
448,192,12515,1,0,0:0:0:0:
64,192,12606,1,0,0:0:0:0:
320,192,12696,1,0,0:0:0:0:
448,192,12786,1,0,0:0:0:0:
64,192,12831,1,0,0:0:0:0:
320,192,12876,1,0,0:0:0:0:
64,192,12966,128,0,13236:0:0:0:0:
192,192,12966,1,0,0:0:0:0:
448,192,13056,1,0,0:0:0:0:
320,192,13146,1,0,0:0:0:0:
192,192,13236,1,0,0:0:0:0:
448,192,13236,128,0,13416:0:0:0:0:
64,192,13326,1,0,0:0:0:0:
320,192,13416,1,0,0:0:0:0:
64,192,13506,128,4,13912:0:0:0:0:
192,192,13506,1,2,0:0:0:0:
448,192,13506,1,0,0:0:0:0:
192,192,13777,1,2,0:0:0:0:
320,192,13777,1,0,0:0:0:0:
448,192,13912,1,0,0:0:0:0:
192,192,14047,1,2,0:0:0:0:
448,192,14047,128,0,14452:0:0:0:0:
320,192,14182,1,0,0:0:0:0:
64,192,14317,1,2,0:0:0:0:
192,192,14317,1,0,0:0:0:0:
320,192,14452,1,0,0:0:0:0:
64,192,14588,1,2,0:0:0:0:
192,192,14588,1,4,0:0:0:0:
448,192,14588,1,0,0:0:0:0:
64,192,14723,1,0,0:0:0:0:
192,192,14858,1,2,0:0:0:0:
320,192,14858,1,0,0:0:0:0:
448,192,14858,1,0,0:0:0:0:
192,192,14993,1,0,0:0:0:0:
64,192,15128,1,2,0:0:0:0:
320,192,15128,1,0,0:0:0:0:
448,192,15128,1,0,0:0:0:0:
320,192,15263,1,0,0:0:0:0:
64,192,15398,1,2,0:0:0:0:
192,192,15398,1,0,0:0:0:0:
448,192,15398,1,0,0:0:0:0:
448,192,15533,1,0,0:0:0:0:
64,192,15669,1,4,0:0:0:0:
192,192,15669,1,2,0:0:0:0:
320,192,15669,1,0,0:0:0:0:
64,192,15804,1,2,0:0:0:0:
192,192,15804,1,0,0:0:0:0:
448,192,15804,1,0,0:0:0:0:
192,192,15939,1,2,0:0:0:0:
320,192,15939,1,0,0:0:0:0:
448,192,15939,1,0,0:0:0:0:
64,192,16074,1,2,0:0:0:0:
320,192,16074,1,0,0:0:0:0:
448,192,16074,1,0,0:0:0:0:
64,192,16209,1,2,0:0:0:0:
192,192,16209,1,4,0:0:0:0:
320,192,16277,1,2,0:0:0:0:
448,192,16277,1,0,0:0:0:0:
64,192,16344,1,2,0:0:0:0:
192,192,16344,1,0,0:0:0:0:
320,192,16412,1,2,0:0:0:0:
448,192,16412,1,0,0:0:0:0:
64,192,16479,1,2,0:0:0:0:
192,192,16479,1,0,0:0:0:0:
320,192,16547,1,2,0:0:0:0:
448,192,16547,1,0,0:0:0:0:
64,192,16615,1,2,0:0:0:0:
192,192,16648,1,2,0:0:0:0:
320,192,16682,1,2,0:0:0:0:
448,192,16716,1,2,0:0:0:0:
64,192,16750,128,2,16840:0:0:0:0:
192,192,16750,128,0,16840:0:0:0:50:crash_s.wav
64,192,16930,128,2,17020:0:0:0:0:
192,192,16930,128,0,17020:0:0:0:50:crash_s.wav
448,192,16930,1,0,0:0:0:0:
64,192,17110,128,2,17200:0:0:0:0:
192,192,17110,128,0,17200:0:0:0:50:crash_s.wav
448,192,17110,1,0,0:0:0:0:
192,192,17290,128,2,17380:0:0:0:0:
320,192,17290,128,0,17380:0:0:0:50:crash_s.wav
448,192,17290,1,0,0:0:0:0:
192,192,17470,128,2,17561:0:0:0:0:
320,192,17470,128,0,17561:0:0:0:50:crash_s.wav
448,192,17470,1,0,0:0:0:0:
192,192,17651,128,2,17741:0:0:0:0:
320,192,17651,128,0,17741:0:0:0:50:crash_s.wav
448,192,17651,1,0,0:0:0:0:
64,192,17831,128,2,17966:0:0:0:0:
320,192,17831,128,4,17966:0:0:0:0:
448,192,17831,128,0,17966:0:0:0:0:
192,192,17966,1,0,0:0:0:0:
448,192,18101,1,0,0:0:0:0:
64,192,18236,128,2,18371:0:0:0:0:
192,192,18236,128,0,18371:0:0:0:0:
320,192,18236,128,0,18371:0:0:0:0:
448,192,18371,1,0,0:0:0:0:
64,192,18506,1,0,0:0:0:0:
192,192,18642,128,2,18777:0:0:0:0:
320,192,18642,128,0,18777:0:0:0:0:
448,192,18642,128,0,18777:0:0:0:0:
64,192,18777,1,0,0:0:0:0:
192,192,18912,1,0,0:0:0:0:
64,192,19047,128,2,19182:0:0:0:0:
320,192,19047,128,0,19182:0:0:0:0:
448,192,19047,128,0,19182:0:0:0:0:
192,192,19182,1,0,0:0:0:0:
448,192,19317,1,0,0:0:0:0:
64,192,19452,128,2,19588:0:0:0:0:
192,192,19452,128,0,19588:0:0:0:0:
320,192,19452,128,0,19588:0:0:0:0:
448,192,19588,1,0,0:0:0:0:
64,192,19723,128,2,19858:0:0:0:0:
320,192,19723,128,0,19858:0:0:0:0:
448,192,19723,128,0,19858:0:0:0:0:
192,192,19858,1,0,0:0:0:0:
64,192,19993,128,2,20128:0:0:0:0:
320,192,19993,128,0,20128:0:0:0:0:
448,192,19993,128,0,20128:0:0:0:0:
192,192,20128,1,0,0:0:0:0:
448,192,20263,1,0,0:0:0:0:
64,192,20398,128,2,20533:0:0:0:0:
192,192,20398,128,0,20533:0:0:0:0:
320,192,20398,128,0,20533:0:0:0:0:
448,192,20533,1,0,0:0:0:0:
64,192,20669,1,0,0:0:0:0:
192,192,20804,128,2,20939:0:0:0:0:
320,192,20804,128,0,20939:0:0:0:0:
448,192,20804,128,0,20939:0:0:0:0:
64,192,20939,1,0,0:0:0:0:
192,192,21074,1,0,0:0:0:0:
64,192,21209,128,2,21344:0:0:0:0:
320,192,21209,128,0,21344:0:0:0:0:
448,192,21209,128,0,21344:0:0:0:0:
192,192,21344,1,0,0:0:0:0:
64,192,21479,1,0,0:0:0:0:
320,192,21615,1,2,0:0:0:0:
448,192,21615,1,4,0:0:0:0:
64,192,21682,1,2,0:0:0:0:
192,192,21682,1,4,0:0:0:0:
320,192,21750,1,2,0:0:0:0:
448,192,21750,1,4,0:0:0:0:
64,192,21817,1,2,0:0:0:0:
192,192,21817,1,4,0:0:0:0:
320,192,21885,1,2,0:0:0:0:
448,192,21885,1,4,0:0:0:0:
64,192,21952,1,2,0:0:0:0:
192,192,21952,1,4,0:0:0:0:
448,192,22020,1,6,0:0:0:0:
320,192,22054,1,2,0:0:0:0:
192,192,22088,1,6,0:0:0:0:
64,192,22121,1,2,0:0:0:0:
320,192,22155,128,2,22425:0:0:0:0:
448,192,22155,128,4,22425:0:0:0:0:
64,192,22561,128,2,22831:0:0:0:0:
192,192,22561,128,4,22831:0:0:0:0:
320,192,22561,128,0,22831:0:0:0:0:
448,192,22561,1,0,0:0:0:0:
448,192,22831,1,0,0:0:0:0:
192,192,22966,128,2,23101:0:0:0:0:
320,192,22966,128,0,23101:0:0:0:0:
448,192,22966,128,0,23101:0:0:0:0:
64,192,23101,1,0,0:0:0:0:
192,192,23236,1,0,0:0:0:0:
64,192,23371,128,2,23506:0:0:0:0:
320,192,23371,128,0,23506:0:0:0:0:
448,192,23371,128,0,23506:0:0:0:0:
192,192,23506,1,0,0:0:0:0:
448,192,23642,1,0,0:0:0:0:
64,192,23777,128,2,23912:0:0:0:0:
192,192,23777,128,0,23912:0:0:0:0:
320,192,23777,128,0,23912:0:0:0:0:
448,192,23912,1,0,0:0:0:0:
64,192,24047,128,2,24182:0:0:0:0:
320,192,24047,128,0,24182:0:0:0:0:
448,192,24047,128,0,24182:0:0:0:0:
192,192,24182,1,0,0:0:0:0:
64,192,24317,128,2,24452:0:0:0:0:
320,192,24317,128,0,24452:0:0:0:0:
448,192,24317,128,0,24452:0:0:0:0:
192,192,24452,1,0,0:0:0:0:
448,192,24588,1,0,0:0:0:0:
64,192,24723,128,2,24858:0:0:0:0:
192,192,24723,128,0,24858:0:0:0:0:
320,192,24723,128,0,24858:0:0:0:0:
448,192,24858,1,0,0:0:0:0:
64,192,24993,1,0,0:0:0:0:
192,192,25128,128,2,25263:0:0:0:0:
320,192,25128,128,0,25263:0:0:0:0:
448,192,25128,128,0,25263:0:0:0:0:
64,192,25263,1,0,0:0:0:0:
192,192,25398,1,0,0:0:0:0:
448,192,25533,1,2,0:0:0:0:
320,192,25567,1,2,0:0:0:0:
192,192,25601,1,2,0:0:0:0:
64,192,25635,1,2,0:0:0:0:
448,192,25669,1,2,0:0:0:0:
320,192,25736,1,2,0:0:0:0:
64,192,25804,1,2,0:0:0:0:
192,192,25871,1,2,0:0:0:0:
320,192,25939,1,2,0:0:0:0:
448,192,25939,1,4,0:0:0:0:
64,192,26006,1,2,0:0:0:0:
192,192,26006,1,4,0:0:0:0:
320,192,26074,1,2,0:0:0:0:
448,192,26074,1,4,0:0:0:0:
64,192,26142,1,2,0:0:0:0:
192,192,26142,1,4,0:0:0:0:
320,192,26209,1,2,0:0:0:0:
448,192,26209,1,4,0:0:0:0:
64,192,26277,1,2,0:0:0:0:
192,192,26277,1,4,0:0:0:0:
448,192,26344,1,6,0:0:0:0:
320,192,26378,1,2,0:0:0:0:
192,192,26412,1,6,0:0:0:0:
64,192,26446,1,2,0:0:0:0:
320,192,26479,128,2,26615:0:0:0:0:
448,192,26479,128,4,26615:0:0:0:0:
192,192,26615,1,0,0:0:0:0:
320,192,26750,1,2,0:0:0:0:
448,192,26750,1,0,0:0:0:0:
64,192,26885,128,0,27020:0:0:0:0:
192,192,26885,128,0,27020:0:0:0:0:
320,192,27020,1,2,0:0:0:0:
448,192,27020,1,0,0:0:0:0:
192,192,27155,1,0,0:0:0:0:
64,192,27290,1,2,0:0:0:0:
320,192,27290,128,0,27425:0:0:0:0:
448,192,27290,128,0,27425:0:0:0:0:
192,192,27425,1,0,0:0:0:0:
64,192,27561,1,2,0:0:0:0:
448,192,27561,1,0,0:0:0:0:
192,192,27696,128,0,27831:0:0:0:0:
320,192,27696,128,0,27831:0:0:0:0:
64,192,27831,1,2,0:0:0:0:
448,192,27831,1,0,0:0:0:0:
320,192,27966,1,0,0:0:0:0:
64,192,28101,128,2,28236:0:0:0:0:
192,192,28101,128,0,28236:0:0:0:0:
448,192,28101,1,0,0:0:0:0:
320,192,28236,1,0,0:0:0:0:
64,192,28371,1,2,0:0:0:0:
192,192,28371,128,0,28506:0:0:0:0:
320,192,28371,128,0,28506:0:0:0:0:
448,192,28506,1,0,0:0:0:0:
192,192,28642,128,2,28777:0:0:0:0:
320,192,28642,128,0,28777:0:0:0:0:
448,192,28642,1,0,0:0:0:0:
64,192,28777,1,0,0:0:0:0:
320,192,28912,1,2,0:0:0:0:
448,192,28912,1,0,0:0:0:0:
64,192,29047,128,0,29182:0:0:0:0:
192,192,29047,128,0,29182:0:0:0:0:
320,192,29182,1,2,0:0:0:0:
448,192,29182,1,0,0:0:0:0:
192,192,29317,1,0,0:0:0:0:
64,192,29452,1,2,0:0:0:0:
320,192,29452,128,0,29588:0:0:0:0:
448,192,29452,128,0,29588:0:0:0:0:
192,192,29588,1,0,0:0:0:0:
64,192,29723,1,2,0:0:0:0:
448,192,29723,1,0,0:0:0:0:
192,192,29858,128,0,29993:0:0:0:0:
320,192,29858,128,0,29993:0:0:0:0:
64,192,29993,1,2,0:0:0:0:
448,192,29993,1,0,0:0:0:0:
320,192,30128,1,0,0:0:0:0:
64,192,30263,128,2,30398:0:0:0:0:
192,192,30263,128,0,30398:0:0:0:0:
448,192,30263,1,0,0:0:0:0:
320,192,30398,1,0,0:0:0:0:
64,192,30533,1,2,0:0:0:0:
192,192,30533,128,0,30669:0:0:0:0:
320,192,30533,128,0,30669:0:0:0:0:
448,192,30669,1,0,0:0:0:0:
64,192,30804,1,2,0:0:0:0:
192,192,30804,1,4,0:0:0:0:
320,192,30804,128,0,30939:0:0:0:0:
448,192,30804,128,0,30939:0:0:0:0:
64,192,30939,1,2,0:0:0:0:
192,192,30939,1,0,0:0:0:0:
64,192,31074,1,2,0:0:0:0:
192,192,31074,1,0,0:0:0:0:
192,192,31209,128,2,31344:0:0:0:0:
320,192,31209,1,0,0:0:0:0:
448,192,31209,1,0,0:0:0:0:
320,192,31344,1,2,0:0:0:0:
448,192,31344,1,0,0:0:0:0:
320,192,31479,1,2,0:0:0:0:
448,192,31479,1,0,0:0:0:0:
64,192,31615,1,2,0:0:0:0:
192,192,31615,1,0,0:0:0:0:
448,192,31615,128,0,31750:0:0:0:0:
64,192,31750,1,2,0:0:0:0:
192,192,31750,1,0,0:0:0:0:
64,192,31885,1,4,0:0:0:0:
448,192,31885,1,2,0:0:0:0:
320,192,31952,1,2,0:0:0:0:
64,192,32020,1,2,0:0:0:0:
192,192,32020,1,0,0:0:0:0:
448,192,32020,1,0,0:0:0:0:
320,192,32088,1,2,0:0:0:0:
192,192,32155,1,2,0:0:0:0:
64,192,32223,1,2,0:0:0:0:
320,192,32290,1,2,0:0:0:0:
192,192,32358,1,2,0:0:0:0:
64,192,32425,1,2,0:0:0:0:
320,192,32425,1,4,0:0:0:0:
448,192,32425,1,0,0:0:0:0:
192,192,32493,1,2,0:0:0:0:
64,192,32561,1,2,0:0:0:0:
448,192,32628,1,2,0:0:0:0:
64,192,32696,1,2,0:0:0:0:
192,192,32696,1,4,0:0:0:0:
320,192,32696,1,0,0:0:0:0:
448,192,32763,1,2,0:0:0:0:
192,192,32831,1,2,0:0:0:0:
320,192,32898,1,2,0:0:0:0:
64,192,32966,1,4,0:0:0:0:
192,192,32966,1,2,0:0:0:0:
448,192,32966,128,0,34047:0:0:0:0:
64,192,34047,128,0,34588:0:0:0:0:
320,192,34047,1,0,0:0:0:0:
192,192,34588,1,2,0:0:0:0:
320,192,34588,1,0,0:0:0:0:
448,192,34723,1,2,0:0:0:0:
320,192,34756,1,2,0:0:0:0:
192,192,34790,1,2,0:0:0:0:
64,192,34824,1,2,0:0:0:0:
320,192,34858,1,2,0:0:0:0:
448,192,34858,1,0,0:0:0:0:
64,192,34925,1,2,0:0:0:0:
192,192,34925,1,0,0:0:0:0:
320,192,34993,1,2,0:0:0:0:
448,192,34993,1,0,0:0:0:0:
192,192,35061,1,2,0:0:0:0:
64,192,35128,1,2,0:0:0:0:
320,192,35128,1,4,0:0:0:0:
448,192,35128,1,0,0:0:0:0:
192,192,35263,1,2,0:0:0:0:
320,192,35263,1,0,0:0:0:0:
192,192,35398,1,2,0:0:0:0:
320,192,35398,1,0,0:0:0:0:
64,192,35533,1,2,0:0:0:0:
192,192,35533,1,0,0:0:0:0:
448,192,35533,1,0,0:0:0:0:
64,192,35669,1,2,0:0:0:0:
320,192,35669,1,0,0:0:0:0:
64,192,35804,1,2,0:0:0:0:
320,192,35804,1,0,0:0:0:0:
64,192,35939,1,2,0:0:0:0:
192,192,35939,1,0,0:0:0:0:
448,192,35939,1,0,0:0:0:0:
320,192,36074,1,2,0:0:0:0:
448,192,36074,1,0,0:0:0:0:
320,192,36209,1,2,0:0:0:0:
448,192,36209,1,0,0:0:0:0:
64,192,36344,1,2,0:0:0:0:
192,192,36344,1,0,0:0:0:0:
320,192,36344,1,0,0:0:0:0:
192,192,36479,1,2,0:0:0:0:
448,192,36479,1,0,0:0:0:0:
192,192,36615,1,2,0:0:0:0:
448,192,36615,1,0,0:0:0:0:
64,192,36750,1,2,0:0:0:0:
320,192,36750,1,0,0:0:0:0:
448,192,36750,1,0,0:0:0:0:
192,192,36885,1,2,0:0:0:0:
320,192,36885,1,0,0:0:0:0:
64,192,37020,1,2,0:0:0:0:
192,192,37020,1,0,0:0:0:0:
448,192,37020,1,0,0:0:0:0:
192,192,37155,1,2,0:0:0:0:
320,192,37223,1,2,0:0:0:0:
64,192,37290,1,2,0:0:0:0:
192,192,37290,1,0,0:0:0:0:
448,192,37290,1,0,0:0:0:0:
64,192,37425,1,2,0:0:0:0:
320,192,37425,1,0,0:0:0:0:
64,192,37561,1,2,0:0:0:0:
320,192,37561,1,0,0:0:0:0:
64,192,37696,1,2,0:0:0:0:
192,192,37696,1,0,0:0:0:0:
448,192,37696,1,0,0:0:0:0:
320,192,37763,1,2,0:0:0:0:
192,192,37831,1,2,0:0:0:0:
448,192,37831,1,0,0:0:0:0:
64,192,37966,1,2,0:0:0:0:
192,192,38000,1,2,0:0:0:0:
320,192,38033,1,2,0:0:0:0:
448,192,38067,1,2,0:0:0:0:
64,192,38101,1,2,0:0:0:0:
192,192,38101,1,0,0:0:0:0:
448,192,38236,1,2,0:0:0:0:
320,192,38270,1,2,0:0:0:0:
192,192,38304,1,2,0:0:0:0:
64,192,38338,1,2,0:0:0:0:
448,192,38371,1,2,0:0:0:0:
320,192,38439,1,2,0:0:0:0:
192,192,38506,1,2,0:0:0:0:
448,192,38506,1,4,0:0:0:0:
64,192,38642,1,2,0:0:0:0:
192,192,38675,1,2,0:0:0:0:
448,192,38709,1,2,0:0:0:0:
320,192,38743,1,2,0:0:0:0:
64,192,38777,1,2,0:0:0:0:
192,192,38844,1,2,0:0:0:0:
64,192,38912,128,2,39047:0:0:0:0:
320,192,38912,128,4,39047:0:0:0:0:
448,192,38912,128,0,39047:0:0:0:0:
64,192,39115,128,0,39250:0:0:0:0:
192,192,39115,128,0,39250:0:0:0:0:
448,192,39115,128,0,39250:0:0:0:0:
64,192,39317,128,2,39385:0:0:0:0:
192,192,39317,128,4,39385:0:0:0:0:
320,192,39317,128,0,39385:0:0:0:0:
64,192,39452,1,2,0:0:0:0:
192,192,39452,1,4,0:0:0:0:
448,192,39452,1,0,0:0:0:0:
320,192,39588,1,2,0:0:0:0:
448,192,39588,1,0,0:0:0:0:
320,192,39723,1,2,0:0:0:0:
448,192,39723,1,0,0:0:0:0:
64,192,39858,1,2,0:0:0:0:
192,192,39858,1,0,0:0:0:0:
320,192,39858,1,0,0:0:0:0:
192,192,39993,1,2,0:0:0:0:
448,192,39993,1,0,0:0:0:0:
192,192,40128,1,2,0:0:0:0:
448,192,40128,1,0,0:0:0:0:
64,192,40263,1,2,0:0:0:0:
320,192,40263,1,0,0:0:0:0:
448,192,40263,1,0,0:0:0:0:
64,192,40398,1,2,0:0:0:0:
192,192,40398,1,0,0:0:0:0:
320,192,40466,1,2,0:0:0:0:
192,192,40533,1,2,0:0:0:0:
448,192,40533,1,0,0:0:0:0:
64,192,40669,1,2,0:0:0:0:
192,192,40702,1,2,0:0:0:0:
320,192,40736,1,2,0:0:0:0:
448,192,40770,1,2,0:0:0:0:
64,192,40804,1,2,0:0:0:0:
192,192,40871,1,2,0:0:0:0:
320,192,40939,1,2,0:0:0:0:
448,192,40939,1,0,0:0:0:0:
64,192,41006,1,2,0:0:0:0:
448,192,41074,1,2,0:0:0:0:
320,192,41108,1,2,0:0:0:0:
192,192,41142,1,2,0:0:0:0:
64,192,41175,1,2,0:0:0:0:
448,192,41209,1,2,0:0:0:0:
320,192,41277,1,2,0:0:0:0:
64,192,41344,1,2,0:0:0:0:
192,192,41378,1,2,0:0:0:0:
448,192,41412,1,2,0:0:0:0:
320,192,41446,1,2,0:0:0:0:
64,192,41479,1,2,0:0:0:0:
192,192,41547,1,2,0:0:0:0:
320,192,41615,1,2,0:0:0:0:
448,192,41615,1,0,0:0:0:0:
64,192,41682,1,2,0:0:0:0:
192,192,41750,1,2,0:0:0:0:
448,192,41750,1,0,0:0:0:0:
64,192,41885,1,2,0:0:0:0:
448,192,41885,1,0,0:0:0:0:
192,192,42020,1,2,0:0:0:0:
320,192,42020,1,0,0:0:0:0:
64,192,42088,1,2,0:0:0:0:
448,192,42155,1,2,0:0:0:0:
320,192,42189,1,2,0:0:0:0:
192,192,42223,1,2,0:0:0:0:
64,192,42256,1,2,0:0:0:0:
320,192,42290,1,2,0:0:0:0:
448,192,42290,1,0,0:0:0:0:
192,192,42425,1,2,0:0:0:0:
320,192,42425,1,0,0:0:0:0:
448,192,42425,1,0,0:0:0:0:
64,192,42561,1,2,0:0:0:0:
192,192,42561,1,0,0:0:0:0:
320,192,42628,1,2,0:0:0:0:
64,192,42696,1,2,0:0:0:0:
448,192,42696,1,0,0:0:0:0:
192,192,42831,1,2,0:0:0:0:
320,192,42831,1,0,0:0:0:0:
64,192,42898,128,0,42966:0:0:0:0:
192,192,42966,128,0,43033:0:0:0:0:
448,192,42966,1,0,0:0:0:0:
320,192,43033,128,0,43101:0:0:0:0:
64,192,43101,128,0,43169:0:0:0:0:
448,192,43101,1,0,0:0:0:0:
192,192,43169,128,0,43236:0:0:0:0:
64,192,43236,128,4,43304:0:0:0:0:
320,192,43236,128,0,43338:0:0:0:0:
448,192,43236,128,0,43371:0:0:0:0:
64,192,43439,128,0,43506:0:0:0:0:
192,192,43439,128,0,43540:0:0:0:0:
448,192,43439,128,0,43574:0:0:0:0:
64,192,43642,128,2,43709:0:0:0:0:
192,192,43642,128,4,43743:0:0:0:0:
320,192,43642,1,0,0:0:0:0:
320,192,43777,1,2,0:0:0:0:
448,192,43777,1,4,0:0:0:0:
64,192,43844,1,2,0:0:0:0:
192,192,43844,1,0,0:0:0:0:
320,192,43912,1,2,0:0:0:0:
448,192,43912,1,0,0:0:0:0:
64,192,43979,1,2,0:0:0:0:
192,192,43979,1,0,0:0:0:0:
320,192,44047,1,2,0:0:0:0:
448,192,44047,1,0,0:0:0:0:
192,192,44115,1,2,0:0:0:0:
64,192,44182,1,2,0:0:0:0:
448,192,44182,1,0,0:0:0:0:
192,192,44250,1,2,0:0:0:0:
320,192,44250,1,0,0:0:0:0:
64,192,44317,1,2,0:0:0:0:
448,192,44317,1,0,0:0:0:0:
192,192,44385,1,2,0:0:0:0:
320,192,44385,1,0,0:0:0:0:
64,192,44452,1,2,0:0:0:0:
448,192,44452,1,0,0:0:0:0:
192,192,44588,1,2,0:0:0:0:
320,192,44588,1,0,0:0:0:0:
448,192,44655,1,2,0:0:0:0:
64,192,44723,1,2,0:0:0:0:
192,192,44723,1,0,0:0:0:0:
320,192,44790,1,0,0:0:0:0:
448,192,44858,1,2,0:0:0:0:
192,192,44925,1,2,0:0:0:0:
64,192,44993,1,2,0:0:0:0:
320,192,44993,1,0,0:0:0:0:
448,192,45061,1,0,0:0:0:0:
64,192,45128,1,0,0:0:0:0:
192,192,45128,1,0,0:0:0:0:
320,192,45263,1,2,0:0:0:0:
192,192,45331,1,2,0:0:0:0:
64,192,45398,1,2,0:0:0:0:
448,192,45398,1,0,0:0:0:0:
192,192,45533,1,0,0:0:0:0:
64,192,45669,1,2,0:0:0:0:
320,192,45669,1,0,0:0:0:0:
448,192,45669,1,0,0:0:0:0:
192,192,45804,1,0,0:0:0:0:
64,192,45939,1,2,0:0:0:0:
320,192,45939,1,4,0:0:0:0:
448,192,45939,1,0,0:0:0:0:
192,192,46006,1,2,0:0:0:0:
320,192,46074,1,2,0:0:0:0:
448,192,46074,1,0,0:0:0:0:
64,192,46209,1,2,0:0:0:0:
192,192,46209,1,0,0:0:0:0:
64,192,46344,1,2,0:0:0:0:
320,192,46344,1,4,0:0:0:0:
448,192,46344,1,0,0:0:0:0:
192,192,46412,1,2,0:0:0:0:
64,192,46479,1,2,0:0:0:0:
320,192,46479,1,0,0:0:0:0:
192,192,46615,1,2,0:0:0:0:
448,192,46615,1,0,0:0:0:0:
64,192,46750,1,4,0:0:0:0:
320,192,46750,1,2,0:0:0:0:
448,192,46750,1,0,0:0:0:0:
192,192,46885,1,2,0:0:0:0:
320,192,46885,1,0,0:0:0:0:
64,192,47020,1,2,0:0:0:0:
448,192,47020,1,0,0:0:0:0:
192,192,47088,1,2,0:0:0:0:
64,192,47155,1,2,0:0:0:0:
320,192,47155,1,4,0:0:0:0:
448,192,47155,1,0,0:0:0:0:
192,192,47223,1,2,0:0:0:0:
320,192,47290,1,2,0:0:0:0:
448,192,47290,1,0,0:0:0:0:
64,192,47425,1,2,0:0:0:0:
192,192,47425,1,0,0:0:0:0:
320,192,47493,1,2,0:0:0:0:
64,192,47561,128,2,47696:0:0:0:0:
192,192,47561,128,4,47696:0:0:0:0:
448,192,47561,128,0,47696:0:0:0:0:
64,192,47763,128,0,47898:0:0:0:0:
320,192,47763,128,0,47898:0:0:0:0:
448,192,47763,128,0,47898:0:0:0:0:
192,192,47966,128,2,48033:0:0:0:0:
320,192,47966,128,4,48033:0:0:0:0:
448,192,47966,128,0,48033:0:0:0:0:
64,192,48101,1,2,0:0:0:0:
192,192,48101,1,4,0:0:0:0:
320,192,48169,1,2,0:0:0:0:
448,192,48169,1,0,0:0:0:0:
64,192,48236,1,2,0:0:0:0:
192,192,48236,1,0,0:0:0:0:
320,192,48304,1,2,0:0:0:0:
448,192,48304,1,0,0:0:0:0:
64,192,48371,1,2,0:0:0:0:
192,192,48371,1,0,0:0:0:0:
320,192,48439,1,2,0:0:0:0:
64,192,48506,1,2,0:0:0:0:
448,192,48506,1,0,0:0:0:0:
192,192,48574,1,2,0:0:0:0:
320,192,48574,1,0,0:0:0:0:
64,192,48642,1,2,0:0:0:0:
448,192,48642,1,0,0:0:0:0:
192,192,48709,1,0,0:0:0:0:
320,192,48709,1,0,0:0:0:0:
64,192,48777,1,2,0:0:0:0:
448,192,48777,1,0,0:0:0:0:
320,192,48912,1,2,0:0:0:0:
448,192,48912,1,0,0:0:0:0:
64,192,48979,1,2,0:0:0:0:
192,192,49047,1,2,0:0:0:0:
448,192,49047,1,0,0:0:0:0:
320,192,49115,1,2,0:0:0:0:
64,192,49182,1,2,0:0:0:0:
192,192,49182,1,0,0:0:0:0:
64,192,49317,1,2,0:0:0:0:
320,192,49317,1,0,0:0:0:0:
448,192,49317,1,0,0:0:0:0:
192,192,49452,1,2,0:0:0:0:
448,192,49452,1,0,0:0:0:0:
320,192,49588,1,2,0:0:0:0:
192,192,49655,1,2,0:0:0:0:
64,192,49723,1,0,0:0:0:0:
320,192,49723,1,0,0:0:0:0:
448,192,49723,1,0,0:0:0:0:
192,192,49858,1,0,0:0:0:0:
192,192,49993,1,2,0:0:0:0:
320,192,49993,1,0,0:0:0:0:
448,192,49993,1,0,0:0:0:0:
64,192,50128,1,0,0:0:0:0:
192,192,50263,128,2,50398:0:0:0:0:
320,192,50263,128,4,50398:0:0:0:50:crash_s.wav
448,192,50263,128,0,50669:0:0:0:0:
64,192,50398,1,0,0:0:0:0:
64,192,50669,128,2,50804:0:0:0:0:
192,192,50669,128,4,50804:0:0:0:50:crash_s.wav
320,192,50669,128,0,51074:0:0:0:0:
448,192,50804,1,0,0:0:0:0:
64,192,51074,128,2,51209:0:0:0:0:
192,192,51074,128,4,51479:0:0:0:50:crash_s.wav
448,192,51074,128,0,51209:0:0:0:0:
320,192,51209,1,0,0:0:0:0:
64,192,51479,128,2,51885:0:0:0:0:
320,192,51479,128,4,51615:0:0:0:50:crash_s.wav
448,192,51479,128,0,51615:0:0:0:0:
192,192,51615,1,0,0:0:0:0:
448,192,51885,128,0,52088:0:0:0:0:
320,192,51952,128,0,52020:0:0:0:0:
64,192,52020,128,0,52155:0:0:0:0:
192,192,52088,128,0,52223:0:0:0:0:
320,192,52155,128,0,52290:0:0:0:0:
448,192,52223,128,0,52358:0:0:0:0:
64,192,52290,128,0,52425:0:0:0:0:
192,192,52358,128,0,52425:0:0:0:0:
320,192,52425,128,4,52561:0:0:0:0:
448,192,52425,1,2,0:0:0:0:
192,192,52561,128,0,52696:0:0:0:0:
64,192,52696,128,2,52831:0:0:0:0:
448,192,52696,1,0,0:0:0:0:
320,192,52831,128,0,52966:0:0:0:0:
64,192,52966,1,2,0:0:0:0:
448,192,52966,1,0,0:0:0:0:
192,192,53101,128,0,53236:0:0:0:0:
320,192,53236,1,2,0:0:0:0:
448,192,53236,1,0,0:0:0:0:
64,192,53371,128,0,53506:0:0:0:0:
320,192,53506,1,2,0:0:0:0:
448,192,53506,1,0,0:0:0:0:
64,192,53642,1,0,0:0:0:0:
192,192,53709,1,0,0:0:0:0:
64,192,53777,128,2,53912:0:0:0:0:
448,192,53777,1,0,0:0:0:0:
320,192,53912,128,0,54047:0:0:0:0:
64,192,54047,1,2,0:0:0:0:
448,192,54047,1,0,0:0:0:0:
192,192,54182,128,0,54317:0:0:0:0:
320,192,54317,1,2,0:0:0:0:
448,192,54317,1,0,0:0:0:0:
64,192,54452,128,0,54588:0:0:0:0:
192,192,54588,128,2,54723:0:0:0:0:
448,192,54588,1,0,0:0:0:0:
64,192,54723,128,0,54858:0:0:0:0:
192,192,54858,128,2,54993:0:0:0:0:
448,192,54858,1,0,0:0:0:0:
320,192,54993,128,0,55128:0:0:0:0:
64,192,55128,1,2,0:0:0:0:
192,192,55128,1,0,0:0:0:0:
448,192,55263,128,0,55398:0:0:0:0:
192,192,55398,1,2,0:0:0:0:
320,192,55398,1,0,0:0:0:0:
64,192,55533,128,0,56615:0:0:0:0:
192,192,55669,1,2,0:0:0:0:
448,192,55669,1,0,0:0:0:0:
448,192,55804,1,0,0:0:0:0:
192,192,55939,1,2,0:0:0:0:
320,192,55939,1,0,0:0:0:0:
320,192,56074,1,0,0:0:0:0:
192,192,56209,1,2,0:0:0:0:
448,192,56209,1,0,0:0:0:0:
192,192,56344,1,0,0:0:0:0:
320,192,56479,1,2,0:0:0:0:
448,192,56479,1,0,0:0:0:0:
448,192,56615,1,0,0:0:0:0:
192,192,56750,1,2,0:0:0:0:
320,192,56750,128,0,56885:0:0:0:0:
64,192,56885,128,0,57020:0:0:0:0:
192,192,57020,128,2,57155:0:0:0:0:
320,192,57020,1,0,0:0:0:0:
448,192,57155,128,0,57290:0:0:0:0:
64,192,57290,1,2,0:0:0:0:
192,192,57290,1,0,0:0:0:0:
320,192,57425,128,0,57561:0:0:0:0:
64,192,57561,1,2,0:0:0:0:
448,192,57561,1,0,0:0:0:0:
192,192,57696,128,0,57831:0:0:0:0:
64,192,57831,1,2,0:0:0:0:
448,192,57831,1,0,0:0:0:0:
192,192,57966,1,0,0:0:0:0:
320,192,58033,1,0,0:0:0:0:
192,192,58101,128,2,58236:0:0:0:0:
448,192,58101,1,0,0:0:0:0:
64,192,58236,128,0,58371:0:0:0:0:
192,192,58371,1,2,0:0:0:0:
448,192,58371,1,0,0:0:0:0:
320,192,58506,128,0,58642:0:0:0:0:
64,192,58642,1,2,0:0:0:0:
448,192,58642,1,0,0:0:0:0:
192,192,58777,128,0,58912:0:0:0:0:
64,192,58912,1,2,0:0:0:0:
320,192,58912,128,0,59047:0:0:0:0:
192,192,59047,128,0,59182:0:0:0:0:
320,192,59182,1,2,0:0:0:0:
448,192,59182,1,0,0:0:0:0:
64,192,59317,128,0,59452:0:0:0:0:
320,192,59452,1,2,0:0:0:0:
448,192,59452,1,0,0:0:0:0:
64,192,59588,128,0,59723:0:0:0:0:
192,192,59723,128,2,59858:0:0:0:0:
448,192,59723,1,0,0:0:0:0:
320,192,59858,128,0,59993:0:0:0:0:
64,192,59993,1,2,0:0:0:0:
192,192,59993,1,4,0:0:0:0:
448,192,59993,1,0,0:0:0:0:
64,192,60128,128,0,60263:0:0:0:0:
320,192,60128,128,0,60263:0:0:0:0:
448,192,60128,128,0,60263:0:0:0:0:
192,192,60398,128,4,60669:0:0:0:0:
320,192,60398,128,2,60669:0:0:0:0:
448,192,60398,128,0,60669:0:0:0:0:
64,192,60669,1,0,0:0:0:0:
192,192,60804,1,2,0:0:0:0:
320,192,60804,128,4,60939:0:0:0:0:
448,192,60804,128,0,60939:0:0:0:0:
64,192,60939,1,0,0:0:0:0:
192,192,61006,1,0,0:0:0:0:
64,192,61074,128,4,61209:0:0:0:0:
320,192,61074,128,2,61209:0:0:0:0:
448,192,61074,128,0,61209:0:0:0:0:
192,192,61209,128,0,61344:0:0:0:0:
64,192,61344,1,2,0:0:0:0:
320,192,61344,128,0,61479:0:0:0:0:
448,192,61479,128,0,61615:0:0:0:0:
64,192,61615,1,2,0:0:0:0:
192,192,61615,1,0,0:0:0:0:
320,192,61750,128,0,61885:0:0:0:0:
64,192,61885,1,2,0:0:0:0:
448,192,61885,1,0,0:0:0:0:
192,192,62020,128,0,62155:0:0:0:0:
320,192,62155,1,2,0:0:0:0:
448,192,62155,1,0,0:0:0:0:
192,192,62290,1,0,0:0:0:0:
320,192,62358,1,0,0:0:0:0:
192,192,62425,128,2,62561:0:0:0:0:
448,192,62425,1,0,0:0:0:0:
64,192,62561,128,0,62696:0:0:0:0:
192,192,62696,1,2,0:0:0:0:
448,192,62696,1,0,0:0:0:0:
320,192,62831,128,0,62966:0:0:0:0:
64,192,62966,1,2,0:0:0:0:
448,192,62966,1,0,0:0:0:0:
192,192,63101,128,0,63236:0:0:0:0:
64,192,63236,1,2,0:0:0:0:
320,192,63236,128,0,63371:0:0:0:0:
192,192,63371,128,0,63506:0:0:0:0:
320,192,63506,128,2,63642:0:0:0:0:
448,192,63506,1,0,0:0:0:0:
64,192,63642,128,0,63777:0:0:0:0:
320,192,63777,1,2,0:0:0:0:
448,192,63777,1,0,0:0:0:0:
192,192,63912,128,0,64047:0:0:0:0:
64,192,64047,1,2,0:0:0:0:
448,192,64047,1,0,0:0:0:0:
320,192,64182,128,0,64317:0:0:0:0:
64,192,64317,1,2,0:0:0:0:
448,192,64317,1,0,0:0:0:0:
192,192,64452,128,0,64588:0:0:0:0:
64,192,64588,128,2,64723:0:0:0:0:
448,192,64588,1,0,0:0:0:0:
192,192,64723,1,2,0:0:0:0:
320,192,64723,128,4,64858:0:0:0:50:crash_s.wav
448,192,64723,128,0,64858:0:0:0:0:
64,192,64993,1,2,0:0:0:0:
192,192,64993,128,4,65128:0:0:0:50:crash_s.wav
320,192,64993,128,0,65128:0:0:0:0:
64,192,65263,128,2,65398:0:0:0:0:
192,192,65263,128,4,65398:0:0:0:0:
448,192,65263,128,0,66615:0:0:0:0:
64,192,65533,1,0,0:0:0:0:
192,192,65669,1,0,0:0:0:0:
64,192,65804,1,0,0:0:0:0:
320,192,65939,1,0,0:0:0:0:
192,192,66074,1,0,0:0:0:0:
320,192,66209,1,0,0:0:0:0:
64,192,66344,1,0,0:0:0:0:
192,192,66479,1,0,0:0:0:0:
64,192,66615,1,0,0:0:0:0:
320,192,66615,128,0,66750:0:0:0:0:
448,192,66750,128,0,66885:0:0:0:0:
64,192,66885,128,0,67020:0:0:0:0:
320,192,66885,1,0,0:0:0:0:
64,192,67155,128,0,67290:0:0:0:0:
320,192,67155,1,0,0:0:0:0:
192,192,67290,128,0,67425:0:0:0:0:
320,192,67425,128,0,67561:0:0:0:0:
64,192,67561,1,4,0:0:0:0:
192,192,67561,1,2,0:0:0:0:
448,192,67561,1,0,0:0:0:0:
192,192,67696,1,2,0:0:0:0:
320,192,67696,1,0,0:0:0:0:
64,192,67831,1,2,0:0:0:0:
320,192,67831,1,0,0:0:0:0:
448,192,67831,1,0,0:0:0:0:
64,192,67966,1,2,0:0:0:0:
192,192,67966,1,0,0:0:0:0:
192,192,68101,1,2,0:0:0:0:
320,192,68101,1,4,0:0:0:0:
448,192,68101,1,0,0:0:0:0:
64,192,68236,1,2,0:0:0:0:
320,192,68236,1,0,0:0:0:0:
64,192,68371,1,2,0:0:0:0:
192,192,68371,1,0,0:0:0:0:
448,192,68371,1,0,0:0:0:0:
320,192,68506,1,2,0:0:0:0:
448,192,68506,1,0,0:0:0:0:
64,192,68642,1,4,0:0:0:0:
192,192,68642,1,2,0:0:0:0:
320,192,68642,1,0,0:0:0:0:
448,192,68709,1,2,0:0:0:0:
64,192,68777,1,2,0:0:0:0:
192,192,68777,1,0,0:0:0:0:
320,192,68844,1,2,0:0:0:0:
64,192,68912,1,4,0:0:0:0:
448,192,68912,1,2,0:0:0:0:
192,192,68979,1,2,0:0:0:0:
320,192,69047,1,2,0:0:0:0:
448,192,69047,1,0,0:0:0:0:
64,192,69115,1,2,0:0:0:0:
192,192,69182,1,4,0:0:0:0:
320,192,69182,1,2,0:0:0:0:
448,192,69182,1,0,0:0:0:0:
64,192,69250,1,2,0:0:0:0:
448,192,69317,1,2,0:0:0:0:
320,192,69351,1,2,0:0:0:0:
192,192,69385,1,2,0:0:0:0:
64,192,69419,1,2,0:0:0:0:
320,192,69452,1,4,0:0:0:0:
448,192,69452,1,2,0:0:0:0:
64,192,69520,1,2,0:0:0:0:
192,192,69520,1,0,0:0:0:0:
448,192,69588,1,2,0:0:0:0:
320,192,69621,1,2,0:0:0:0:
192,192,69655,1,2,0:0:0:0:
64,192,69689,1,2,0:0:0:0:
320,192,69723,128,2,69858:0:0:0:0:
448,192,69723,1,4,0:0:0:0:
64,192,69858,128,0,69993:0:0:0:0:
192,192,69993,128,0,70128:0:0:0:0:
320,192,70128,1,0,0:0:0:0:
448,192,70128,128,0,70398:0:0:0:0:
320,192,70398,128,0,70533:0:0:0:0:
192,192,70533,128,0,70669:0:0:0:0:
64,192,70669,128,0,70804:0:0:0:0:
320,192,70804,128,0,70939:0:0:0:0:
448,192,70939,128,0,71074:0:0:0:0:
192,192,71074,128,0,71209:0:0:0:0:
320,192,71209,128,0,71479:0:0:0:0:
64,192,71479,128,0,71615:0:0:0:0:
448,192,71615,128,0,71750:0:0:0:0:
320,192,71750,128,0,71885:0:0:0:0:
64,192,71885,128,0,72020:0:0:0:0:
448,192,71885,1,0,0:0:0:0:
192,192,72020,128,0,72155:0:0:0:0:
320,192,72155,128,0,72290:0:0:0:0:
64,192,72290,1,0,0:0:0:0:
448,192,72290,128,0,72561:0:0:0:0:
320,192,72561,128,0,72696:0:0:0:0:
192,192,72696,128,0,72831:0:0:0:0:
64,192,72831,128,0,72966:0:0:0:0:
320,192,72966,128,0,73101:0:0:0:0:
448,192,73101,128,0,73236:0:0:0:0:
192,192,73236,128,0,73371:0:0:0:0:
320,192,73371,128,0,73642:0:0:0:0:
448,192,73642,128,0,73777:0:0:0:0:
192,192,73777,128,0,73912:0:0:0:0:
320,192,73777,1,0,0:0:0:0:
64,192,73912,128,0,74047:0:0:0:0:
192,192,74047,1,4,0:0:0:0:
320,192,74047,1,2,0:0:0:0:
448,192,74047,1,0,0:0:0:0:
64,192,74182,1,0,0:0:0:0:
320,192,74317,1,2,0:0:0:0:
64,192,74452,1,0,0:0:0:0:
192,192,74452,1,0,0:0:0:0:
448,192,74452,1,0,0:0:0:0:
320,192,74723,1,0,0:0:0:0:
64,192,74858,1,2,0:0:0:0:
448,192,74858,1,0,0:0:0:0:
192,192,74993,1,0,0:0:0:0:
64,192,75128,1,2,0:0:0:0:
320,192,75263,1,0,0:0:0:0:
448,192,75263,1,0,0:0:0:0:
192,192,75398,1,2,0:0:0:0:
320,192,75533,1,0,0:0:0:0:
64,192,75669,1,2,0:0:0:0:
448,192,75669,1,0,0:0:0:0:
192,192,75804,1,0,0:0:0:0:
64,192,75939,1,2,0:0:0:0:
320,192,75939,1,0,0:0:0:0:
448,192,75939,1,0,0:0:0:0:
320,192,76074,1,0,0:0:0:0:
64,192,76209,1,2,0:0:0:0:
192,192,76209,1,0,0:0:0:0:
448,192,76209,1,0,0:0:0:0:
320,192,76344,1,0,0:0:0:0:
64,192,76479,1,2,0:0:0:0:
192,192,76479,1,0,0:0:0:0:
64,192,76615,1,0,0:0:0:0:
320,192,76615,1,0,0:0:0:0:
448,192,76615,1,0,0:0:0:0:
192,192,76750,1,2,0:0:0:0:
320,192,76750,1,0,0:0:0:0:
448,192,76885,1,0,0:0:0:0:
64,192,77020,1,2,0:0:0:0:
192,192,77020,1,0,0:0:0:0:
320,192,77020,1,0,0:0:0:0:
64,192,77155,1,0,0:0:0:0:
320,192,77290,1,2,0:0:0:0:
448,192,77290,1,0,0:0:0:0:
64,192,77425,1,0,0:0:0:0:
192,192,77425,1,0,0:0:0:0:
320,192,77425,1,0,0:0:0:0:
64,192,77561,1,2,0:0:0:0:
448,192,77561,1,0,0:0:0:0:
192,192,77628,1,0,0:0:0:0:
320,192,77696,1,0,0:0:0:0:
64,192,77831,1,2,0:0:0:0:
192,192,77831,1,0,0:0:0:0:
448,192,77831,1,0,0:0:0:0:
192,192,77966,1,0,0:0:0:0:
64,192,78101,1,2,0:0:0:0:
448,192,78101,1,0,0:0:0:0:
320,192,78169,1,0,0:0:0:0:
192,192,78236,1,0,0:0:0:0:
64,192,78371,1,4,0:0:0:0:
320,192,78371,1,2,0:0:0:0:
448,192,78371,1,0,0:0:0:0:
320,192,78506,1,2,0:0:0:0:
320,192,78642,1,2,0:0:0:0:
64,192,78777,1,2,0:0:0:0:
192,192,78777,1,0,0:0:0:0:
448,192,78777,1,0,0:0:0:0:
192,192,78912,1,2,0:0:0:0:
64,192,79047,1,2,0:0:0:0:
320,192,79047,1,0,0:0:0:0:
448,192,79047,1,0,0:0:0:0:
320,192,79182,1,2,0:0:0:0:
64,192,79317,1,2,0:0:0:0:
192,192,79317,1,0,0:0:0:0:
64,192,79452,1,4,0:0:0:0:
320,192,79452,1,2,0:0:0:0:
448,192,79452,1,0,0:0:0:0:
320,192,79588,1,2,0:0:0:0:
448,192,79588,1,0,0:0:0:0:
320,192,79723,1,2,0:0:0:0:
448,192,79723,1,0,0:0:0:0:
64,192,79858,1,2,0:0:0:0:
192,192,79858,1,0,0:0:0:0:
64,192,79993,1,2,0:0:0:0:
320,192,79993,1,4,0:0:0:0:
448,192,79993,1,0,0:0:0:0:
192,192,80128,1,2,0:0:0:0:
320,192,80128,1,0,0:0:0:0:
448,192,80128,1,0,0:0:0:0:
64,192,80263,1,2,0:0:0:0:
192,192,80263,1,0,0:0:0:0:
448,192,80263,1,0,0:0:0:0:
64,192,80398,1,2,0:0:0:0:
192,192,80398,1,0,0:0:0:0:
320,192,80398,1,0,0:0:0:0:
320,192,80533,1,4,0:0:0:0:
448,192,80533,1,2,0:0:0:0:
64,192,80601,1,2,0:0:0:0:
192,192,80601,1,0,0:0:0:0:
320,192,80669,1,2,0:0:0:0:
448,192,80669,1,0,0:0:0:0:
64,192,80736,1,2,0:0:0:0:
192,192,80736,1,0,0:0:0:0:
320,192,80804,1,4,0:0:0:0:
448,192,80804,1,2,0:0:0:0:
64,192,80871,1,2,0:0:0:0:
192,192,80871,1,0,0:0:0:0:
320,192,80939,1,2,0:0:0:0:
448,192,80939,1,0,0:0:0:0:
64,192,81006,1,2,0:0:0:0:
192,192,81006,1,0,0:0:0:0:
320,192,81074,1,4,0:0:0:0:
448,192,81074,1,2,0:0:0:0:
64,192,81142,1,2,0:0:0:0:
192,192,81142,1,0,0:0:0:0:
448,192,81209,1,2,0:0:0:0:
320,192,81243,1,2,0:0:0:0:
192,192,81277,1,2,0:0:0:0:
64,192,81311,1,2,0:0:0:0:
320,192,81344,1,4,0:0:0:0:
448,192,81344,1,2,0:0:0:0:
64,192,81412,1,2,0:0:0:0:
192,192,81412,1,0,0:0:0:0:
448,192,81479,1,2,0:0:0:0:
320,192,81513,1,2,0:0:0:0:
192,192,81547,1,2,0:0:0:0:
64,192,81581,1,2,0:0:0:0:
448,192,81615,128,0,83236:0:0:0:0:
320,192,82155,128,0,83236:0:0:0:0:
192,192,83371,1,0,0:0:0:0:
320,192,83439,1,0,0:0:0:0:
448,192,83506,1,0,0:0:0:0:
64,192,83574,1,0,0:0:0:0:
192,192,83642,1,0,0:0:0:0:
320,192,83709,1,0,0:0:0:0:
64,192,83777,1,2,0:0:0:0:
192,192,83777,1,0,0:0:0:50:crash_s.wav
448,192,83777,1,0,0:0:0:0:
320,192,83912,1,0,0:0:0:70:LR_Drum Rpd vFast.wav
448,192,83979,1,0,0:0:0:70:LR_Drum Rpd vFast.wav
64,192,84047,1,0,0:0:0:70:LR_Tom Normal.wav
192,192,84047,1,0,0:0:0:0:
320,192,84115,1,0,0:0:0:0:
64,192,84182,128,2,84317:0:0:0:0:
192,192,84182,128,0,84317:0:0:0:50:crash_s.wav
448,192,84182,128,0,84317:0:0:0:0:
192,192,84452,128,2,84588:0:0:0:0:
320,192,84452,128,0,84588:0:0:0:50:crash_s.wav
448,192,84452,128,0,84588:0:0:0:0:
64,192,84723,128,2,84993:0:0:0:0:
192,192,84723,128,4,84993:0:0:0:0:
320,192,84723,128,0,84858:0:0:0:0:
448,192,84723,128,0,84858:0:0:0:0:
320,192,84993,1,0,0:0:0:0:
448,192,84993,1,0,0:0:0:0:
64,192,85128,1,2,0:0:0:0:
192,192,85128,1,0,0:0:0:50:crash_s.wav
448,192,85128,1,0,0:0:0:0:
320,192,85196,1,0,0:0:0:0:
64,192,85263,1,0,0:0:0:0:
192,192,85331,1,0,0:0:0:0:
64,192,85398,1,2,0:0:0:0:
320,192,85398,1,0,0:0:0:50:crash_s.wav
448,192,85398,1,0,0:0:0:0:
192,192,85533,1,0,0:0:0:0:
320,192,85601,1,0,0:0:0:0:
64,192,85669,1,2,0:0:0:0:
192,192,85669,1,0,0:0:0:50:crash_s.wav
448,192,85669,1,0,0:0:0:0:
320,192,85804,1,0,0:0:0:0:
64,192,85871,1,0,0:0:0:0:
192,192,85939,1,2,0:0:0:0:
320,192,85939,1,4,0:0:0:0:
448,192,85939,1,0,0:0:0:0:
64,192,86074,1,0,0:0:0:0:
192,192,86142,1,0,0:0:0:0:
320,192,86209,1,2,0:0:0:0:
448,192,86209,1,0,0:0:0:0:
64,192,86277,1,0,0:0:0:0:
448,192,86344,1,0,0:0:0:0:
192,192,86412,1,0,0:0:0:0:
64,192,86479,1,2,0:0:0:0:
320,192,86479,1,0,0:0:0:0:
448,192,86479,1,0,0:0:0:0:
192,192,86615,1,0,0:0:0:0:
320,192,86615,1,0,0:0:0:0:
64,192,86750,1,2,0:0:0:0:
448,192,86750,1,0,0:0:0:0:
320,192,86817,1,0,0:0:0:0:
64,192,86885,1,0,0:0:0:0:
192,192,86885,1,0,0:0:0:0:
448,192,86885,1,0,0:0:0:0:
192,192,87020,1,2,0:0:0:0:
320,192,87020,1,0,0:0:0:0:
64,192,87155,1,0,0:0:0:0:
320,192,87155,1,0,0:0:0:0:
448,192,87155,1,0,0:0:0:0:
64,192,87290,1,2,0:0:0:0:
192,192,87290,1,0,0:0:0:0:
448,192,87290,1,0,0:0:0:0:
320,192,87425,1,0,0:0:0:0:
192,192,87493,1,0,0:0:0:0:
64,192,87561,1,2,0:0:0:0:
320,192,87561,1,0,0:0:0:0:
448,192,87561,1,0,0:0:0:0:
192,192,87696,1,0,0:0:0:0:
320,192,87763,1,0,0:0:0:0:
64,192,87831,1,2,0:0:0:0:
192,192,87831,1,0,0:0:0:0:
448,192,87831,1,0,0:0:0:0:
320,192,87966,1,0,0:0:0:0:
192,192,88033,1,0,0:0:0:0:
64,192,88101,1,2,0:0:0:0:
320,192,88101,1,0,0:0:0:0:
448,192,88101,1,0,0:0:0:0:
192,192,88236,1,0,0:0:0:0:
64,192,88304,1,0,0:0:0:0:
320,192,88371,1,2,0:0:0:0:
448,192,88371,1,0,0:0:0:0:
192,192,88439,1,0,0:0:0:0:
64,192,88506,1,0,0:0:0:0:
320,192,88506,1,0,0:0:0:0:
448,192,88506,1,0,0:0:0:0:
64,192,88642,1,2,0:0:0:0:
192,192,88642,1,0,0:0:0:0:
320,192,88709,1,0,0:0:0:0:
64,192,88777,1,0,0:0:0:0:
192,192,88777,1,0,0:0:0:0:
448,192,88777,1,0,0:0:0:0:
320,192,88912,1,2,0:0:0:0:
448,192,88912,1,0,0:0:0:0:
192,192,88979,1,0,0:0:0:0:
64,192,89047,1,0,0:0:0:0:
320,192,89047,1,0,0:0:0:0:
448,192,89047,1,0,0:0:0:0:
192,192,89182,1,2,0:0:0:0:
320,192,89182,1,0,0:0:0:0:
64,192,89317,1,0,0:0:0:0:
448,192,89385,1,0,0:0:0:0:
192,192,89452,1,2,0:0:0:0:
320,192,89452,1,0,0:0:0:0:
64,192,89520,1,0,0:0:0:0:
192,192,89588,1,0,0:0:0:0:
320,192,89655,1,0,0:0:0:0:
64,192,89723,1,2,0:0:0:0:
448,192,89723,1,0,0:0:0:0:
192,192,89790,1,0,0:0:0:0:
320,192,89858,1,0,0:0:0:0:
448,192,89925,1,0,0:0:0:0:
64,192,89993,1,2,0:0:0:0:
192,192,89993,1,0,0:0:0:0:
320,192,90061,1,0,0:0:0:0:
448,192,90128,1,0,0:0:0:0:
64,192,90196,1,0,0:0:0:0:
320,192,90263,1,2,0:0:0:0:
448,192,90263,1,0,0:0:0:0:
192,192,90331,1,0,0:0:0:0:
64,192,90398,1,0,0:0:0:0:
320,192,90466,1,0,0:0:0:0:
64,192,90533,1,2,0:0:0:0:
192,192,90533,1,0,0:0:0:0:
448,192,90601,1,0,0:0:0:0:
320,192,90669,1,0,0:0:0:0:
64,192,90736,1,0,0:0:0:0:
192,192,90804,1,2,0:0:0:0:
448,192,90804,1,0,0:0:0:0:
320,192,90871,1,0,0:0:0:0:
64,192,90939,1,0,0:0:0:0:
192,192,90984,1,0,0:0:0:0:
320,192,91029,1,0,0:0:0:0:
64,192,91074,1,2,0:0:0:0:
448,192,91074,1,0,0:0:0:0:
192,192,91119,1,0,0:0:0:0:
320,192,91164,1,0,0:0:0:0:
448,192,91209,1,0,0:0:0:0:
64,192,91254,1,0,0:0:0:0:
192,192,91299,1,0,0:0:0:0:
320,192,91344,1,2,0:0:0:0:
448,192,91344,1,0,0:0:0:50:crash_s.wav
64,192,91479,128,2,91615:0:0:0:0:
192,192,91479,128,0,91615:0:0:0:50:crash_s.wav
448,192,91479,128,0,91615:0:0:0:0:
64,192,91750,128,2,91885:0:0:0:0:
320,192,91750,128,0,91885:0:0:0:50:crash_s.wav
448,192,91750,128,0,91885:0:0:0:0:
192,192,92020,128,2,92155:0:0:0:0:
320,192,92020,128,0,92155:0:0:0:50:crash_s.wav
448,192,92020,128,0,92155:0:0:0:0:
64,192,92290,128,2,92628:0:0:0:0:
192,192,92290,128,4,92628:0:0:0:0:
320,192,92290,128,0,93101:0:0:0:0:
448,192,92290,128,0,93101:0:0:0:0:
64,192,92696,1,8,0:0:0:0:
192,192,92696,1,0,0:0:0:0:
64,192,93101,1,2,0:0:0:0:
192,192,93101,1,0,0:0:0:0:
192,192,93236,1,8,0:0:0:0:
320,192,93236,1,0,0:0:0:0:
320,192,93371,1,2,0:0:0:0:
448,192,93371,128,0,93777:0:0:0:0:
192,192,93642,1,0,0:0:0:0:
64,192,93777,1,8,0:0:0:0:
320,192,93777,128,0,93912:0:0:0:0:
192,192,93912,128,0,94047:0:0:0:0:
320,192,94047,1,2,0:0:0:0:
448,192,94047,1,0,0:0:0:0:
64,192,94182,128,2,94317:0:0:0:0:
448,192,94182,1,0,0:0:0:0:
192,192,94317,1,8,0:0:0:0:
320,192,94317,128,0,94452:0:0:0:0:
192,192,94452,128,2,94723:0:0:0:0:
448,192,94452,1,0,0:0:0:0:
64,192,94588,1,0,0:0:0:0:
448,192,94723,1,0,0:0:0:0:
320,192,94790,1,0,0:0:0:0:
64,192,94858,1,8,0:0:0:0:
192,192,94858,1,0,0:0:0:0:
320,192,94925,1,0,0:0:0:0:
64,192,94993,1,0,0:0:0:0:
192,192,95061,1,0,0:0:0:0:
64,192,95128,1,2,0:0:0:0:
448,192,95128,1,0,0:0:0:0:
320,192,95196,1,0,0:0:0:0:
192,192,95263,1,2,0:0:0:0:
448,192,95263,1,0,0:0:0:0:
64,192,95331,1,0,0:0:0:0:
192,192,95398,1,8,0:0:0:0:
448,192,95398,1,0,0:0:0:0:
320,192,95466,1,0,0:0:0:0:
64,192,95533,1,0,0:0:0:0:
192,192,95601,1,0,0:0:0:0:
64,192,95669,1,2,0:0:0:0:
320,192,95669,1,0,0:0:0:50:crash_s.wav
448,192,95669,1,0,0:0:0:0:
192,192,95804,1,0,0:0:0:0:
320,192,95939,1,8,0:0:0:0:
448,192,95939,1,0,0:0:0:0:
64,192,96074,128,2,96209:0:0:0:0:
192,192,96074,128,0,96209:0:0:0:50:crash_s.wav
448,192,96074,128,0,96209:0:0:0:0:
64,192,96344,128,2,96479:0:0:0:0:
192,192,96344,128,0,96479:0:0:0:50:crash_s.wav
320,192,96344,128,0,96479:0:0:0:0:
64,192,96615,1,2,0:0:0:0:
192,192,96615,1,4,0:0:0:0:
448,192,96615,1,0,0:0:0:0:
192,192,96750,1,2,0:0:0:0:
448,192,96750,1,0,0:0:0:0:
320,192,96817,1,0,0:0:0:0:
64,192,96885,1,2,0:0:0:0:
448,192,96885,1,0,0:0:0:0:
192,192,96952,1,0,0:0:0:0:
64,192,97020,1,2,0:0:0:0:
320,192,97020,1,0,0:0:0:0:
192,192,97155,1,2,0:0:0:0:
448,192,97155,1,0,0:0:0:0:
320,192,97223,1,0,0:0:0:0:
64,192,97290,1,2,0:0:0:0:
448,192,97290,1,0,0:0:0:0:
192,192,97358,1,0,0:0:0:0:
320,192,97425,1,2,0:0:0:0:
448,192,97425,1,0,0:0:0:0:
64,192,97493,1,0,0:0:0:0:
192,192,97561,1,2,0:0:0:0:
320,192,97561,1,4,0:0:0:0:
64,192,97696,1,4,0:0:0:0:
192,192,97696,1,2,0:0:0:0:
448,192,97696,1,0,0:0:0:0:
64,192,97831,1,2,0:0:0:0:
320,192,97831,1,0,0:0:0:0:
448,192,97898,1,2,0:0:0:0:
64,192,97966,1,2,0:0:0:0:
192,192,97966,1,0,0:0:0:0:
320,192,98033,1,2,0:0:0:0:
192,192,98101,1,2,0:0:0:0:
448,192,98101,1,0,0:0:0:0:
64,192,98169,1,2,0:0:0:0:
320,192,98236,1,2,0:0:0:0:
448,192,98236,1,4,0:0:0:0:
192,192,98304,1,2,0:0:0:0:
64,192,98371,1,2,0:0:0:0:
192,192,98439,1,0,0:0:0:0:
320,192,98506,1,2,0:0:0:0:
448,192,98574,1,2,0:0:0:0:
64,192,98642,1,6,0:0:0:0:
192,192,98709,1,2,0:0:0:0:
320,192,98777,1,2,0:0:0:0:
448,192,98777,128,4,99993:0:0:0:0:
64,192,99993,128,0,100533:0:0:0:0:
192,192,99993,1,0,0:0:0:0:
320,192,100061,1,0,0:0:0:0:
448,192,100128,1,0,0:0:0:0:
192,192,100196,1,0,0:0:0:0:
320,192,100263,1,0,0:0:0:0:
320,192,100533,1,2,0:0:0:0:
448,192,100533,1,4,0:0:0:0:
64,192,100601,1,2,0:0:0:0:
192,192,100601,1,4,0:0:0:0:
320,192,100669,1,2,0:0:0:0:
448,192,100669,1,4,0:0:0:0:
64,192,100736,1,2,0:0:0:0:
192,192,100736,1,4,0:0:0:0:
320,192,100804,1,2,0:0:0:0:
448,192,100804,1,4,0:0:0:0:
64,192,100871,1,2,0:0:0:0:
192,192,100871,1,4,0:0:0:0:
448,192,100939,1,6,0:0:0:0:
320,192,100973,1,2,0:0:0:0:
192,192,101006,1,6,0:0:0:0:
64,192,101040,1,2,0:0:0:0:
320,192,101074,128,2,101344:0:0:0:0:
448,192,101074,128,4,101344:0:0:0:0:
64,192,101479,128,2,101750:0:0:0:0:
192,192,101479,128,4,101750:0:0:0:0:
320,192,101479,128,0,101750:0:0:0:0:
448,192,101479,1,0,0:0:0:0:
448,192,101750,1,0,0:0:0:0:
192,192,101885,128,0,102020:0:0:0:0:
320,192,101885,128,0,102020:0:0:0:0:
448,192,101885,128,0,102020:0:0:0:0:
64,192,102020,1,0,0:0:0:0:
192,192,102155,1,0,0:0:0:0:
64,192,102290,128,0,102425:0:0:0:0:
320,192,102290,128,0,102425:0:0:0:0:
448,192,102290,128,0,102425:0:0:0:0:
192,192,102425,1,0,0:0:0:0:
320,192,102561,1,0,0:0:0:0:
64,192,102696,128,0,102831:0:0:0:0:
192,192,102696,128,0,102831:0:0:0:0:
448,192,102696,128,0,102831:0:0:0:0:
320,192,102831,1,0,0:0:0:0:
64,192,102966,128,0,103101:0:0:0:0:
320,192,102966,128,0,103101:0:0:0:0:
448,192,102966,128,0,103101:0:0:0:0:
192,192,103101,1,0,0:0:0:0:
64,192,103236,128,2,103371:0:0:0:0:
320,192,103236,128,0,103777:0:0:0:50:crash_s.wav
448,192,103236,128,0,103371:0:0:0:0:
64,192,103642,128,2,104182:0:0:0:0:
192,192,103642,128,0,103777:0:0:0:50:crash_s.wav
448,192,103642,128,0,103777:0:0:0:0:
192,192,104047,128,2,104182:0:0:0:0:
320,192,104047,128,0,104182:0:0:0:50:crash_s.wav
448,192,104047,128,0,104182:0:0:0:0:
64,192,104452,1,2,0:0:0:0:
448,192,104452,1,0,0:0:0:50:crash_s.wav
320,192,104486,1,2,0:0:0:0:
192,192,104520,1,2,0:0:0:0:
64,192,104554,1,2,0:0:0:0:
448,192,104588,1,2,0:0:0:0:
320,192,104655,1,2,0:0:0:0:
192,192,104723,1,2,0:0:0:0:
64,192,104790,1,2,0:0:0:0:
320,192,104858,1,2,0:0:0:0:
448,192,104858,1,4,0:0:0:0:
192,192,104948,1,4,0:0:0:0:
320,192,104948,1,2,0:0:0:0:
64,192,105038,1,2,0:0:0:0:
192,192,105038,1,4,0:0:0:0:
320,192,105128,1,2,0:0:0:0:
448,192,105128,1,4,0:0:0:0:
192,192,105218,1,2,0:0:0:0:
320,192,105218,1,4,0:0:0:0:
64,192,105308,1,2,0:0:0:0:
192,192,105308,1,4,0:0:0:0:
64,192,105398,1,2,0:0:0:0:
320,192,105398,128,4,105533:0:0:0:0:
448,192,105398,128,0,105533:0:0:0:0:
192,192,105533,1,0,0:0:0:0:
320,192,105669,1,2,0:0:0:0:
448,192,105669,1,0,0:0:0:0:
64,192,105804,128,0,105939:0:0:0:0:
192,192,105804,128,0,105939:0:0:0:0:
320,192,105939,1,2,0:0:0:0:
448,192,105939,1,0,0:0:0:0:
192,192,106074,1,0,0:0:0:0:
64,192,106209,1,2,0:0:0:0:
320,192,106209,128,0,106344:0:0:0:0:
448,192,106209,128,0,106344:0:0:0:0:
192,192,106344,1,0,0:0:0:0:
64,192,106479,1,2,0:0:0:0:
448,192,106479,1,0,0:0:0:0:
192,192,106615,128,0,106750:0:0:0:0:
320,192,106615,128,0,106750:0:0:0:0:
64,192,106750,1,2,0:0:0:0:
448,192,106750,1,0,0:0:0:0:
320,192,106885,1,0,0:0:0:0:
64,192,107020,128,2,107155:0:0:0:0:
192,192,107020,128,0,107155:0:0:0:0:
448,192,107020,1,0,0:0:0:0:
320,192,107155,1,0,0:0:0:0:
64,192,107290,1,2,0:0:0:0:
192,192,107290,128,0,107425:0:0:0:0:
320,192,107290,128,0,107425:0:0:0:0:
448,192,107425,1,0,0:0:0:0:
192,192,107561,128,2,107696:0:0:0:0:
320,192,107561,128,0,107696:0:0:0:0:
448,192,107561,1,0,0:0:0:0:
64,192,107696,1,0,0:0:0:0:
320,192,107831,1,2,0:0:0:0:
448,192,107831,1,0,0:0:0:0:
64,192,107966,128,0,108101:0:0:0:0:
192,192,107966,128,0,108101:0:0:0:0:
320,192,108101,1,2,0:0:0:0:
448,192,108101,1,0,0:0:0:0:
192,192,108236,1,0,0:0:0:0:
64,192,108371,1,2,0:0:0:0:
320,192,108371,128,0,108506:0:0:0:0:
448,192,108371,128,0,108506:0:0:0:0:
192,192,108506,1,0,0:0:0:0:
64,192,108642,1,2,0:0:0:0:
448,192,108642,1,0,0:0:0:0:
192,192,108777,128,0,108912:0:0:0:0:
320,192,108777,128,0,108912:0:0:0:0:
64,192,108912,1,2,0:0:0:0:
448,192,108912,1,0,0:0:0:0:
320,192,109047,1,0,0:0:0:0:
64,192,109182,128,2,109317:0:0:0:0:
192,192,109182,128,0,109317:0:0:0:0:
448,192,109182,1,0,0:0:0:0:
320,192,109317,1,0,0:0:0:0:
64,192,109452,1,2,0:0:0:0:
192,192,109452,128,0,109588:0:0:0:0:
320,192,109452,128,0,109588:0:0:0:0:
448,192,109588,1,0,0:0:0:0:
64,192,109723,1,2,0:0:0:0:
192,192,109723,1,4,0:0:0:0:
320,192,109723,128,0,109858:0:0:0:0:
448,192,109723,128,0,109858:0:0:0:0:
64,192,109858,1,2,0:0:0:0:
192,192,109858,1,0,0:0:0:0:
64,192,109993,1,2,0:0:0:0:
192,192,109993,1,0,0:0:0:0:
192,192,110128,128,2,110263:0:0:0:0:
320,192,110128,1,0,0:0:0:0:
448,192,110128,1,0,0:0:0:0:
320,192,110263,1,2,0:0:0:0:
448,192,110263,1,0,0:0:0:0:
320,192,110398,1,2,0:0:0:0:
448,192,110398,1,0,0:0:0:0:
64,192,110533,1,2,0:0:0:0:
192,192,110533,1,0,0:0:0:0:
448,192,110533,128,0,110669:0:0:0:0:
64,192,110669,1,2,0:0:0:0:
192,192,110669,1,0,0:0:0:0:
320,192,110804,1,4,0:0:0:0:
448,192,110804,1,2,0:0:0:0:
192,192,110871,1,2,0:0:0:0:
64,192,110939,1,2,0:0:0:0:
320,192,110939,1,0,0:0:0:0:
448,192,110939,1,0,0:0:0:0:
192,192,111006,1,2,0:0:0:0:
320,192,111074,1,2,0:0:0:0:
448,192,111142,1,2,0:0:0:0:
192,192,111209,1,2,0:0:0:0:
320,192,111277,1,2,0:0:0:0:
64,192,111344,1,2,0:0:0:0:
192,192,111344,1,4,0:0:0:0:
448,192,111344,1,0,0:0:0:0:
320,192,111412,1,2,0:0:0:0:
64,192,111479,1,2,0:0:0:0:
192,192,111547,1,2,0:0:0:0:
64,192,111615,1,2,0:0:0:0:
320,192,111615,1,4,0:0:0:0:
448,192,111615,1,0,0:0:0:0:
192,192,111682,1,2,0:0:0:0:
320,192,111750,1,2,0:0:0:0:
192,192,111817,1,2,0:0:0:0:
64,192,111885,128,2,112155:0:0:0:0:
320,192,111885,128,0,112155:0:0:0:50:crash_s.wav
448,192,111885,128,0,112155:0:0:0:0:
64,192,112290,128,2,112561:0:0:0:0:
192,192,112290,128,0,112561:0:0:0:50:crash_s.wav
448,192,112290,128,0,112561:0:0:0:0:
64,192,112696,128,2,112966:0:0:0:0:
192,192,112696,128,0,112966:0:0:0:50:crash_s.wav
320,192,112696,128,0,112966:0:0:0:0:
192,192,113101,128,2,113371:0:0:0:0:
320,192,113101,128,0,113371:0:0:0:50:crash_s.wav
448,192,113101,128,0,113371:0:0:0:0:
64,192,113371,1,0,0:0:0:0:
192,192,113506,1,0,0:0:0:0:
320,192,113642,1,0,0:0:0:0:
448,192,113777,1,0,0:0:0:0:
64,192,113912,128,2,117966:0:0:0:0:
192,192,113912,128,4,117966:0:0:0:0:
320,192,113912,1,0,0:0:0:0:
320,192,116209,128,0,117966:0:0:0:0:
448,192,117966,1,0,0:0:0:0:
