osu file format v14

[General]
AudioFilename: audio.mp3
AudioLeadIn: 0
PreviewTime: 25275
Countdown: 0
SampleSet: Soft
StackLeniency: 0.7
Mode: 0
LetterboxInBreaks: 0
WidescreenStoryboard: 1

[Editor]
DistanceSpacing: 2.3
BeatDivisor: 2
GridSize: 32
TimelineZoom: 1

[Metadata]
Title:konnichiwa
TitleUnicode:こんにちワ
Artist:ESTi
ArtistUnicode:ESTi
Creator:-Eriri-
Version:Insane
Source:
Tags:TT Mouse -ClariS- nika mika CinQ。~サンク~ CinQ。~サンク~ ESTIメイト ESTIMATE
BeatmapID:1641773
BeatmapSetID:781769

[Difficulty]
HPDrainRate:5.4
CircleSize:4
OverallDifficulty:7.4
ApproachRate:8.2
SliderMultiplier:1
SliderTickRate:1

[Events]
//Background and Video events
0,0,"31645867_p0.jpg",0,0
//Break Periods
//Storyboard Layer 0 (Background)
//Storyboard Layer 1 (Fail)
//Storyboard Layer 2 (Pass)
//Storyboard Layer 3 (Foreground)
//Storyboard Sound Samples

[TimingPoints]
1369,375,4,2,2,10,1,0
13369,-71.4285714285714,4,2,2,40,0,0
25369,-62.5,4,2,2,40,0,0
49369,-71.4285714285714,4,2,2,40,0,0
61369,-71.4285714285714,4,2,2,5,0,0

[Colours]
Combo1 : 185,98,96
Combo2 : 252,206,143
Combo3 : 133,226,250
Combo4 : 14,112,154

[HitObjects]
97,111,1369,6,0,L|79:49,2,50,2|0|0,0:0|0:0|0:0,0:0:0:0:
73,197,1931,2,0,L|28:243,2,50,2|0|0,0:0|0:0|0:0,0:0:0:0:
158,175,2494,2,0,L|220:190,1,50,2|0,0:0|0:0,0:0:0:0:
136,260,2869,1,0,0:0:0:0:
290,168,3056,2,0,P|294:199|289:220,1,50,2|0,0:0|0:0,0:0:0:0:
136,260,3431,1,0,0:0:0:0:
240,358,3619,5,2,0:0:0:0:
224,269,3806,1,0,0:0:0:0:
206,186,3994,2,0,L|215:113,1,50,2|0,0:0|0:0,0:0:0:0:
342,78,4369,6,0,L|360:16,2,50,2|0|0,0:0|0:0|0:0,0:0:0:0:
366,164,4931,2,0,L|411:210,2,50,2|0|0,0:0|0:0|0:0,0:0:0:0:
281,142,5494,2,0,L|219:157,1,50,2|0,0:0|0:0,0:0:0:0:
142,179,5869,1,0,0:0:0:0:
244,66,6056,2,0,L|182:81,1,50,2|0,2:0|2:0,0:0:0:0:
142,179,6431,1,0,2:0:0:0:
112,93,6619,5,2,2:0:0:0:
142,179,6806,1,0,2:0:0:0:
173,266,6994,1,2,0:0:0:0:
232,153,7181,1,2,0:0:0:0:
59,207,7369,6,0,L|5:195,2,50,2|0|0,0:0|0:0|0:0,0:0:0:0:
146,161,7931,2,0,L|158:107,2,50,2|0|0,0:0|0:0|0:0,0:0:0:0:
113,290,8494,2,0,L|102:338,1,50,2|0,0:0|0:0,0:0:0:0:
202,344,8869,1,0,0:0:0:0:
202,244,9056,2,0,L|250:254,1,50,2|0,0:0|0:0,0:0:0:0:
202,344,9431,1,0,0:0:0:0:
390,198,9619,5,2,0:0:0:0:
314,337,9806,1,0,0:0:0:0:
450,271,9994,1,2,0:0:0:0:
406,351,10181,1,0,0:0:0:0:
300,246,10369,6,0,L|232:256,2,50,2|0|0,0:0|0:0|0:0,0:0:0:0:
212,326,10931,2,0,L|164:316,2,50,2|0|0,0:0|0:0|0:0,0:0:0:0:
119,237,11494,1,2,0:0:0:0:
233,176,11681,1,0,0:0:0:0:
328,262,11869,6,0,L|390:272,1,50,2|0,0:0|0:0,0:0:0:0:
455,288,12244,1,0,0:0:0:0:
487,178,12431,6,0,L|423:191,1,50,2|0,0:0|0:0,0:0:0:0:
328,262,12806,1,0,0:0:0:0:
233,176,12994,1,2,0:0:0:0:
311,81,13181,1,2,0:0:0:0:
105,94,13369,6,0,L|114:184,1,69.9999978637696,12|0,0:0|0:0,0:0:0:0:
22,276,13744,1,0,0:0:0:0:
128,384,13931,6,0,P|170:384|206:372,1,69.9999978637696,2|0,0:0|0:0,0:0:0:0:
25,289,14306,1,0,0:0:0:0:
150,237,14494,5,0,0:0:0:0:
25,176,14681,1,0,0:0:0:0:
27,302,14869,1,0,0:0:0:0:
161,228,15056,6,0,P|209:219|243:229,1,69.9999978637696,2|0,0:0|0:0,0:0:0:0:
29,315,15431,1,0,0:0:0:0:
197,377,15619,2,0,L|206:291,1,69.9999978637696
76,226,15994,2,0,L|85:140,1,69.9999978637696
204,24,16369,6,0,L|210:93,1,69.9999978637696,4|0,0:0|0:0,0:0:0:0:
83,156,16744,1,0,0:0:0:0:
89,32,16931,5,2,0:0:0:0:
210,93,17119,1,0,0:0:0:0:
83,156,17306,1,0,0:0:0:0:
191,20,17494,5,0,0:0:0:0:
251,188,17682,1,0,0:0:0:0:
99,144,17869,1,0,0:0:0:0:
294,118,18056,2,0,P|325:155|334:189,1,69.9999978637696,2|0,0:0|0:0,0:0:0:0:
108,310,18431,1,0,0:0:0:0:
108,310,18619,2,0,P|124:262|149:238,1,69.9999978637696
251,188,18994,1,0,0:0:0:0:
60,92,19181,1,2,0:0:0:0:
26,178,19369,6,0,B|83:183|83:183|116:164|116:164|163:167,1,139.999995727539,4|0,0:0|0:0,0:0:0:0:
275,201,19931,2,0,P|345:189|393:134,1,139.999995727539,2|0,0:0|0:0,0:0:0:0:
285,35,20494,2,0,L|299:114,2,69.9999978637696,2|0|0,0:0|0:0|0:0,0:0:0:0:
198,103,21056,2,0,L|186:172,2,69.9999978637696
286,198,21619,2,0,L|298:266,1,69.9999978637696,2|0,0:0|0:0,0:0:0:0:
232,318,21994,1,0,0:0:0:0:
423,141,22181,1,0,0:0:0:0:
441,237,22369,6,0,P|473:225|500:203,1,69.9999978637696,4|0,0:0|0:0,0:0:0:0:
286,198,22744,1,0,0:0:0:0:
387,328,22931,2,0,P|419:343|454:345,1,69.9999978637696,2|0,0:0|0:0,0:0:0:0:
286,198,23306,1,0,0:0:0:0:
318,375,23494,1,0,0:0:0:0:
454,345,23681,1,0,0:0:0:0:
272,266,23869,6,0,L|288:187,1,69.9999978637696,4|0,0:0|0:0,0:0:0:0:
182,230,24244,1,2,0:0:0:0:
325,125,24431,1,0,0:0:0:0:
222,71,24619,5,2,0:0:0:0:
354,237,24806,1,0,0:0:0:0:
166,147,24994,1,0,0:0:0:0:
302,40,25181,1,2,0:0:0:0:
86,120,25369,6,0,P|85:174|102:203,1,80,12|0,0:0|0:0,0:0:0:0:
137,37,25744,1,0,0:0:0:0:
186,231,25931,2,0,L|279:207,1,80,2|0,0:0|0:0,0:0:0:0:
263,211,26306,5,0,0:0:0:0:
106,291,26494,2,0,P|98:330|106:370,1,80,2|0,0:0|0:0,0:0:0:0:
105,369,26869,5,0,0:0:0:0:
263,211,27056,2,0,P|250:173|224:143,1,80,2|0,0:0|0:0,0:0:0:0:
224,143,27431,5,0,0:0:0:0:
198,328,27619,2,0,L|292:314,1,80,2|0,0:0|0:0,0:0:0:0:
163,222,27994,2,0,L|83:210,1,80,2|0,0:0|0:0,0:0:0:0:
113,76,28369,6,0,B|165:85|165:85|215:65|215:65|269:70,1,160,12|0,0:0|0:0,0:0:0:0:
434,23,28931,1,2,0:0:0:0:
495,87,29119,2,0,P|499:145|486:179,1,80,0|0,0:0|0:0,0:0:0:0:
400,234,29494,5,2,0:0:0:0:
354,308,29682,2,0,P|360:365|378:397,1,80,0|0,0:0|0:0,0:0:0:0:
317,56,30056,5,2,0:0:0:0:
245,107,30244,2,0,P|207:120|168:115,1,80,0|0,0:0|0:0,0:0:0:0:
22,281,30619,5,2,0:0:0:0:
88,222,30807,2,0,P|125:208|164:213,1,80,0|0,0:0|0:0,0:0:0:0:
360,299,31181,1,2,0:0:0:0:
257,185,31369,6,0,B|264:250|264:250|249:279|249:279|263:347,1,160,12|0,0:0|0:0,0:0:0:0:
166,184,31931,2,0,P|179:133|214:107,1,80,2|0,0:0|0:0,0:0:0:0:
360,299,32306,1,0,0:0:0:0:
439,369,32494,6,0,P|458:337|458:284,1,80,2|0,0:0|0:0,0:0:0:0:
474,74,32869,1,0,0:0:0:0:
394,125,33056,6,0,L|291:113,1,80,2|0,0:0|0:0,0:0:0:0:
178,22,33431,1,0,0:0:0:0:
13,78,33619,6,0,L|92:68,1,80,2|0,0:0|0:0,0:0:0:0:
226,98,33994,1,2,0:0:0:0:
178,22,34181,1,2,0:0:0:0:
120,156,34369,6,0,L|129:250,1,80,14|0,0:0|0:0,0:0:0:0:
226,98,34744,2,0,L|218:177,1,80,0|2,0:0|0:0,0:0:0:0:
343,77,35119,2,0,L|325:156,1,80,0|0,0:0|0:0,0:0:0:0:
270,29,35494,1,2,0:0:0:0:
421,205,35681,1,0,0:0:0:0:
442,73,35869,5,10,0:0:0:0:
317,183,36056,1,0,0:0:0:0:
343,77,36244,5,2,0:0:0:0:
429,220,36431,1,0,0:0:0:0:
327,168,36619,5,4,0:0:0:0:
253,298,36806,1,0,0:0:0:0:
215,192,36994,5,0,0:0:0:0:
352,285,37181,1,4,0:0:0:0:
219,377,37369,5,10,0:0:0:0:
83,279,37556,1,0,0:0:0:0:
215,192,37744,1,0,0:0:0:0:
143,8,37931,6,0,P|157:47|159:85,1,80,2|0,0:0|0:0,0:0:0:0:
65,142,38306,1,0,0:0:0:0:
199,269,38494,6,0,P|201:229|214:191,1,80,2|0,0:0|0:0,0:0:0:0:
160,86,38869,1,0,0:0:0:0:
328,113,39056,6,0,L|407:123,1,80,2|0,0:0|0:0,0:0:0:0:
214,191,39431,1,0,0:0:0:0:
389,238,39619,6,0,L|309:248,1,80,2|0,0:0|0:0,0:0:0:0:
482,298,39994,2,0,P|501:255|496:202,1,80,2|0,0:0|0:0,0:0:0:0:
258,357,40369,5,12,0:0:0:0:
389,238,40556,1,0,0:0:0:0:
255,122,40744,1,2,0:0:0:0:
136,242,40931,6,0,P|89:243|51:228,1,80
1,114,41306,1,2,0:0:0:0:
50,15,41494,6,0,P|79:41|97:77,1,80,0|2,0:0|0:0,0:0:0:0:
202,333,41869,1,4,0:0:0:0:
289,292,42056,1,0,0:0:0:0:
376,251,42244,1,0,0:0:0:0:
463,211,42431,1,2,0:0:0:0:
312,175,42619,5,0,0:0:0:0:
361,93,42806,1,0,0:0:0:0:
454,115,42994,1,2,0:0:0:0:
463,211,43181,1,0,0:0:0:0:
374,248,43369,5,12,0:0:0:0:
454,115,43556,1,0,0:0:0:0:
298,28,43744,1,0,0:0:0:0:
217,160,43931,6,0,P|170:195|126:200,1,80,2|0,0:0|0:0,0:0:0:0:
50,184,44306,1,0,0:0:0:0:
211,261,44494,2,0,L|199:351,2,80
139,112,45056,1,2,0:0:0:0:
85,259,45244,1,0,0:0:0:0:
85,259,45431,1,0,0:0:0:0:
294,175,45619,2,0,P|291:137|268:95,1,80,2|0,0:0|0:0,0:0:0:0:
364,81,45994,2,0,P|337:35|307:12,1,80,2|0,0:0|0:0,0:0:0:0:
445,165,46369,5,4,0:0:0:0:
355,286,46556,1,0,0:0:0:0:
206,165,46744,2,0,P|163:169|124:187,1,80,2|0,0:0|0:0,0:0:0:0:
79,89,47119,1,0,0:0:0:0:
8,228,47306,1,0,0:0:0:0:
230,315,47494,2,0,P|245:278|250:238,1,80,2|0,0:0|0:0,0:0:0:0:
161,34,47869,5,4,0:0:0:0:
242,227,48056,1,0,0:0:0:0:
87,180,48244,1,2,0:0:0:0:
311,83,48431,1,0,0:0:0:0:
150,30,48619,1,4,0:0:0:0:
296,169,48806,1,0,0:0:0:0:
91,169,48994,1,2,0:0:0:0:
240,40,49181,1,0,0:0:0:0:
160,268,49369,5,6,0:0:0:0:
253,363,49556,1,0,0:0:0:0:
355,286,49744,2,0,P|389:284|443:300,1,69.9999978637696,4|0,0:0|0:0,0:0:0:0:
237,364,50119,2,0,L|151:354,1,69.9999978637696,0|4,0:0|0:0,0:0:0:0:
0,256,50494,1,0,0:0:0:0:
43,365,50681,1,2,0:0:0:0:
160,268,50869,6,0,P|199:272|224:288,1,69.9999978637696,0|2,0:0|0:0,0:0:0:0:
429,222,51244,2,0,P|390:226|365:242,1,69.9999978637696,0|2,0:0|0:0,0:0:0:0:
234,176,51619,2,0,P|265:198|279:225,1,69.9999978637696,2|0,0:0|0:0,0:0:0:0:
397,108,51994,2,0,P|365:130|351:157,1,69.9999978637696,2|0,0:0|0:0,0:0:0:0:
279,112,52369,5,4,0:0:0:0:
365,243,52556,1,0,0:0:0:0:
199,101,52744,2,0,P|214:66|238:43,1,69.9999978637696
448,257,53119,2,0,P|433:292|409:315,1,69.9999978637696,0|4,0:0|0:0,0:0:0:0:
179,317,53494,2,0,L|109:326,1,69.9999978637696,0|2,0:0|0:0,0:0:0:0:
295,235,53869,6,0,L|372:243,1,69.9999978637696,0|2,0:0|0:0,0:0:0:0:
182,233,54244,2,0,L|190:163,1,69.9999978637696,0|2,0:0|0:0,0:0:0:0:
268,315,54619,2,0,L|260:384,1,69.9999978637696,2|0,0:0|0:0,0:0:0:0:
82,283,54994,5,2,0:0:0:0:
158,358,55181,1,0,0:0:0:0:
268,315,55369,2,0,L|258:388,2,69.9999978637696,12|0|2,0:0|0:0|0:0,0:0:0:0:
347,188,55931,2,0,L|340:119,2,69.9999978637696,2|0|0,0:0|0:0|0:0,0:0:0:0:
187,177,56494,6,0,P|221:180|253:193,1,69.9999978637696,2|0,0:0|0:0,0:0:0:0:
391,252,56869,1,2,0:0:0:0:
507,170,57056,2,0,P|473:173|441:186,1,69.9999978637696,2|0,0:0|0:0,0:0:0:0:
305,252,57431,1,0,0:0:0:0:
500,266,57619,2,0,L|490:346,1,69.9999978637696,2|0,0:0|0:0,0:0:0:0:
404,54,57994,1,2,0:0:0:0:
404,54,58369,6,0,L|329:44,1,69.9999978637696,12|0,0:0|0:0,0:0:0:0:
143,146,58744,1,2,0:0:0:0:
265,53,58931,2,0,L|340:44,1,69.9999978637696,2|0,0:0|0:0,0:0:0:0:
370,231,59306,1,2,0:0:0:0:
212,155,59494,2,0,L|137:145,1,69.9999978637696,2|0,0:0|0:0,0:0:0:0:
44,246,59869,1,2,0:0:0:0:
123,45,60056,5,2,0:0:0:0:
289,125,60244,2,0,P|298:168|283:205,1,69.9999978637696,0|2,0:0|0:0,0:0:0:0:
164,281,60619,2,0,P|182:251|213:234,1,69.9999978637696,0|2,0:0|0:0,0:0:0:0:
294,285,60994,1,2,0:0:0:0:
