osu file format v14

[General]
AudioFilename: audio.mp3
AudioLeadIn: 0
PreviewTime: 1377
Countdown: 0
SampleSet: Soft
StackLeniency: 0.8
Mode: 0
LetterboxInBreaks: 0
WidescreenStoryboard: 1

[Editor]
Bookmarks: 30533,63261,92352,106897,139624,168715,185079
DistanceSpacing: 1
BeatDivisor: 8
GridSize: 4
TimelineZoom: 1.8

[Metadata]
Title:Zero Fill Love
TitleUnicode:Zero Fill Love
Artist:ESTi
ArtistUnicode:ESTi
Creator:Halfslashed
Version:Normal
Source:팡야
Tags:pangya online season 4th delight seout ver full uberzolik celektus eni project railgun korean english japanese pop 산츠 Sanch hatsune miku
BeatmapID:2853101
BeatmapSetID:1380859

[Difficulty]
HPDrainRate:4
CircleSize:3
OverallDifficulty:4
ApproachRate:6
SliderMultiplier:1.2
SliderTickRate:1

[Events]
//Background and Video events
0,0,"Pangya.jpg",0,0
//Break Periods
//Storyboard Layer 0 (Background)
//Storyboard Layer 1 (Fail)
//Storyboard Layer 2 (Pass)
//Storyboard Layer 3 (Foreground)
//Storyboard Layer 4 (Overlay)
//Storyboard Sound Samples

[TimingPoints]
1434,454.545454545455,4,2,2,40,1,0
1434,-111.111111111111,4,2,2,40,0,0
3706,-111.111111111111,4,2,2,40,0,0
7343,-111.111111111111,4,2,2,40,0,0
8706,-111.111111111111,4,2,2,50,0,0
9161,-111.111111111111,4,2,2,50,0,0
9957,-111.111111111111,4,2,2,50,0,0
13593,-111.111111111111,4,2,2,50,0,0
14616,-111.111111111111,4,2,2,50,0,0
15979,-100,4,2,1,60,0,0
28706,-200,4,2,2,60,0,0
30524,-111.111111111111,4,2,1,50,0,0
45070,-100,4,2,1,50,0,0
63252,-83.3333333333333,4,2,1,80,0,1
92343,-100,4,2,1,60,0,0
106888,-111.111111111111,4,2,1,50,0,0
121434,-100,4,2,1,50,0,0
139615,-83.3333333333333,4,2,1,80,0,1
168706,-100,4,2,1,60,0,0
175979,-100,4,2,1,50,0,0
181434,-100,4,2,1,40,0,0

[Colours]
Combo1 : 166,210,255
Combo2 : 243,171,167
Combo3 : 175,245,216
Combo4 : 226,184,254

[HitObjects]
68,57,1434,5,2,0:0:0:0:
19,153,1888,1,2,0:0:0:0:
50,256,2343,2,0,L|24:346,2,80.9999975280763,2|2|2,0:0|0:0|0:0,0:0:0:0:
126,229,3365,2,0,L|198:284,1,80.9999975280763,2|2,0:0|0:0,0:0:0:0:
273,347,4161,1,2,0:0:0:0:
400,172,5070,5,2,3:2:0:0:
310,232,5524,1,2,0:0:0:0:
232,156,5979,2,0,L|206:66,2,80.9999975280763,2|2|2,0:0|0:0|0:0,0:0:0:0:
306,187,7002,2,0,L|378:132,1,80.9999975280763,2|2,0:0|0:0,0:0:0:0:
396,32,7797,2,0,L|468:87,1,80.9999975280763,2|2,0:0|0:0,0:0:0:0:
459,162,8479,1,2,0:0:0:0:
459,162,8706,6,0,P|420:172|367:239,1,107.999996704102,2|2,0:0|0:3,0:0:0:0:
374,273,9388,1,2,0:0:0:0:
374,273,9615,1,2,0:0:0:0:
408,375,10070,1,2,0:3:0:0:
306,338,10524,2,0,P|291:294|260:262,2,80.9999975280763,2|2|2,0:0|0:0|0:0,0:0:0:0:
273,381,11434,2,0,P|215:347|150:338,1,107.999996704102,2|2,0:0|3:3,0:0:0:0:
71,367,12343,5,2,0:0:0:0:
3,282,12797,1,2,0:3:0:0:
66,194,13252,2,0,L|31:110,2,80.9999975280763,2|0|0,0:0|0:0|0:0,0:0:0:0:
110,261,14274,2,0,L|181:205,1,80.9999975280763,2|2,0:0|0:3,0:0:0:0:
211,172,14843,1,2,0:0:0:0:
211,172,15070,1,4,3:0:0:0:
184,95,15411,1,4,3:0:0:0:
247,42,15752,1,4,3:0:0:0:
247,42,15979,6,0,P|269:22|279:-5,2,60,6|0|8,1:2|3:0|3:2,0:0:0:0:
300,80,16661,1,0,3:0:0:0:
300,80,16888,2,0,P|337:133|347:214,1,120,2|10,1:2|0:0,0:0:0:0:
304,298,17797,1,0,1:0:0:0:
390,384,18252,2,0,L|504:290,1,120,8|0,0:0|1:0,0:0:0:0:
509,261,18934,1,2,0:3:0:0:
509,261,19161,1,10,0:0:0:0:
509,261,19388,1,2,0:3:0:0:
509,261,19615,5,2,1:2:0:0:
435,159,20070,1,8,0:0:0:0:
397,273,20524,2,0,P|360:295|321:304,1,60,2|0,1:2|0:0,0:0:0:0:
286,282,20979,1,10,0:0:0:0:
327,168,21434,2,0,P|339:140|345:111,1,60,0|2,1:0|3:0,0:0:0:0:
391,73,21888,2,0,P|403:100|409:129,1,60,8|2,3:2|0:3,0:0:0:0:
389,186,22343,1,0,1:0:0:0:
389,186,22570,1,0,1:0:0:0:
389,186,22797,2,0,L|331:228,1,60,0|0,1:0|1:0,0:0:0:0:
280,221,23252,6,0,P|225:209|203:223,2,60,6|0|8,1:2|3:0|3:2,0:0:0:0:
287,285,23934,1,0,3:0:0:0:
287,285,24161,2,0,P|350:296|414:346,2,120,2|10|0,1:2|0:0|1:0,0:0:0:0:
193,364,25524,6,0,L|67:330,1,120,10|2,0:0|1:2,0:0:0:0:
72,287,26206,1,2,0:3:0:0:
72,287,26434,1,8,0:0:0:0:
72,287,26661,1,2,0:3:0:0:
72,287,26888,2,0,P|40:233|45:199,2,90,2|2|2,1:2|0:0|0:0,0:0:0:0:
43,339,27797,1,2,1:2:0:0:
161,321,28252,1,8,0:0:0:0:
186,203,28706,1,8,0:0:0:0:
0,0,30524,5,0,1:0:0:0:
105,24,30979,2,0,P|81:95|87:136,1,107.999996704102,10|2,3:2|1:2,0:0:0:0:
82,207,31774,2,0,P|133:178|166:180,1,80.9999975280763,2|2,3:2|0:0,0:0:0:0:
246,234,32570,2,0,P|282:243|304:248,1,53.9999983520508,0|10,0:0|0:0,0:0:0:0:
330,204,33024,1,0,0:0:0:0:
330,204,33252,2,0,P|317:154|325:127,2,80.9999975280763,2|0|2,1:2|3:0|0:0,0:0:0:0:
403,237,34274,6,0,P|373:286|343:301,1,80.9999975280763,2|10,0:2|0:0,0:0:0:0:
303,300,34843,1,0,0:0:0:0:
303,300,35070,1,2,1:2:0:0:
266,372,35411,1,2,0:0:0:0:
347,379,35752,2,0,L|402:385,1,53.9999983520508,2|0,0:0|1:0,0:0:0:0:
447,357,36206,6,0,P|480:289|513:265,1,107.999996704102,2|2,3:2|0:0,0:0:0:0:
460,169,37115,2,0,L|400:178,2,53.9999983520508,2|10|2,0:0|0:0|0:0,0:0:0:0:
489,94,37911,6,0,P|438:65|405:67,1,80.9999975280763,2|10,0:0|0:0,0:0:0:0:
380,87,38479,1,0,0:0:0:0:
380,87,38706,2,0,P|363:50|368:10,1,80.9999975280763,2|2,1:2|0:0,0:0:0:0:
449,3,39388,1,2,0:0:0:0:
512,55,39729,6,0,P|471:95|464:128,1,80.9999975280763,2|10,0:0|0:0,0:0:0:0:
459,174,40297,1,0,0:0:0:0:
459,174,40524,2,0,L|522:188,2,53.9999983520508,2|0|10,1:2|0:0|3:2,0:0:0:0:
387,213,41320,1,2,0:0:0:0:
420,288,41661,6,0,L|365:299,1,53.9999983520508,2|8,0:0|0:0,0:0:0:0:
341,348,42115,1,2,0:0:0:0:
341,348,42343,1,2,1:2:0:0:
265,319,42684,1,2,0:0:0:0:
191,352,43024,1,0,3:0:0:0:
158,248,43479,2,0,L|172:185,2,53.9999983520508,2|8|2,0:0|0:0|0:0,0:0:0:0:
118,281,44161,1,0,1:0:0:0:
118,281,44388,1,0,1:0:0:0:
118,281,44615,1,0,1:0:0:0:
22,353,45070,6,0,P|37:298|5:222,1,120,6|8,1:2|3:2,0:0:0:0:
0,189,45752,1,2,0:0:0:0:
0,189,45979,1,2,1:2:0:0:
72,95,46434,2,0,P|119:126|139:130,1,60,10|0,0:0|0:0,0:0:0:0:
180,137,46888,2,0,P|195:82|163:6,2,120,2|10|2,1:2|0:0|1:2,0:0:0:0:
111,235,48252,1,8,0:0:0:0:
177,332,48706,6,0,P|228:361|287:358,2,120,2|10|2,1:2|0:0|1:2,0:0:0:0:
183,270,49843,2,0,P|230:238|250:234,1,60,0|8,0:0|0:0,0:0:0:0:
294,224,50297,1,2,0:0:0:0:
294,224,50524,2,0,P|309:281|353:321,1,120,2|8,1:2|0:0,0:0:0:0:
456,384,51434,2,0,P|510:366|530:367,2,60,2|2|10,1:2|0:0|0:0,0:0:0:0:
436,333,52115,1,0,3:0:0:0:
436,333,52343,6,0,P|451:275|495:235,1,120,2|8,1:2|0:0,0:0:0:0:
487,115,53252,2,0,P|504:60|503:40,2,60,2|2|2,1:2|0:2|0:2,0:0:0:0:
432,132,53934,1,2,0:2:0:0:
432,132,54161,6,0,P|380:102|321:105,1,120,2|8,1:2|0:0,0:0:0:0:
262,209,55070,2,0,P|204:211|185:205,1,60,2|2,1:2|0:2,0:0:0:0:
175,172,55524,1,10,0:2:0:0:
175,172,55752,1,2,0:2:0:0:
175,172,55979,5,2,1:2:0:0:
227,61,56434,2,0,P|278:31|337:34,1,120,10|0,0:0|1:0,0:0:0:0:
446,85,57343,2,0,P|414:132|410:152,1,60,10|0,0:0|0:0,0:0:0:0:
401,193,57797,2,0,P|430:244|427:303,1,120,2|10,1:2|0:0,0:0:0:0:
321,359,58706,2,0,P|265:347|248:336,1,60,2|0,1:2|0:0,0:0:0:0:
234,307,59161,1,10,0:0:0:0:
235,305,59388,1,0,0:0:0:0:
235,305,59615,6,0,P|205:253|152:226,1,120,2|10,1:2|0:0,0:0:0:0:
97,238,60297,1,0,0:0:0:0:
97,238,60524,2,0,P|34:210|17:172,1,90,2|2,1:2|0:0,0:0:0:0:
72,118,61206,2,0,P|75:61|69:42,1,60,2|0,0:0|1:0,0:0:0:0:
24,25,61661,1,2,1:2:0:0:
24,25,61888,2,0,P|20:81|26:100,1,60,2|2,1:2|1:2,0:0:0:0:
33,142,62343,1,2,1:2:0:0:
33,142,63252,6,0,P|89:108|195:102,1,143.999995605469,6|8,1:2|3:2,0:0:0:0:
252,128,63934,1,2,0:0:0:0:
252,128,64161,2,0,P|224:186|221:222,1,71.9999978027344,2|0,1:2|0:0,0:0:0:0:
246,285,64615,1,10,0:0:0:0:
246,285,64843,1,0,0:0:0:0:
246,285,65070,2,0,P|200:237|99:204,1,143.999995605469,2|8,1:2|3:2,0:0:0:0:
6,329,65979,1,2,1:2:0:0:
169,383,66434,2,0,P|197:325|200:289,1,71.9999978027344,10|0,3:2|3:2,0:0:0:0:
206,232,66888,6,0,P|268:213|372:235,1,143.999995605469,2|8,1:2|0:0,0:0:0:0:
423,271,67570,1,2,0:0:0:0:
423,271,67797,2,0,P|427:206|443:174,1,71.9999978027344,2|0,1:2|3:0,0:0:0:0:
470,128,68252,1,10,0:0:0:0:
470,128,68479,1,0,0:0:0:0:
470,128,68706,2,0,P|413:93|307:87,1,143.999995605469,2|10,1:2|0:0,0:0:0:0:
171,130,69615,2,0,P|117:92|96:63,1,71.9999978027344,2|0,1:2|3:0,0:0:0:0:
46,40,70070,1,10,3:2:0:0:
46,40,70297,1,2,0:0:0:0:
46,40,70524,6,0,P|27:102|49:206,1,143.999995605469,2|8,1:2|0:0,0:0:0:0:
94,244,71206,2,0,P|157:231|192:238,1,71.9999978027344,2|2,3:2|1:2,0:0:0:0:
232,293,71661,1,2,0:0:0:0:
232,293,71888,2,0,P|295:305|330:298,1,71.9999978027344,8|2,0:0|0:0,0:0:0:0:
382,271,72343,2,0,P|376:206|361:173,1,71.9999978027344,2|0,1:2|0:0,0:0:0:0:
310,141,72797,1,10,3:2:0:0:
165,46,73252,2,0,P|213:4|247:-9,1,71.9999978027344,2|0,1:2|3:0,0:0:0:0:
307,2,73706,2,0,P|355:43|389:56,1,71.9999978027344,10|0,3:2|0:0,0:0:0:0:
443,77,74161,5,0,1:0:0:0:
283,142,74615,1,8,0:0:0:0:
349,301,75070,1,0,1:0:0:0:
509,237,75524,1,10,3:2:0:0:
443,77,75979,1,0,1:0:0:0:
283,142,76434,6,0,P|255:83|252:48,1,71.9999978027344,10|0,3:2|3:0,0:0:0:0:
293,0,76888,1,2,1:2:0:0:
392,83,77229,1,2,0:0:0:0:
499,8,77570,1,2,3:2:0:0:
499,8,77797,6,0,P|434:-15|347:0,1,143.999995605469,6|8,1:2|3:2,0:0:0:0:
296,51,78479,1,2,0:0:0:0:
296,51,78706,2,0,P|229:67|198:61,1,71.9999978027344,2|0,1:2|0:0,0:0:0:0:
168,12,79161,1,10,0:0:0:0:
168,12,79388,1,0,0:0:0:0:
168,12,79615,2,0,P|133:68|127:174,1,143.999995605469,2|10,1:2|3:2,0:0:0:0:
277,219,80524,2,0,P|257:152|236:129,1,71.9999978027344,2|0,1:2|3:0,0:0:0:0:
188,97,80979,2,0,P|119:98|90:112,1,71.9999978027344,10|0,3:2|3:0,0:0:0:0:
57,161,81434,6,0,P|96:217|104:305,1,143.999995605469,2|8,1:2|0:0,0:0:0:0:
79,375,82115,1,2,0:0:0:0:
79,375,82343,2,0,P|146:362|214:305,1,143.999995605469,2|8,1:2|0:0,0:0:0:0:
301,173,83252,2,0,P|234:188|203:182,1,71.9999978027344,2|0,1:2|3:0,0:0:0:0:
145,180,83706,1,10,0:0:0:0:
11,69,84161,2,0,P|77:49|100:28,1,71.9999978027344,2|0,1:2|3:0,0:0:0:0:
163,16,84615,1,10,3:2:0:0:
163,16,84843,1,2,0:0:0:0:
163,16,85070,6,0,P|157:84|180:143,1,107.999996704102,2|2,1:2|0:0,0:0:0:0:
287,172,85752,1,2,0:0:0:0:
412,140,86093,1,2,3:2:0:0:
498,237,86434,2,0,L|485:318,1,71.9999978027344,8|0,3:2|0:0,0:0:0:0:
419,362,86888,2,0,P|389:299|339:260,1,107.999996704102,2|2,1:2|0:0,0:0:0:0:
344,149,87570,1,2,0:0:0:0:
344,149,87797,2,0,P|411:161|462:198,2,107.999996704102,2|2|2,1:2|3:2|3:2,0:0:0:0:
273,199,88706,6,0,P|291:148|252:48,1,143.999995605469,2|8,1:2|0:0,0:0:0:0:
199,21,89388,1,2,0:0:0:0:
199,21,89615,1,2,1:2:0:0:
327,2,89956,1,2,3:2:0:0:
373,128,90297,1,2,3:2:0:0:
373,128,90524,2,0,P|422:175|452:185,1,71.9999978027344,2|0,1:2|0:0,0:0:0:0:
510,173,90979,2,0,P|465:226|443:318,2,143.999995605469,2|2|2,1:2|3:2|0:0,0:0:0:0:
452,43,92343,6,0,P|412:71|380:70,1,60,6|0,1:2|3:0,0:0:0:0:
342,67,92797,1,8,3:2:0:0:
238,6,93252,2,0,P|237:66|252:100,2,90,2|0|0,1:2|3:0|0:0,0:0:0:0:
148,5,94274,2,0,L|53:38,1,90,2|10,0:0|0:0,0:0:0:0:
40,90,94843,2,0,L|99:116,1,60,0|2,0:0|1:2,0:0:0:0:
167,124,95297,1,2,0:3:0:0:
167,124,95524,1,8,0:0:0:0:
167,124,95752,1,2,0:3:0:0:
167,124,95979,6,0,L|144:184,1,60,2|0,1:2|0:0,0:0:0:0:
102,222,96434,2,0,L|126:282,1,60,8|0,0:0|0:0,0:0:0:0:
93,328,96888,2,0,L|5:292,2,90,2|0|0,1:2|0:0|0:0,0:0:0:0:
123,379,97797,1,0,1:0:0:0:
241,358,98252,1,8,0:0:0:0:
365,337,98706,1,0,1:0:0:0:
365,337,98934,1,0,1:0:0:0:
365,337,99161,2,0,L|424:362,1,60,0|0,1:0|1:0,0:0:0:0:
474,334,99615,6,0,P|494:378|522:393,2,60,6|0|8,1:2|0:0|0:0,0:0:0:0:
475,273,100297,1,0,0:0:0:0:
475,273,100524,2,0,P|501:236|504:152,2,120,2|10|0,1:2|0:0|1:2,0:0:0:0:
357,246,101888,2,0,P|322:216|297:136,1,120,10|2,0:0|1:2,0:0:0:0:
296,88,102570,1,2,0:3:0:0:
296,88,102797,1,8,0:0:0:0:
296,88,103024,1,2,0:3:0:0:
296,88,103252,6,0,P|244:118|207:122,2,90,2|2|0,1:2|3:2|0:0,0:0:0:0:
325,35,104161,1,2,1:2:0:0:
422,104,104615,1,8,0:0:0:0:
491,0,105070,1,8,0:0:0:0:
491,0,106888,5,4,1:2:0:0:
458,102,107343,2,0,P|387:91|361:67,1,107.999996704102,10|2,0:0|1:2,0:0:0:0:
305,11,108138,2,0,P|263:37|244:64,1,80.9999975280763,2|2,0:0|0:0,0:0:0:0:
181,150,108934,2,0,L|125:135,1,53.9999983520508,2|8,3:2|0:0,0:0:0:0:
120,87,109388,1,2,0:0:0:0:
120,87,109615,2,0,P|122:37|135:8,2,80.9999975280763,2|0|2,1:2|3:0|3:2,0:0:0:0:
50,129,110638,6,0,P|47:177|34:207,1,80.9999975280763,2|10,0:0|0:0,0:0:0:0:
7,255,111206,1,0,0:0:0:0:
7,255,111434,1,2,1:2:0:0:
63,313,111774,1,2,0:0:0:0:
132,272,112115,2,0,L|115:216,1,53.9999983520508,2|0,0:0|1:0,0:0:0:0:
149,176,112570,2,0,P|193:232|226:241,1,107.999996704102,2|2,3:2|0:0,0:0:0:0:
203,346,113479,2,0,L|249:373,2,53.9999983520508,2|10|2,0:0|0:0|0:0,0:0:0:0:
131,308,114274,6,0,P|84:323|59:343,1,80.9999975280763,2|10,0:0|0:0,0:0:0:0:
46,383,114843,1,0,0:0:0:0:
46,383,115070,2,0,P|23:339|20:307,1,80.9999975280763,2|2,1:2|0:0,0:0:0:0:
49,232,115752,1,2,0:0:0:0:
21,155,116093,2,0,P|68:144|101:150,1,80.9999975280763,2|10,0:0|0:0,0:0:0:0:
148,184,116661,1,0,0:0:0:0:
148,184,116888,2,0,L|163:240,2,53.9999983520508,2|0|8,1:2|3:0|3:2,0:0:0:0:
222,152,117684,1,0,0:0:0:0:
300,172,118024,6,0,L|356:188,1,53.9999983520508,2|8,3:2|0:0,0:0:0:0:
401,160,118479,1,2,0:0:0:0:
401,160,118706,1,2,1:2:0:0:
461,213,119047,1,2,0:0:0:0:
403,270,119388,1,2,0:0:0:0:
460,361,119843,2,0,L|515:376,2,53.9999983520508,2|8|2,3:2|0:0|0:0,0:0:0:0:
415,378,120524,1,0,1:0:0:0:
415,378,120752,1,0,1:0:0:0:
415,378,120979,1,0,1:0:0:0:
311,317,121434,6,0,P|251:256|250:216,1,120,6|8,1:2|3:2,0:0:0:0:
265,171,122115,1,2,0:0:0:0:
265,171,122343,1,2,1:2:0:0:
341,78,122797,2,0,P|307:52|285:47,1,60,10|0,0:0|0:0,0:0:0:0:
237,76,123252,2,0,P|151:75|122:46,2,120,2|10|2,1:2|3:2|1:2,0:0:0:0:
196,188,124615,1,8,0:0:0:0:
234,301,125070,6,0,P|190:374|151:385,2,120,2|8|2,1:2|0:0|1:2,0:0:0:0:
291,317,126206,2,0,P|285:275|292:253,1,60,0|8,0:0|0:0,0:0:0:0:
310,205,126661,1,2,0:0:0:0:
310,205,126888,2,0,P|392:227|413:261,1,120,2|10,1:2|0:0,0:0:0:0:
504,326,127797,2,0,P|498:355|504:384,2,60,2|2|10,1:2|0:0|0:0,0:0:0:0:
511,266,128479,1,2,0:0:0:0:
511,266,128706,6,0,P|450:205|450:164,1,120,2|8,1:2|0:0,0:0:0:0:
470,56,129615,2,0,P|486:31|511:15,2,60,2|2|10,1:2|0:2|0:2,0:0:0:0:
419,86,130297,1,2,0:2:0:0:
419,86,130524,6,0,P|336:64|301:83,1,120,2|8,1:2|0:0,0:0:0:0:
323,197,131434,2,0,P|328:226|322:255,1,60,2|2,1:2|0:2,0:0:0:0:
295,308,131888,1,10,0:2:0:0:
295,308,132115,1,2,0:2:0:0:
295,308,132343,5,2,1:2:0:0:
276,189,132797,2,0,P|232:115|194:103,1,120,8|2,0:0|1:2,0:0:0:0:
86,127,133706,2,0,P|56:118|35:97,1,60,10|0,0:0|0:0,0:0:0:0:
22,39,134161,2,0,P|96:-3|135:6,1,120,2|10,1:2|0:0,0:0:0:0:
246,4,135070,2,0,P|247:33|261:59,1,60,2|0,1:2|0:0,0:0:0:0:
317,80,135524,1,10,0:0:0:0:
317,80,135752,1,0,1:0:0:0:
317,80,135979,6,0,P|273:153|235:165,1,120,2|8,1:2|0:0,0:0:0:0:
127,137,136888,2,0,P|84:148|49:181,1,90,2|2,1:2|0:0,0:0:0:0:
26,265,137570,2,0,P|51:281|66:306,1,60,2|0,0:0|1:2,0:0:0:0:
89,367,138024,1,2,1:2:0:0:
89,367,138252,2,0,P|117:357|139:337,1,60,2|2,1:2|1:2,0:0:0:0:
160,281,138706,1,2,1:2:0:0:
160,281,139615,6,0,P|193:322|291:337,1,143.999995605469,6|8,1:2|3:2,0:0:0:0:
351,290,140297,1,2,0:0:0:0:
351,290,140524,2,0,P|401:300|424:320,1,71.9999978027344,2|0,1:2|0:0,0:0:0:0:
485,383,140979,1,10,3:2:0:0:
485,383,141206,1,0,0:0:0:0:
485,383,141434,6,0,P|516:340|505:241,1,143.999995605469,2|10,1:2|3:2,0:0:0:0:
342,216,142343,1,2,1:2:0:0:
252,68,142797,2,0,P|285:29|314:19,1,71.9999978027344,10|0,0:2|0:2,0:0:0:0:
388,4,143252,6,0,P|382:56|441:136,1,143.999995605469,2|8,1:2|0:0,0:0:0:0:
512,175,143934,1,2,0:0:0:0:
512,175,144161,2,0,P|528:126|522:96,1,71.9999978027344,2|0,1:2|0:0,0:0:0:0:
494,37,144615,1,10,3:2:0:0:
494,37,144843,1,0,0:0:0:0:
494,37,145070,6,0,P|451:68|352:57,1,143.999995605469,2|10,1:2|3:2,0:0:0:0:
202,0,145979,1,2,1:2:0:0:
30,23,146434,2,0,P|0:64|0:95,1,71.9999978027344,10|0,3:2|0:0,0:0:0:0:
80,111,146888,6,0,P|99:162|62:252,1,143.999995605469,2|8,1:2|0:0,0:0:0:0:
22,315,147570,2,0,P|32:365|52:388,1,71.9999978027344,2|0,0:0|1:0,0:0:0:0:
132,368,148024,1,2,0:0:0:0:
132,368,148252,2,0,P|160:325|162:294,1,71.9999978027344,10|2,0:0|0:0,0:0:0:0:
187,222,148706,2,0,P|237:232|260:252,1,71.9999978027344,2|0,1:2|0:0,0:0:0:0:
298,318,149161,1,10,3:2:0:0:
461,374,149615,2,0,P|489:331|491:300,1,71.9999978027344,2|0,1:2|3:0,0:0:0:0:
414,272,150070,2,0,P|411:220|424:193,1,71.9999978027344,10|0,0:0|0:0,0:0:0:0:
466,130,150524,5,2,1:2:0:0:
296,166,150979,1,8,3:2:0:0:
184,33,151434,1,0,1:0:0:0:
353,0,151888,1,10,0:0:0:0:
466,130,152343,1,0,1:0:0:0:
296,166,152797,6,0,P|257:199|247:228,1,71.9999978027344,10|0,0:0|0:0,0:0:0:0:
224,300,153252,1,2,1:2:0:0:
101,338,153593,1,2,0:0:0:0:
23,241,153934,1,2,3:2:0:0:
23,241,154161,6,0,P|77:246|155:187,1,143.999995605469,6|8,1:2|3:2,0:0:0:0:
205,132,154843,1,2,0:0:0:0:
205,132,155070,2,0,P|162:103|131:101,1,71.9999978027344,2|0,1:2|0:0,0:0:0:0:
67,89,155524,1,8,3:2:0:0:
67,89,155752,1,0,0:0:0:0:
67,89,155979,2,0,P|89:38|179:1,1,143.999995605469,2|10,1:2|3:2,0:0:0:0:
338,5,156888,2,0,P|319:35|315:71,1,71.9999978027344,2|0,1:2|0:0,0:0:0:0:
237,108,157343,2,0,P|245:142|268:170,1,71.9999978027344,10|0,3:2|3:2,0:0:0:0:
292,253,157797,6,0,P|314:202|404:165,1,143.999995605469,2|8,1:2|0:0,0:0:0:0:
449,235,158479,1,2,0:0:0:0:
449,235,158706,2,0,P|468:286|431:376,1,143.999995605469,2|8,1:2|3:2,0:0:0:0:
267,383,159615,2,0,P|232:374|204:351,1,71.9999978027344,2|0,1:2|3:0,0:0:0:0:
167,273,160070,1,10,3:2:0:0:
337,302,160524,2,0,P|371:293|399:270,1,71.9999978027344,2|0,1:2|3:0,0:0:0:0:
491,257,160979,1,10,3:2:0:0:
491,257,161206,1,2,0:0:0:0:
491,257,161434,6,0,P|455:202|448:157,1,107.999996704102,2|2,1:2|0:0,0:0:0:0:
453,31,162115,1,2,3:2:0:0:
326,4,162456,1,2,3:2:0:0:
278,124,162797,2,0,L|211:148,1,71.9999978027344,8|2,3:2|3:2,0:0:0:0:
124,158,163252,2,0,P|104:96|109:51,1,107.999996704102,2|2,1:2|3:2,0:0:0:0:
200,5,163934,1,2,0:0:0:0:
200,5,164161,2,0,P|215:55|211:108,2,107.999996704102,0|2|2,1:2|0:0|3:2,0:0:0:0:
113,0,165070,6,0,P|90:50|0:87,1,143.999995605469,2|8,1:2|0:0,0:0:0:0:
45,173,165752,1,2,0:0:0:0:
45,173,165979,1,2,1:2:0:0:
161,229,166320,1,2,3:2:0:0:
54,297,166661,1,2,0:0:0:0:
54,297,166888,2,0,P|35:327|31:363,1,71.9999978027344,2|0,1:2|1:0,0:0:0:0:
116,377,167343,2,0,P|167:357|257:394,2,143.999995605469,2|2|2,1:2|1:2|0:0,0:0:0:0:
181,256,168706,6,0,P|211:240|229:218,1,60,6|0,1:2|0:0,0:0:0:0:
243,162,169161,1,10,0:0:0:0:
147,89,169615,2,0,P|134:43|131:-8,2,90,2|2|2,1:2|0:0|3:2,0:0:0:0:
231,57,170638,2,0,L|328:72,1,90,2|10,3:2|0:0,0:0:0:0:
366,33,171206,2,0,L|435:18,1,60,0|2,0:0|1:2,0:0:0:0:
485,68,171661,1,0,3:0:0:0:
485,68,171888,1,8,3:2:0:0:
485,68,172115,1,0,3:0:0:0:
485,68,172343,6,0,L|470:137,1,60,2|0,1:2|0:0,0:0:0:0:
418,152,172797,2,0,L|403:221,1,60,8|0,0:0|0:0,0:0:0:0:
425,267,173252,2,0,L|328:283,2,90,2|0|0,1:2|3:2|3:2,0:0:0:0:
479,293,174161,1,0,1:2:0:0:
384,366,174615,1,10,3:2:0:0:
265,348,175070,1,2,1:2:0:0:
265,348,175297,1,0,1:0:0:0:
265,348,175524,1,2,1:2:0:0:
265,348,175752,1,0,1:0:0:0:
265,348,175979,5,6,1:2:0:0:
204,244,176434,1,2,0:3:0:0:
276,148,176888,1,2,0:0:0:0:
212,53,177343,1,0,0:0:0:0:
212,53,177570,2,0,P|166:72|4:269,1,300,2|2,0:0|0:0,0:0:0:0:
0,384,179161,1,2,3:0:0:0:
0,384,179388,2,0,B|77:363|114:306|98:237|93:234|88:233|2:195|17:80|86:27|182:64|164:140,1,480,0|2,3:0|0:0,0:0:0:0:
152,200,181434,5,2,0:0:0:0:
307,384,182343,1,2,0:0:0:0:
283,297,182684,1,2,0:0:0:0:
252,212,183024,1,2,0:0:0:0:
435,0,184161,1,2,0:0:0:0:
474,80,184502,1,2,0:0:0:0:
512,161,184843,2,0,L|487:218,1,60,2|2,0:0|0:3,0:0:0:0:
