osu file format v14

[General]
AudioFilename: Secret Wish.mp3
AudioLeadIn: 0
PreviewTime: 6777
Countdown: 0
SampleSet: Soft
StackLeniency: 0.7
Mode: 3
LetterboxInBreaks: 0
SpecialStyle: 0
WidescreenStoryboard: 0

[Editor]
Bookmarks: 35888,64332,71444,78555,92777,106999,121221
DistanceSpacing: 1
BeatDivisor: 8
GridSize: 8
TimelineZoom: 2.3

[Metadata]
Title:Secret Wish
TitleUnicode:Secret Wish
Artist:ESTi
ArtistUnicode:ESTi
Creator:ArcherLove
Version:HD
Source:팡야
Tags:bgm wiz city ntreev soft Pangya United egas00
BeatmapID:862466
BeatmapSetID:396434

[Difficulty]
HPDrainRate:8
CircleSize:7
OverallDifficulty:8
ApproachRate:5
SliderMultiplier:1.4
SliderTickRate:1

[Events]
//Background and Video events
0,0,"BG.jpg",0,0
//Break Periods
//Storyboard Layer 0 (Background)
//Storyboard Layer 1 (Fail)
//Storyboard Layer 2 (Pass)
//Storyboard Layer 3 (Foreground)
//Storyboard Sound Samples

[TimingPoints]
333,444.444444444444,4,2,1,10,1,0
64332,-105.263157894737,4,2,1,10,0,0
78555,-100,4,2,1,10,0,0

[HitObjects]
475,192,333,5,0,0:0:0:0:
256,192,333,1,0,0:0:0:0:
36,192,555,1,0,0:0:0:0:
182,192,777,1,0,0:0:0:0:
329,192,999,1,0,0:0:0:0:
475,192,999,128,0,1444:0:0:0:0:
182,192,1444,128,0,1888:0:0:0:0:
402,192,1666,1,0,0:0:0:0:
329,192,1888,128,0,2555:0:0:0:0:
36,192,2110,1,0,0:0:0:0:
182,192,2332,1,0,0:0:0:0:
109,192,2555,1,0,0:0:0:0:
475,192,2555,1,0,0:0:0:0:
256,192,2777,128,0,3888:0:0:0:0:
36,192,2777,1,0,0:0:0:0:
402,192,2999,1,0,0:0:0:0:
109,192,3221,1,0,0:0:0:0:
329,192,3444,1,0,0:0:0:0:
475,192,3444,1,0,0:0:0:0:
109,192,3666,1,0,0:0:0:0:
475,192,3888,1,0,0:0:0:0:
182,192,3888,1,0,0:0:0:0:
329,192,3888,1,0,0:0:0:0:
36,192,4110,1,0,0:0:0:0:
182,192,4332,1,0,0:0:0:0:
329,192,4555,1,0,0:0:0:0:
475,192,4555,128,0,4999:0:0:0:0:
36,192,4777,1,0,0:0:0:0:
182,192,4999,128,0,5444:0:0:0:0:
402,192,4999,1,0,0:0:0:0:
36,192,5221,1,0,0:0:0:0:
329,192,5444,128,0,6332:0:0:0:0:
475,192,5444,1,0,0:0:0:0:
109,192,5666,1,0,0:0:0:0:
182,192,5888,1,0,0:0:0:0:
256,192,6110,1,0,0:0:0:0:
36,192,6110,1,0,0:0:0:0:
475,192,6332,1,0,0:0:0:0:
109,192,6332,1,0,0:0:0:0:
402,192,6555,1,0,0:0:0:0:
182,192,6555,1,0,0:0:0:0:
36,192,6555,1,0,0:0:0:0:
109,192,6777,1,0,0:0:0:0:
256,192,6777,1,0,0:0:0:0:
182,192,6999,1,0,0:0:0:0:
329,192,6999,1,0,0:0:0:0:
36,192,6999,1,0,0:0:0:0:
256,192,7221,1,0,0:0:0:0:
402,192,7221,1,0,0:0:0:0:
36,192,7221,1,0,0:0:0:0:
329,192,7444,1,4,0:0:0:0:
475,192,7444,1,4,0:0:0:0:
182,192,7444,1,0,0:0:0:0:
36,192,7444,1,0,0:0:0:0:
256,192,7666,128,0,7888:0:0:0:0:
329,192,7888,1,0,0:0:0:0:
109,192,7888,1,0,0:0:0:0:
182,192,8110,1,0,0:0:0:0:
475,192,8110,128,0,8332:0:0:0:0:
329,192,8221,1,0,0:0:0:0:
36,192,8332,1,0,0:0:0:0:
329,192,8555,128,0,8777:0:0:0:0:
475,192,8555,1,0,0:0:0:0:
402,192,8777,1,8,0:0:0:0:
182,192,8777,1,0,0:0:0:0:
109,192,8999,128,0,9221:0:0:0:0:
256,192,8999,1,0,0:0:0:0:
36,192,9221,1,0,0:0:0:0:
402,192,9221,1,0,0:0:0:0:
329,192,9444,128,0,9666:0:0:0:0:
182,192,9666,1,8,0:0:0:0:
475,192,9666,1,0,0:0:0:0:
109,192,9888,1,0,0:0:0:0:
256,192,9888,128,0,10110:0:0:0:0:
402,192,9999,1,0,0:0:0:0:
36,192,10110,1,0,0:0:0:0:
182,192,10110,1,0,0:0:0:0:
109,192,10332,128,0,10555:0:0:0:0:
402,192,10332,1,0,0:0:0:0:
475,192,10555,1,8,0:0:0:0:
329,192,10555,1,0,0:0:0:0:
182,192,10777,128,0,10999:0:0:0:0:
402,192,10777,1,0,0:0:0:0:
36,192,10999,1,0,0:0:0:0:
402,192,11221,128,0,11444:0:0:0:0:
256,192,11221,1,0,0:0:0:0:
182,192,11444,1,8,0:0:0:0:
36,192,11444,1,0,0:0:0:0:
329,192,11666,1,0,0:0:0:0:
475,192,11666,128,0,11888:0:0:0:0:
182,192,11777,1,0,0:0:0:0:
36,192,11888,1,0,0:0:0:0:
182,192,12110,128,0,12332:0:0:0:0:
329,192,12110,1,0,0:0:0:0:
475,192,12332,1,8,0:0:0:0:
109,192,12332,1,0,0:0:0:0:
402,192,12555,1,0,0:0:0:0:
256,192,12555,1,0,0:0:0:0:
36,192,12555,128,0,12777:0:0:0:0:
182,192,12777,1,0,0:0:0:0:
329,192,12999,128,0,13221:0:0:0:0:
109,192,12999,1,0,0:0:0:0:
182,192,13110,1,0,0:0:0:0:
256,192,13221,1,8,0:0:0:0:
475,192,13221,1,0,0:0:0:0:
402,192,13444,128,0,13666:0:0:0:0:
182,192,13444,1,0,0:0:0:0:
109,192,13555,1,0,0:0:0:0:
36,192,13666,1,0,0:0:0:0:
256,192,13888,128,0,14110:0:0:0:0:
109,192,13888,128,0,14110:0:0:0:0:
475,192,13888,1,0,0:0:0:0:
329,192,14110,128,8,14332:0:0:0:0:
402,192,14110,1,0,0:0:0:0:
36,192,14110,1,0,0:0:0:0:
475,192,14332,128,0,14555:0:0:0:0:
109,192,14332,1,0,0:0:0:0:
182,192,14332,128,0,14555:0:0:0:0:
36,192,14555,1,0,0:0:0:0:
182,192,14777,128,0,14999:0:0:0:0:
109,192,14777,1,0,0:0:0:0:
402,192,14777,128,0,14999:0:0:0:0:
329,192,14999,1,8,0:0:0:0:
475,192,14999,1,0,0:0:0:0:
256,192,14999,128,0,15221:0:0:0:0:
36,192,15221,128,0,15888:0:0:0:0:
109,192,15221,128,0,15444:0:0:0:0:
402,192,15221,1,0,0:0:0:0:
475,192,15332,1,0,0:0:0:0:
329,192,15444,1,0,0:0:0:0:
402,192,15666,128,0,15888:0:0:0:0:
182,192,15666,1,0,0:0:0:0:
329,192,15888,1,8,0:0:0:0:
475,192,15888,1,0,0:0:0:0:
256,192,16110,128,0,16332:0:0:0:0:
109,192,16110,128,0,16332:0:0:0:0:
402,192,16110,1,0,0:0:0:0:
36,192,16332,128,0,16555:0:0:0:0:
475,192,16332,1,0,0:0:0:0:
256,192,16555,1,0,0:0:0:0:
109,192,16555,128,0,16777:0:0:0:0:
329,192,16777,1,8,0:0:0:0:
475,192,16777,1,0,0:0:0:0:
182,192,16999,128,0,17221:0:0:0:0:
475,192,16999,1,0,0:0:0:0:
402,192,17110,1,0,0:0:0:0:
329,192,17221,1,0,0:0:0:0:
256,192,17444,128,0,17666:0:0:0:0:
109,192,17444,1,0,0:0:0:0:
329,192,17666,1,8,0:0:0:0:
475,192,17666,1,0,0:0:0:0:
109,192,17888,128,0,18110:0:0:0:0:
402,192,17888,128,0,18110:0:0:0:0:
256,192,17888,1,0,0:0:0:0:
182,192,18110,1,0,0:0:0:0:
329,192,18110,1,0,0:0:0:0:
256,192,18332,128,0,18555:0:0:0:0:
36,192,18332,1,0,0:0:0:0:
109,192,18555,128,8,18777:0:0:0:0:
329,192,18555,1,0,0:0:0:0:
475,192,18555,1,0,0:0:0:0:
402,192,18777,128,0,18999:0:0:0:0:
329,192,18777,1,0,0:0:0:0:
256,192,18888,1,0,0:0:0:0:
36,192,18999,128,0,19221:0:0:0:0:
182,192,18999,1,0,0:0:0:0:
256,192,19221,128,0,19444:0:0:0:0:
109,192,19221,1,0,0:0:0:0:
329,192,19221,1,0,0:0:0:0:
402,192,19444,128,8,19666:0:0:0:0:
182,192,19444,1,8,0:0:0:0:
36,192,19444,1,0,0:0:0:0:
109,192,19666,128,0,20332:0:0:0:0:
329,192,19666,1,0,0:0:0:0:
475,192,19666,1,0,0:0:0:0:
182,192,19666,1,0,0:0:0:0:
256,192,19888,1,0,0:0:0:0:
402,192,20110,128,0,20332:0:0:0:0:
182,192,20110,1,0,0:0:0:0:
329,192,20332,1,8,0:0:0:0:
475,192,20332,1,0,0:0:0:0:
36,192,20332,1,0,0:0:0:0:
256,192,20555,1,0,0:0:0:0:
402,192,20555,128,0,20777:0:0:0:0:
182,192,20666,1,0,0:0:0:0:
109,192,20777,1,0,0:0:0:0:
36,192,20777,1,0,0:0:0:0:
329,192,20777,128,0,20999:0:0:0:0:
475,192,20777,128,0,20999:0:0:0:0:
182,192,20999,128,0,21221:0:0:0:0:
109,192,20999,1,0,0:0:0:0:
329,192,21221,1,8,0:0:0:0:
475,192,21221,1,0,0:0:0:0:
36,192,21221,1,0,0:0:0:0:
256,192,21444,128,0,21666:0:0:0:0:
109,192,21444,1,0,0:0:0:0:
402,192,21555,1,0,0:0:0:0:
36,192,21666,1,0,0:0:0:0:
182,192,21666,1,0,0:0:0:0:
329,192,21888,128,0,22110:0:0:0:0:
109,192,21888,1,0,0:0:0:0:
475,192,22110,1,8,0:0:0:0:
36,192,22110,1,0,0:0:0:0:
256,192,22332,128,0,22555:0:0:0:0:
109,192,22332,1,0,0:0:0:0:
402,192,22332,1,0,0:0:0:0:
475,192,22444,1,0,0:0:0:0:
36,192,22555,1,0,0:0:0:0:
329,192,22777,128,0,22999:0:0:0:0:
475,192,22777,1,0,0:0:0:0:
182,192,22777,1,0,0:0:0:0:
36,192,22999,1,8,0:0:0:0:
256,192,22999,1,0,0:0:0:0:
402,192,22999,1,0,0:0:0:0:
182,192,23221,1,0,0:0:0:0:
329,192,23221,1,0,0:0:0:0:
475,192,23221,1,0,0:0:0:0:
36,192,23444,1,0,0:0:0:0:
256,192,23444,1,0,0:0:0:0:
402,192,23666,1,0,0:0:0:0:
109,192,23666,128,0,23888:0:0:0:0:
256,192,23888,1,8,0:0:0:0:
475,192,23888,1,0,0:0:0:0:
182,192,24110,1,0,0:0:0:0:
36,192,24110,128,0,24332:0:0:0:0:
329,192,24221,1,0,0:0:0:0:
475,192,24332,1,0,0:0:0:0:
109,192,24332,1,0,0:0:0:0:
256,192,24555,128,0,24777:0:0:0:0:
402,192,24555,128,0,24777:0:0:0:0:
36,192,24555,1,0,0:0:0:0:
182,192,24777,1,0,0:0:0:0:
475,192,24777,1,0,0:0:0:0:
329,192,24999,128,0,25221:0:0:0:0:
109,192,24999,1,0,0:0:0:0:
36,192,25221,1,0,0:0:0:0:
182,192,25221,1,0,0:0:0:0:
256,192,25444,128,0,25666:0:0:0:0:
402,192,25444,1,0,0:0:0:0:
109,192,25555,1,0,0:0:0:0:
475,192,25666,1,8,0:0:0:0:
329,192,25666,1,0,0:0:0:0:
109,192,25888,128,0,26110:0:0:0:0:
402,192,25888,1,0,0:0:0:0:
256,192,25999,1,0,0:0:0:0:
475,192,26110,1,0,0:0:0:0:
329,192,26332,128,0,26555:0:0:0:0:
402,192,26332,1,0,0:0:0:0:
182,192,26332,1,0,0:0:0:0:
36,192,26332,1,0,0:0:0:0:
256,192,26555,1,8,0:0:0:0:
475,192,26555,1,0,0:0:0:0:
109,192,26777,1,0,0:0:0:0:
182,192,26777,1,0,0:0:0:0:
329,192,26777,1,0,0:0:0:0:
402,192,26777,1,0,0:0:0:0:
36,192,26999,1,0,0:0:0:0:
256,192,26999,1,0,0:0:0:0:
329,192,27110,1,0,0:0:0:0:
402,192,27221,1,0,0:0:0:0:
109,192,27221,1,0,0:0:0:0:
182,192,27332,1,0,0:0:0:0:
256,192,27444,1,8,0:0:0:0:
475,192,27444,1,0,0:0:0:0:
36,192,27444,1,0,0:0:0:0:
329,192,27666,128,0,27888:0:0:0:0:
109,192,27666,128,0,27888:0:0:0:0:
182,192,27666,1,0,0:0:0:0:
475,192,27888,1,0,0:0:0:0:
36,192,28110,128,0,28332:0:0:0:0:
256,192,28110,128,0,28332:0:0:0:0:
109,192,28110,1,0,0:0:0:0:
329,192,28332,1,8,0:0:0:0:
475,192,28332,1,0,0:0:0:0:
182,192,28555,1,0,0:0:0:0:
402,192,28555,1,0,0:0:0:0:
36,192,28555,1,0,0:0:0:0:
109,192,28777,1,4,0:0:0:0:
256,192,28777,1,4,0:0:0:0:
329,192,28777,1,0,0:0:0:0:
475,192,28777,1,0,0:0:0:0:
182,192,28999,128,0,29221:0:0:0:0:
36,192,28999,1,0,0:0:0:0:
475,192,29110,1,0,0:0:0:0:
329,192,29221,1,8,0:0:0:0:
109,192,29221,1,0,0:0:0:0:
256,192,29444,128,0,29666:0:0:0:0:
475,192,29444,1,0,0:0:0:0:
36,192,29444,1,0,0:0:0:0:
109,192,29666,1,0,0:0:0:0:
182,192,29888,128,0,30110:0:0:0:0:
329,192,29888,1,0,0:0:0:0:
36,192,29888,1,0,0:0:0:0:
475,192,30110,1,8,0:0:0:0:
109,192,30110,1,0,0:0:0:0:
329,192,30332,128,0,30555:0:0:0:0:
256,192,30332,1,0,0:0:0:0:
36,192,30332,1,0,0:0:0:0:
109,192,30555,1,0,0:0:0:0:
182,192,30777,128,0,30999:0:0:0:0:
475,192,30777,1,0,0:0:0:0:
329,192,30888,1,0,0:0:0:0:
475,192,30999,1,8,0:0:0:0:
36,192,30999,1,0,0:0:0:0:
109,192,31221,128,0,31444:0:0:0:0:
402,192,31221,1,0,0:0:0:0:
256,192,31444,128,0,31777:0:0:0:0:
475,192,31444,1,0,0:0:0:0:
36,192,31666,1,0,0:0:0:0:
402,192,31777,128,0,32110:0:0:0:0:
182,192,31888,1,8,0:0:0:0:
329,192,31888,1,0,0:0:0:0:
109,192,32110,128,0,32332:0:0:0:0:
256,192,32332,128,0,34110:0:0:0:0:
329,192,32332,1,0,0:0:0:0:
475,192,32332,1,0,0:0:0:0:
36,192,32332,1,0,0:0:0:0:
402,192,32555,128,0,32777:0:0:0:0:
182,192,32555,1,0,0:0:0:0:
329,192,32777,128,8,32999:0:0:0:0:
36,192,32777,1,0,0:0:0:0:
109,192,32999,128,0,33221:0:0:0:0:
475,192,32999,1,0,0:0:0:0:
182,192,33221,128,0,33444:0:0:0:0:
402,192,33221,1,0,0:0:0:0:
475,192,33444,128,0,33666:0:0:0:0:
36,192,33444,1,0,0:0:0:0:
329,192,33666,128,8,33888:0:0:0:0:
109,192,33666,1,0,0:0:0:0:
36,192,33888,128,0,34110:0:0:0:0:
475,192,33888,1,0,0:0:0:0:
182,192,34110,128,0,34332:0:0:0:0:
402,192,34110,1,0,0:0:0:0:
36,192,34332,128,0,34555:0:0:0:0:
475,192,34332,1,0,0:0:0:0:
329,192,34555,128,8,34777:0:0:0:0:
182,192,34555,1,0,0:0:0:0:
475,192,34777,128,0,34999:0:0:0:0:
109,192,34777,1,0,0:0:0:0:
36,192,34999,128,0,35221:0:0:0:0:
256,192,34999,1,0,0:0:0:0:
182,192,35221,128,0,35444:0:0:0:0:
329,192,35221,128,0,35444:0:0:0:0:
475,192,35221,1,0,0:0:0:0:
109,192,35444,128,8,35666:0:0:0:0:
402,192,35444,128,8,35666:0:0:0:0:
36,192,35666,128,0,35888:0:0:0:0:
475,192,35666,128,0,35888:0:0:0:0:
256,192,35666,1,0,0:0:0:0:
256,192,35888,1,4,0:0:0:0:
182,192,35888,1,4,0:0:0:0:
329,192,35888,1,0,0:0:0:0:
109,192,36110,1,0,0:0:0:0:
475,192,36332,1,8,0:0:0:0:
36,192,36332,1,0,0:0:0:0:
182,192,36332,1,0,0:0:0:0:
402,192,36555,1,0,0:0:0:0:
256,192,36666,1,0,0:0:0:0:
109,192,36777,1,0,0:0:0:0:
475,192,36777,1,0,0:0:0:0:
402,192,36999,1,0,0:0:0:0:
182,192,36999,1,0,0:0:0:0:
329,192,37221,1,8,0:0:0:0:
475,192,37221,1,0,0:0:0:0:
109,192,37444,1,0,0:0:0:0:
256,192,37444,1,0,0:0:0:0:
36,192,37666,1,0,0:0:0:0:
182,192,37666,1,0,0:0:0:0:
256,192,37888,1,0,0:0:0:0:
475,192,38110,1,8,0:0:0:0:
36,192,38110,1,0,0:0:0:0:
329,192,38110,1,0,0:0:0:0:
182,192,38332,1,0,0:0:0:0:
109,192,38555,1,0,0:0:0:0:
256,192,38555,1,0,0:0:0:0:
402,192,38555,1,0,0:0:0:0:
182,192,38777,1,0,0:0:0:0:
329,192,38777,1,0,0:0:0:0:
256,192,38999,1,8,0:0:0:0:
475,192,38999,1,0,0:0:0:0:
36,192,38999,1,0,0:0:0:0:
109,192,39221,1,0,0:0:0:0:
329,192,39221,1,0,0:0:0:0:
182,192,39444,1,0,0:0:0:0:
475,192,39444,1,0,0:0:0:0:
329,192,39666,1,0,0:0:0:0:
475,192,39888,1,8,0:0:0:0:
182,192,39888,1,0,0:0:0:0:
36,192,39888,1,0,0:0:0:0:
256,192,40110,1,0,0:0:0:0:
402,192,40221,1,0,0:0:0:0:
36,192,40332,1,0,0:0:0:0:
182,192,40332,1,0,0:0:0:0:
329,192,40555,1,0,0:0:0:0:
402,192,40555,1,0,0:0:0:0:
475,192,40777,1,8,0:0:0:0:
256,192,40777,1,0,0:0:0:0:
36,192,40777,1,0,0:0:0:0:
182,192,40999,1,0,0:0:0:0:
329,192,40999,1,0,0:0:0:0:
109,192,41221,1,0,0:0:0:0:
402,192,41221,1,0,0:0:0:0:
182,192,41444,1,0,0:0:0:0:
256,192,41555,1,0,0:0:0:0:
475,192,41666,1,8,0:0:0:0:
329,192,41666,1,0,0:0:0:0:
109,192,41666,1,0,0:0:0:0:
402,192,41888,1,0,0:0:0:0:
256,192,41999,1,0,0:0:0:0:
109,192,42110,1,0,0:0:0:0:
36,192,42110,1,0,0:0:0:0:
475,192,42110,1,0,0:0:0:0:
182,192,42221,1,0,0:0:0:0:
402,192,42332,1,0,0:0:0:0:
256,192,42444,1,0,0:0:0:0:
475,192,42555,1,8,0:0:0:0:
109,192,42555,1,0,0:0:0:0:
36,192,42555,1,0,0:0:0:0:
109,192,42777,1,0,0:0:0:0:
256,192,42777,1,0,0:0:0:0:
182,192,42999,1,0,0:0:0:0:
402,192,42999,1,0,0:0:0:0:
36,192,42999,1,0,0:0:0:0:
329,192,43221,1,0,0:0:0:0:
475,192,43221,1,0,0:0:0:0:
109,192,43444,1,8,0:0:0:0:
256,192,43444,1,0,0:0:0:0:
402,192,43444,1,0,0:0:0:0:
182,192,43666,1,0,0:0:0:0:
329,192,43666,1,0,0:0:0:0:
36,192,43777,1,0,0:0:0:0:
256,192,43888,1,0,0:0:0:0:
475,192,43888,1,0,0:0:0:0:
402,192,44110,1,0,0:0:0:0:
329,192,44332,1,8,0:0:0:0:
182,192,44332,1,0,0:0:0:0:
36,192,44332,1,0,0:0:0:0:
256,192,44555,1,0,0:0:0:0:
475,192,44555,1,0,0:0:0:0:
182,192,44777,1,0,0:0:0:0:
402,192,44777,1,0,0:0:0:0:
36,192,44777,1,0,0:0:0:0:
256,192,44999,1,0,0:0:0:0:
109,192,44999,1,0,0:0:0:0:
329,192,45221,1,8,0:0:0:0:
475,192,45221,1,0,0:0:0:0:
36,192,45221,1,0,0:0:0:0:
182,192,45444,1,0,0:0:0:0:
109,192,45444,1,0,0:0:0:0:
402,192,45555,1,0,0:0:0:0:
36,192,45666,1,0,0:0:0:0:
256,192,45666,1,0,0:0:0:0:
329,192,45888,1,0,0:0:0:0:
475,192,46110,1,8,0:0:0:0:
256,192,46110,1,0,0:0:0:0:
109,192,46110,1,0,0:0:0:0:
402,192,46110,1,0,0:0:0:0:
182,192,46332,1,0,0:0:0:0:
256,192,46555,1,0,0:0:0:0:
475,192,46555,1,0,0:0:0:0:
36,192,46555,1,0,0:0:0:0:
329,192,46555,1,0,0:0:0:0:
109,192,46777,1,0,0:0:0:0:
182,192,46999,1,8,0:0:0:0:
329,192,46999,1,0,0:0:0:0:
475,192,46999,1,0,0:0:0:0:
256,192,47221,1,0,0:0:0:0:
109,192,47221,1,0,0:0:0:0:
182,192,47332,1,0,0:0:0:0:
329,192,47444,1,0,0:0:0:0:
36,192,47444,1,0,0:0:0:0:
402,192,47666,1,0,0:0:0:0:
182,192,47666,1,0,0:0:0:0:
256,192,47888,1,8,0:0:0:0:
475,192,47888,1,0,0:0:0:0:
36,192,48110,1,0,0:0:0:0:
182,192,48110,1,0,0:0:0:0:
402,192,48110,1,0,0:0:0:0:
329,192,48110,1,0,0:0:0:0:
109,192,48332,1,0,0:0:0:0:
256,192,48332,1,0,0:0:0:0:
475,192,48332,1,0,0:0:0:0:
182,192,48555,1,0,0:0:0:0:
329,192,48555,1,0,0:0:0:0:
256,192,48777,1,8,0:0:0:0:
402,192,48777,1,0,0:0:0:0:
329,192,48999,1,0,0:0:0:0:
475,192,48999,1,0,0:0:0:0:
109,192,48999,1,0,0:0:0:0:
182,192,49221,1,0,0:0:0:0:
256,192,49221,1,0,0:0:0:0:
402,192,49221,1,0,0:0:0:0:
36,192,49444,1,0,0:0:0:0:
256,192,49666,1,8,0:0:0:0:
475,192,49666,1,0,0:0:0:0:
109,192,49666,1,0,0:0:0:0:
402,192,49888,1,0,0:0:0:0:
109,192,50110,1,0,0:0:0:0:
256,192,50110,1,0,0:0:0:0:
475,192,50110,1,0,0:0:0:0:
329,192,50110,1,0,0:0:0:0:
402,192,50332,1,0,0:0:0:0:
182,192,50332,1,0,0:0:0:0:
329,192,50555,1,8,0:0:0:0:
109,192,50555,1,0,0:0:0:0:
36,192,50777,1,0,0:0:0:0:
256,192,50777,1,0,0:0:0:0:
402,192,50777,1,0,0:0:0:0:
109,192,50999,1,0,0:0:0:0:
329,192,50999,1,0,0:0:0:0:
475,192,50999,1,0,0:0:0:0:
182,192,51221,1,0,0:0:0:0:
402,192,51221,1,0,0:0:0:0:
36,192,51221,1,0,0:0:0:0:
256,192,51444,1,8,0:0:0:0:
329,192,51444,1,0,0:0:0:0:
109,192,51444,1,0,0:0:0:0:
182,192,51666,1,0,0:0:0:0:
475,192,51666,1,0,0:0:0:0:
36,192,51666,1,0,0:0:0:0:
329,192,51888,1,0,0:0:0:0:
109,192,51888,1,0,0:0:0:0:
475,192,52110,1,0,0:0:0:0:
402,192,52110,1,0,0:0:0:0:
182,192,52110,1,0,0:0:0:0:
329,192,52332,1,8,0:0:0:0:
256,192,52332,1,0,0:0:0:0:
109,192,52332,1,0,0:0:0:0:
182,192,52555,1,0,0:0:0:0:
402,192,52555,1,0,0:0:0:0:
36,192,52777,1,0,0:0:0:0:
256,192,52777,1,0,0:0:0:0:
329,192,52999,1,0,0:0:0:0:
475,192,52999,1,0,0:0:0:0:
109,192,52999,1,0,0:0:0:0:
182,192,53221,1,8,0:0:0:0:
256,192,53444,1,0,0:0:0:0:
402,192,53444,1,0,0:0:0:0:
36,192,53444,1,0,0:0:0:0:
109,192,53666,1,0,0:0:0:0:
329,192,53666,1,0,0:0:0:0:
475,192,53666,1,0,0:0:0:0:
256,192,53888,1,0,0:0:0:0:
402,192,53888,1,0,0:0:0:0:
182,192,54110,1,8,0:0:0:0:
329,192,54110,1,8,0:0:0:0:
109,192,54332,1,0,0:0:0:0:
402,192,54332,1,0,0:0:0:0:
36,192,54555,1,0,0:0:0:0:
256,192,54555,1,0,0:0:0:0:
182,192,54777,1,0,0:0:0:0:
402,192,54777,1,0,0:0:0:0:
109,192,54777,1,0,0:0:0:0:
256,192,54999,1,8,0:0:0:0:
475,192,54999,1,0,0:0:0:0:
36,192,54999,1,0,0:0:0:0:
109,192,55221,1,0,0:0:0:0:
329,192,55221,1,0,0:0:0:0:
402,192,55221,1,0,0:0:0:0:
182,192,55444,1,0,0:0:0:0:
256,192,55444,1,0,0:0:0:0:
475,192,55444,1,0,0:0:0:0:
36,192,55444,1,0,0:0:0:0:
329,192,55666,1,0,0:0:0:0:
475,192,55888,1,8,0:0:0:0:
182,192,55888,1,8,0:0:0:0:
36,192,55888,1,0,0:0:0:0:
256,192,56110,1,0,0:0:0:0:
402,192,56110,1,0,0:0:0:0:
109,192,56110,1,0,0:0:0:0:
182,192,56332,1,0,0:0:0:0:
475,192,56332,1,0,0:0:0:0:
36,192,56555,1,0,0:0:0:0:
256,192,56555,1,0,0:0:0:0:
182,192,56777,1,8,0:0:0:0:
329,192,56777,1,0,0:0:0:0:
109,192,56999,1,0,0:0:0:0:
402,192,56999,1,0,0:0:0:0:
256,192,56999,1,0,0:0:0:0:
36,192,57221,1,4,0:0:0:0:
182,192,57221,1,0,0:0:0:0:
329,192,57221,1,0,0:0:0:0:
475,192,57221,1,0,0:0:0:0:
402,192,57444,1,0,0:0:0:0:
256,192,57444,1,0,0:0:0:0:
182,192,57666,1,8,0:0:0:0:
36,192,57666,1,0,0:0:0:0:
475,192,57666,1,0,0:0:0:0:
109,192,57888,1,0,0:0:0:0:
402,192,57888,1,0,0:0:0:0:
256,192,57888,1,0,0:0:0:0:
36,192,58110,1,0,0:0:0:0:
329,192,58110,1,0,0:0:0:0:
256,192,58332,1,0,0:0:0:0:
475,192,58332,1,0,0:0:0:0:
36,192,58555,1,8,0:0:0:0:
182,192,58555,1,0,0:0:0:0:
402,192,58555,1,0,0:0:0:0:
109,192,58666,1,0,0:0:0:0:
329,192,58666,1,0,0:0:0:0:
256,192,58777,1,0,0:0:0:0:
475,192,58777,1,0,0:0:0:0:
36,192,58999,1,0,0:0:0:0:
182,192,58999,1,0,0:0:0:0:
256,192,58999,1,0,0:0:0:0:
402,192,58999,1,0,0:0:0:0:
329,192,59221,1,0,0:0:0:0:
475,192,59444,1,8,0:0:0:0:
256,192,59444,1,0,0:0:0:0:
109,192,59444,1,0,0:0:0:0:
182,192,59666,1,0,0:0:0:0:
36,192,59888,1,0,0:0:0:0:
256,192,59888,1,0,0:0:0:0:
402,192,60110,1,0,0:0:0:0:
329,192,60221,1,0,0:0:0:0:
109,192,60221,1,0,0:0:0:0:
36,192,60332,1,8,0:0:0:0:
402,192,60332,1,8,0:0:0:0:
182,192,60332,1,0,0:0:0:0:
475,192,60555,1,0,0:0:0:0:
329,192,60555,1,0,0:0:0:0:
256,192,60777,1,0,0:0:0:0:
475,192,60777,1,0,0:0:0:0:
109,192,60777,1,0,0:0:0:0:
36,192,60777,1,0,0:0:0:0:
182,192,60999,1,0,0:0:0:0:
329,192,60999,1,0,0:0:0:0:
256,192,61221,1,8,0:0:0:0:
402,192,61221,1,0,0:0:0:0:
109,192,61221,1,0,0:0:0:0:
329,192,61444,1,0,0:0:0:0:
475,192,61444,1,0,0:0:0:0:
182,192,61444,1,0,0:0:0:0:
36,192,61666,1,0,0:0:0:0:
256,192,61666,1,0,0:0:0:0:
182,192,61888,1,0,0:0:0:0:
402,192,61888,1,0,0:0:0:0:
475,192,61888,1,0,0:0:0:0:
109,192,61888,1,0,0:0:0:0:
36,192,62110,1,8,0:0:0:0:
256,192,62110,1,0,0:0:0:0:
329,192,62110,1,0,0:0:0:0:
182,192,62332,1,0,0:0:0:0:
329,192,62332,1,0,0:0:0:0:
475,192,62332,1,0,0:0:0:0:
109,192,62332,1,0,0:0:0:0:
36,192,62555,1,0,0:0:0:0:
256,192,62555,1,0,0:0:0:0:
402,192,62555,1,0,0:0:0:0:
182,192,62777,1,0,0:0:0:0:
402,192,62777,1,0,0:0:0:0:
329,192,62777,1,0,0:0:0:0:
109,192,62999,1,8,0:0:0:0:
329,192,62999,1,0,0:0:0:0:
182,192,62999,1,0,0:0:0:0:
475,192,63221,1,0,0:0:0:0:
36,192,63221,1,0,0:0:0:0:
256,192,63221,128,0,63444:0:0:0:0:
109,192,63444,128,0,63666:0:0:0:0:
329,192,63444,1,0,0:0:0:0:
402,192,63666,128,0,63888:0:0:0:0:
36,192,63666,1,0,0:0:0:0:
256,192,63888,128,8,64332:0:0:0:0:
182,192,63888,1,0,0:0:0:0:
36,192,64110,1,0,0:0:0:0:
475,192,64110,1,0,0:0:0:0:
109,192,64332,1,4,0:0:0:0:
402,192,64332,128,4,64555:0:0:0:0:
182,192,64555,128,0,64777:0:0:0:0:
36,192,64555,1,0,0:0:0:0:
329,192,64777,128,0,64999:0:0:0:0:
475,192,64999,128,0,65444:0:0:0:0:
109,192,65444,128,0,65888:0:0:0:0:
402,192,65888,128,0,66110:0:0:0:0:
36,192,66110,1,0,0:0:0:0:
329,192,66332,1,0,0:0:0:0:
182,192,66555,1,0,0:0:0:0:
109,192,66555,1,0,0:0:0:0:
402,192,66777,1,0,0:0:0:0:
256,192,66999,1,0,0:0:0:0:
475,192,67221,1,0,0:0:0:0:
329,192,67444,1,0,0:0:0:0:
256,192,67444,1,0,0:0:0:0:
36,192,67666,1,0,0:0:0:0:
182,192,67888,128,0,68110:0:0:0:0:
402,192,67888,1,0,0:0:0:0:
36,192,68110,128,0,68332:0:0:0:0:
329,192,68332,128,0,68555:0:0:0:0:
182,192,68332,1,0,0:0:0:0:
256,192,68332,1,0,0:0:0:0:
475,192,68555,128,0,68999:0:0:0:0:
182,192,68777,1,0,0:0:0:0:
109,192,68999,128,0,69444:0:0:0:0:
256,192,68999,1,0,0:0:0:0:
329,192,69110,1,0,0:0:0:0:
402,192,69221,1,0,0:0:0:0:
182,192,69221,1,0,0:0:0:0:
402,192,69444,128,0,69888:0:0:0:0:
256,192,69666,1,0,0:0:0:0:
475,192,69888,1,0,0:0:0:0:
109,192,69888,1,0,0:0:0:0:
182,192,70110,1,0,0:0:0:0:
329,192,70110,1,0,0:0:0:0:
402,192,70332,1,0,0:0:0:0:
36,192,70332,128,0,70777:0:0:0:0:
256,192,70332,1,0,0:0:0:0:
109,192,70555,1,0,0:0:0:0:
329,192,70555,1,0,0:0:0:0:
329,192,70777,1,0,0:0:0:0:
475,192,70777,128,0,71221:0:0:0:0:
109,192,70999,1,0,0:0:0:0:
402,192,70999,1,0,0:0:0:0:
36,192,70999,1,0,0:0:0:0:
256,192,71221,1,0,0:0:0:0:
36,192,71444,1,0,0:0:0:0:
182,192,71444,1,0,0:0:0:0:
402,192,71444,1,0,0:0:0:0:
256,192,71666,1,0,0:0:0:0:
109,192,71666,1,0,0:0:0:0:
182,192,71888,1,0,0:0:0:0:
402,192,71888,1,0,0:0:0:0:
36,192,71888,1,0,0:0:0:0:
475,192,72110,1,0,0:0:0:0:
256,192,72110,1,0,0:0:0:0:
109,192,72332,1,0,0:0:0:0:
402,192,72332,1,0,0:0:0:0:
329,192,72555,1,0,0:0:0:0:
36,192,72555,1,0,0:0:0:0:
256,192,72777,1,0,0:0:0:0:
475,192,72777,1,0,0:0:0:0:
182,192,72777,1,0,0:0:0:0:
402,192,72999,1,0,0:0:0:0:
109,192,72999,1,0,0:0:0:0:
36,192,73221,1,0,0:0:0:0:
256,192,73221,1,0,0:0:0:0:
109,192,73444,1,0,0:0:0:0:
475,192,73444,1,0,0:0:0:0:
182,192,73666,1,0,0:0:0:0:
329,192,73666,1,0,0:0:0:0:
402,192,73666,1,0,0:0:0:0:
475,192,73888,1,0,0:0:0:0:
36,192,73888,1,0,0:0:0:0:
182,192,74110,1,0,0:0:0:0:
329,192,74110,1,0,0:0:0:0:
402,192,74332,1,0,0:0:0:0:
256,192,74332,1,0,0:0:0:0:
36,192,74555,1,0,0:0:0:0:
182,192,74555,1,0,0:0:0:0:
329,192,74555,1,0,0:0:0:0:
109,192,74777,1,0,0:0:0:0:
402,192,74777,1,0,0:0:0:0:
329,192,74999,1,0,0:0:0:0:
475,192,74999,1,0,0:0:0:0:
36,192,74999,1,0,0:0:0:0:
182,192,74999,1,0,0:0:0:0:
256,192,75221,1,0,0:0:0:0:
109,192,75221,1,0,0:0:0:0:
402,192,75221,1,0,0:0:0:0:
36,192,75444,1,0,0:0:0:0:
182,192,75444,1,0,0:0:0:0:
329,192,75444,1,0,0:0:0:0:
256,192,75666,1,0,0:0:0:0:
402,192,75666,1,0,0:0:0:0:
475,192,75666,1,0,0:0:0:0:
36,192,75888,1,0,0:0:0:0:
329,192,75888,1,0,0:0:0:0:
109,192,75888,1,0,0:0:0:0:
182,192,76110,1,0,0:0:0:0:
402,192,76110,1,0,0:0:0:0:
475,192,76110,1,0,0:0:0:0:
256,192,76332,1,0,0:0:0:0:
109,192,76332,1,0,0:0:0:0:
329,192,76332,1,0,0:0:0:0:
402,192,76555,1,0,0:0:0:0:
182,192,76555,1,0,0:0:0:0:
36,192,76555,1,0,0:0:0:0:
256,192,76777,1,0,0:0:0:0:
475,192,76777,1,0,0:0:0:0:
109,192,76777,1,0,0:0:0:0:
329,192,76777,1,0,0:0:0:0:
402,192,76999,1,0,0:0:0:0:
182,192,76999,1,0,0:0:0:0:
36,192,76999,1,0,0:0:0:0:
475,192,76999,1,0,0:0:0:0:
109,192,77221,1,0,0:0:0:0:
329,192,77221,1,0,0:0:0:0:
402,192,77221,1,0,0:0:0:0:
256,192,77221,1,0,0:0:0:0:
182,192,77444,1,0,0:0:0:0:
475,192,77444,1,0,0:0:0:0:
109,192,77444,1,0,0:0:0:0:
329,192,77444,1,0,0:0:0:0:
402,192,77666,1,0,0:0:0:0:
256,192,77666,1,0,0:0:0:0:
36,192,77666,128,0,78555:0:0:0:0:
109,192,77888,1,0,0:0:0:0:
329,192,77888,1,0,0:0:0:0:
182,192,78110,1,0,0:0:0:0:
475,192,78110,1,0,0:0:0:0:
402,192,78332,1,0,0:0:0:0:
109,192,78332,1,0,0:0:0:0:
182,192,78555,1,4,0:0:0:0:
475,192,78555,1,0,0:0:0:0:
256,192,78555,1,0,0:0:0:0:
329,192,78555,128,0,81221:0:0:0:0:
109,192,78777,1,0,0:0:0:0:
36,192,78999,1,8,0:0:0:0:
182,192,78999,1,0,0:0:0:0:
402,192,78999,1,0,0:0:0:0:
256,192,79221,1,0,0:0:0:0:
402,192,79444,1,0,0:0:0:0:
109,192,79444,1,0,0:0:0:0:
182,192,79666,1,0,0:0:0:0:
475,192,79888,1,8,0:0:0:0:
109,192,79888,1,0,0:0:0:0:
256,192,79888,1,0,0:0:0:0:
402,192,80110,1,0,0:0:0:0:
182,192,80110,1,0,0:0:0:0:
475,192,80332,1,0,0:0:0:0:
36,192,80332,1,0,0:0:0:0:
256,192,80332,1,0,0:0:0:0:
182,192,80555,1,0,0:0:0:0:
36,192,80777,1,8,0:0:0:0:
256,192,80777,1,0,0:0:0:0:
475,192,80777,1,0,0:0:0:0:
402,192,80999,1,0,0:0:0:0:
182,192,81221,128,0,82110:0:0:0:0:
475,192,81221,1,0,0:0:0:0:
109,192,81221,1,0,0:0:0:0:
402,192,81444,1,0,0:0:0:0:
329,192,81666,1,8,0:0:0:0:
475,192,81666,1,0,0:0:0:0:
36,192,81666,1,0,0:0:0:0:
256,192,81888,1,0,0:0:0:0:
475,192,82110,128,0,83888:0:0:0:0:
109,192,82110,1,0,0:0:0:0:
329,192,82110,1,0,0:0:0:0:
256,192,82332,1,0,0:0:0:0:
109,192,82332,1,0,0:0:0:0:
36,192,82555,1,8,0:0:0:0:
182,192,82555,1,0,0:0:0:0:
402,192,82555,1,0,0:0:0:0:
329,192,82777,1,0,0:0:0:0:
109,192,82777,1,0,0:0:0:0:
256,192,82999,1,0,0:0:0:0:
36,192,82999,1,0,0:0:0:0:
182,192,83221,1,0,0:0:0:0:
329,192,83221,1,0,0:0:0:0:
402,192,83444,1,8,0:0:0:0:
256,192,83444,1,0,0:0:0:0:
36,192,83444,1,0,0:0:0:0:
182,192,83666,1,0,0:0:0:0:
109,192,83777,1,0,0:0:0:0:
329,192,83888,128,0,85666:0:0:0:0:
36,192,83888,1,0,0:0:0:0:
256,192,83888,1,0,0:0:0:0:
402,192,83888,1,0,0:0:0:0:
182,192,84110,1,0,0:0:0:0:
109,192,84332,1,8,0:0:0:0:
256,192,84332,1,0,0:0:0:0:
475,192,84332,1,0,0:0:0:0:
402,192,84555,1,0,0:0:0:0:
36,192,84555,1,0,0:0:0:0:
475,192,84777,1,0,0:0:0:0:
182,192,84777,1,0,0:0:0:0:
256,192,84999,1,0,0:0:0:0:
36,192,84999,1,0,0:0:0:0:
109,192,85221,1,8,0:0:0:0:
402,192,85221,1,0,0:0:0:0:
182,192,85221,1,0,0:0:0:0:
36,192,85444,1,0,0:0:0:0:
256,192,85444,1,0,0:0:0:0:
109,192,85666,1,0,0:0:0:0:
182,192,85666,1,0,0:0:0:0:
402,192,85666,1,0,0:0:0:0:
475,192,85666,1,0,0:0:0:0:
256,192,85888,128,0,86110:0:0:0:0:
36,192,85888,1,0,0:0:0:0:
109,192,86110,128,0,86332:0:0:0:0:
329,192,86110,1,0,0:0:0:0:
475,192,86110,1,0,0:0:0:0:
402,192,86332,128,0,86555:0:0:0:0:
182,192,86332,1,0,0:0:0:0:
475,192,86332,1,0,0:0:0:0:
256,192,86555,128,0,86777:0:0:0:0:
329,192,86555,1,0,0:0:0:0:
36,192,86777,128,0,86999:0:0:0:0:
109,192,86777,1,0,0:0:0:0:
475,192,86777,1,0,0:0:0:0:
182,192,86999,128,8,87221:0:0:0:0:
256,192,86999,1,0,0:0:0:0:
402,192,86999,1,0,0:0:0:0:
329,192,87221,128,0,87444:0:0:0:0:
475,192,87221,128,0,87444:0:0:0:0:
109,192,87221,1,0,0:0:0:0:
402,192,87221,1,0,0:0:0:0:
36,192,87444,1,0,0:0:0:0:
182,192,87444,1,0,0:0:0:0:
256,192,87666,128,0,87888:0:0:0:0:
329,192,87666,1,0,0:0:0:0:
109,192,87888,1,8,0:0:0:0:
402,192,87888,1,0,0:0:0:0:
329,192,88110,128,0,88332:0:0:0:0:
256,192,88110,1,0,0:0:0:0:
36,192,88332,1,0,0:0:0:0:
182,192,88332,128,0,88555:0:0:0:0:
402,192,88555,128,0,88777:0:0:0:0:
256,192,88555,1,0,0:0:0:0:
475,192,88555,1,0,0:0:0:0:
109,192,88555,1,0,0:0:0:0:
109,192,88777,128,8,88999:0:0:0:0:
256,192,88999,128,0,89221:0:0:0:0:
402,192,88999,1,0,0:0:0:0:
182,192,88999,1,0,0:0:0:0:
475,192,88999,1,0,0:0:0:0:
36,192,89221,1,0,0:0:0:0:
109,192,89221,1,0,0:0:0:0:
329,192,89221,1,0,0:0:0:0:
182,192,89444,128,0,89666:0:0:0:0:
256,192,89444,1,0,0:0:0:0:
402,192,89666,128,8,89888:0:0:0:0:
109,192,89666,1,0,0:0:0:0:
329,192,89666,1,0,0:0:0:0:
475,192,89666,1,0,0:0:0:0:
36,192,89888,128,0,90110:0:0:0:0:
182,192,89888,1,0,0:0:0:0:
256,192,90110,128,0,90332:0:0:0:0:
329,192,90110,1,0,0:0:0:0:
475,192,90110,1,0,0:0:0:0:
109,192,90332,128,0,90555:0:0:0:0:
402,192,90332,1,0,0:0:0:0:
329,192,90555,128,8,90777:0:0:0:0:
256,192,90555,1,0,0:0:0:0:
475,192,90555,1,0,0:0:0:0:
36,192,90555,1,0,0:0:0:0:
402,192,90777,128,0,90999:0:0:0:0:
182,192,90777,128,0,90999:0:0:0:0:
109,192,90777,1,0,0:0:0:0:
36,192,90999,1,0,0:0:0:0:
256,192,90999,1,0,0:0:0:0:
475,192,90999,1,0,0:0:0:0:
109,192,91221,1,0,0:0:0:0:
402,192,91221,1,0,0:0:0:0:
182,192,91444,1,8,0:0:0:0:
329,192,91444,1,0,0:0:0:0:
256,192,91444,128,0,91666:0:0:0:0:
109,192,91666,1,0,0:0:0:0:
402,192,91666,1,0,0:0:0:0:
475,192,91888,128,0,92110:0:0:0:0:
36,192,91888,128,0,92110:0:0:0:0:
182,192,91888,1,0,0:0:0:0:
329,192,91888,1,0,0:0:0:0:
182,192,92110,128,0,92332:0:0:0:0:
329,192,92110,128,0,92332:0:0:0:0:
36,192,92332,128,8,92555:0:0:0:0:
475,192,92332,128,0,92555:0:0:0:0:
256,192,92332,1,0,0:0:0:0:
182,192,92555,1,0,0:0:0:0:
256,192,92555,1,0,0:0:0:0:
329,192,92555,1,0,0:0:0:0:
109,192,92777,1,4,0:0:0:0:
36,192,92777,1,0,0:0:0:0:
475,192,92777,1,0,0:0:0:0:
402,192,92777,1,0,0:0:0:0:
256,192,92777,1,0,0:0:0:0:
182,192,92999,1,0,0:0:0:0:
329,192,92999,1,0,0:0:0:0:
109,192,93221,1,8,0:0:0:0:
256,192,93221,1,0,0:0:0:0:
475,192,93221,1,0,0:0:0:0:
36,192,93444,1,0,0:0:0:0:
182,192,93444,1,0,0:0:0:0:
329,192,93444,1,0,0:0:0:0:
256,192,93666,1,0,0:0:0:0:
402,192,93666,1,0,0:0:0:0:
109,192,93888,1,0,0:0:0:0:
329,192,93888,1,0,0:0:0:0:
256,192,94110,1,8,0:0:0:0:
475,192,94110,1,0,0:0:0:0:
36,192,94110,1,0,0:0:0:0:
182,192,94332,1,0,0:0:0:0:
329,192,94332,1,0,0:0:0:0:
256,192,94555,1,0,0:0:0:0:
475,192,94555,1,0,0:0:0:0:
109,192,94555,1,0,0:0:0:0:
36,192,94777,1,0,0:0:0:0:
182,192,94777,1,0,0:0:0:0:
109,192,94999,1,8,0:0:0:0:
256,192,94999,1,0,0:0:0:0:
402,192,94999,1,0,0:0:0:0:
182,192,95221,1,0,0:0:0:0:
329,192,95221,1,0,0:0:0:0:
256,192,95444,1,0,0:0:0:0:
475,192,95444,1,0,0:0:0:0:
109,192,95444,1,0,0:0:0:0:
109,192,95666,1,0,0:0:0:0:
402,192,95666,1,0,0:0:0:0:
36,192,95888,1,8,0:0:0:0:
256,192,95888,1,0,0:0:0:0:
109,192,96110,1,0,0:0:0:0:
329,192,96110,1,0,0:0:0:0:
475,192,96110,1,0,0:0:0:0:
182,192,96332,1,0,0:0:0:0:
36,192,96332,1,0,0:0:0:0:
256,192,96555,1,0,0:0:0:0:
475,192,96555,1,0,0:0:0:0:
402,192,96777,1,8,0:0:0:0:
109,192,96777,1,0,0:0:0:0:
182,192,96777,1,0,0:0:0:0:
36,192,96999,1,0,0:0:0:0:
256,192,96999,1,0,0:0:0:0:
182,192,97221,1,0,0:0:0:0:
329,192,97221,1,0,0:0:0:0:
475,192,97221,1,0,0:0:0:0:
36,192,97444,1,0,0:0:0:0:
256,192,97444,1,0,0:0:0:0:
109,192,97444,1,0,0:0:0:0:
475,192,97666,1,8,0:0:0:0:
402,192,97666,1,0,0:0:0:0:
182,192,97666,1,0,0:0:0:0:
36,192,97888,1,0,0:0:0:0:
256,192,97888,1,0,0:0:0:0:
182,192,98110,1,0,0:0:0:0:
475,192,98110,1,0,0:0:0:0:
109,192,98332,1,0,0:0:0:0:
329,192,98332,1,0,0:0:0:0:
256,192,98555,1,8,0:0:0:0:
475,192,98555,1,0,0:0:0:0:
109,192,98555,1,0,0:0:0:0:
36,192,98777,1,0,0:0:0:0:
182,192,98777,1,0,0:0:0:0:
329,192,98999,1,0,0:0:0:0:
475,192,98999,1,0,0:0:0:0:
109,192,98999,1,0,0:0:0:0:
402,192,99221,1,0,0:0:0:0:
256,192,99221,1,0,0:0:0:0:
109,192,99444,1,8,0:0:0:0:
329,192,99444,1,0,0:0:0:0:
475,192,99444,1,0,0:0:0:0:
36,192,99666,1,0,0:0:0:0:
475,192,99666,1,0,0:0:0:0:
182,192,99666,1,0,0:0:0:0:
109,192,99888,1,0,0:0:0:0:
402,192,99888,1,0,0:0:0:0:
256,192,99888,1,0,0:0:0:0:
329,192,100110,1,0,0:0:0:0:
475,192,100110,1,0,0:0:0:0:
109,192,100332,1,8,0:0:0:0:
256,192,100332,1,0,0:0:0:0:
402,192,100332,1,0,0:0:0:0:
182,192,100555,1,0,0:0:0:0:
329,192,100555,1,0,0:0:0:0:
475,192,100555,1,0,0:0:0:0:
36,192,100777,1,0,0:0:0:0:
256,192,100777,1,0,0:0:0:0:
182,192,100999,1,0,0:0:0:0:
402,192,100999,1,0,0:0:0:0:
256,192,101221,1,8,0:0:0:0:
475,192,101221,1,0,0:0:0:0:
36,192,101221,1,0,0:0:0:0:
109,192,101444,1,0,0:0:0:0:
329,192,101444,1,0,0:0:0:0:
256,192,101666,1,0,0:0:0:0:
402,192,101666,1,0,0:0:0:0:
36,192,101888,1,0,0:0:0:0:
182,192,101888,1,0,0:0:0:0:
402,192,102110,1,8,0:0:0:0:
109,192,102110,1,0,0:0:0:0:
256,192,102110,1,0,0:0:0:0:
182,192,102332,1,0,0:0:0:0:
329,192,102332,1,0,0:0:0:0:
256,192,102555,1,0,0:0:0:0:
475,192,102555,1,0,0:0:0:0:
36,192,102555,1,0,0:0:0:0:
109,192,102777,1,0,0:0:0:0:
402,192,102777,1,0,0:0:0:0:
182,192,102999,1,8,0:0:0:0:
329,192,102999,1,0,0:0:0:0:
475,192,102999,1,0,0:0:0:0:
109,192,103221,1,0,0:0:0:0:
256,192,103221,1,0,0:0:0:0:
182,192,103444,1,0,0:0:0:0:
475,192,103444,1,0,0:0:0:0:
36,192,103444,1,0,0:0:0:0:
402,192,103666,1,0,0:0:0:0:
109,192,103666,1,0,0:0:0:0:
329,192,103666,1,0,0:0:0:0:
36,192,103888,1,8,0:0:0:0:
182,192,103888,1,0,0:0:0:0:
256,192,103888,1,0,0:0:0:0:
109,192,104110,1,0,0:0:0:0:
329,192,104110,1,0,0:0:0:0:
475,192,104110,1,0,0:0:0:0:
182,192,104332,1,0,0:0:0:0:
36,192,104332,1,0,0:0:0:0:
402,192,104332,1,0,0:0:0:0:
109,192,104555,1,0,0:0:0:0:
329,192,104555,1,0,0:0:0:0:
475,192,104555,1,0,0:0:0:0:
36,192,104777,1,8,0:0:0:0:
182,192,104777,1,0,0:0:0:0:
402,192,104777,1,0,0:0:0:0:
329,192,104999,1,0,0:0:0:0:
475,192,104999,1,0,0:0:0:0:
109,192,104999,1,0,0:0:0:0:
36,192,105221,1,4,0:0:0:0:
182,192,105221,1,4,0:0:0:0:
402,192,105221,1,0,0:0:0:0:
256,192,105221,1,0,0:0:0:0:
109,192,105444,1,0,0:0:0:0:
329,192,105444,1,0,0:0:0:0:
475,192,105444,1,0,0:0:0:0:
182,192,105666,1,8,0:0:0:0:
36,192,105666,1,0,0:0:0:0:
109,192,105888,1,0,0:0:0:0:
256,192,105888,1,0,0:0:0:0:
475,192,105888,1,0,0:0:0:0:
182,192,106110,1,0,0:0:0:0:
402,192,106110,1,0,0:0:0:0:
329,192,106332,1,0,0:0:0:0:
109,192,106332,1,0,0:0:0:0:
36,192,106555,1,8,0:0:0:0:
256,192,106555,1,0,0:0:0:0:
109,192,106777,1,0,0:0:0:0:
402,192,106777,1,0,0:0:0:0:
256,192,106777,1,0,0:0:0:0:
36,192,106999,1,8,0:0:0:0:
182,192,106999,1,8,0:0:0:0:
475,192,106999,1,0,0:0:0:0:
329,192,106999,128,0,107888:0:0:0:0:
256,192,107221,1,0,0:0:0:0:
109,192,107444,1,8,0:0:0:0:
402,192,107444,1,0,0:0:0:0:
36,192,107444,1,0,0:0:0:0:
182,192,107666,1,0,0:0:0:0:
256,192,107888,128,0,108777:0:0:0:0:
36,192,107888,1,0,0:0:0:0:
475,192,107888,1,0,0:0:0:0:
109,192,107888,1,0,0:0:0:0:
402,192,108110,1,0,0:0:0:0:
182,192,108332,1,8,0:0:0:0:
475,192,108332,1,0,0:0:0:0:
109,192,108332,1,0,0:0:0:0:
329,192,108555,1,0,0:0:0:0:
402,192,108777,1,0,0:0:0:0:
109,192,108777,1,0,0:0:0:0:
36,192,108777,1,0,0:0:0:0:
329,192,108999,1,0,0:0:0:0:
475,192,109221,1,8,0:0:0:0:
182,192,109221,128,0,109444:0:0:0:0:
256,192,109221,1,0,0:0:0:0:
36,192,109221,1,0,0:0:0:0:
109,192,109444,128,0,110555:0:0:0:0:
36,192,109444,1,0,0:0:0:0:
329,192,109444,1,0,0:0:0:0:
256,192,109666,1,0,0:0:0:0:
402,192,109666,1,0,0:0:0:0:
329,192,109888,1,0,0:0:0:0:
182,192,109888,1,0,0:0:0:0:
475,192,110110,1,8,0:0:0:0:
36,192,110110,1,0,0:0:0:0:
256,192,110110,1,0,0:0:0:0:
402,192,110110,1,0,0:0:0:0:
182,192,110332,1,0,0:0:0:0:
329,192,110332,1,0,0:0:0:0:
475,192,110555,1,0,0:0:0:0:
36,192,110555,1,0,0:0:0:0:
256,192,110555,1,0,0:0:0:0:
402,192,110555,1,0,0:0:0:0:
256,192,110777,1,0,0:0:0:0:
109,192,110999,1,8,0:0:0:0:
329,192,110999,1,0,0:0:0:0:
475,192,110999,1,0,0:0:0:0:
182,192,111221,1,0,0:0:0:0:
256,192,111444,128,0,111777:0:0:0:0:
329,192,111444,1,0,0:0:0:0:
475,192,111444,1,0,0:0:0:0:
36,192,111444,1,0,0:0:0:0:
402,192,111666,1,0,0:0:0:0:
109,192,111777,128,0,112110:0:0:0:0:
402,192,111888,1,8,0:0:0:0:
182,192,111888,1,0,0:0:0:0:
36,192,111888,1,0,0:0:0:0:
329,192,112110,1,0,0:0:0:0:
475,192,112221,1,0,0:0:0:0:
256,192,112332,128,0,114110:0:0:0:0:
329,192,112332,1,0,0:0:0:0:
36,192,112332,1,0,0:0:0:0:
182,192,112332,1,0,0:0:0:0:
402,192,112555,1,0,0:0:0:0:
475,192,112777,1,8,0:0:0:0:
109,192,112777,1,0,0:0:0:0:
329,192,112777,1,0,0:0:0:0:
182,192,112999,1,0,0:0:0:0:
402,192,113221,1,0,0:0:0:0:
36,192,113221,1,0,0:0:0:0:
109,192,113444,1,0,0:0:0:0:
182,192,113666,1,8,0:0:0:0:
36,192,113666,1,0,0:0:0:0:
402,192,113666,1,0,0:0:0:0:
329,192,113888,1,0,0:0:0:0:
109,192,113888,1,0,0:0:0:0:
182,192,114110,1,0,0:0:0:0:
475,192,114110,1,0,0:0:0:0:
36,192,114110,1,0,0:0:0:0:
402,192,114332,128,0,114777:0:0:0:0:
256,192,114332,1,0,0:0:0:0:
329,192,114555,1,8,0:0:0:0:
475,192,114555,1,0,0:0:0:0:
182,192,114555,1,0,0:0:0:0:
109,192,114777,1,0,0:0:0:0:
182,192,114999,128,0,115221:0:0:0:0:
256,192,114999,1,0,0:0:0:0:
475,192,114999,1,0,0:0:0:0:
36,192,115221,128,0,115444:0:0:0:0:
329,192,115221,1,0,0:0:0:0:
329,192,115444,128,8,115666:0:0:0:0:
182,192,115444,1,0,0:0:0:0:
402,192,115444,1,0,0:0:0:0:
109,192,115444,1,0,0:0:0:0:
475,192,115666,128,0,116110:0:0:0:0:
256,192,115666,1,0,0:0:0:0:
402,192,115888,1,0,0:0:0:0:
109,192,115888,1,0,0:0:0:0:
329,192,116110,128,0,116332:0:0:0:0:
182,192,116110,1,0,0:0:0:0:
109,192,116332,128,8,116555:0:0:0:0:
402,192,116332,1,0,0:0:0:0:
475,192,116332,1,0,0:0:0:0:
36,192,116332,1,0,0:0:0:0:
256,192,116555,128,0,116777:0:0:0:0:
329,192,116555,1,0,0:0:0:0:
36,192,116777,128,0,116999:0:0:0:0:
109,192,116777,1,0,0:0:0:0:
402,192,116777,1,0,0:0:0:0:
182,192,116999,128,0,117221:0:0:0:0:
329,192,116999,1,0,0:0:0:0:
402,192,117221,128,8,117444:0:0:0:0:
475,192,117221,1,0,0:0:0:0:
109,192,117221,1,0,0:0:0:0:
256,192,117221,1,0,0:0:0:0:
256,192,117444,128,0,117666:0:0:0:0:
182,192,117444,1,0,0:0:0:0:
36,192,117666,128,4,117888:0:0:0:0:
109,192,117666,1,4,0:0:0:0:
329,192,117666,1,0,0:0:0:0:
402,192,117666,1,0,0:0:0:0:
475,192,117888,128,0,118110:0:0:0:0:
36,192,118110,128,8,118332:0:0:0:0:
182,192,118110,1,0,0:0:0:0:
329,192,118110,1,0,0:0:0:0:
475,192,118332,128,0,118555:0:0:0:0:
256,192,118332,1,0,0:0:0:0:
182,192,118444,1,0,0:0:0:0:
402,192,118555,128,0,118777:0:0:0:0:
109,192,118555,1,0,0:0:0:0:
256,192,118777,128,0,118999:0:0:0:0:
36,192,118999,128,8,119221:0:0:0:0:
182,192,118999,1,0,0:0:0:0:
329,192,118999,1,0,0:0:0:0:
256,192,119221,128,0,119444:0:0:0:0:
402,192,119221,1,0,0:0:0:0:
36,192,119444,128,4,119666:0:0:0:0:
109,192,119444,1,4,0:0:0:0:
329,192,119444,1,0,0:0:0:0:
475,192,119444,1,0,0:0:0:0:
402,192,119666,128,0,119888:0:0:0:0:
36,192,119888,128,8,120110:0:0:0:0:
182,192,119888,1,0,0:0:0:0:
329,192,119888,1,0,0:0:0:0:
256,192,120110,128,0,120332:0:0:0:0:
36,192,120332,128,4,120555:0:0:0:0:
109,192,120332,1,0,0:0:0:0:
329,192,120332,1,0,0:0:0:0:
475,192,120332,1,0,0:0:0:0:
182,192,120555,128,0,120777:0:0:0:0:
402,192,120555,1,0,0:0:0:0:
36,192,120777,128,8,120999:0:0:0:0:
256,192,120777,1,0,0:0:0:0:
182,192,120999,128,0,121221:0:0:0:0:
329,192,120999,1,0,0:0:0:0:
402,192,121221,1,0,0:0:0:0:
475,192,121221,1,0,0:0:0:0:
36,192,121221,1,0,0:0:0:0:
256,192,121221,128,0,121444:0:0:0:0:
109,192,121444,128,0,121666:0:0:0:0:
329,192,121666,128,0,121888:0:0:0:0:
475,192,121888,128,0,122110:0:0:0:0:
329,192,122110,128,0,122332:0:0:0:0:
36,192,122110,128,0,122999:0:0:0:0:
182,192,122332,128,0,122555:0:0:0:0:
256,192,122555,128,0,122777:0:0:0:0:
329,192,122777,128,0,123221:0:0:0:0:
109,192,122999,128,0,123666:0:0:0:0:
402,192,123221,128,0,123666:0:0:0:0:
36,192,123666,128,0,124777:0:0:0:0:
256,192,123666,128,0,124110:0:0:0:0:
182,192,124110,128,0,124777:0:0:0:0:
329,192,124332,1,0,0:0:0:0:
402,192,124555,1,0,0:0:0:0:
109,192,124777,1,0,0:0:0:0:
329,192,124777,1,0,0:0:0:0:
475,192,124777,1,0,0:0:0:0:
182,192,124999,1,0,0:0:0:0:
256,192,125221,1,0,0:0:0:0:
36,192,125444,1,0,0:0:0:0:
109,192,125666,1,0,0:0:0:0:
256,192,125666,1,0,0:0:0:0:
402,192,125666,1,0,0:0:0:0:
475,192,125666,1,0,0:0:0:0:
329,192,125888,1,0,0:0:0:0:
182,192,125888,1,0,0:0:0:0:
36,192,126110,1,0,0:0:0:0:
256,192,126110,1,0,0:0:0:0:
109,192,126332,1,0,0:0:0:0:
402,192,126332,1,0,0:0:0:0:
36,192,126555,1,0,0:0:0:0:
475,192,126555,1,0,0:0:0:0:
182,192,126555,1,0,0:0:0:0:
256,192,126777,1,0,0:0:0:0:
402,192,126999,1,0,0:0:0:0:
182,192,126999,1,0,0:0:0:0:
109,192,127221,1,0,0:0:0:0:
256,192,127221,1,0,0:0:0:0:
475,192,127221,1,0,0:0:0:0:
36,192,127444,1,0,0:0:0:0:
109,192,127666,1,0,0:0:0:0:
402,192,127666,1,0,0:0:0:0:
182,192,127888,1,0,0:0:0:0:
475,192,127888,1,0,0:0:0:0:
256,192,128332,1,0,0:0:0:0:
402,192,128332,1,0,0:0:0:0:
475,192,128332,1,0,0:0:0:0:
109,192,128332,1,0,0:0:0:0:
182,192,128555,1,0,0:0:0:0:
256,192,128777,1,0,0:0:0:0:
329,192,128999,1,0,0:0:0:0:
36,192,128999,1,0,0:0:0:0:
109,192,129221,1,0,0:0:0:0:
256,192,129221,1,0,0:0:0:0:
402,192,129221,1,0,0:0:0:0:
329,192,129444,1,0,0:0:0:0:
182,192,129444,1,0,0:0:0:0:
36,192,129666,1,0,0:0:0:0:
256,192,129666,1,0,0:0:0:0:
475,192,129666,1,0,0:0:0:0:
109,192,129888,1,0,0:0:0:0:
402,192,129888,1,0,0:0:0:0:
329,192,129888,1,0,0:0:0:0:
36,192,130110,1,0,0:0:0:0:
256,192,130110,1,0,0:0:0:0:
329,192,130332,1,0,0:0:0:0:
109,192,130332,1,0,0:0:0:0:
402,192,130555,1,0,0:0:0:0:
36,192,130777,1,0,0:0:0:0:
182,192,130777,1,0,0:0:0:0:
475,192,130777,1,0,0:0:0:0:
256,192,130999,1,0,0:0:0:0:
329,192,131221,1,0,0:0:0:0:
109,192,131221,1,0,0:0:0:0:
36,192,131444,1,0,0:0:0:0:
182,192,131444,1,0,0:0:0:0:
109,192,131666,1,0,0:0:0:0:
256,192,131666,1,0,0:0:0:0:
182,192,131888,1,0,0:0:0:0:
475,192,131888,1,0,0:0:0:0:
36,192,131888,1,0,0:0:0:0:
329,192,131888,128,0,132555:0:0:0:0:
109,192,132110,1,0,0:0:0:0:
182,192,132332,1,0,0:0:0:0:
402,192,132332,1,0,0:0:0:0:
256,192,132555,1,0,0:0:0:0:
475,192,132555,1,0,0:0:0:0:
109,192,132555,128,0,132999:0:0:0:0:
182,192,132777,1,0,0:0:0:0:
329,192,132777,1,0,0:0:0:0:
36,192,132999,128,0,133444:0:0:0:0:
402,192,132999,1,0,0:0:0:0:
256,192,132999,1,0,0:0:0:0:
329,192,133221,1,0,0:0:0:0:
475,192,133221,1,0,0:0:0:0:
256,192,133444,128,0,134110:0:0:0:0:
402,192,133444,1,0,0:0:0:0:
182,192,133444,1,0,0:0:0:0:
36,192,133666,1,0,0:0:0:0:
109,192,133666,1,0,0:0:0:0:
182,192,133888,1,0,0:0:0:0:
475,192,134110,1,0,0:0:0:0:
329,192,134110,128,0,134332:0:0:0:0:
182,192,134332,128,0,134555:0:0:0:0:
36,192,134555,128,0,134777:0:0:0:0:
329,192,134777,128,0,134999:0:0:0:0:
402,192,134999,128,0,135221:0:0:0:0:
475,192,135221,128,0,135444:0:0:0:0:
36,192,135444,1,0,0:0:0:0:
329,192,135444,1,0,0:0:0:0:
182,192,135444,128,0,135666:0:0:0:0:
256,192,135666,128,0,135888:0:0:0:0:
329,192,135888,1,0,0:0:0:0:
329,192,136110,128,0,136332:0:0:0:0:
182,192,136332,128,0,136555:0:0:0:0:
36,192,136332,1,0,0:0:0:0:
475,192,136332,1,0,0:0:0:0:
256,192,136555,128,0,136777:0:0:0:0:
329,192,136777,128,0,136999:0:0:0:0:
475,192,136999,128,0,137221:0:0:0:0:
109,192,137221,1,0,0:0:0:0:
256,192,137221,128,0,137444:0:0:0:0:
329,192,137444,128,0,137666:0:0:0:0:
475,192,137666,128,0,137888:0:0:0:0:
109,192,137888,128,0,138110:0:0:0:0:
36,192,137888,1,0,0:0:0:0:
256,192,138110,128,0,138332:0:0:0:0:
475,192,138332,128,0,138555:0:0:0:0:
182,192,138555,128,0,138777:0:0:0:0:
329,192,138777,128,0,138999:0:0:0:0:
256,192,138999,128,0,139221:0:0:0:0:
36,192,138999,1,0,0:0:0:0:
109,192,139221,1,0,0:0:0:0:
182,192,139444,1,0,0:0:0:0:
329,192,139666,1,0,0:0:0:0:
36,192,139666,1,0,0:0:0:0:
109,192,139888,1,0,0:0:0:0:
256,192,139888,1,0,0:0:0:0:
182,192,140110,1,0,0:0:0:0:
329,192,140110,1,0,0:0:0:0:
36,192,140332,1,0,0:0:0:0:
256,192,140332,1,0,0:0:0:0:
182,192,140555,1,0,0:0:0:0:
402,192,140555,1,0,0:0:0:0:
329,192,140777,1,0,0:0:0:0:
475,192,140777,1,0,0:0:0:0:
109,192,140777,128,0,141666:0:0:0:0:
256,192,140999,1,0,0:0:0:0:
329,192,141444,1,0,0:0:0:0:
182,192,141666,128,0,142555:0:0:0:0:
36,192,141666,1,0,0:0:0:0:
256,192,141888,1,0,0:0:0:0:
402,192,142110,1,0,0:0:0:0:
329,192,142332,1,0,0:0:0:0:
36,192,142555,1,0,0:0:0:0:
256,192,142555,1,0,0:0:0:0:
