osu file format v14

[General]
AudioFilename: Secret Wish.mp3
AudioLeadIn: 0
PreviewTime: 6777
Countdown: 0
SampleSet: Soft
StackLeniency: 0.7
Mode: 3
LetterboxInBreaks: 0
SpecialStyle: 0
WidescreenStoryboard: 0

[Editor]
DistanceSpacing: 1
BeatDivisor: 2
GridSize: 8
TimelineZoom: 1.9

[Metadata]
Title:Secret Wish
TitleUnicode:Secret Wish
Artist:ESTi
ArtistUnicode:ESTi
Creator:ArcherLove
Version:EZ
Source:팡야
Tags:bgm wiz city ntreev soft Pangya United egas00
BeatmapID:888125
BeatmapSetID:396434

[Difficulty]
HPDrainRate:7.5
CircleSize:7
OverallDifficulty:7.8
ApproachRate:5
SliderMultiplier:1.4
SliderTickRate:1

[Events]
//Background and Video events
0,0,"BG.jpg",0,0
//Break Periods
//Storyboard Layer 0 (Background)
//Storyboard Layer 1 (Fail)
//Storyboard Layer 2 (Pass)
//Storyboard Layer 3 (Foreground)
//Storyboard Sound Samples

[TimingPoints]
333,444.444444444444,4,2,1,10,1,0

[HitObjects]
36,192,333,5,0,0:0:0:0:
182,192,555,1,0,0:0:0:0:
329,192,777,1,0,0:0:0:0:
475,192,999,1,0,0:0:0:0:
109,192,2110,1,0,0:0:0:0:
182,192,2332,1,0,0:0:0:0:
329,192,2555,1,0,0:0:0:0:
402,192,2777,1,0,0:0:0:0:
36,192,3888,1,0,0:0:0:0:
182,192,4110,1,0,0:0:0:0:
475,192,4332,1,0,0:0:0:0:
329,192,4555,1,0,0:0:0:0:
402,192,5666,1,0,0:0:0:0:
109,192,5888,128,0,6332:0:0:0:0:
475,192,6332,1,0,0:0:0:0:
329,192,6777,1,0,0:0:0:0:
109,192,7444,1,4,0:0:0:0:
402,192,7444,1,4,0:0:0:0:
256,192,7888,1,0,0:0:0:0:
475,192,7888,1,0,0:0:0:0:
36,192,8332,1,0,0:0:0:0:
329,192,8777,1,8,0:0:0:0:
475,192,8777,1,0,0:0:0:0:
36,192,9221,1,0,0:0:0:0:
256,192,9666,1,8,0:0:0:0:
402,192,9666,1,0,0:0:0:0:
36,192,10110,1,0,0:0:0:0:
329,192,10555,1,8,0:0:0:0:
182,192,10555,1,0,0:0:0:0:
109,192,10999,1,0,0:0:0:0:
402,192,11444,1,8,0:0:0:0:
256,192,11444,1,0,0:0:0:0:
182,192,11888,1,0,0:0:0:0:
329,192,12332,1,8,0:0:0:0:
36,192,12332,1,0,0:0:0:0:
109,192,12777,1,0,0:0:0:0:
402,192,13221,1,8,0:0:0:0:
256,192,13221,1,0,0:0:0:0:
182,192,13666,1,0,0:0:0:0:
475,192,14110,1,8,0:0:0:0:
109,192,14110,1,0,0:0:0:0:
36,192,14555,1,0,0:0:0:0:
256,192,14999,1,8,0:0:0:0:
402,192,14999,1,0,0:0:0:0:
109,192,15444,1,0,0:0:0:0:
329,192,15888,1,8,0:0:0:0:
36,192,15888,1,0,0:0:0:0:
475,192,16332,1,0,0:0:0:0:
256,192,16777,1,8,0:0:0:0:
109,192,16777,1,0,0:0:0:0:
402,192,17221,1,0,0:0:0:0:
182,192,17666,1,8,0:0:0:0:
36,192,17666,1,0,0:0:0:0:
256,192,18110,1,0,0:0:0:0:
475,192,18555,1,8,0:0:0:0:
109,192,18555,1,0,0:0:0:0:
182,192,18999,1,0,0:0:0:0:
402,192,19444,1,8,0:0:0:0:
256,192,19444,1,8,0:0:0:0:
182,192,19888,1,0,0:0:0:0:
36,192,20332,1,8,0:0:0:0:
402,192,20332,1,0,0:0:0:0:
329,192,20777,1,0,0:0:0:0:
182,192,21221,1,8,0:0:0:0:
475,192,21221,1,0,0:0:0:0:
402,192,21666,1,0,0:0:0:0:
36,192,21666,1,0,0:0:0:0:
182,192,22110,1,8,0:0:0:0:
329,192,22110,1,0,0:0:0:0:
36,192,22555,1,0,0:0:0:0:
329,192,22999,1,8,0:0:0:0:
475,192,22999,1,0,0:0:0:0:
182,192,23444,1,0,0:0:0:0:
402,192,23888,1,8,0:0:0:0:
256,192,23888,1,0,0:0:0:0:
109,192,24332,1,0,0:0:0:0:
329,192,24777,1,8,0:0:0:0:
182,192,24777,1,0,0:0:0:0:
36,192,25221,1,0,0:0:0:0:
475,192,25666,1,8,0:0:0:0:
109,192,25666,1,0,0:0:0:0:
256,192,26110,1,0,0:0:0:0:
402,192,26555,1,8,0:0:0:0:
36,192,26555,1,0,0:0:0:0:
182,192,26999,1,0,0:0:0:0:
329,192,27444,1,8,0:0:0:0:
475,192,27444,1,0,0:0:0:0:
109,192,27888,1,0,0:0:0:0:
256,192,28332,1,8,0:0:0:0:
402,192,28332,1,0,0:0:0:0:
475,192,28777,1,4,0:0:0:0:
36,192,28777,1,4,0:0:0:0:
256,192,29221,1,8,0:0:0:0:
402,192,29221,1,0,0:0:0:0:
109,192,29666,1,0,0:0:0:0:
329,192,30110,1,8,0:0:0:0:
182,192,30110,1,0,0:0:0:0:
36,192,30555,1,0,0:0:0:0:
182,192,30999,1,8,0:0:0:0:
329,192,30999,1,0,0:0:0:0:
475,192,31444,1,0,0:0:0:0:
329,192,31888,1,8,0:0:0:0:
109,192,31888,1,0,0:0:0:0:
182,192,32332,1,0,0:0:0:0:
402,192,32332,1,0,0:0:0:0:
109,192,32777,1,8,0:0:0:0:
329,192,32777,1,0,0:0:0:0:
256,192,33221,1,0,0:0:0:0:
182,192,33666,1,8,0:0:0:0:
475,192,33666,1,0,0:0:0:0:
329,192,34110,1,0,0:0:0:0:
402,192,34555,1,8,0:0:0:0:
182,192,34555,1,0,0:0:0:0:
256,192,34999,1,0,0:0:0:0:
329,192,35444,1,8,0:0:0:0:
36,192,35444,1,8,0:0:0:0:
475,192,35888,1,4,0:0:0:0:
182,192,35888,1,4,0:0:0:0:
402,192,36332,1,8,0:0:0:0:
256,192,36332,1,0,0:0:0:0:
109,192,36777,1,0,0:0:0:0:
256,192,37221,1,8,0:0:0:0:
475,192,37221,1,0,0:0:0:0:
36,192,37666,1,0,0:0:0:0:
182,192,38110,1,8,0:0:0:0:
329,192,38110,1,0,0:0:0:0:
402,192,38555,1,0,0:0:0:0:
329,192,38999,1,8,0:0:0:0:
109,192,38999,1,0,0:0:0:0:
475,192,39444,1,0,0:0:0:0:
182,192,39888,1,8,0:0:0:0:
36,192,39888,1,0,0:0:0:0:
329,192,40332,1,0,0:0:0:0:
475,192,40777,1,8,0:0:0:0:
182,192,40777,1,0,0:0:0:0:
36,192,41221,1,0,0:0:0:0:
256,192,41666,1,8,0:0:0:0:
475,192,41666,1,0,0:0:0:0:
109,192,42110,1,0,0:0:0:0:
329,192,42555,1,8,0:0:0:0:
475,192,42555,1,0,0:0:0:0:
256,192,42999,1,0,0:0:0:0:
402,192,43444,1,8,0:0:0:0:
182,192,43444,1,0,0:0:0:0:
109,192,43888,1,0,0:0:0:0:
256,192,44332,1,8,0:0:0:0:
36,192,44332,1,0,0:0:0:0:
475,192,44777,1,0,0:0:0:0:
182,192,45221,1,8,0:0:0:0:
36,192,45221,1,0,0:0:0:0:
402,192,45666,1,0,0:0:0:0:
109,192,46110,1,8,0:0:0:0:
329,192,46110,1,0,0:0:0:0:
475,192,46555,1,0,0:0:0:0:
329,192,46999,1,8,0:0:0:0:
36,192,46999,1,0,0:0:0:0:
182,192,47444,1,0,0:0:0:0:
402,192,47888,1,8,0:0:0:0:
109,192,47888,1,0,0:0:0:0:
182,192,48332,1,0,0:0:0:0:
36,192,48777,1,8,0:0:0:0:
475,192,48777,1,0,0:0:0:0:
109,192,49221,1,0,0:0:0:0:
182,192,49666,1,8,0:0:0:0:
402,192,49666,1,0,0:0:0:0:
256,192,50110,1,0,0:0:0:0:
475,192,50110,1,0,0:0:0:0:
402,192,50555,1,8,0:0:0:0:
36,192,50555,1,0,0:0:0:0:
182,192,50999,1,0,0:0:0:0:
329,192,51444,1,8,0:0:0:0:
36,192,51444,1,0,0:0:0:0:
109,192,51888,1,0,0:0:0:0:
402,192,52332,1,8,0:0:0:0:
182,192,52332,1,0,0:0:0:0:
329,192,52777,1,0,0:0:0:0:
475,192,53221,1,8,0:0:0:0:
109,192,53221,1,0,0:0:0:0:
402,192,53666,1,0,0:0:0:0:
182,192,54110,1,8,0:0:0:0:
36,192,54110,1,8,0:0:0:0:
256,192,54555,1,0,0:0:0:0:
329,192,54999,1,8,0:0:0:0:
475,192,54999,1,0,0:0:0:0:
109,192,55444,1,0,0:0:0:0:
182,192,55888,1,8,0:0:0:0:
402,192,55888,1,8,0:0:0:0:
256,192,56332,1,0,0:0:0:0:
329,192,56777,1,8,0:0:0:0:
109,192,56777,1,0,0:0:0:0:
182,192,57221,1,4,0:0:0:0:
475,192,57221,1,0,0:0:0:0:
329,192,57666,1,8,0:0:0:0:
36,192,57666,1,0,0:0:0:0:
109,192,58110,1,0,0:0:0:0:
402,192,58555,1,8,0:0:0:0:
182,192,58555,1,0,0:0:0:0:
256,192,58999,1,0,0:0:0:0:
329,192,59444,1,8,0:0:0:0:
36,192,59444,1,0,0:0:0:0:
402,192,59888,1,0,0:0:0:0:
109,192,60332,1,8,0:0:0:0:
329,192,60332,1,8,0:0:0:0:
182,192,60777,1,0,0:0:0:0:
256,192,61221,1,8,0:0:0:0:
475,192,61221,1,0,0:0:0:0:
329,192,61666,1,0,0:0:0:0:
475,192,62110,1,8,0:0:0:0:
182,192,62110,1,0,0:0:0:0:
402,192,62555,1,0,0:0:0:0:
256,192,62999,1,8,0:0:0:0:
36,192,62999,1,0,0:0:0:0:
182,192,63444,1,0,0:0:0:0:
36,192,63888,1,8,0:0:0:0:
402,192,63888,1,0,0:0:0:0:
109,192,64332,128,4,66110:0:0:0:0:
329,192,66110,128,0,67888:0:0:0:0:
182,192,67888,128,0,68555:0:0:0:0:
402,192,68555,128,0,69221:0:0:0:0:
36,192,69221,128,0,70555:0:0:0:0:
182,192,70555,128,0,70999:0:0:0:0:
329,192,70999,128,0,71444:0:0:0:0:
109,192,71444,128,0,73221:0:0:0:0:
402,192,73221,128,0,74110:0:0:0:0:
329,192,74110,128,0,74999:0:0:0:0:
475,192,74999,128,0,78555:0:0:0:0:
256,192,76777,1,0,0:0:0:0:
109,192,77666,128,0,78555:0:0:0:0:
256,192,78555,1,4,0:0:0:0:
402,192,78999,1,8,0:0:0:0:
36,192,78999,1,0,0:0:0:0:
182,192,79444,1,0,0:0:0:0:
329,192,79888,1,8,0:0:0:0:
475,192,79888,1,0,0:0:0:0:
109,192,80332,1,0,0:0:0:0:
256,192,80777,1,8,0:0:0:0:
402,192,80777,1,0,0:0:0:0:
36,192,81221,1,0,0:0:0:0:
182,192,81666,1,8,0:0:0:0:
329,192,81666,1,0,0:0:0:0:
402,192,82110,1,0,0:0:0:0:
36,192,82110,1,0,0:0:0:0:
256,192,82555,1,8,0:0:0:0:
109,192,82555,1,0,0:0:0:0:
475,192,82999,1,0,0:0:0:0:
329,192,83444,1,8,0:0:0:0:
36,192,83444,1,0,0:0:0:0:
109,192,83888,1,0,0:0:0:0:
256,192,84332,1,8,0:0:0:0:
475,192,84332,1,0,0:0:0:0:
402,192,84777,1,0,0:0:0:0:
182,192,85221,1,8,0:0:0:0:
329,192,85221,1,0,0:0:0:0:
36,192,85666,1,0,0:0:0:0:
402,192,85666,1,0,0:0:0:0:
182,192,86332,1,0,0:0:0:0:
329,192,86332,1,0,0:0:0:0:
109,192,86777,1,0,0:0:0:0:
36,192,87221,1,0,0:0:0:0:
402,192,87221,1,0,0:0:0:0:
256,192,88555,1,0,0:0:0:0:
475,192,88555,1,0,0:0:0:0:
182,192,88999,1,0,0:0:0:0:
402,192,88999,1,0,0:0:0:0:
109,192,89444,1,0,0:0:0:0:
182,192,89888,1,0,0:0:0:0:
402,192,90332,1,0,0:0:0:0:
256,192,90777,1,0,0:0:0:0:
475,192,90777,1,0,0:0:0:0:
109,192,91221,1,0,0:0:0:0:
329,192,91666,1,0,0:0:0:0:
36,192,91666,1,0,0:0:0:0:
182,192,92332,1,8,0:0:0:0:
402,192,92332,1,0,0:0:0:0:
36,192,92777,1,4,0:0:0:0:
256,192,92777,1,0,0:0:0:0:
329,192,93221,1,8,0:0:0:0:
109,192,93221,1,0,0:0:0:0:
182,192,93666,1,0,0:0:0:0:
402,192,94110,1,8,0:0:0:0:
256,192,94110,1,0,0:0:0:0:
182,192,94555,1,0,0:0:0:0:
329,192,94999,1,8,0:0:0:0:
475,192,94999,1,0,0:0:0:0:
109,192,95444,1,0,0:0:0:0:
402,192,95888,1,8,0:0:0:0:
256,192,95888,1,0,0:0:0:0:
182,192,96332,1,0,0:0:0:0:
475,192,96777,1,8,0:0:0:0:
36,192,96777,1,0,0:0:0:0:
109,192,97221,1,0,0:0:0:0:
256,192,97666,1,8,0:0:0:0:
402,192,97666,1,0,0:0:0:0:
36,192,98110,1,0,0:0:0:0:
329,192,98555,1,8,0:0:0:0:
182,192,98555,1,0,0:0:0:0:
475,192,98999,1,0,0:0:0:0:
256,192,99444,1,8,0:0:0:0:
402,192,99444,1,0,0:0:0:0:
36,192,99888,1,0,0:0:0:0:
329,192,100332,1,8,0:0:0:0:
182,192,100332,1,0,0:0:0:0:
109,192,100777,1,0,0:0:0:0:
402,192,101221,1,8,0:0:0:0:
256,192,101221,1,0,0:0:0:0:
182,192,101666,1,0,0:0:0:0:
256,192,102110,1,8,0:0:0:0:
402,192,102110,1,0,0:0:0:0:
475,192,102555,1,0,0:0:0:0:
329,192,102999,1,8,0:0:0:0:
182,192,102999,1,0,0:0:0:0:
36,192,103444,1,0,0:0:0:0:
402,192,103888,1,8,0:0:0:0:
182,192,103888,1,0,0:0:0:0:
109,192,104332,1,0,0:0:0:0:
256,192,104777,1,8,0:0:0:0:
36,192,104777,1,0,0:0:0:0:
402,192,105221,1,4,0:0:0:0:
329,192,105666,1,8,0:0:0:0:
475,192,105666,1,0,0:0:0:0:
109,192,106110,1,0,0:0:0:0:
182,192,106555,1,8,0:0:0:0:
329,192,106555,1,0,0:0:0:0:
256,192,106999,1,8,0:0:0:0:
475,192,106999,1,8,0:0:0:0:
109,192,107444,1,8,0:0:0:0:
402,192,107444,1,0,0:0:0:0:
182,192,107888,1,0,0:0:0:0:
329,192,108332,1,8,0:0:0:0:
36,192,108332,1,0,0:0:0:0:
109,192,108777,1,0,0:0:0:0:
402,192,109221,1,8,0:0:0:0:
182,192,109221,1,0,0:0:0:0:
256,192,109666,1,0,0:0:0:0:
36,192,110110,1,8,0:0:0:0:
402,192,110110,1,0,0:0:0:0:
182,192,110555,1,0,0:0:0:0:
475,192,110999,1,8,0:0:0:0:
36,192,110999,1,0,0:0:0:0:
402,192,111444,1,0,0:0:0:0:
182,192,111888,1,8,0:0:0:0:
475,192,111888,1,0,0:0:0:0:
256,192,112332,1,0,0:0:0:0:
36,192,112777,1,8,0:0:0:0:
402,192,112777,1,0,0:0:0:0:
182,192,113221,1,0,0:0:0:0:
402,192,113666,1,8,0:0:0:0:
109,192,113666,1,0,0:0:0:0:
256,192,114110,1,0,0:0:0:0:
475,192,114555,1,8,0:0:0:0:
182,192,114555,1,0,0:0:0:0:
402,192,114999,1,0,0:0:0:0:
182,192,115444,1,8,0:0:0:0:
36,192,115444,1,0,0:0:0:0:
329,192,115888,1,0,0:0:0:0:
256,192,116332,1,8,0:0:0:0:
475,192,116332,1,0,0:0:0:0:
36,192,116777,1,0,0:0:0:0:
329,192,117221,1,8,0:0:0:0:
182,192,117221,1,0,0:0:0:0:
109,192,117666,1,4,0:0:0:0:
402,192,118110,1,8,0:0:0:0:
475,192,118110,1,0,0:0:0:0:
402,192,118999,1,8,0:0:0:0:
329,192,118999,1,0,0:0:0:0:
475,192,119444,1,4,0:0:0:0:
182,192,119444,1,4,0:0:0:0:
256,192,119888,1,8,0:0:0:0:
402,192,119888,1,0,0:0:0:0:
182,192,120332,1,4,0:0:0:0:
36,192,120777,1,8,0:0:0:0:
475,192,120777,1,0,0:0:0:0:
109,192,121221,1,0,0:0:0:0:
329,192,121221,1,0,0:0:0:0:
256,192,122110,1,0,0:0:0:0:
329,192,122999,1,0,0:0:0:0:
256,192,123666,1,0,0:0:0:0:
182,192,124777,1,0,0:0:0:0:
475,192,124777,1,0,0:0:0:0:
256,192,125666,1,0,0:0:0:0:
109,192,126555,1,0,0:0:0:0:
182,192,127444,1,0,0:0:0:0:
329,192,128332,1,0,0:0:0:0:
36,192,128332,1,0,0:0:0:0:
402,192,129221,1,0,0:0:0:0:
475,192,130110,1,0,0:0:0:0:
329,192,130777,1,0,0:0:0:0:
256,192,131888,1,0,0:0:0:0:
36,192,131888,1,0,0:0:0:0:
329,192,132777,1,0,0:0:0:0:
109,192,133666,128,0,135444:0:0:0:0:
256,192,135444,1,0,0:0:0:0:
329,192,136332,1,0,0:0:0:0:
109,192,137221,1,0,0:0:0:0:
182,192,137888,1,0,0:0:0:0:
256,192,138999,1,0,0:0:0:0:
329,192,139888,1,0,0:0:0:0:
182,192,140777,1,0,0:0:0:0:
256,192,141666,128,0,142555:0:0:0:0:
402,192,142555,1,0,0:0:0:0:
