osu file format v14

[General]
AudioFilename: Ladymade Star.mp3
AudioLeadIn: 0
PreviewTime: 64592
Countdown: 0
SampleSet: Soft
StackLeniency: 0.7
Mode: 3
LetterboxInBreaks: 0
SpecialStyle: 0
WidescreenStoryboard: 1

[Editor]
DistanceSpacing: 0.8
BeatDivisor: 4
GridSize: 8
TimelineZoom: 1.8

[Metadata]
Title:Ladymade Star
TitleUnicode:Ladymade Star
Artist:ESTi
ArtistUnicode:ESTi
Creator:Bruce
Version:7K NM
Source:DJMAX
Tags:jackyn Mashiro-Fang xiaox biemote
BeatmapID:821996
BeatmapSetID:375084

[Difficulty]
HPDrainRate:8
CircleSize:7
OverallDifficulty:9
ApproachRate:5
SliderMultiplier:1.4
SliderTickRate:1

[Events]
//Background and Video events
Video,0,"YouTube - DJMAX Portable 2 - Ladymade Star.flv"
0,0,"Ladymade_Star_TechnikaEyecatch.jpg",0,0
//Break Periods
//Storyboard Layer 0 (Background)
//Storyboard Layer 1 (Fail)
//Storyboard Layer 2 (Pass)
//Storyboard Layer 3 (Foreground)
//Storyboard Sound Samples

[TimingPoints]
1945,441.176470588235,4,2,0,30,1,0
65474,-100,4,2,0,30,0,1
78709,-100,4,2,0,30,0,0
79592,-100,4,2,0,30,0,1
93709,-100,4,2,0,30,0,0
121944,-100,4,2,0,30,0,1
123709,-100,4,2,0,30,0,0

[HitObjects]
329,192,1945,5,0,0:0:0:0:
329,192,2386,1,0,0:0:0:0:
182,192,2827,1,0,0:0:0:0:
329,192,3268,1,0,0:0:0:0:
36,192,3489,1,0,0:0:0:0:
36,192,3930,1,0,0:0:0:0:
475,192,4371,1,0,0:0:0:0:
402,192,5474,1,0,0:0:0:0:
402,192,5915,1,0,0:0:0:0:
109,192,6356,1,0,0:0:0:0:
402,192,6797,1,0,0:0:0:0:
109,192,7018,1,0,0:0:0:0:
109,192,7459,1,0,0:0:0:0:
402,192,7900,1,0,0:0:0:0:
329,192,9003,1,0,0:0:0:0:
329,192,9444,1,0,0:0:0:0:
182,192,9886,1,0,0:0:0:0:
329,192,10327,1,0,0:0:0:0:
36,192,10547,1,0,0:0:0:0:
36,192,10989,1,0,0:0:0:0:
475,192,11430,1,0,0:0:0:0:
256,192,12092,1,0,0:0:0:0:
109,192,12533,1,0,0:0:0:0:
109,192,12974,1,0,0:0:0:0:
329,192,13415,1,0,0:0:0:0:
182,192,13856,1,0,0:0:0:0:
475,192,13856,1,0,0:0:0:0:
36,192,14077,1,0,0:0:0:0:
256,192,14739,1,0,0:0:0:0:
475,192,15180,1,0,0:0:0:0:
109,192,16062,128,0,16503:0:0:0:0:
182,192,16062,1,0,0:0:0:0:
329,192,16503,128,0,16944:0:0:0:0:
475,192,16503,1,0,0:0:0:0:
475,192,16944,128,0,17386:0:0:0:0:
36,192,16944,1,0,0:0:0:0:
256,192,17386,1,0,0:0:0:0:
36,192,17606,128,0,18047:0:0:0:0:
402,192,17827,1,0,0:0:0:0:
256,192,18047,128,0,18489:0:0:0:0:
109,192,18268,1,0,0:0:0:0:
402,192,18489,128,0,18930:0:0:0:0:
109,192,18709,1,0,0:0:0:0:
256,192,19150,1,0,0:0:0:0:
182,192,19592,128,0,20033:0:0:0:0:
329,192,19592,1,0,0:0:0:0:
475,192,20033,128,0,20474:0:0:0:0:
36,192,20033,1,0,0:0:0:0:
329,192,20474,128,0,20915:0:0:0:0:
256,192,20474,1,0,0:0:0:0:
36,192,20915,1,0,0:0:0:0:
109,192,21136,128,0,21577:0:0:0:0:
402,192,21356,1,0,0:0:0:0:
256,192,21577,128,0,22018:0:0:0:0:
402,192,21577,1,0,0:0:0:0:
36,192,21797,1,0,0:0:0:0:
475,192,22018,128,0,22459:0:0:0:0:
36,192,22018,1,0,0:0:0:0:
182,192,22239,1,0,0:0:0:0:
182,192,22459,1,0,0:0:0:0:
329,192,22680,128,0,23121:0:0:0:0:
36,192,23121,1,0,0:0:0:0:
36,192,23342,1,0,0:0:0:0:
182,192,23562,1,0,0:0:0:0:
329,192,23783,1,0,0:0:0:0:
109,192,24224,1,0,0:0:0:0:
256,192,24444,1,0,0:0:0:0:
402,192,24665,1,0,0:0:0:0:
182,192,25106,1,0,0:0:0:0:
329,192,25327,1,0,0:0:0:0:
475,192,25547,1,0,0:0:0:0:
329,192,25768,128,0,25989:0:0:0:0:
182,192,25989,128,0,26209:0:0:0:0:
329,192,26209,128,0,26430:0:0:0:0:
36,192,26871,1,0,0:0:0:0:
182,192,27092,1,0,0:0:0:0:
402,192,27312,1,0,0:0:0:0:
109,192,27753,1,0,0:0:0:0:
329,192,27974,1,0,0:0:0:0:
475,192,28194,1,0,0:0:0:0:
182,192,28636,1,0,0:0:0:0:
402,192,28856,1,0,0:0:0:0:
36,192,29077,1,0,0:0:0:0:
182,192,29297,128,0,29518:0:0:0:0:
475,192,29297,128,0,29518:0:0:0:0:
182,192,29739,128,0,29959:0:0:0:0:
475,192,29739,128,0,29959:0:0:0:0:
182,192,30180,1,0,0:0:0:0:
475,192,30180,1,0,0:0:0:0:
475,192,30400,1,0,0:0:0:0:
329,192,30621,1,0,0:0:0:0:
182,192,30842,1,0,0:0:0:0:
402,192,31283,1,0,0:0:0:0:
256,192,31503,1,0,0:0:0:0:
109,192,31724,1,0,0:0:0:0:
329,192,32165,1,0,0:0:0:0:
182,192,32386,1,0,0:0:0:0:
36,192,32606,1,0,0:0:0:0:
182,192,32827,128,0,33047:0:0:0:0:
329,192,33047,128,0,33268:0:0:0:0:
182,192,33268,128,0,33489:0:0:0:0:
475,192,33930,1,0,0:0:0:0:
329,192,34150,1,0,0:0:0:0:
109,192,34371,1,0,0:0:0:0:
402,192,34812,1,0,0:0:0:0:
182,192,35033,1,0,0:0:0:0:
36,192,35253,1,0,0:0:0:0:
182,192,37239,1,0,0:0:0:0:
182,192,37680,1,0,0:0:0:0:
182,192,38121,1,0,0:0:0:0:
182,192,38562,1,0,0:0:0:0:
475,192,38562,1,0,0:0:0:0:
182,192,39003,1,0,0:0:0:0:
182,192,39444,1,0,0:0:0:0:
182,192,39886,1,0,0:0:0:0:
329,192,40106,128,0,40327:0:0:0:0:
182,192,40327,1,0,0:0:0:0:
182,192,40768,1,0,0:0:0:0:
182,192,41209,1,0,0:0:0:0:
182,192,41650,1,0,0:0:0:0:
182,192,42092,1,0,0:0:0:0:
475,192,42092,1,0,0:0:0:0:
182,192,42533,1,0,0:0:0:0:
182,192,42974,1,0,0:0:0:0:
182,192,43415,1,0,0:0:0:0:
329,192,43636,1,0,0:0:0:0:
182,192,43856,1,0,0:0:0:0:
475,192,43856,1,0,0:0:0:0:
36,192,44077,1,0,0:0:0:0:
329,192,44297,1,0,0:0:0:0:
329,192,44739,1,0,0:0:0:0:
329,192,45180,1,0,0:0:0:0:
329,192,45621,1,0,0:0:0:0:
36,192,45621,1,0,0:0:0:0:
329,192,46062,1,0,0:0:0:0:
329,192,46503,1,0,0:0:0:0:
329,192,46944,1,0,0:0:0:0:
182,192,47165,128,0,47386:0:0:0:0:
329,192,47386,1,0,0:0:0:0:
329,192,47827,1,0,0:0:0:0:
329,192,48268,1,0,0:0:0:0:
329,192,48709,1,0,0:0:0:0:
329,192,49150,1,0,0:0:0:0:
475,192,49150,1,0,0:0:0:0:
329,192,49592,1,0,0:0:0:0:
109,192,49812,1,0,0:0:0:0:
402,192,49922,1,0,0:0:0:0:
109,192,50033,1,0,0:0:0:0:
402,192,50253,1,0,0:0:0:0:
109,192,50364,1,0,0:0:0:0:
402,192,50474,1,0,0:0:0:0:
109,192,50694,1,0,0:0:0:0:
402,192,50805,1,0,0:0:0:0:
109,192,50915,1,0,0:0:0:0:
36,192,51356,1,0,0:0:0:0:
182,192,51577,1,0,0:0:0:0:
329,192,51797,1,0,0:0:0:0:
36,192,52239,1,0,0:0:0:0:
182,192,52459,1,0,0:0:0:0:
329,192,52680,1,0,0:0:0:0:
256,192,52900,1,0,0:0:0:0:
36,192,53121,1,0,0:0:0:0:
182,192,53342,1,0,0:0:0:0:
329,192,53562,1,0,0:0:0:0:
36,192,54003,1,0,0:0:0:0:
36,192,54224,1,0,0:0:0:0:
182,192,54444,1,0,0:0:0:0:
182,192,54665,1,0,0:0:0:0:
475,192,54886,1,0,0:0:0:0:
329,192,55106,1,0,0:0:0:0:
182,192,55327,1,0,0:0:0:0:
475,192,55768,1,0,0:0:0:0:
329,192,55989,1,0,0:0:0:0:
182,192,56209,1,0,0:0:0:0:
256,192,56430,1,0,0:0:0:0:
475,192,56650,1,0,0:0:0:0:
329,192,56871,1,0,0:0:0:0:
182,192,57092,1,0,0:0:0:0:
475,192,57533,1,0,0:0:0:0:
475,192,57753,1,0,0:0:0:0:
329,192,57974,1,0,0:0:0:0:
329,192,58194,1,0,0:0:0:0:
109,192,58415,1,0,0:0:0:0:
256,192,58636,1,0,0:0:0:0:
402,192,58856,1,0,0:0:0:0:
109,192,59297,1,0,0:0:0:0:
256,192,59518,1,0,0:0:0:0:
402,192,59739,1,0,0:0:0:0:
109,192,60180,1,0,0:0:0:0:
256,192,60400,1,0,0:0:0:0:
402,192,60621,1,0,0:0:0:0:
329,192,61062,1,0,0:0:0:0:
329,192,61283,1,0,0:0:0:0:
182,192,61503,1,0,0:0:0:0:
182,192,61724,1,0,0:0:0:0:
36,192,61944,128,0,64592:0:0:0:0:
329,192,61944,1,0,0:0:0:0:
329,192,62165,1,0,0:0:0:0:
475,192,62386,1,0,0:0:0:0:
182,192,62827,1,0,0:0:0:0:
475,192,63047,1,0,0:0:0:0:
475,192,63268,1,0,0:0:0:0:
402,192,63709,1,0,0:0:0:0:
182,192,63930,1,0,0:0:0:0:
402,192,64040,1,0,0:0:0:0:
402,192,64261,1,0,0:0:0:0:
182,192,64371,1,0,0:0:0:0:
402,192,64592,128,0,65474:0:0:0:0:
329,192,64592,1,0,0:0:0:0:
182,192,65474,1,0,0:0:0:0:
256,192,65915,1,0,0:0:0:0:
182,192,66356,1,0,0:0:0:0:
256,192,66797,1,0,0:0:0:0:
475,192,66797,1,0,0:0:0:0:
182,192,67239,1,0,0:0:0:0:
329,192,67680,1,0,0:0:0:0:
182,192,68121,1,0,0:0:0:0:
36,192,68342,1,0,0:0:0:0:
329,192,68562,1,0,0:0:0:0:
182,192,68783,1,0,0:0:0:0:
36,192,69003,1,0,0:0:0:0:
475,192,69444,1,0,0:0:0:0:
36,192,69886,1,0,0:0:0:0:
329,192,70327,1,0,0:0:0:0:
475,192,70327,1,0,0:0:0:0:
36,192,70768,1,0,0:0:0:0:
329,192,71209,1,0,0:0:0:0:
36,192,71650,1,0,0:0:0:0:
182,192,71871,1,0,0:0:0:0:
329,192,72092,1,0,0:0:0:0:
402,192,72092,1,0,0:0:0:0:
36,192,72312,1,0,0:0:0:0:
182,192,72533,1,0,0:0:0:0:
402,192,72974,128,0,73415:0:0:0:0:
329,192,73415,128,0,73856:0:0:0:0:
109,192,73415,128,0,73856:0:0:0:0:
36,192,73856,128,0,74297:0:0:0:0:
475,192,73856,1,0,0:0:0:0:
402,192,74077,1,0,0:0:0:0:
182,192,74297,128,0,74739:0:0:0:0:
256,192,74297,128,0,74739:0:0:0:0:
36,192,74739,128,0,75180:0:0:0:0:
475,192,74739,1,0,0:0:0:0:
329,192,74959,1,0,0:0:0:0:
182,192,75180,128,0,75621:0:0:0:0:
475,192,75180,128,0,75621:0:0:0:0:
329,192,75621,128,0,76062:0:0:0:0:
109,192,75842,1,0,0:0:0:0:
109,192,76062,128,0,76503:0:0:0:0:
402,192,76503,1,0,0:0:0:0:
256,192,76724,1,0,0:0:0:0:
402,192,76944,128,0,77386:0:0:0:0:
329,192,77386,128,0,77827:0:0:0:0:
36,192,77386,1,0,0:0:0:0:
475,192,77827,128,0,79592:0:0:0:0:
182,192,77827,1,0,0:0:0:0:
182,192,78047,1,0,0:0:0:0:
36,192,78268,1,0,0:0:0:0:
182,192,78489,1,0,0:0:0:0:
329,192,78709,1,0,0:0:0:0:
182,192,78819,1,0,0:0:0:0:
329,192,78930,1,0,0:0:0:0:
109,192,79150,1,0,0:0:0:0:
109,192,79371,1,0,0:0:0:0:
402,192,79592,1,0,0:0:0:0:
256,192,80033,1,0,0:0:0:0:
402,192,80474,1,0,0:0:0:0:
36,192,80915,1,0,0:0:0:0:
256,192,80915,1,0,0:0:0:0:
402,192,81356,1,0,0:0:0:0:
109,192,81797,1,0,0:0:0:0:
402,192,82239,1,0,0:0:0:0:
329,192,82459,1,0,0:0:0:0:
109,192,82680,1,0,0:0:0:0:
475,192,82680,1,0,0:0:0:0:
329,192,82900,1,0,0:0:0:0:
402,192,83121,1,0,0:0:0:0:
182,192,83562,1,0,0:0:0:0:
182,192,83783,1,0,0:0:0:0:
329,192,84003,1,0,0:0:0:0:
329,192,84224,1,0,0:0:0:0:
475,192,84444,1,0,0:0:0:0:
36,192,84444,1,0,0:0:0:0:
475,192,84665,1,0,0:0:0:0:
109,192,84886,128,0,85217:0:0:0:0:
256,192,85217,128,0,85547:0:0:0:0:
402,192,85547,128,0,85768:0:0:0:0:
329,192,85768,128,0,86209:0:0:0:0:
182,192,86209,128,0,86650:0:0:0:0:
36,192,86650,128,0,87092:0:0:0:0:
475,192,86650,128,0,87092:0:0:0:0:
256,192,87092,1,0,0:0:0:0:
329,192,87533,1,0,0:0:0:0:
182,192,87753,1,0,0:0:0:0:
36,192,87974,1,0,0:0:0:0:
475,192,87974,1,0,0:0:0:0:
329,192,88194,1,0,0:0:0:0:
182,192,88415,128,0,88856:0:0:0:0:
402,192,88856,128,0,89297:0:0:0:0:
109,192,89297,128,0,89739:0:0:0:0:
402,192,89739,128,0,90180:0:0:0:0:
256,192,90180,128,0,91944:0:0:0:0:
36,192,90180,1,0,0:0:0:0:
182,192,90400,1,0,0:0:0:0:
329,192,90621,1,0,0:0:0:0:
475,192,91062,1,0,0:0:0:0:
329,192,91283,1,0,0:0:0:0:
182,192,91503,1,0,0:0:0:0:
475,192,91944,1,0,0:0:0:0:
475,192,92165,1,0,0:0:0:0:
256,192,92386,1,0,0:0:0:0:
256,192,92606,1,0,0:0:0:0:
109,192,92827,128,0,93268:0:0:0:0:
329,192,93709,128,0,94150:0:0:0:0:
402,192,94150,1,0,0:0:0:0:
182,192,94150,128,0,94592:0:0:0:0:
36,192,94592,128,0,95033:0:0:0:0:
402,192,95033,1,0,0:0:0:0:
182,192,95253,128,0,95694:0:0:0:0:
329,192,95694,128,0,96136:0:0:0:0:
402,192,95915,1,0,0:0:0:0:
36,192,96136,128,0,96577:0:0:0:0:
402,192,96797,1,0,0:0:0:0:
329,192,97239,128,0,97680:0:0:0:0:
109,192,97680,1,0,0:0:0:0:
182,192,97680,128,0,98121:0:0:0:0:
475,192,98121,128,0,98562:0:0:0:0:
109,192,98562,1,0,0:0:0:0:
402,192,98783,128,0,99224:0:0:0:0:
329,192,99224,128,0,99665:0:0:0:0:
109,192,99444,1,0,0:0:0:0:
256,192,99665,128,0,100106:0:0:0:0:
109,192,100327,1,0,0:0:0:0:
402,192,100768,1,0,0:0:0:0:
182,192,100768,1,0,0:0:0:0:
256,192,101209,1,0,0:0:0:0:
36,192,101209,1,0,0:0:0:0:
402,192,101650,1,0,0:0:0:0:
256,192,102092,1,0,0:0:0:0:
475,192,102312,1,0,0:0:0:0:
182,192,102753,1,0,0:0:0:0:
256,192,102974,1,0,0:0:0:0:
402,192,103194,128,0,103636:0:0:0:0:
36,192,103194,1,0,0:0:0:0:
109,192,103636,128,0,104077:0:0:0:0:
256,192,103856,1,0,0:0:0:0:
402,192,104077,128,0,104739:0:0:0:0:
256,192,104297,1,0,0:0:0:0:
182,192,104739,128,0,106283:0:0:0:0:
36,192,104739,1,0,0:0:0:0:
256,192,105180,1,0,0:0:0:0:
475,192,105400,1,0,0:0:0:0:
402,192,105842,1,0,0:0:0:0:
256,192,106283,1,0,0:0:0:0:
109,192,106724,1,0,0:0:0:0:
475,192,106724,128,0,107165:0:0:0:0:
329,192,107165,128,0,107606:0:0:0:0:
36,192,107606,128,0,111356:0:0:0:0:
182,192,107827,1,0,0:0:0:0:
329,192,108047,1,0,0:0:0:0:
182,192,108268,1,0,0:0:0:0:
329,192,108489,1,0,0:0:0:0:
475,192,108930,1,0,0:0:0:0:
329,192,109150,1,0,0:0:0:0:
182,192,109371,1,0,0:0:0:0:
475,192,109812,1,0,0:0:0:0:
475,192,110033,1,0,0:0:0:0:
329,192,110253,1,0,0:0:0:0:
182,192,110474,1,0,0:0:0:0:
329,192,110694,1,0,0:0:0:0:
182,192,110915,1,0,0:0:0:0:
402,192,111356,1,0,0:0:0:0:
402,192,111577,1,0,0:0:0:0:
109,192,111797,1,0,0:0:0:0:
402,192,112018,1,0,0:0:0:0:
256,192,112459,1,0,0:0:0:0:
402,192,112680,1,0,0:0:0:0:
109,192,112900,1,0,0:0:0:0:
402,192,113342,1,0,0:0:0:0:
256,192,113562,1,0,0:0:0:0:
36,192,113783,128,0,114224:0:0:0:0:
109,192,113783,1,0,0:0:0:0:
475,192,114003,1,0,0:0:0:0:
329,192,114003,1,0,0:0:0:0:
182,192,114224,128,0,114665:0:0:0:0:
329,192,114444,1,0,0:0:0:0:
36,192,114444,1,0,0:0:0:0:
475,192,114665,128,0,118415:0:0:0:0:
36,192,114886,1,0,0:0:0:0:
36,192,115106,1,0,0:0:0:0:
182,192,115327,1,0,0:0:0:0:
36,192,115547,1,0,0:0:0:0:
36,192,115989,1,0,0:0:0:0:
182,192,116209,1,0,0:0:0:0:
329,192,116430,1,0,0:0:0:0:
182,192,116871,1,0,0:0:0:0:
329,192,117092,1,0,0:0:0:0:
36,192,117312,1,0,0:0:0:0:
182,192,117533,1,0,0:0:0:0:
329,192,117753,1,0,0:0:0:0:
182,192,117974,1,0,0:0:0:0:
402,192,118415,1,0,0:0:0:0:
109,192,118636,1,0,0:0:0:0:
256,192,118856,1,0,0:0:0:0:
402,192,119077,1,0,0:0:0:0:
402,192,119518,1,0,0:0:0:0:
256,192,119739,1,0,0:0:0:0:
109,192,119959,1,0,0:0:0:0:
402,192,120400,1,0,0:0:0:0:
402,192,120621,1,0,0:0:0:0:
182,192,120731,1,0,0:0:0:0:
402,192,120842,1,0,0:0:0:0:
182,192,120952,1,0,0:0:0:0:
402,192,121062,1,0,0:0:0:0:
329,192,121283,1,0,0:0:0:0:
109,192,121503,1,0,0:0:0:0:
402,192,121724,1,0,0:0:0:0:
182,192,121944,128,0,123709:0:0:0:0:
