osu file format v14

[General]
AudioFilename: audio.mp3
AudioLeadIn: 0
PreviewTime: 43888
Countdown: 0
SampleSet: Normal
StackLeniency: 0.7
Mode: 1
LetterboxInBreaks: 0
WidescreenStoryboard: 1

[Editor]
Bookmarks: 2733,13705,32905,43876,54848,65819,76791,76961,87762,98734,109705,120676,134391
DistanceSpacing: 0.8
BeatDivisor: 4
GridSize: 32
TimelineZoom: 1.399999

[Metadata]
Title:HELIX (Edit ver.)
TitleUnicode:HELIX (Edit ver.)
Artist:ESTi
ArtistUnicode:ESTi
Creator:hikikochan
Version:Muzukashii
Source:O2Jam Analog
Tags:jinbae park mobile u brutal dub and bloody bass ios android lks studiosis
BeatmapID:1411924
BeatmapSetID:625729

[Difficulty]
HPDrainRate:5
CircleSize:2
OverallDifficulty:5
ApproachRate:5
SliderMultiplier:1.4
SliderTickRate:1

[Events]
//Background and Video events
0,0,"HELIX.jpg",0,100
//Break Periods
//Storyboard Layer 0 (Background)
//Storyboard Layer 1 (Fail)
//Storyboard Layer 2 (Pass)
//Storyboard Layer 3 (Foreground)
//Storyboard Sound Samples

[TimingPoints]
2733,342.857142857143,4,1,0,30,1,0
2733,-100,4,2,1,100,0,0
2818,-100,4,1,0,30,0,0
3333,-100,4,2,1,100,0,0
3504,-100,4,1,0,30,0,0
4018,-100,4,2,1,100,0,0
4190,-100,4,1,0,30,0,0
4704,-100,4,2,1,100,0,0
4875,-100,4,1,0,30,0,0
5390,-100,4,2,1,100,0,0
5561,-100,4,1,0,30,0,0
6075,-100,4,2,1,100,0,0
6247,-100,4,1,0,30,0,0
6761,-100,4,2,1,100,0,0
6933,-100,4,1,0,30,0,0
7447,-100,4,2,1,100,0,0
7618,-100,4,1,0,30,0,0
8133,-100,4,2,1,100,0,0
8304,-100,4,1,0,30,0,0
8818,-100,4,2,1,100,0,0
8990,-100,4,1,0,30,0,0
9504,-100,4,2,1,100,0,0
9675,-100,4,1,0,30,0,0
10190,-100,4,2,1,100,0,0
10361,-100,4,1,0,30,0,0
10875,-100,4,1,0,80,0,0
13704,-100,4,1,0,95,0,0
97361,-100,4,1,0,40,0,0
98047,-100,4,1,0,100,0,0
98733,-100,4,1,0,90,0,0
120675,-100,4,1,0,100,0,1
134390,-100,4,1,0,5,0,0

[HitObjects]
256,192,2732,5,4,0:0:0:0:
256,192,3418,1,0,0:0:0:0:
256,192,3761,1,0,0:0:0:0:
256,192,4104,1,8,0:0:0:0:
256,192,4790,1,8,0:0:0:0:
256,192,5133,1,8,0:0:0:0:
256,192,5475,1,0,0:0:0:0:
256,192,6161,1,0,0:0:0:0:
256,192,6504,1,8,0:0:0:0:
256,192,6847,1,0,0:0:0:0:
256,192,7533,1,0,0:0:0:0:
256,192,8218,1,8,0:0:0:0:
256,192,8904,1,8,0:0:0:0:
256,192,9247,1,8,0:0:0:0:
256,192,9590,1,0,0:0:0:0:
256,192,10275,1,8,0:0:0:0:
256,192,10618,1,0,0:0:0:0:
256,192,10961,1,8,0:0:0:0:
256,192,11133,1,8,0:0:0:0:
256,192,11304,1,8,0:0:0:0:
256,192,11647,1,0,0:0:0:0:
256,192,11818,1,0,0:0:0:0:
256,192,11990,1,0,0:0:0:0:
256,192,12333,1,8,0:0:0:0:
256,192,12675,1,8,0:0:0:0:
256,192,12847,1,8,0:0:0:0:
256,192,13018,1,0,0:0:0:0:
256,192,13104,1,0,0:0:0:0:
256,192,13190,1,0,0:0:0:0:
256,192,13361,1,8,0:0:0:0:
256,192,13704,1,4,0:0:0:0:
256,192,14047,1,8,0:0:0:0:
256,192,14561,1,0,0:0:0:0:
256,192,14733,1,8,0:0:0:0:
256,192,15075,1,0,0:0:0:0:
256,192,15418,1,8,0:0:0:0:
256,192,15590,1,8,0:0:0:0:
256,192,15761,1,0,0:0:0:0:
256,192,16104,1,8,0:0:0:0:
256,192,16447,1,0,0:0:0:0:
256,192,16790,1,8,0:0:0:0:
256,192,17304,1,0,0:0:0:0:
256,192,17475,1,0,0:0:0:0:
256,192,17818,1,8,0:0:0:0:
256,192,18161,1,0,0:0:0:0:
256,192,18333,1,0,0:0:0:0:
256,192,18504,1,8,0:0:0:0:
256,192,18847,1,8,0:0:0:0:
256,192,19190,1,0,0:0:0:0:
256,192,19533,1,8,0:0:0:0:
256,192,20047,1,0,0:0:0:0:
256,192,20218,1,8,0:0:0:0:
256,192,20561,1,0,0:0:0:0:
256,192,20904,1,8,0:0:0:0:
256,192,21075,1,0,0:0:0:0:
256,192,21247,1,8,0:0:0:0:
256,192,21590,1,8,0:0:0:0:
256,192,21933,1,0,0:0:0:0:
256,192,22275,1,8,0:0:0:0:
256,192,22790,1,0,0:0:0:0:
256,192,22961,1,0,0:0:0:0:
256,192,23304,1,8,0:0:0:0:
256,192,23647,1,0,0:0:0:0:
256,192,23990,1,8,0:0:0:0:
256,192,24675,1,0,0:0:0:0:
256,192,25018,1,8,0:0:0:0:
256,192,25533,1,0,0:0:0:0:
256,192,25704,1,8,0:0:0:0:
256,192,26047,1,0,0:0:0:0:
256,192,26390,1,0,0:0:0:0:
256,192,26733,1,8,0:0:0:0:
256,192,26904,1,0,0:0:0:0:
256,192,27075,1,8,0:0:0:0:
256,192,27418,1,0,0:0:0:0:
256,192,27761,1,8,0:0:0:0:
256,192,28275,1,0,0:0:0:0:
256,192,28447,1,8,0:0:0:0:
256,192,28790,1,0,0:0:0:0:
256,192,29133,1,0,0:0:0:0:
256,192,29475,1,8,0:0:0:0:
256,192,29647,1,0,0:0:0:0:
256,192,29818,1,8,0:0:0:0:
256,192,30161,1,0,0:0:0:0:
256,192,30504,1,0,0:0:0:0:
256,192,30675,1,0,0:0:0:0:
256,192,30847,1,0,0:0:0:0:
256,192,30933,1,0,0:0:0:0:
256,192,31018,1,0,0:0:0:0:
256,192,31190,1,0,0:0:0:0:
256,192,31361,1,0,0:0:0:0:
256,192,31704,1,12,0:0:0:0:
256,192,32047,1,12,0:0:0:0:
256,192,32904,1,4,0:0:0:0:
256,192,33247,1,8,0:0:0:0:
256,192,33418,1,0,0:0:0:0:
256,192,33761,1,0,0:0:0:0:
256,192,33933,1,8,0:0:0:0:
256,192,34275,1,0,0:0:0:0:
256,192,34618,1,0,0:0:0:0:
256,192,34790,1,0,0:0:0:0:
256,192,34961,1,8,0:0:0:0:
256,192,35304,1,8,0:0:0:0:
256,192,35647,1,0,0:0:0:0:
256,192,35990,1,8,0:0:0:0:
256,192,36161,1,0,0:0:0:0:
256,192,36504,1,0,0:0:0:0:
256,192,36675,1,8,0:0:0:0:
256,192,37018,1,0,0:0:0:0:
256,192,37190,1,8,0:0:0:0:
256,192,37361,1,0,0:0:0:0:
256,192,37704,1,8,0:0:0:0:
256,192,38390,1,0,0:0:0:0:
256,192,38733,1,8,0:0:0:0:
256,192,38904,1,0,0:0:0:0:
256,192,39247,1,0,0:0:0:0:
256,192,39418,1,8,0:0:0:0:
256,192,39761,1,0,0:0:0:0:
256,192,40104,1,8,0:0:0:0:
256,192,40275,1,0,0:0:0:0:
256,192,40447,1,8,0:0:0:0:
256,192,40790,1,8,0:0:0:0:
256,192,41133,1,0,0:0:0:0:
256,192,41475,1,8,0:0:0:0:
256,192,41647,1,8,0:0:0:0:
256,192,41990,1,0,0:0:0:0:
256,192,42161,1,0,0:0:0:0:
256,192,42504,1,8,0:0:0:0:
256,192,42847,1,0,0:0:0:0:
256,192,43018,1,0,0:0:0:0:
256,192,43190,1,8,0:0:0:0:
256,192,43361,1,8,0:0:0:0:
256,192,43447,1,8,0:0:0:0:
256,192,43533,1,8,0:0:0:0:
256,192,43875,1,4,0:0:0:0:
256,192,44390,1,0,0:0:0:0:
256,192,44561,1,8,0:0:0:0:
256,192,44733,1,8,0:0:0:0:
256,192,44904,1,8,0:0:0:0:
256,192,45247,1,0,0:0:0:0:
256,192,45418,1,0,0:0:0:0:
256,192,45590,1,8,0:0:0:0:
256,192,45761,1,0,0:0:0:0:
256,192,45933,1,8,0:0:0:0:
256,192,46275,1,8,0:0:0:0:
256,192,46618,1,0,0:0:0:0:
256,192,47133,1,0,0:0:0:0:
256,192,47304,1,8,0:0:0:0:
256,192,47475,1,8,0:0:0:0:
256,192,47647,1,8,0:0:0:0:
256,192,47990,1,0,0:0:0:0:
256,192,48161,1,8,0:0:0:0:
256,192,48333,1,0,0:0:0:0:
256,192,48504,1,0,0:0:0:0:
256,192,48675,1,8,0:0:0:0:
256,192,49018,1,8,0:0:0:0:
256,192,49190,1,8,0:0:0:0:
256,192,49361,1,0,0:0:0:0:
256,192,49875,1,0,0:0:0:0:
256,192,50047,1,8,0:0:0:0:
256,192,50218,1,8,0:0:0:0:
256,192,50390,1,8,0:0:0:0:
256,192,50733,1,0,0:0:0:0:
256,192,50904,1,8,0:0:0:0:
256,192,51075,1,8,0:0:0:0:
256,192,51247,1,0,0:0:0:0:
256,192,51418,1,8,0:0:0:0:
256,192,51761,1,8,0:0:0:0:
256,192,52104,1,0,0:0:0:0:
256,192,52447,1,8,0:0:0:0:
256,192,52618,1,8,0:0:0:0:
256,192,52961,1,0,0:0:0:0:
256,192,53133,1,8,0:0:0:0:
256,192,53475,1,8,0:0:0:0:
256,192,53647,1,8,0:0:0:0:
256,192,53818,1,0,0:0:0:0:
256,192,53990,1,0,0:0:0:0:
256,192,54161,1,8,0:0:0:0:
256,192,54333,1,8,0:0:0:0:
256,192,54418,1,8,0:0:0:0:
256,192,54504,1,8,0:0:0:0:
256,192,54847,1,4,0:0:0:0:
256,192,55190,1,8,0:0:0:0:
256,192,55361,1,0,0:0:0:0:
256,192,55704,1,0,0:0:0:0:
256,192,55875,1,8,0:0:0:0:
256,192,56218,1,0,0:0:0:0:
256,192,56561,1,8,0:0:0:0:
256,192,56733,1,8,0:0:0:0:
256,192,56904,1,0,0:0:0:0:
256,192,57075,1,0,0:0:0:0:
256,192,57247,1,8,0:0:0:0:
256,192,57590,1,0,0:0:0:0:
256,192,57933,1,8,0:0:0:0:
256,192,58104,1,0,0:0:0:0:
256,192,58447,1,0,0:0:0:0:
256,192,58618,1,8,0:0:0:0:
256,192,58961,1,0,0:0:0:0:
256,192,59304,1,8,0:0:0:0:
256,192,59475,1,8,0:0:0:0:
256,192,59647,1,0,0:0:0:0:
256,192,59990,1,0,0:0:0:0:
256,192,60333,1,8,0:0:0:0:
256,192,60675,1,8,0:0:0:0:
256,192,60847,1,8,0:0:0:0:
256,192,61190,1,0,0:0:0:0:
256,192,61361,1,8,0:0:0:0:
256,192,61704,1,0,0:0:0:0:
256,192,62047,1,8,0:0:0:0:
256,192,62218,1,8,0:0:0:0:
256,192,62390,1,0,0:0:0:0:
256,192,62561,1,0,0:0:0:0:
256,192,62733,1,8,0:0:0:0:
256,192,63075,1,0,0:0:0:0:
256,192,63418,1,8,0:0:0:0:
256,192,63590,1,8,0:0:0:0:
256,192,63933,1,0,0:0:0:0:
256,192,64104,1,8,0:0:0:0:
256,192,64447,1,8,0:0:0:0:
256,192,64618,1,8,0:0:0:0:
256,192,64704,1,8,0:0:0:0:
256,192,64790,1,8,0:0:0:0:
256,192,64961,1,8,0:0:0:0:
256,192,65133,1,8,0:0:0:0:
256,192,65818,1,4,0:0:0:0:
256,192,66161,1,8,0:0:0:0:
256,192,66333,1,0,0:0:0:0:
256,192,66675,1,0,0:0:0:0:
256,192,66847,1,8,0:0:0:0:
256,192,67190,1,0,0:0:0:0:
256,192,67533,1,8,0:0:0:0:
256,192,67704,1,8,0:0:0:0:
256,192,67875,1,0,0:0:0:0:
256,192,68047,1,0,0:0:0:0:
256,192,68218,1,8,0:0:0:0:
256,192,68561,1,0,0:0:0:0:
256,192,68904,1,8,0:0:0:0:
256,192,69075,1,0,0:0:0:0:
256,192,69418,1,0,0:0:0:0:
256,192,69590,1,8,0:0:0:0:
256,192,69933,1,0,0:0:0:0:
256,192,70275,1,8,0:0:0:0:
256,192,70447,1,0,0:0:0:0:
256,192,70618,1,8,0:0:0:0:
256,192,70790,1,0,0:0:0:0:
256,192,70961,1,0,0:0:0:0:
256,192,71304,1,8,0:0:0:0:
256,192,71647,1,8,0:0:0:0:
256,192,71818,1,8,0:0:0:0:
256,192,72161,1,0,0:0:0:0:
256,192,72333,1,8,0:0:0:0:
256,192,72675,1,0,0:0:0:0:
256,192,73018,1,8,0:0:0:0:
256,192,73190,1,8,0:0:0:0:
256,192,73361,1,0,0:0:0:0:
256,192,73533,1,0,0:0:0:0:
256,192,73704,1,8,0:0:0:0:
256,192,74047,1,0,0:0:0:0:
256,192,74390,1,8,0:0:0:0:
256,192,74561,1,8,0:0:0:0:
256,192,74904,1,0,0:0:0:0:
256,192,75075,1,8,0:0:0:0:
256,192,75418,1,8,0:0:0:0:
256,192,75590,1,8,0:0:0:0:
256,192,75761,1,0,0:0:0:0:
256,192,75933,1,0,0:0:0:0:
256,192,76104,1,8,0:0:0:0:
256,192,76447,1,8,0:0:0:0:
256,192,76790,1,4,0:0:0:0:
256,192,77133,1,8,0:0:0:0:
256,192,77818,1,0,0:0:0:0:
256,192,78161,1,8,0:0:0:0:
256,192,78333,1,8,0:0:0:0:
256,192,78675,1,0,0:0:0:0:
256,192,78847,1,8,0:0:0:0:
256,192,79190,1,0,0:0:0:0:
256,192,79533,1,8,0:0:0:0:
256,192,79875,1,8,0:0:0:0:
256,192,80390,1,0,0:0:0:0:
256,192,80561,1,0,0:0:0:0:
256,192,80904,1,8,0:0:0:0:
256,192,81075,1,8,0:0:0:0:
256,192,81418,1,0,0:0:0:0:
256,192,81590,1,8,0:0:0:0:
256,192,81933,1,8,0:0:0:0:
256,192,82275,1,0,0:0:0:0:
256,192,82618,1,8,0:0:0:0:
256,192,83133,1,0,0:0:0:0:
256,192,83304,1,0,0:0:0:0:
256,192,83647,1,8,0:0:0:0:
256,192,83818,1,8,0:0:0:0:
256,192,84161,1,0,0:0:0:0:
256,192,84333,1,8,0:0:0:0:
256,192,84675,1,0,0:0:0:0:
256,192,85018,1,8,0:0:0:0:
256,192,85361,1,0,0:0:0:0:
256,192,85875,1,0,0:0:0:0:
256,192,86047,1,8,0:0:0:0:
256,192,86390,1,8,0:0:0:0:
256,192,86733,1,0,0:0:0:0:
256,192,86904,1,0,0:0:0:0:
256,192,87075,1,8,0:0:0:0:
256,192,87247,1,8,0:0:0:0:
256,192,87333,1,8,0:0:0:0:
256,192,87418,1,8,0:0:0:0:
256,192,87761,1,4,0:0:0:0:
256,192,88447,1,8,0:0:0:0:
256,192,88618,1,8,0:0:0:0:
256,192,88790,1,8,0:0:0:0:
256,192,89133,1,0,0:0:0:0:
256,192,89475,1,0,0:0:0:0:
256,192,89647,1,0,0:0:0:0:
256,192,89818,1,8,0:0:0:0:
256,192,89990,1,0,0:0:0:0:
256,192,90161,1,8,0:0:0:0:
256,192,90504,1,0,0:0:0:0:
256,192,90847,1,8,0:0:0:0:
256,192,91190,1,8,0:0:0:0:
256,192,91361,1,8,0:0:0:0:
256,192,91533,1,0,0:0:0:0:
256,192,91875,1,8,0:0:0:0:
256,192,92218,1,8,0:0:0:0:
256,192,92390,1,8,0:0:0:0:
256,192,92561,1,0,0:0:0:0:
256,192,92733,1,0,0:0:0:0:
256,192,92904,1,8,0:0:0:0:
256,192,93247,1,0,0:0:0:0:
256,192,93590,1,0,0:0:0:0:
256,192,93933,1,8,0:0:0:0:
256,192,94104,1,0,0:0:0:0:
256,192,94275,1,8,0:0:0:0:
256,192,94618,1,0,0:0:0:0:
256,192,94961,1,0,0:0:0:0:
256,192,95133,1,0,0:0:0:0:
256,192,95304,1,8,0:0:0:0:
256,192,95647,1,8,0:0:0:0:
256,192,95818,1,8,0:0:0:0:
256,192,95990,1,0,0:0:0:0:
256,192,96333,1,0,0:0:0:0:
256,192,96504,1,0,0:0:0:0:
256,192,96675,1,0,0:0:0:0:
256,192,96761,1,0,0:0:0:0:
256,192,96847,1,0,0:0:0:0:
256,192,97018,1,0,0:0:0:0:
256,192,97190,1,0,0:0:0:0:
256,192,97361,2,0,L|352:192,3,70
256,192,98047,1,12,0:0:0:0:
256,192,98733,1,4,0:0:0:0:
256,192,99075,1,0,0:0:0:0:
256,192,99418,1,8,0:0:0:0:
256,192,99647,1,0,0:0:0:0:
256,192,99761,1,8,0:0:0:0:
256,192,100104,1,8,0:0:0:0:
256,192,100447,1,0,0:0:0:0:
256,192,100790,1,8,0:0:0:0:
256,192,101018,1,0,0:0:0:0:
256,192,101133,1,8,0:0:0:0:
256,192,101475,1,0,0:0:0:0:
256,192,101818,1,0,0:0:0:0:
256,192,102161,1,8,0:0:0:0:
256,192,102504,1,8,0:0:0:0:
256,192,102618,1,8,0:0:0:0:
256,192,102733,1,8,0:0:0:0:
256,192,102847,1,8,0:0:0:0:
256,192,103190,1,0,0:0:0:0:
256,192,103418,1,0,0:0:0:0:
256,192,103533,1,8,0:0:0:0:
256,192,104218,1,0,0:0:0:0:
256,192,104561,1,0,0:0:0:0:
256,192,104904,1,8,0:0:0:0:
256,192,105133,1,0,0:0:0:0:
256,192,105247,1,8,0:0:0:0:
256,192,105590,1,0,0:0:0:0:
256,192,105933,1,0,0:0:0:0:
256,192,106275,1,8,0:0:0:0:
256,192,106504,1,8,0:0:0:0:
256,192,106618,1,0,0:0:0:0:
256,192,106961,1,0,0:0:0:0:
256,192,107304,1,8,0:0:0:0:
256,192,107418,1,8,0:0:0:0:
256,192,107533,1,8,0:0:0:0:
256,192,107647,1,8,0:0:0:0:
256,192,107990,1,0,0:0:0:0:
256,192,108104,1,0,0:0:0:0:
256,192,108218,1,0,0:0:0:0:
256,192,108333,1,0,0:0:0:0:
256,192,108675,1,0,0:0:0:0:
256,192,108790,1,0,0:0:0:0:
256,192,108904,1,0,0:0:0:0:
256,192,109018,1,8,0:0:0:0:
256,192,109704,1,0,0:0:0:0:
256,192,110047,1,0,0:0:0:0:
256,192,110390,1,8,0:0:0:0:
256,192,110618,1,0,0:0:0:0:
256,192,110733,1,8,0:0:0:0:
256,192,111075,1,8,0:0:0:0:
256,192,111418,1,0,0:0:0:0:
256,192,111761,1,8,0:0:0:0:
256,192,111990,1,0,0:0:0:0:
256,192,112104,1,8,0:0:0:0:
256,192,112447,1,0,0:0:0:0:
256,192,112790,1,0,0:0:0:0:
256,192,113133,1,8,0:0:0:0:
256,192,113475,1,8,0:0:0:0:
256,192,113590,1,8,0:0:0:0:
256,192,113704,1,8,0:0:0:0:
256,192,113818,1,8,0:0:0:0:
256,192,114161,1,0,0:0:0:0:
256,192,114333,1,0,0:0:0:0:
256,192,114504,1,8,0:0:0:0:
256,192,115190,1,0,0:0:0:0:
256,192,115533,1,0,0:0:0:0:
256,192,115875,1,8,0:0:0:0:
256,192,116104,1,8,0:0:0:0:
256,192,116218,1,0,0:0:0:0:
256,192,116561,1,8,0:0:0:0:
256,192,116904,1,8,0:0:0:0:
256,192,117247,1,0,0:0:0:0:
256,192,117475,1,0,0:0:0:0:
256,192,117590,1,8,0:0:0:0:
256,192,117933,1,8,0:0:0:0:
256,192,118275,1,8,0:0:0:0:
256,192,118618,1,0,0:0:0:0:
256,192,118961,1,0,0:0:0:0:
256,192,119304,1,8,0:0:0:0:
256,192,119647,1,8,0:0:0:0:
256,192,119818,1,8,0:0:0:0:
256,192,119990,1,0,0:0:0:0:
256,192,120075,1,0,0:0:0:0:
256,192,120161,1,0,0:0:0:0:
256,192,120333,1,8,0:0:0:0:
256,192,120675,1,4,0:0:0:0:
256,192,121190,1,0,0:0:0:0:
256,192,121361,1,8,0:0:0:0:
256,192,121533,1,8,0:0:0:0:
256,192,121704,1,8,0:0:0:0:
256,192,122047,1,0,0:0:0:0:
256,192,122218,1,0,0:0:0:0:
256,192,122390,1,8,0:0:0:0:
256,192,122561,1,0,0:0:0:0:
256,192,122733,1,8,0:0:0:0:
256,192,123075,1,8,0:0:0:0:
256,192,123418,1,0,0:0:0:0:
256,192,123933,1,0,0:0:0:0:
256,192,124104,1,8,0:0:0:0:
256,192,124275,1,8,0:0:0:0:
256,192,124447,1,0,0:0:0:0:
256,192,124790,1,8,0:0:0:0:
256,192,124961,1,8,0:0:0:0:
256,192,125133,1,0,0:0:0:0:
256,192,125304,1,0,0:0:0:0:
256,192,125475,1,8,0:0:0:0:
256,192,125818,1,8,0:0:0:0:
256,192,126161,1,0,0:0:0:0:
256,192,126675,1,0,0:0:0:0:
256,192,126847,1,8,0:0:0:0:
256,192,127018,1,8,0:0:0:0:
256,192,127190,1,8,0:0:0:0:
256,192,127533,1,0,0:0:0:0:
256,192,127704,1,8,0:0:0:0:
256,192,127875,1,0,0:0:0:0:
256,192,128047,1,0,0:0:0:0:
256,192,128218,1,8,0:0:0:0:
256,192,128561,1,0,0:0:0:0:
256,192,128733,1,0,0:0:0:0:
256,192,128904,1,8,0:0:0:0:
256,192,129418,1,0,0:0:0:0:
256,192,129590,1,8,0:0:0:0:
256,192,129761,1,8,0:0:0:0:
256,192,129933,1,0,0:0:0:0:
256,192,130275,1,8,0:0:0:0:
256,192,130447,1,0,0:0:0:0:
256,192,130618,1,8,0:0:0:0:
256,192,130790,1,8,0:0:0:0:
256,192,130961,1,0,0:0:0:0:
256,192,131304,1,8,0:0:0:0:
256,192,131647,1,0,0:0:0:0:
256,192,131990,1,8,0:0:0:0:
256,192,132161,1,8,0:0:0:0:
256,192,132504,1,0,0:0:0:0:
256,192,132675,1,8,0:0:0:0:
256,192,133018,1,8,0:0:0:0:
256,192,133361,1,8,0:0:0:0:
256,192,133533,1,8,0:0:0:0:
256,192,133704,1,8,0:0:0:0:
256,192,133790,1,8,0:0:0:0:
256,192,133875,1,8,0:0:0:0:
256,192,134047,1,8,0:0:0:0:
256,192,134218,1,8,0:0:0:0:
256,192,134390,12,0,138504,0:0:0:0:
