osu file format v14

[General]
AudioFilename: audio.mp3
AudioLeadIn: 0
PreviewTime: 43888
Countdown: 0
SampleSet: Normal
StackLeniency: 0.7
Mode: 1
LetterboxInBreaks: 0
WidescreenStoryboard: 1

[Editor]
Bookmarks: 2733,13705,32905,43876,54848,65819,76791,87762,98734,109705,120676,134391
DistanceSpacing: 0.8
BeatDivisor: 2
GridSize: 32
TimelineZoom: 1.299999

[Metadata]
Title:HELIX (Edit ver.)
TitleUnicode:HELIX (Edit ver.)
Artist:ESTi
ArtistUnicode:ESTi
Creator:hikikochan
Version:Kantan
Source:O2Jam Analog
Tags:jinbae park mobile u brutal dub and bloody bass ios android lks studiosis
BeatmapID:1392095
BeatmapSetID:625729

[Difficulty]
HPDrainRate:7
CircleSize:2
OverallDifficulty:4
ApproachRate:5
SliderMultiplier:1.4
SliderTickRate:1

[Events]
//Background and Video events
0,0,"HELIX.jpg",0,100
//Break Periods
//Storyboard Layer 0 (Background)
//Storyboard Layer 1 (Fail)
//Storyboard Layer 2 (Pass)
//Storyboard Layer 3 (Foreground)
//Storyboard Sound Samples

[TimingPoints]
2733,342.857142857143,4,1,0,30,1,0
2733,-100,4,2,1,100,0,0
2818,-100,4,1,0,30,0,0
4018,-100,4,2,1,100,0,0
4190,-100,4,1,0,30,0,0
5390,-100,4,2,1,100,0,0
5561,-100,4,1,0,30,0,0
6075,-100,4,2,1,100,0,0
6247,-100,4,1,0,30,0,0
6761,-100,4,2,1,100,0,0
6933,-100,4,1,0,30,0,0
8133,-100,4,2,1,100,0,0
8304,-100,4,1,0,30,0,0
9504,-100,4,2,1,100,0,0
9675,-100,4,1,0,30,0,0
10875,-100,4,1,0,80,0,0
13704,-100,4,1,0,95,0,0
97361,-100,4,1,0,40,0,0
98733,-100,4,1,0,90,0,0
120675,-100,4,1,0,100,0,1
134390,-100,4,1,0,5,0,0

[HitObjects]
256,192,2732,5,4,0:0:0:0:
256,192,4104,1,8,0:0:0:0:
256,192,5475,1,0,0:0:0:0:
256,192,6161,1,0,0:0:0:0:
256,192,6847,1,8,0:0:0:0:
256,192,8218,1,8,0:0:0:0:
256,192,9590,1,0,0:0:0:0:
256,192,10961,1,8,0:0:0:0:
256,192,11647,1,0,0:0:0:0:
256,192,12333,1,8,0:0:0:0:
256,192,12675,1,8,0:0:0:0:
256,192,13018,1,8,0:0:0:0:
256,192,13704,1,4,0:0:0:0:
256,192,14733,1,8,0:0:0:0:
256,192,15075,1,0,0:0:0:0:
256,192,15761,1,8,0:0:0:0:
256,192,16447,1,0,0:0:0:0:
256,192,17133,1,0,0:0:0:0:
256,192,17475,1,0,0:0:0:0:
256,192,17818,1,8,0:0:0:0:
256,192,19190,1,0,0:0:0:0:
256,192,20218,1,8,0:0:0:0:
256,192,20561,1,0,0:0:0:0:
256,192,21247,1,8,0:0:0:0:
256,192,21933,1,0,0:0:0:0:
256,192,22618,1,0,0:0:0:0:
256,192,23304,1,8,0:0:0:0:
256,192,23647,1,8,0:0:0:0:
256,192,23990,1,8,0:0:0:0:
256,192,24675,1,0,0:0:0:0:
256,192,25704,1,8,0:0:0:0:
256,192,26047,1,0,0:0:0:0:
256,192,26733,1,8,0:0:0:0:
256,192,27418,1,0,0:0:0:0:
256,192,28790,1,0,0:0:0:0:
256,192,29475,1,8,0:0:0:0:
256,192,30161,1,0,0:0:0:0:
256,192,30504,1,0,0:0:0:0:
256,192,30847,1,0,0:0:0:0:
256,192,31190,1,0,0:0:0:0:
256,192,31704,1,12,0:0:0:0:
256,192,32047,1,12,0:0:0:0:
256,192,32904,1,4,0:0:0:0:
256,192,34275,1,0,0:0:0:0:
256,192,34961,1,8,0:0:0:0:
256,192,35647,1,0,0:0:0:0:
256,192,37018,1,8,0:0:0:0:
256,192,37704,1,8,0:0:0:0:
256,192,38390,1,0,0:0:0:0:
256,192,39761,1,0,0:0:0:0:
256,192,40447,1,8,0:0:0:0:
256,192,41133,1,0,0:0:0:0:
256,192,41818,1,0,0:0:0:0:
256,192,42504,1,8,0:0:0:0:
256,192,42847,1,8,0:0:0:0:
256,192,43190,1,8,0:0:0:0:
256,192,43875,1,4,0:0:0:0:
256,192,45247,1,0,0:0:0:0:
256,192,45590,1,0,0:0:0:0:
256,192,45933,1,8,0:0:0:0:
256,192,46618,1,0,0:0:0:0:
256,192,47304,1,0,0:0:0:0:
256,192,47990,1,8,0:0:0:0:
256,192,48675,1,8,0:0:0:0:
256,192,49018,1,8,0:0:0:0:
256,192,49361,1,0,0:0:0:0:
256,192,50733,1,8,0:0:0:0:
256,192,51075,1,0,0:0:0:0:
256,192,51418,1,8,0:0:0:0:
256,192,52104,1,0,0:0:0:0:
256,192,52790,1,0,0:0:0:0:
256,192,53475,1,8,0:0:0:0:
256,192,53818,1,8,0:0:0:0:
256,192,54161,1,8,0:0:0:0:
256,192,54847,1,4,0:0:0:0:
256,192,55875,1,8,0:0:0:0:
256,192,56218,1,0,0:0:0:0:
256,192,56904,1,8,0:0:0:0:
256,192,57590,1,0,0:0:0:0:
256,192,58961,1,0,0:0:0:0:
256,192,59647,1,0,0:0:0:0:
256,192,60333,1,8,0:0:0:0:
256,192,61361,1,0,0:0:0:0:
256,192,61704,1,8,0:0:0:0:
256,192,62390,1,0,0:0:0:0:
256,192,63075,1,8,0:0:0:0:
256,192,64447,1,8,0:0:0:0:
256,192,64790,1,8,0:0:0:0:
256,192,65133,1,8,0:0:0:0:
256,192,65818,1,4,0:0:0:0:
256,192,66847,1,8,0:0:0:0:
256,192,67190,1,0,0:0:0:0:
256,192,67875,1,8,0:0:0:0:
256,192,68561,1,0,0:0:0:0:
256,192,69933,1,0,0:0:0:0:
256,192,70618,1,0,0:0:0:0:
256,192,71304,1,8,0:0:0:0:
256,192,72333,1,0,0:0:0:0:
256,192,72675,1,8,0:0:0:0:
256,192,73361,1,0,0:0:0:0:
256,192,74047,1,8,0:0:0:0:
256,192,75075,1,0,0:0:0:0:
256,192,75418,1,8,0:0:0:0:
256,192,76104,1,8,0:0:0:0:
256,192,76447,1,8,0:0:0:0:
256,192,76790,1,4,0:0:0:0:
256,192,78161,1,8,0:0:0:0:
256,192,78847,1,0,0:0:0:0:
256,192,79533,1,8,0:0:0:0:
256,192,80561,1,0,0:0:0:0:
256,192,80904,1,8,0:0:0:0:
256,192,81590,1,8,0:0:0:0:
256,192,82275,1,0,0:0:0:0:
256,192,83647,1,0,0:0:0:0:
256,192,84333,1,8,0:0:0:0:
256,192,85018,1,0,0:0:0:0:
256,192,86047,1,0,0:0:0:0:
256,192,86390,1,8,0:0:0:0:
256,192,86733,1,8,0:0:0:0:
256,192,87075,1,8,0:0:0:0:
256,192,87761,1,4,0:0:0:0:
256,192,88790,1,8,0:0:0:0:
256,192,89133,1,0,0:0:0:0:
256,192,89818,1,8,0:0:0:0:
256,192,90504,1,0,0:0:0:0:
256,192,91533,1,8,0:0:0:0:
256,192,91875,1,0,0:0:0:0:
256,192,92561,1,0,0:0:0:0:
256,192,92904,1,0,0:0:0:0:
256,192,93247,1,8,0:0:0:0:
256,192,94275,1,0,0:0:0:0:
256,192,94618,1,8,0:0:0:0:
256,192,95304,1,8,0:0:0:0:
256,192,95990,1,0,0:0:0:0:
256,192,96333,1,0,0:0:0:0:
256,192,96675,1,0,0:0:0:0:
256,192,97018,1,0,0:0:0:0:
256,192,97361,2,0,L|416:192,2,140
256,192,98733,1,4,0:0:0:0:
256,192,100104,1,8,0:0:0:0:
256,192,100790,1,8,0:0:0:0:
256,192,101475,1,0,0:0:0:0:
256,192,102161,1,0,0:0:0:0:
256,192,102504,1,0,0:0:0:0:
256,192,102847,1,8,0:0:0:0:
256,192,104218,1,0,0:0:0:0:
256,192,105247,1,8,0:0:0:0:
256,192,105590,1,0,0:0:0:0:
256,192,106275,1,8,0:0:0:0:
256,192,106961,1,0,0:0:0:0:
256,192,107647,1,0,0:0:0:0:
256,192,108333,1,8,0:0:0:0:
256,192,108675,1,8,0:0:0:0:
256,192,109018,1,8,0:0:0:0:
256,192,109704,1,0,0:0:0:0:
256,192,110733,1,0,0:0:0:0:
256,192,111075,1,8,0:0:0:0:
256,192,111761,1,8,0:0:0:0:
256,192,112447,1,0,0:0:0:0:
256,192,113133,1,0,0:0:0:0:
256,192,113475,1,8,0:0:0:0:
256,192,113818,1,8,0:0:0:0:
256,192,115190,1,0,0:0:0:0:
256,192,116218,1,0,0:0:0:0:
256,192,116561,1,8,0:0:0:0:
256,192,117247,1,0,0:0:0:0:
256,192,117933,1,8,0:0:0:0:
256,192,118618,1,8,0:0:0:0:
256,192,119304,1,8,0:0:0:0:
256,192,119647,1,8,0:0:0:0:
256,192,119990,1,8,0:0:0:0:
256,192,120675,1,4,0:0:0:0:
256,192,122047,1,0,0:0:0:0:
256,192,122733,1,8,0:0:0:0:
256,192,123075,1,8,0:0:0:0:
256,192,123418,1,0,0:0:0:0:
256,192,124104,1,0,0:0:0:0:
256,192,124790,1,8,0:0:0:0:
256,192,125133,1,0,0:0:0:0:
256,192,125475,1,8,0:0:0:0:
256,192,126161,1,0,0:0:0:0:
256,192,127533,1,0,0:0:0:0:
256,192,128218,1,8,0:0:0:0:
256,192,128561,1,0,0:0:0:0:
256,192,128904,1,8,0:0:0:0:
256,192,129590,1,0,0:0:0:0:
256,192,130275,1,8,0:0:0:0:
256,192,130618,1,8,0:0:0:0:
256,192,130961,1,8,0:0:0:0:
256,192,131647,1,0,0:0:0:0:
256,192,132333,1,0,0:0:0:0:
256,192,133018,1,8,0:0:0:0:
256,192,133361,1,8,0:0:0:0:
256,192,133704,1,8,0:0:0:0:
256,192,134047,1,8,0:0:0:0:
256,192,134390,12,0,138504,0:0:0:0:
