osu file format v14

[General]
AudioFilename: audio.mp3
AudioLeadIn: 0
PreviewTime: 43803
Countdown: 0
SampleSet: Soft
StackLeniency: 0.2
Mode: 0
LetterboxInBreaks: 0
WidescreenStoryboard: 0

[Editor]
Bookmarks: 44574
DistanceSpacing: 1.2
BeatDivisor: 4
GridSize: 8
TimelineZoom: 3.599999

[Metadata]
Title:HELIX (Edit ver.)
TitleUnicode:HELIX (Edit ver.)
Artist:ESTi
ArtistUnicode:ESTi
Creator:blixys
Version:EX
Source:O2Jam Analog
Tags:螺旋 Jinbae Park brutal dub and bloody bass Pump It Up Prime 2 Kowari Cami RVMathew Soelias Suki Angane anunymous Video Game Instrumental
BeatmapID:2153516
BeatmapSetID:1029894

[Difficulty]
HPDrainRate:7
CircleSize:4
OverallDifficulty:7
ApproachRate:9
SliderMultiplier:2
SliderTickRate:1

[Events]
//Background and Video events
0,0,"ripBayonettaBGhelloHELIX.jpg",0,0
//Break Periods
//Storyboard Layer 0 (Background)
//Storyboard Layer 1 (Fail)
//Storyboard Layer 2 (Pass)
//Storyboard Layer 3 (Foreground)
//Storyboard Layer 4 (Overlay)
//Storyboard Sound Samples

[TimingPoints]
3,342.857142857143,4,2,1,80,1,0
2745,-133.333333333333,4,2,1,80,0,0
10974,-100,4,2,1,80,0,0
32231,-200,4,2,1,80,0,0
32917,-100,4,2,1,80,0,0
44403,-66.6666666666667,4,2,1,80,0,0
44488,-66.6666666666667,4,2,2,80,0,0
44510,-66.6666666666667,4,2,1,80,0,0
44660,-66.6666666666667,4,2,2,80,0,0
44682,-66.6666666666667,4,2,1,80,0,0
44831,-66.6666666666667,4,2,2,80,0,0
44853,-66.6666666666667,4,2,1,80,0,0
45003,-66.6666666666667,4,2,2,80,0,0
45025,-66.6666666666667,4,2,1,80,0,0
45174,-66.6666666666667,4,2,2,80,0,0
45196,-66.6666666666667,4,2,1,80,0,0
45345,-66.6666666666667,4,2,2,80,0,0
45367,-66.6666666666667,4,2,1,80,0,0
45517,-66.6666666666667,4,2,2,80,0,0
45539,-66.6666666666667,4,2,1,80,0,0
45688,-66.6666666666667,4,2,2,80,0,0
45710,-66.6666666666667,4,2,1,80,0,0
45860,-66.6666666666667,4,2,2,80,0,0
45882,-66.6666666666667,4,2,1,80,0,0
45945,-200,4,2,1,80,0,0
46203,-200,4,2,2,80,0,0
46288,-200,4,2,1,80,0,0
46545,-200,4,2,2,80,0,0
46630,-200,4,2,1,80,0,0
46888,-200,4,2,2,80,0,0
46973,-66.6666666666667,4,2,1,80,0,0
47145,-66.6666666666667,4,2,1,80,0,0
47230,-66.6666666666667,4,2,2,80,0,0
47252,-66.6666666666667,4,2,1,80,0,0
47402,-66.6666666666667,4,2,2,80,0,0
47424,-66.6666666666667,4,2,1,80,0,0
47573,-66.6666666666667,4,2,2,80,0,0
47595,-66.6666666666667,4,2,1,80,0,0
47745,-66.6666666666667,4,2,2,80,0,0
47767,-66.6666666666667,4,2,1,80,0,0
47938,-66.6666666666667,4,2,1,80,0,0
48087,-66.6666666666667,4,2,2,80,0,0
48109,-66.6666666666667,4,2,1,80,0,0
48259,-66.6666666666667,4,2,2,80,0,0
48281,-66.6666666666667,4,2,1,80,0,0
48430,-66.6666666666667,4,2,2,80,0,0
48452,-66.6666666666667,4,2,1,80,0,0
48602,-66.6666666666667,4,2,2,80,0,0
48624,-66.6666666666667,4,2,1,80,0,0
48687,-200,4,2,1,80,0,0
48945,-200,4,2,2,80,0,0
49030,-200,4,2,1,80,0,0
49287,-200,4,2,2,80,0,0
49372,-200,4,2,1,80,0,0
49630,-200,4,2,2,80,0,0
49715,-66.6666666666667,4,2,1,80,0,0
49888,-66.6666666666667,4,2,1,80,0,0
49973,-66.6666666666667,4,2,2,80,0,0
49995,-66.6666666666667,4,2,1,80,0,0
50145,-66.6666666666667,4,2,2,80,0,0
50167,-66.6666666666667,4,2,1,80,0,0
50316,-66.6666666666667,4,2,2,80,0,0
50338,-66.6666666666667,4,2,1,80,0,0
50488,-66.6666666666667,4,2,2,80,0,0
50510,-66.6666666666667,4,2,1,80,0,0
50659,-66.6666666666667,4,2,2,80,0,0
50681,-66.6666666666667,4,2,1,80,0,0
50830,-66.6666666666667,4,2,2,80,0,0
50852,-66.6666666666667,4,2,1,80,0,0
51002,-66.6666666666667,4,2,2,80,0,0
51024,-66.6666666666667,4,2,1,80,0,0
51173,-66.6666666666667,4,2,2,80,0,0
51195,-66.6666666666667,4,2,1,80,0,0
51345,-66.6666666666667,4,2,2,80,0,0
51367,-66.6666666666667,4,2,1,80,0,0
51430,-200,4,2,1,80,0,0
51688,-200,4,2,2,80,0,0
51773,-200,4,2,1,80,0,0
52030,-200,4,2,2,80,0,0
52115,-200,4,2,1,80,0,0
52373,-200,4,2,2,80,0,0
52458,-66.6666666666667,4,2,1,80,0,0
52888,-66.6666666666667,4,2,2,80,0,0
52910,-66.6666666666667,4,2,1,80,0,0
53060,-66.6666666666667,4,2,2,80,0,0
53082,-66.6666666666667,4,2,1,80,0,0
53231,-66.6666666666667,4,2,2,80,0,0
53253,-66.6666666666667,4,2,1,80,0,0
53574,-66.6666666666667,4,2,2,80,0,0
53596,-66.6666666666667,4,2,1,80,0,0
53745,-66.6666666666667,4,2,2,80,0,0
53767,-66.6666666666667,4,2,1,80,0,0
53917,-66.6666666666667,4,2,2,80,0,0
53939,-66.6666666666667,4,2,1,80,0,0
54088,-66.6666666666667,4,2,2,80,0,0
54110,-66.6666666666667,4,2,1,80,0,0
54174,-133.333333333333,4,2,1,80,0,0
54345,-133.333333333333,4,2,2,80,0,0
54367,-133.333333333333,4,2,1,80,0,0
54688,-133.333333333333,4,2,2,80,0,0
54710,-133.333333333333,4,2,1,80,0,0
98745,-80,4,2,1,80,0,0
101488,-100,4,2,1,80,0,0

[Colours]
Combo1 : 255,0,0
Combo2 : 63,63,63

[HitObjects]
103,66,31717,6,0,B|39:66,1,50
350,132,32060,6,0,B|414:132,1,50
180,352,32231,2,0,B|80:352,1,100
80,352,32917,6,0,B|144:288|144:288|144:160,1,200
128,80,33431,2,0,B|64:144|64:144|64:272,1,200
96,352,33945,6,0,B|160:288|160:288|160:160,1,200
112,80,34460,2,0,B|48:144|48:144|48:272,1,200
160,176,34974,1,0,0:0:0:0:
160,288,35145,1,0,0:0:0:0:
216,135,35317,1,0,0:0:0:0:
104,328,35488,1,0,0:0:0:0:
352,256,35660,6,0,B|288:320|288:320|160:320,1,200
80,304,36174,2,0,B|144:240|144:240|272:240,1,200
352,272,36688,6,0,B|288:336|288:336|160:336,1,200
80,320,37203,2,0,B|144:256|144:256|272:256,1,200
144,256,37717,1,0,0:0:0:0:
288,336,37888,1,0,0:0:0:0:
256,256,38060,1,0,0:0:0:0:
112,336,38231,1,0,0:0:0:0:
112,176,38403,6,0,B|176:112|176:112|304:112,1,200
240,176,38917,2,0,B|176:112|176:112|176:-16,1,200
240,48,39431,2,0,B|176:112|176:112|48:112,1,200
64,192,39945,5,0,0:0:0:0:
160,224,40117,1,0,0:0:0:0:
84,291,40288,1,0,0:0:0:0:
140,125,40460,1,0,0:0:0:0:
236,157,40631,1,0,0:0:0:0:
311,89,40803,1,0,0:0:0:0:
64,192,40974,1,0,0:0:0:0:
320,192,41145,6,0,L|448:192,1,100
480,96,41488,1,0,0:0:0:0:
384,288,41660,6,0,L|256:288,1,100
224,192,42003,1,0,0:0:0:0:
170,291,42174,1,0,0:0:0:0:
125,138,42345,1,0,0:0:0:0:
71,237,42517,6,0,B|103:205|103:205|167:205,1,100
228,315,42860,6,0,B|196:347|196:347|132:347,1,100
103,205,43203,6,0,B|210:205,1,100
196,347,43545,6,0,B|74:347,1,100
37,56,43888,1,0,0:0:0:0:
421,117,44403,6,0,L|477:0,1,75.0000028610231
260,149,44574,2,0,L|269:19,1,75.0000028610231
388,184,44745,6,0,L|420:116,1,75.0000028610231
266,75,44917,2,0,L|275:-54,1,75.0000028610231
355,251,45088,6,0,L|411:133,1,75.0000028610231
248,297,45260,2,0,L|257:167,1,75.0000028610231
388,184,45431,6,0,L|444:66,1,75.0000028610231
254,223,45603,2,0,L|263:93,1,75.0000028610231
420,116,45774,2,0,L|476:-1,1,75.0000028610231
436,208,45945,6,0,L|543:134,1,75.0000028610231
403,296,46288,6,0,L|533:286,1,75.0000028610231
332,356,46631,6,0,L|399:388,1,75.0000028610231
74,21,47145,6,0,L|79:95,1,75.0000028610231
89,243,47317,2,0,L|83:168,1,75.0000028610231
162,35,47488,6,0,L|167:109,1,75.0000028610231
177,257,47660,2,0,L|171:182,1,75.0000028610231
250,49,47831,6,0,L|255:123,1,75.0000028610231
265,271,48003,2,0,L|259:196,1,75.0000028610231
338,63,48174,6,0,L|343:137,1,75.0000028610231
353,285,48345,2,0,L|347:210,1,75.0000028610231
426,77,48517,6,0,L|431:151,1,75.0000028610231
441,299,48688,6,0,L|435:224,1,75.0000028610231
265,271,49031,6,0,L|259:196,1,75.0000028610231
89,243,49374,6,0,L|83:168,1,75.0000028610231
431,151,49888,1,0,0:0:0:0:
436,76,50060,6,0,L|430:151,1,75.0000028610231
321,89,50231,2,0,L|315:164,1,75.0000028610231
194,251,50403,6,0,L|200:176,1,75.0000028610231
309,238,50574,2,0,L|315:163,1,75.0000028610231
447,72,50745,6,0,L|441:147,1,75.0000028610231
332,85,50917,2,0,L|326:160,1,75.0000028610231
183,255,51088,6,0,L|189:180,1,75.0000028610231
298,242,51260,2,0,L|304:167,1,75.0000028610231
295,98,51431,2,0,L|301:173,1,75.0000028610231
191,234,51774,2,0,L|185:159,1,75.0000028610231
303,199,52117,2,0,L|311:274,1,75.0000028610231
315,290,52460,1,0,2:0:0:0:
41,58,52631,1,0,2:0:0:0:
27,131,52803,6,0,L|41:58,1,75.0000028610231,0|0,2:0|2:0,2:0:0:0:
106,172,52974,2,0,L|120:98,1,75.0000028610231,0|0,2:0|2:0,2:0:0:0:
17,120,53145,6,0,L|31:46,1,75.0000028610231,0|0,2:0|2:0,2:0:0:0:
96,161,53317,2,0,L|110:87,1,75.0000028610231,0|0,2:0|2:0,2:0:0:0:
104,61,53488,6,0,L|30:46,1,75.0000028610231,0|0,2:0|2:0,2:0:0:0:
249,89,53660,2,0,L|176:74,1,75.0000028610231,0|0,2:0|2:0,2:0:0:0:
345,174,53831,6,0,L|271:159,1,75.0000028610231,0|0,2:0|2:0,2:0:0:0:
490,202,54003,2,0,L|417:187,1,75.0000028610231,0|0,2:0|2:0,2:0:0:0:
222,235,54174,2,0,L|207:308,1,75.0000028610231,0|0,2:0|2:0,2:0:0:0:
249,89,54517,2,0,L|234:163,1,75.0000028610231,0|0,2:0|2:0,2:0:0:0:
98,178,54860,5,0,0:0:0:0:
282,91,55031,1,0,0:0:0:0:
147,42,55203,1,0,0:0:0:0:
234,226,55374,1,0,0:0:0:0:
92,161,55545,5,0,0:0:0:0:
289,107,55717,1,0,0:0:0:0:
163,36,55888,1,0,0:0:0:0:
217,233,56060,1,0,0:0:0:0:
89,144,56231,5,0,0:0:0:0:
292,125,56403,1,0,0:0:0:0:
181,33,56574,1,0,0:0:0:0:
200,236,56745,1,0,0:0:0:0:
89,126,56917,5,0,0:0:0:0:
190,134,57003,1,0,0:0:0:0:
292,142,57088,1,0,0:0:0:0:
199,33,57260,1,0,0:0:0:0:
182,235,57431,1,0,0:0:0:0:
292,142,57603,5,0,0:0:0:0:
176,309,57774,1,0,0:0:0:0:
190,133,57945,5,0,0:0:0:0:
277,317,58117,1,0,0:0:0:0:
306,142,58288,1,0,0:0:0:0:
190,309,58460,1,0,0:0:0:0:
204,133,58631,5,0,0:0:0:0:
291,317,58803,1,0,0:0:0:0:
320,142,58974,1,0,0:0:0:0:
204,309,59145,1,0,0:0:0:0:
218,133,59317,5,0,0:0:0:0:
305,317,59488,1,0,0:0:0:0:
334,142,59660,1,0,0:0:0:0:
276,225,59745,1,0,0:0:0:0:
218,309,59831,1,0,0:0:0:0:
232,133,60003,5,0,0:0:0:0:
319,317,60174,1,0,0:0:0:0:
116,300,60345,5,0,0:0:0:0:
232,133,60517,1,0,0:0:0:0:
319,317,60688,1,0,0:0:0:0:
435,150,60860,1,0,0:0:0:0:
105,271,61031,5,0,0:0:0:0:
248,126,61203,1,0,0:0:0:0:
302,323,61374,1,0,0:0:0:0:
445,178,61545,1,0,0:0:0:0:
99,240,61717,5,0,0:0:0:0:
266,123,61888,1,0,0:0:0:0:
284,326,62060,1,0,0:0:0:0:
451,209,62231,1,0,0:0:0:0:
99,210,62403,5,0,0:0:0:0:
191,166,62488,1,0,0:0:0:0:
283,123,62574,1,0,0:0:0:0:
267,326,62745,1,0,0:0:0:0:
451,239,62917,1,0,0:0:0:0:
166,114,63088,5,0,0:0:0:0:
275,224,63260,1,0,0:0:0:0:
463,34,63431,1,0,0:0:0:0:
424,184,63603,1,0,0:0:0:0:
170,131,63774,5,0,0:0:0:0:
279,241,63945,1,0,0:0:0:0:
467,51,64117,1,0,0:0:0:0:
428,201,64288,1,0,0:0:0:0:
174,148,64460,2,0,L|175:194,1,37.5000014305115
283,258,64631,2,0,L|284:304,1,37.5000014305115
471,68,64803,1,0,0:0:0:0:
432,218,64974,1,0,0:0:0:0:
177,164,65145,5,0,0:0:0:0:
232,219,65231,1,0,0:0:0:0:
287,275,65317,1,0,0:0:0:0:
475,85,65488,1,0,0:0:0:0:
436,235,65660,1,0,0:0:0:0:
178,165,65831,5,0,0:0:0:0:
287,275,66003,1,0,0:0:0:0:
122,109,66174,5,0,0:0:0:0:
340,329,66345,1,0,0:0:0:0:
188,156,66517,5,0,0:0:0:0:
276,283,66688,1,0,0:0:0:0:
142,91,66860,5,0,0:0:0:0:
319,346,67031,1,0,0:0:0:0:
199,149,67203,5,0,0:0:0:0:
264,290,67374,1,0,0:0:0:0:
166,78,67545,5,0,0:0:0:0:
296,359,67717,1,0,0:0:0:0:
212,145,67888,5,0,0:0:0:0:
231,220,67974,1,0,0:0:0:0:
251,295,68060,1,0,0:0:0:0:
191,68,68231,5,0,0:0:0:0:
270,368,68403,1,0,0:0:0:0:
314,188,68574,5,0,0:0:0:0:
251,295,68745,1,0,0:0:0:0:
129,277,68917,1,0,0:0:0:0:
318,196,69088,5,0,0:0:0:0:
247,287,69260,1,0,0:0:0:0:
132,287,69431,1,0,0:0:0:0:
322,204,69603,5,0,0:0:0:0:
243,279,69774,1,0,0:0:0:0:
136,295,69945,1,0,0:0:0:0:
326,212,70117,5,0,0:0:0:0:
239,271,70288,1,0,0:0:0:0:
140,303,70460,1,0,0:0:0:0:
326,212,70631,5,0,0:0:0:0:
235,263,70803,1,0,0:0:0:0:
144,311,70974,1,0,0:0:0:0:
53,359,71145,1,0,0:0:0:0:
230,30,71317,5,0,0:0:0:0:
294,228,71488,1,0,0:0:0:0:
312,106,71660,1,0,0:0:0:0:
377,303,71831,5,0,0:0:0:0:
302,224,72003,1,0,0:0:0:0:
302,109,72174,1,0,0:0:0:0:
377,303,72345,5,0,0:0:0:0:
310,220,72517,1,0,0:0:0:0:
294,113,72688,1,0,0:0:0:0:
385,299,72860,5,0,0:0:0:0:
318,216,73031,1,0,0:0:0:0:
286,117,73203,1,0,0:0:0:0:
393,295,73374,5,0,0:0:0:0:
326,212,73545,1,0,0:0:0:0:
278,121,73717,1,0,0:0:0:0:
401,291,73888,1,0,0:0:0:0:
192,312,74060,5,0,0:0:0:0:
69,142,74231,1,0,0:0:0:0:
401,291,74403,1,0,0:0:0:0:
278,121,74574,1,0,0:0:0:0:
176,303,74745,5,0,0:0:0:0:
84,114,74917,1,0,0:0:0:0:
385,318,75088,1,0,0:0:0:0:
293,129,75260,1,0,0:0:0:0:
161,291,75431,5,0,0:0:0:0:
104,89,75603,1,0,0:0:0:0:
365,343,75774,1,0,0:0:0:0:
308,141,75945,1,0,0:0:0:0:
150,277,76117,2,0,L|139:232,1,37.5000014305115
128,68,76288,2,0,L|117:23,1,37.5000014305115
341,364,76460,1,0,0:0:0:0:
319,155,76631,1,0,0:0:0:0:
150,277,76803,6,0,L|56:297,1,75.0000028610231
2,307,77145,1,0,0:0:0:0:
369,231,77317,6,0,L|222:261,1,150.000005722046
103,115,77831,2,0,L|249:145,1,150.000005722046
381,229,78345,6,0,L|234:259,1,150.000005722046
115,113,78860,2,0,L|261:143,1,150.000005722046
381,229,79374,1,0,0:0:0:0:
92,233,79545,6,0,L|238:262,1,150.000005722046
291,8,80060,2,0,L|338:149,1,150.000005722046
128,240,80574,6,0,L|274:269,1,150.000005722046
302,43,81088,2,0,L|349:184,1,150.000005722046
302,43,81603,5,0,0:0:0:0:
128,240,81774,1,0,0:0:0:0:
117,55,81945,5,0,0:0:0:0:
313,227,82117,1,0,0:0:0:0:
65,310,82288,6,0,B|99:339|99:339|207:326,1,150.000005722046
227,212,82803,2,0,B|194:183|194:183|86:196,1,150.000005722046
61,333,83317,6,0,B|94:362|94:362|202:349,1,150.000005722046
222,235,83831,2,0,B|189:206|189:206|81:219,1,150.000005722046
85,326,84345,1,0,0:0:0:0:
222,235,84517,1,0,0:0:0:0:
199,349,84688,1,0,0:0:0:0:
108,212,84860,1,0,0:0:0:0:
310,312,85031,6,0,L|407:331,1,75.0000028610231
404,212,85374,1,0,0:0:0:0:
202,327,85545,6,0,L|128:341,1,75.0000028610231
108,227,85888,1,0,0:0:0:0:
310,327,86060,6,0,L|407:346,1,75.0000028610231
404,227,86403,1,0,0:0:0:0:
202,312,86574,6,0,L|128:326,1,75.0000028610231
108,212,86917,1,0,0:0:0:0:
256,220,87088,1,0,0:0:0:0:
189,88,87260,1,0,0:0:0:0:
182,216,87431,1,0,0:0:0:0:
262,91,87603,1,0,0:0:0:0:
329,223,87774,5,0,0:0:0:0:
248,347,87945,1,0,0:0:0:0:
350,325,88117,1,0,0:0:0:0:
226,244,88288,1,0,0:0:0:0:
339,230,88460,5,0,0:0:0:0:
237,339,88631,1,0,0:0:0:0:
342,335,88803,1,0,0:0:0:0:
234,234,88974,1,0,0:0:0:0:
347,240,89145,5,0,0:0:0:0:
229,329,89317,1,0,0:0:0:0:
332,344,89488,1,0,0:0:0:0:
244,225,89660,1,0,0:0:0:0:
354,251,89831,5,0,0:0:0:0:
222,318,90003,1,0,0:0:0:0:
321,351,90174,1,0,0:0:0:0:
255,218,90345,1,0,0:0:0:0:
377,32,90517,5,0,0:0:0:0:
255,218,90688,1,0,0:0:0:0:
408,185,90860,1,0,0:0:0:0:
222,63,91031,1,0,0:0:0:0:
392,42,91203,5,0,0:0:0:0:
238,206,91374,1,0,0:0:0:0:
396,200,91545,1,0,0:0:0:0:
234,48,91717,1,0,0:0:0:0:
404,57,91888,5,0,0:0:0:0:
226,191,92060,1,0,0:0:0:0:
381,213,92231,1,0,0:0:0:0:
249,35,92403,1,0,0:0:0:0:
414,74,92574,5,0,0:0:0:0:
216,174,92745,1,0,0:0:0:0:
365,224,92917,1,0,0:0:0:0:
266,24,93088,1,0,0:0:0:0:
365,224,93260,5,0,0:0:0:0:
148,82,93431,1,0,0:0:0:0:
187,260,93603,1,0,0:0:0:0:
329,43,93774,1,0,0:0:0:0:
353,241,93945,5,0,0:0:0:0:
162,63,94117,1,0,0:0:0:0:
169,246,94288,1,0,0:0:0:0:
346,57,94460,1,0,0:0:0:0:
336,255,94631,5,0,0:0:0:0:
180,49,94803,1,0,0:0:0:0:
154,229,94974,1,0,0:0:0:0:
362,75,95145,1,0,0:0:0:0:
316,267,95317,5,0,0:0:0:0:
199,36,95488,1,0,0:0:0:0:
141,210,95660,1,0,0:0:0:0:
374,94,95831,1,0,0:0:0:0:
334,58,96003,5,0,0:0:0:0:
376,262,96174,1,0,0:0:0:0:
128,100,96345,5,0,0:0:0:0:
172,306,96517,1,0,0:0:0:0:
284,174,96688,5,0,0:0:0:0:
281,188,96774,1,0,0:0:0:0:
269,196,96860,1,0,0:0:0:0:
255,193,96945,1,0,0:0:0:0:
247,181,97031,1,0,0:0:0:0:
250,168,97117,1,0,0:0:0:0:
262,159,97203,1,0,0:0:0:0:
276,162,97288,1,0,0:0:0:0:
284,174,97374,1,0,0:0:0:0:
