osu file format v14

[General]
AudioFilename: Sound Sepher - Ghostly Band Phantom Ensemble.mp3
AudioLeadIn: 3000
PreviewTime: 178369
Countdown: 0
SampleSet: Soft
StackLeniency: 0.7
Mode: 3
LetterboxInBreaks: 0
SpecialStyle: 0
WidescreenStoryboard: 0

[Editor]
Bookmarks: 155261
DistanceSpacing: 0.8
BeatDivisor: 4
GridSize: 4
TimelineZoom: 2.299999

[Metadata]
Title:Ghostly Band ~ Phantom Ensemble
TitleUnicode:幽霊楽団 〜 Phantom Ensemble
Artist:ESTi
ArtistUnicode:ESTi
Creator:ArcherLove
Version:SC
Source:東方Project
Tags:Team Shanghai Alice 東方妖々夢 Touhou Youyoumu ~ Perfect Cherry Blossom comiket 66 Cradle -東方幻樂祀典- lunasa merlin lyrica prismriver sisters プリズムリバー三姉妹 ルナサ リリカメルラン sound sepher shinzo- egas00
BeatmapID:865847
BeatmapSetID:291343

[Difficulty]
HPDrainRate:8
CircleSize:7
OverallDifficulty:9
ApproachRate:5
SliderMultiplier:1.4
SliderTickRate:1

[Events]
//Background and Video events
0,0,"bg.jpg",0,0
//Break Periods
//Storyboard Layer 0 (Background)
//Storyboard Layer 1 (Fail)
//Storyboard Layer 2 (Pass)
//Storyboard Layer 3 (Foreground)
//Storyboard Sound Samples

[TimingPoints]
525,384.578405922508,4,2,1,15,1,0

[HitObjects]
36,192,428,5,0,0:0:0:0:
109,192,476,1,0,0:0:0:0:
182,192,525,1,0,0:0:0:0:
402,192,573,1,2,0:0:0:0:
475,192,573,128,0,6678:0:0:0:0:
256,192,573,128,0,6678:0:0:0:0:
329,192,6678,1,2,0:0:0:0:
36,192,6678,1,0,0:0:0:0:
402,192,6678,128,0,11293:0:0:0:0:
109,192,6678,128,0,7831:0:0:0:0:
182,192,6678,1,0,0:0:0:0:
182,192,7831,128,0,11293:0:0:0:0:
36,192,7831,128,0,11293:0:0:0:0:
329,192,7831,1,0,0:0:0:0:
109,192,11293,1,0,0:0:0:0:
182,192,11870,1,0,0:0:0:0:
256,192,12446,1,0,0:0:0:0:
402,192,12831,1,2,0:0:0:0:
109,192,12831,1,2,0:0:0:0:
36,192,12831,128,0,15908:0:0:0:0:
329,192,12831,128,0,13985:0:0:0:0:
475,192,12831,128,0,13985:0:0:0:0:
182,192,12831,1,0,0:0:0:0:
402,192,13985,128,0,15908:0:0:0:0:
109,192,15908,128,0,17446:0:0:0:0:
256,192,17446,1,0,0:0:0:0:
329,192,18215,1,0,0:0:0:0:
475,192,18984,1,2,0:0:0:0:
256,192,18984,1,2,0:0:0:0:
36,192,18984,1,0,0:0:0:0:
402,192,18984,128,0,21292:0:0:0:0:
109,192,18984,128,0,21292:0:0:0:0:
475,192,21292,1,0,0:0:0:0:
329,192,22061,1,2,0:0:0:0:
256,192,22061,1,2,0:0:0:0:
36,192,22061,1,0,0:0:0:0:
475,192,22061,128,0,23599:0:0:0:0:
109,192,22061,128,0,25138:0:0:0:0:
329,192,23599,128,0,24368:0:0:0:0:
402,192,24368,128,0,24753:0:0:0:0:
475,192,24753,128,0,25138:0:0:0:0:
329,192,24753,1,0,0:0:0:0:
36,192,25138,1,2,0:0:0:0:
402,192,25138,1,2,0:0:0:0:
256,192,25138,1,0,0:0:0:0:
182,192,25138,128,0,28214:0:0:0:0:
329,192,25714,1,0,0:0:0:0:
402,192,26291,1,2,0:0:0:0:
256,192,26291,1,0,0:0:0:0:
475,192,26484,1,2,0:0:0:0:
329,192,26484,1,0,0:0:0:0:
36,192,26868,1,0,0:0:0:0:
402,192,27060,1,2,0:0:0:0:
256,192,27060,1,0,0:0:0:0:
475,192,27253,1,2,0:0:0:0:
36,192,27445,1,0,0:0:0:0:
36,192,27830,1,0,0:0:0:0:
329,192,28022,1,0,0:0:0:0:
402,192,28214,1,0,0:0:0:0:
109,192,28214,1,0,0:0:0:0:
475,192,28406,1,0,0:0:0:0:
256,192,28599,1,0,0:0:0:0:
329,192,28791,128,0,29176:0:0:0:0:
36,192,28791,1,0,0:0:0:0:
182,192,29176,128,0,29560:0:0:0:0:
402,192,29368,1,2,0:0:0:0:
36,192,29368,1,0,0:0:0:0:
256,192,29560,128,2,30522:0:0:0:0:
475,192,29560,1,0,0:0:0:0:
109,192,29560,1,0,0:0:0:0:
36,192,29945,1,0,0:0:0:0:
182,192,30137,1,2,0:0:0:0:
475,192,30137,1,0,0:0:0:0:
109,192,30329,1,2,0:0:0:0:
475,192,30522,128,0,31291:0:0:0:0:
36,192,30522,1,0,0:0:0:0:
36,192,30906,1,0,0:0:0:0:
36,192,31291,1,2,0:0:0:0:
182,192,31291,1,2,0:0:0:0:
256,192,31339,1,2,0:0:0:0:
402,192,31339,1,2,0:0:0:0:
329,192,31387,128,0,33598:0:0:0:0:
109,192,31868,1,0,0:0:0:0:
182,192,32445,1,2,0:0:0:0:
36,192,32445,1,0,0:0:0:0:
475,192,32445,1,0,0:0:0:0:
109,192,32637,1,2,0:0:0:0:
256,192,32637,1,0,0:0:0:0:
36,192,33021,1,0,0:0:0:0:
182,192,33214,1,2,0:0:0:0:
475,192,33214,1,0,0:0:0:0:
109,192,33406,1,2,0:0:0:0:
36,192,33598,1,0,0:0:0:0:
256,192,33598,1,0,0:0:0:0:
402,192,33598,128,0,34367:0:0:0:0:
109,192,33983,1,0,0:0:0:0:
182,192,34367,1,2,0:0:0:0:
256,192,34367,1,2,0:0:0:0:
36,192,34367,1,0,0:0:0:0:
475,192,34367,128,0,35906:0:0:0:0:
109,192,34944,1,0,0:0:0:0:
182,192,35521,1,2,0:0:0:0:
329,192,35521,1,0,0:0:0:0:
256,192,35713,1,2,0:0:0:0:
402,192,35713,1,0,0:0:0:0:
109,192,35906,128,0,36675:0:0:0:0:
329,192,36098,1,0,0:0:0:0:
475,192,36290,1,2,0:0:0:0:
256,192,36290,1,0,0:0:0:0:
402,192,36483,1,2,0:0:0:0:
182,192,36675,128,0,37444:0:0:0:0:
329,192,36675,1,0,0:0:0:0:
36,192,36675,1,0,0:0:0:0:
402,192,36963,1,0,0:0:0:0:
256,192,37059,1,0,0:0:0:0:
475,192,37252,1,0,0:0:0:0:
475,192,37444,1,2,0:0:0:0:
402,192,37444,1,2,0:0:0:0:
256,192,37444,1,0,0:0:0:0:
109,192,37444,1,0,0:0:0:0:
36,192,37444,128,0,40521:0:0:0:0:
329,192,38021,1,0,0:0:0:0:
182,192,38598,1,2,0:0:0:0:
402,192,38598,1,0,0:0:0:0:
256,192,38790,1,2,0:0:0:0:
475,192,38790,1,0,0:0:0:0:
109,192,39175,1,0,0:0:0:0:
402,192,39367,1,2,0:0:0:0:
182,192,39367,1,0,0:0:0:0:
329,192,39559,1,2,0:0:0:0:
109,192,39751,1,0,0:0:0:0:
182,192,40136,1,0,0:0:0:0:
402,192,40521,128,2,42059:0:0:0:0:
256,192,40521,1,2,0:0:0:0:
475,192,40521,1,0,0:0:0:0:
109,192,40521,1,0,0:0:0:0:
182,192,41098,1,0,0:0:0:0:
36,192,41674,1,2,0:0:0:0:
256,192,41674,1,2,0:0:0:0:
36,192,41867,1,2,0:0:0:0:
256,192,41867,1,0,0:0:0:0:
109,192,42059,128,0,42828:0:0:0:0:
329,192,42251,1,0,0:0:0:0:
475,192,42444,1,2,0:0:0:0:
182,192,42444,1,0,0:0:0:0:
402,192,42636,1,2,0:0:0:0:
256,192,42828,128,0,43597:0:0:0:0:
329,192,42828,1,0,0:0:0:0:
36,192,42828,1,0,0:0:0:0:
36,192,43213,1,0,0:0:0:0:
109,192,43597,128,0,46674:0:0:0:0:
182,192,43597,1,0,0:0:0:0:
329,192,43597,1,0,0:0:0:0:
402,192,43645,1,0,0:0:0:0:
475,192,43645,1,0,0:0:0:0:
256,192,44174,1,0,0:0:0:0:
329,192,44751,1,2,0:0:0:0:
182,192,44751,1,0,0:0:0:0:
256,192,44943,1,2,0:0:0:0:
402,192,44943,1,0,0:0:0:0:
329,192,45328,1,0,0:0:0:0:
475,192,45520,1,2,0:0:0:0:
182,192,45520,1,0,0:0:0:0:
402,192,45712,1,2,0:0:0:0:
329,192,45905,1,0,0:0:0:0:
36,192,45905,1,0,0:0:0:0:
36,192,46289,1,0,0:0:0:0:
182,192,46578,1,0,0:0:0:0:
256,192,46626,1,0,0:0:0:0:
329,192,46674,1,0,0:0:0:0:
402,192,46722,1,2,0:0:0:0:
36,192,46722,1,2,0:0:0:0:
475,192,46722,128,0,48981:0:0:0:0:
182,192,47251,1,0,0:0:0:0:
109,192,47828,1,2,0:0:0:0:
329,192,47828,1,0,0:0:0:0:
36,192,48020,1,2,0:0:0:0:
256,192,48020,1,0,0:0:0:0:
182,192,48405,1,0,0:0:0:0:
402,192,48597,1,2,0:0:0:0:
109,192,48597,1,0,0:0:0:0:
329,192,48789,1,2,0:0:0:0:
256,192,48981,1,0,0:0:0:0:
36,192,48981,128,0,49270:0:0:0:0:
109,192,49270,128,0,49558:0:0:0:0:
256,192,49366,1,0,0:0:0:0:
182,192,49558,128,0,49751:0:0:0:0:
36,192,49751,1,6,0:0:0:0:
256,192,49751,1,6,0:0:0:0:
402,192,49751,1,0,0:0:0:0:
329,192,49751,1,0,0:0:0:0:
475,192,49751,128,0,50327:0:0:0:0:
109,192,49943,1,0,0:0:0:0:
182,192,49943,1,0,0:0:0:0:
182,192,50135,1,0,0:0:0:0:
256,192,50135,1,0,0:0:0:0:
402,192,50327,1,0,0:0:0:0:
256,192,50327,1,0,0:0:0:0:
36,192,50327,1,0,0:0:0:0:
329,192,50520,1,2,0:0:0:0:
475,192,50520,1,0,0:0:0:0:
109,192,50520,1,0,0:0:0:0:
36,192,50712,128,0,50904:0:0:0:0:
256,192,50712,1,0,0:0:0:0:
182,192,50904,128,0,51097:0:0:0:0:
402,192,50904,1,0,0:0:0:0:
329,192,51097,128,0,51289:0:0:0:0:
109,192,51097,1,0,0:0:0:0:
475,192,51289,128,2,51481:0:0:0:0:
256,192,51289,1,2,0:0:0:0:
36,192,51289,1,0,0:0:0:0:
182,192,51289,1,0,0:0:0:0:
402,192,51289,1,0,0:0:0:0:
109,192,51481,1,0,0:0:0:0:
329,192,51481,1,0,0:0:0:0:
182,192,51673,1,0,0:0:0:0:
402,192,51673,1,0,0:0:0:0:
256,192,51866,1,2,0:0:0:0:
475,192,51866,1,0,0:0:0:0:
36,192,51866,1,0,0:0:0:0:
109,192,52058,1,2,0:0:0:0:
329,192,52058,1,0,0:0:0:0:
402,192,52058,1,0,0:0:0:0:
256,192,52250,1,0,0:0:0:0:
36,192,52250,1,0,0:0:0:0:
475,192,52250,128,0,52443:0:0:0:0:
329,192,52443,128,0,52635:0:0:0:0:
109,192,52443,1,0,0:0:0:0:
182,192,52443,1,0,0:0:0:0:
402,192,52635,128,0,52827:0:0:0:0:
182,192,52635,1,0,0:0:0:0:
36,192,52827,1,2,0:0:0:0:
109,192,52827,1,2,0:0:0:0:
256,192,52827,1,0,0:0:0:0:
475,192,52827,1,0,0:0:0:0:
182,192,53212,1,0,0:0:0:0:
329,192,53404,1,0,0:0:0:0:
475,192,53404,1,0,0:0:0:0:
36,192,53404,128,0,53789:0:0:0:0:
256,192,53596,1,2,0:0:0:0:
402,192,53596,1,0,0:0:0:0:
109,192,53596,1,0,0:0:0:0:
182,192,53789,128,0,54365:0:0:0:0:
329,192,53789,1,0,0:0:0:0:
475,192,53789,1,0,0:0:0:0:
36,192,53981,128,0,54365:0:0:0:0:
256,192,53981,1,0,0:0:0:0:
329,192,54173,1,0,0:0:0:0:
475,192,54365,128,2,55135:0:0:0:0:
402,192,54365,1,2,0:0:0:0:
256,192,54365,1,0,0:0:0:0:
109,192,54365,1,0,0:0:0:0:
182,192,54558,1,0,0:0:0:0:
329,192,54558,1,0,0:0:0:0:
36,192,54750,1,0,0:0:0:0:
256,192,54750,1,0,0:0:0:0:
109,192,54942,1,0,0:0:0:0:
182,192,54942,1,0,0:0:0:0:
256,192,55135,1,2,0:0:0:0:
36,192,55135,1,0,0:0:0:0:
402,192,55135,1,0,0:0:0:0:
182,192,55327,128,0,55519:0:0:0:0:
475,192,55327,1,0,0:0:0:0:
36,192,55519,128,0,55712:0:0:0:0:
329,192,55519,1,0,0:0:0:0:
109,192,55712,128,0,55904:0:0:0:0:
402,192,55712,1,0,0:0:0:0:
182,192,55904,128,2,56481:0:0:0:0:
475,192,55904,1,2,0:0:0:0:
329,192,55904,1,0,0:0:0:0:
36,192,55904,1,0,0:0:0:0:
256,192,55904,1,0,0:0:0:0:
329,192,56288,1,0,0:0:0:0:
109,192,56288,1,0,0:0:0:0:
475,192,56481,1,0,0:0:0:0:
256,192,56481,1,0,0:0:0:0:
36,192,56481,1,0,0:0:0:0:
402,192,56481,1,0,0:0:0:0:
329,192,56673,1,2,0:0:0:0:
402,192,56673,1,0,0:0:0:0:
182,192,56673,128,0,57058:0:0:0:0:
109,192,56673,1,0,0:0:0:0:
36,192,56865,1,0,0:1:0:0:
256,192,57058,1,0,0:0:0:0:
475,192,57058,1,0,0:0:0:0:
109,192,57250,1,0,0:0:0:0:
182,192,57442,1,2,0:0:0:0:
329,192,57442,1,2,0:0:0:0:
256,192,57442,1,0,0:0:0:0:
36,192,57442,1,0,0:0:0:0:
475,192,57442,128,0,57827:0:0:0:0:
109,192,57634,1,0,0:0:0:0:
402,192,57827,128,0,58211:0:0:0:0:
256,192,57827,1,0,0:0:0:0:
36,192,57827,1,0,0:0:0:0:
329,192,57827,1,0,0:0:0:0:
182,192,58019,1,0,0:0:0:0:
109,192,58211,128,2,58596:0:0:0:0:
329,192,58211,1,2,0:0:0:0:
475,192,58211,1,0,0:0:0:0:
256,192,58211,1,0,0:0:0:0:
36,192,58211,1,0,0:0:0:0:
182,192,58404,1,0,0:0:0:0:
402,192,58404,1,0,0:0:0:0:
256,192,58596,128,0,58980:0:0:0:0:
329,192,58596,1,0,0:0:0:0:
475,192,58596,1,0,0:0:0:0:
109,192,58788,1,0,0:0:0:0:
402,192,58980,128,2,59557:0:0:0:0:
36,192,58980,1,2,0:0:0:0:
182,192,58980,1,0,0:0:0:0:
329,192,58980,1,0,0:0:0:0:
475,192,58980,1,0,0:0:0:0:
109,192,59365,1,0,0:0:0:0:
256,192,59365,1,0,0:0:0:0:
36,192,59557,1,0,0:0:0:0:
182,192,59557,1,0,0:0:0:0:
475,192,59750,1,2,0:0:0:0:
109,192,59750,1,0,0:0:0:0:
329,192,59750,1,0,0:0:0:0:
256,192,59942,1,0,0:0:0:0:
402,192,59942,1,0,0:0:0:0:
36,192,60134,1,0,0:0:0:0:
182,192,60134,1,0,0:0:0:0:
182,192,60326,1,0,0:0:0:0:
475,192,60326,1,0,0:0:0:0:
402,192,60519,1,2,0:0:0:0:
256,192,60519,1,2,0:0:0:0:
36,192,60519,1,0,0:0:0:0:
329,192,60519,1,0,0:0:0:0:
109,192,60519,128,0,61288:0:0:0:0:
475,192,60711,1,0,0:0:0:0:
182,192,60903,1,0,0:0:0:0:
256,192,61096,1,0,0:0:0:0:
475,192,61096,1,0,0:0:0:0:
329,192,61288,128,2,61480:0:0:0:0:
36,192,61288,1,0,0:0:0:0:
182,192,61288,1,0,0:0:0:0:
402,192,61288,1,0,0:0:0:0:
475,192,61480,128,2,61672:0:0:0:0:
256,192,61480,1,0,0:0:0:0:
402,192,61672,128,2,61865:0:0:0:0:
36,192,61672,1,0,0:0:0:0:
329,192,61865,128,2,62057:0:0:0:0:
109,192,61865,1,2,0:0:0:0:
256,192,62057,128,2,62826:0:0:0:0:
402,192,62057,1,2,0:0:0:0:
182,192,62057,1,0,0:0:0:0:
36,192,62057,128,0,62249:0:0:0:0:
109,192,62249,128,0,62442:0:0:0:0:
475,192,62249,1,0,0:0:0:0:
182,192,62442,128,0,62634:0:0:0:0:
329,192,62442,1,0,0:0:0:0:
36,192,62634,128,0,63018:0:0:0:0:
402,192,62634,1,0,0:0:0:0:
109,192,62826,1,2,0:0:0:0:
182,192,62826,1,0,0:0:0:0:
475,192,62826,1,0,0:0:0:0:
256,192,63018,1,0,0:0:0:0:
402,192,63018,1,0,0:0:0:0:
329,192,63018,1,0,0:0:0:0:
36,192,63211,1,0,0:0:0:0:
182,192,63211,1,0,0:0:0:0:
109,192,63403,1,0,0:0:0:0:
256,192,63403,1,0,0:0:0:0:
402,192,63403,1,0,0:0:0:0:
182,192,63595,1,2,0:0:0:0:
329,192,63595,1,2,0:0:0:0:
36,192,63595,1,0,0:0:0:0:
475,192,63595,128,0,64172:0:0:0:0:
109,192,63788,1,0,0:0:0:0:
182,192,63980,1,0,0:0:0:0:
402,192,64172,128,2,64557:0:0:0:0:
36,192,64172,1,2,0:0:0:0:
256,192,64172,1,0,0:0:0:0:
109,192,64365,128,0,64557:0:0:0:0:
182,192,64365,1,0,0:0:0:0:
475,192,64365,1,0,0:0:0:0:
329,192,64365,1,0,0:0:0:0:
36,192,64557,128,2,64749:0:0:0:0:
256,192,64557,1,2,0:0:0:0:
182,192,64749,128,2,64941:0:0:0:0:
402,192,64749,1,2,0:0:0:0:
109,192,64749,1,0,0:0:0:0:
329,192,64941,128,2,65134:0:0:0:0:
256,192,64941,1,2,0:0:0:0:
36,192,64941,1,0,0:0:0:0:
475,192,65134,128,2,65903:0:0:0:0:
109,192,65134,1,2,0:0:0:0:
402,192,65134,1,0,0:0:0:0:
182,192,65134,1,0,0:0:0:0:
109,192,65518,1,0,0:0:0:0:
256,192,65518,1,0,0:0:0:0:
329,192,65711,1,0,0:0:0:0:
182,192,65711,1,0,0:0:0:0:
402,192,65903,1,2,0:0:0:0:
36,192,65903,1,0,0:0:0:0:
256,192,65903,1,0,0:0:0:0:
109,192,66095,1,0,0:0:0:0:
329,192,66095,1,0,0:0:0:0:
182,192,66287,1,0,0:0:0:0:
402,192,66287,1,0,0:0:0:0:
36,192,66287,1,0,0:0:0:0:
109,192,66480,1,0,0:0:0:0:
256,192,66480,1,0,0:0:0:0:
329,192,66480,1,0,0:0:0:0:
182,192,66672,1,2,0:0:0:0:
402,192,66672,1,2,0:0:0:0:
36,192,66672,1,0,0:0:0:0:
475,192,66672,128,0,67057:0:0:0:0:
109,192,66864,1,0,0:0:0:0:
256,192,66864,1,0,0:0:0:0:
329,192,67057,128,0,67441:0:0:0:0:
36,192,67057,1,0,0:0:0:0:
402,192,67057,1,0,0:0:0:0:
109,192,67249,1,0,0:0:0:0:
182,192,67249,1,0,0:0:0:0:
182,192,67441,1,2,0:0:0:0:
256,192,67441,1,0,0:0:0:0:
475,192,67441,1,0,0:0:0:0:
36,192,67441,1,0,0:0:0:0:
109,192,67633,1,0,0:0:0:0:
402,192,67633,1,0,0:0:0:0:
182,192,67826,1,2,0:0:0:0:
329,192,67826,128,0,68018:0:0:0:0:
36,192,67826,1,0,0:0:0:0:
475,192,68018,128,2,68210:0:0:0:0:
109,192,68018,1,0,0:0:0:0:
256,192,68018,1,0,0:0:0:0:
402,192,68210,128,2,68979:0:0:0:0:
182,192,68210,1,2,0:0:0:0:
329,192,68210,1,0,0:0:0:0:
36,192,68210,1,0,0:0:0:0:
109,192,68595,1,0,0:0:0:0:
256,192,68595,1,0,0:0:0:0:
182,192,68787,1,2,0:0:0:0:
329,192,68787,1,2,0:0:0:0:
475,192,68787,1,0,0:0:0:0:
36,192,68787,1,0,0:0:0:0:
256,192,68979,1,2,0:0:0:0:
329,192,68979,1,0,0:0:0:0:
109,192,68979,1,0,0:0:0:0:
182,192,69172,1,0,0:0:0:0:
475,192,69172,1,0,0:0:0:0:
36,192,69364,1,0,0:0:0:0:
402,192,69364,1,0,0:0:0:0:
36,192,69556,1,0,0:0:0:0:
329,192,69556,1,0,0:0:0:0:
475,192,69749,1,2,0:0:0:0:
402,192,69749,1,0,0:0:0:0:
182,192,69749,128,0,70325:0:0:0:0:
109,192,69749,1,0,0:0:0:0:
256,192,69749,1,0,0:0:0:0:
329,192,69941,1,0,0:0:0:0:
36,192,69941,1,0,0:0:0:0:
256,192,70133,1,0,0:0:0:0:
475,192,70133,1,0,0:0:0:0:
36,192,70325,128,2,70902:0:0:0:0:
109,192,70325,1,2,0:0:0:0:
402,192,70325,1,0,0:0:0:0:
329,192,70325,1,0,0:0:0:0:
256,192,70518,128,2,70710:0:0:0:0:
475,192,70518,1,2,0:0:0:0:
402,192,70518,1,0,0:0:0:0:
182,192,70518,1,0,0:0:0:0:
182,192,70710,128,2,70902:0:0:0:0:
475,192,70710,128,2,70902:0:0:0:0:
109,192,70710,1,0,0:0:0:0:
329,192,70710,1,0,0:0:0:0:
329,192,70902,128,2,71287:0:0:0:0:
402,192,70902,128,0,71095:0:0:0:0:
36,192,71095,128,2,71287:0:0:0:0:
109,192,71095,1,0,0:0:0:0:
182,192,71287,128,2,72825:0:0:0:0:
475,192,71287,128,2,72056:0:0:0:0:
256,192,71287,1,0,0:0:0:0:
402,192,71287,1,0,0:0:0:0:
36,192,71672,1,0,0:0:0:0:
109,192,71672,1,0,0:0:0:0:
402,192,71864,1,0,0:0:0:0:
329,192,71864,1,0,0:0:0:0:
256,192,72056,1,2,0:0:0:0:
109,192,72056,1,0,0:0:0:0:
475,192,72248,128,2,72825:0:0:0:0:
256,192,72248,128,2,72441:0:0:0:0:
36,192,72248,1,0,0:0:0:0:
402,192,72248,1,0,0:0:0:0:
329,192,72441,128,0,72633:0:0:0:0:
109,192,72441,1,0,0:0:0:0:
36,192,72633,128,0,72825:0:0:0:0:
402,192,72633,1,0,0:0:0:0:
402,192,72825,128,2,73594:0:0:0:0:
109,192,72825,128,2,73594:0:0:0:0:
256,192,72825,1,0,0:0:0:0:
329,192,72825,1,0,0:0:0:0:
182,192,73018,1,0,0:0:0:0:
256,192,73210,1,0,0:0:0:0:
329,192,73402,1,0,0:0:0:0:
182,192,73594,1,2,0:0:0:0:
36,192,73594,1,0,0:0:0:0:
475,192,73594,1,0,0:0:0:0:
256,192,73594,1,0,0:0:0:0:
109,192,73787,1,0,0:0:0:0:
402,192,73787,1,0,0:0:0:0:
36,192,74364,1,2,0:0:0:0:
256,192,74364,1,2,0:0:0:0:
475,192,74364,1,0,0:0:0:0:
109,192,74460,1,0,0:0:0:0:
329,192,74460,1,0,0:0:0:0:
182,192,74556,1,0,0:0:0:0:
402,192,74556,1,0,0:0:0:0:
256,192,74748,1,0,0:0:0:0:
109,192,75133,1,2,0:0:0:0:
329,192,75133,1,0,0:0:0:0:
402,192,75133,1,0,0:0:0:0:
182,192,75133,1,0,0:0:0:0:
475,192,75517,1,0,0:0:0:0:
402,192,75902,1,2,0:0:0:0:
182,192,75902,1,2,0:0:0:0:
475,192,75902,1,0,0:0:0:0:
329,192,75998,1,0,0:0:0:0:
109,192,75998,1,0,0:0:0:0:
256,192,76094,1,0,0:0:0:0:
36,192,76094,1,0,0:0:0:0:
109,192,76671,1,2,0:0:0:0:
256,192,76671,1,0,0:0:0:0:
402,192,76671,1,0,0:0:0:0:
475,192,76671,1,0,0:0:0:0:
182,192,76863,1,0,0:0:0:0:
36,192,77056,1,0,0:0:0:0:
256,192,77056,1,0,0:0:0:0:
36,192,77440,1,2,0:0:0:0:
256,192,77440,1,0,0:0:0:0:
475,192,77440,1,0,0:0:0:0:
109,192,77536,1,0,0:0:0:0:
329,192,77536,1,0,0:0:0:0:
182,192,77632,1,0,0:0:0:0:
402,192,77632,1,0,0:0:0:0:
36,192,77825,1,2,0:0:0:0:
256,192,77825,1,2,0:0:0:0:
109,192,78049,1,0,0:0:0:0:
329,192,78049,1,0,0:0:0:0:
182,192,78209,1,2,0:0:0:0:
402,192,78209,1,2,0:0:0:0:
475,192,78209,1,0,0:0:0:0:
36,192,78594,1,0,0:0:0:0:
182,192,78594,1,0,0:0:0:0:
182,192,78786,1,0,0:0:0:0:
329,192,78786,1,0,0:0:0:0:
256,192,78978,1,2,0:0:0:0:
475,192,78978,1,2,0:0:0:0:
36,192,78978,1,0,0:0:0:0:
402,192,79075,1,0,0:0:0:0:
182,192,79075,1,0,0:0:0:0:
109,192,79171,1,0,0:0:0:0:
329,192,79171,1,0,0:0:0:0:
256,192,79363,1,0,0:0:0:0:
36,192,79748,1,2,0:0:0:0:
256,192,79748,1,2,0:0:0:0:
475,192,79748,1,0,0:0:0:0:
109,192,79844,1,0,0:0:0:0:
329,192,79844,1,0,0:0:0:0:
182,192,79940,1,0,0:0:0:0:
402,192,79940,1,0,0:0:0:0:
36,192,80132,1,0,0:0:0:0:
256,192,80132,1,0,0:0:0:0:
109,192,80325,1,0,0:0:0:0:
329,192,80325,1,0,0:0:0:0:
182,192,80517,1,2,0:0:0:0:
256,192,80517,1,2,0:0:0:0:
475,192,80517,1,0,0:0:0:0:
109,192,80613,1,0,0:0:0:0:
402,192,80613,1,0,0:0:0:0:
36,192,80709,1,0,0:0:0:0:
329,192,80709,1,0,0:0:0:0:
182,192,80901,1,0,0:0:0:0:
329,192,81030,1,0,0:0:0:0:
182,192,81158,1,0,0:0:0:0:
475,192,81286,1,2,0:0:0:0:
329,192,81286,1,2,0:0:0:0:
36,192,81286,1,0,0:0:0:0:
109,192,81671,1,0,0:0:0:0:
256,192,81671,1,0,0:0:0:0:
329,192,81863,1,0,0:0:0:0:
182,192,82055,1,2,0:0:0:0:
475,192,82055,1,2,0:0:0:0:
402,192,82055,1,0,0:0:0:0:
329,192,82151,1,0,0:0:0:0:
109,192,82151,1,0,0:0:0:0:
36,192,82247,1,0,0:0:0:0:
256,192,82247,1,0,0:0:0:0:
182,192,82440,1,0,0:0:0:0:
256,192,82824,1,2,0:0:0:0:
402,192,82824,1,0,0:0:0:0:
475,192,82824,1,0,0:0:0:0:
109,192,82824,1,0,0:0:0:0:
182,192,83017,1,0,0:0:0:0:
36,192,83209,1,0,0:0:0:0:
256,192,83209,1,0,0:0:0:0:
109,192,83401,1,0,0:0:0:0:
182,192,83593,1,2,0:0:0:0:
36,192,83593,1,2,0:0:0:0:
475,192,83593,1,0,0:0:0:0:
256,192,83690,1,0,0:0:0:0:
402,192,83690,1,0,0:0:0:0:
329,192,83786,1,0,0:0:0:0:
109,192,83786,1,0,0:0:0:0:
182,192,83882,1,0,0:0:0:0:
256,192,83978,1,0,0:0:0:0:
402,192,84234,1,0,0:0:0:0:
109,192,84234,1,0,0:0:0:0:
329,192,84363,1,2,0:0:0:0:
182,192,84363,1,0,0:0:0:0:
36,192,84363,1,0,0:0:0:0:
402,192,84619,1,0,0:0:0:0:
182,192,84747,1,0,0:0:0:0:
256,192,84939,1,0,0:0:0:0:
36,192,84939,1,0,0:0:0:0:
109,192,85132,1,2,0:0:0:0:
182,192,85132,1,2,0:0:0:0:
475,192,85132,1,0,0:0:0:0:
402,192,85228,1,0,0:0:0:0:
256,192,85228,1,0,0:0:0:0:
36,192,85324,1,0,0:0:0:0:
329,192,85324,1,0,0:0:0:0:
109,192,85516,1,0,0:0:0:0:
256,192,85516,1,0,0:0:0:0:
402,192,85516,1,0,0:0:0:0:
36,192,85901,1,2,0:0:0:0:
182,192,85901,1,2,0:0:0:0:
329,192,85901,1,0,0:0:0:0:
109,192,85997,1,0,0:0:0:0:
402,192,85997,1,0,0:0:0:0:
475,192,86093,1,0,0:0:0:0:
182,192,86093,1,0,0:0:0:0:
36,192,86285,1,0,0:0:0:0:
109,192,86285,1,0,0:0:0:0:
256,192,86285,1,0,0:0:0:0:
182,192,86478,1,0,0:0:0:0:
36,192,86670,1,2,0:0:0:0:
329,192,86670,1,0,0:0:0:0:
475,192,86670,1,0,0:0:0:0:
109,192,86766,1,0,0:0:0:0:
256,192,86766,1,0,0:0:0:0:
402,192,86862,1,0,0:0:0:0:
182,192,86862,1,0,0:0:0:0:
36,192,87055,1,0,0:0:0:0:
256,192,87055,1,0,0:0:0:0:
402,192,87247,1,0,0:0:0:0:
256,192,87439,1,2,0:0:0:0:
475,192,87439,1,0,0:0:0:0:
109,192,87439,1,0,0:0:0:0:
36,192,87439,1,0,0:0:0:0:
329,192,87824,1,0,0:0:0:0:
182,192,87824,1,0,0:0:0:0:
36,192,88016,1,0,0:0:0:0:
256,192,88016,1,0,0:0:0:0:
109,192,88208,1,2,0:0:0:0:
475,192,88208,1,2,0:0:0:0:
329,192,88208,1,0,0:0:0:0:
256,192,88305,1,0,0:0:0:0:
36,192,88305,1,0,0:0:0:0:
182,192,88401,1,0,0:0:0:0:
402,192,88401,1,0,0:0:0:0:
329,192,88593,1,0,0:0:0:0:
36,192,88978,1,2,0:0:0:0:
256,192,88978,1,0,0:0:0:0:
109,192,88978,1,0,0:0:0:0:
402,192,88978,1,0,0:0:0:0:
329,192,89170,1,0,0:0:0:0:
182,192,89362,1,0,0:0:0:0:
36,192,89362,1,0,0:0:0:0:
256,192,89554,1,0,0:0:0:0:
36,192,89747,1,2,0:0:0:0:
109,192,89747,1,2,0:0:0:0:
329,192,89747,1,0,0:0:0:0:
182,192,89843,1,0,0:0:0:0:
402,192,89843,1,0,0:0:0:0:
256,192,89939,1,0,0:0:0:0:
475,192,89939,1,0,0:0:0:0:
36,192,90035,1,0,0:0:0:0:
109,192,90131,1,2,0:0:0:0:
402,192,90131,1,0,0:0:0:0:
329,192,90131,1,0,0:0:0:0:
256,192,90324,1,0,0:0:0:0:
109,192,90516,1,2,0:0:0:0:
329,192,90516,1,0,0:0:0:0:
475,192,90516,1,0,0:0:0:0:
36,192,90900,1,0,0:0:0:0:
256,192,90900,1,0,0:0:0:0:
109,192,91093,1,0,0:0:0:0:
182,192,91285,1,2,0:0:0:0:
402,192,91285,1,2,0:0:0:0:
475,192,91285,1,0,0:0:0:0:
109,192,91381,1,0,0:0:0:0:
329,192,91381,1,0,0:0:0:0:
36,192,91477,1,0,0:0:0:0:
256,192,91477,1,0,0:0:0:0:
182,192,91670,1,0,0:0:0:0:
36,192,92054,1,2,0:0:0:0:
256,192,92054,1,2,0:0:0:0:
475,192,92054,1,0,0:0:0:0:
109,192,92150,1,0,0:0:0:0:
329,192,92150,1,0,0:0:0:0:
182,192,92246,1,0,0:0:0:0:
402,192,92246,1,0,0:0:0:0:
109,192,92439,1,0,0:0:0:0:
329,192,92439,1,0,0:0:0:0:
329,192,92823,1,2,0:0:0:0:
475,192,92823,1,2,0:0:0:0:
109,192,92823,1,0,0:0:0:0:
256,192,92919,1,0,0:0:0:0:
402,192,92919,1,0,0:0:0:0:
182,192,93016,1,0,0:0:0:0:
475,192,93016,1,0,0:0:0:0:
109,192,93208,1,0,0:0:0:0:
329,192,93208,1,0,0:0:0:0:
36,192,93400,1,0,0:0:0:0:
182,192,93400,1,0,0:0:0:0:
109,192,93592,1,2,0:0:0:0:
329,192,93592,1,0,0:0:0:0:
475,192,93592,1,0,0:0:0:0:
256,192,93592,1,0,0:0:0:0:
36,192,93785,1,0,0:0:0:0:
182,192,93785,1,0,0:0:0:0:
109,192,93977,1,0,0:0:0:0:
256,192,93977,1,0,0:0:0:0:
182,192,94169,1,0,0:0:0:0:
329,192,94169,1,0,0:0:0:0:
256,192,94362,1,2,0:0:0:0:
402,192,94362,1,0,0:0:0:0:
36,192,94362,1,0,0:0:0:0:
109,192,94458,1,0,0:0:0:0:
475,192,94458,1,0,0:0:0:0:
182,192,94554,1,0,0:0:0:0:
329,192,94554,1,0,0:0:0:0:
256,192,94746,1,0,0:0:0:0:
109,192,94938,1,0,0:0:0:0:
329,192,95131,1,2,0:0:0:0:
475,192,95131,1,2,0:0:0:0:
36,192,95131,1,0,0:0:0:0:
256,192,95227,1,0,0:0:0:0:
109,192,95227,1,0,0:0:0:0:
182,192,95323,1,0,0:0:0:0:
402,192,95323,1,0,0:0:0:0:
36,192,95515,1,0,0:0:0:0:
256,192,95515,1,0,0:0:0:0:
36,192,95900,1,2,0:0:0:0:
475,192,95900,1,2,0:0:0:0:
256,192,95900,1,0,0:0:0:0:
402,192,95996,1,0,0:0:0:0:
109,192,95996,1,0,0:0:0:0:
182,192,96092,1,0,0:0:0:0:
329,192,96092,1,0,0:0:0:0:
402,192,96188,1,0,0:0:0:0:
36,192,96188,1,0,0:0:0:0:
475,192,96285,1,0,0:0:0:0:
109,192,96285,1,0,0:0:0:0:
256,192,96541,1,0,0:0:0:0:
402,192,96669,1,2,0:0:0:0:
36,192,96669,1,0,0:0:0:0:
182,192,96669,1,0,0:0:0:0:
109,192,96861,1,0,0:0:0:0:
256,192,97054,1,0,0:0:0:0:
402,192,97246,1,0,0:0:0:0:
182,192,97438,1,2,0:0:0:0:
329,192,97438,1,2,0:0:0:0:
475,192,97438,1,0,0:0:0:0:
36,192,97438,128,0,97631:0:0:0:0:
256,192,97631,128,2,97823:0:0:0:0:
402,192,97631,1,0,0:0:0:0:
109,192,97823,128,2,98015:0:0:0:0:
475,192,97823,1,0,0:0:0:0:
402,192,98015,128,2,98207:0:0:0:0:
182,192,98015,1,0,0:0:0:0:
256,192,98207,128,2,98400:0:0:0:0:
329,192,98207,1,0,0:0:0:0:
475,192,98207,1,0,0:0:0:0:
109,192,98400,128,2,98592:0:0:0:0:
36,192,98400,1,0,0:0:0:0:
475,192,98592,128,2,98784:0:0:0:0:
256,192,98592,1,0,0:0:0:0:
402,192,98592,1,0,0:0:0:0:
182,192,98784,128,2,98977:0:0:0:0:
36,192,98784,1,0,0:0:0:0:
329,192,98977,128,6,99361:0:0:0:0:
109,192,98977,1,0,0:0:0:0:
256,192,98977,1,0,0:0:0:0:
402,192,98977,1,0,0:0:0:0:
475,192,98977,1,0,0:0:0:0:
109,192,99361,1,0,0:0:0:0:
475,192,99361,128,0,99746:0:0:0:0:
256,192,99361,1,0,0:0:0:0:
36,192,99361,1,0,0:0:0:0:
182,192,99553,1,0,0:0:0:0:
329,192,99553,1,0,0:0:0:0:
402,192,99746,128,2,100130:0:0:0:0:
36,192,99746,1,2,0:0:0:0:
256,192,99746,1,0,0:0:0:0:
182,192,99746,1,0,0:0:0:0:
109,192,99938,1,0,0:0:0:0:
256,192,99938,1,0,0:0:0:0:
329,192,100130,128,0,100323:0:0:0:0:
36,192,100130,1,0,0:0:0:0:
182,192,100130,1,0,0:0:0:0:
256,192,100323,128,0,100899:0:0:0:0:
109,192,100323,1,0,0:0:0:0:
475,192,100323,1,0,0:0:0:0:
402,192,100515,1,2,0:0:0:0:
182,192,100515,1,2,0:0:0:0:
36,192,100515,1,0,0:0:0:0:
329,192,100515,1,0,0:0:0:0:
109,192,100707,1,0,0:0:0:0:
36,192,100899,128,0,101284:0:0:0:0:
475,192,100899,1,0,0:0:0:0:
182,192,100899,1,0,0:0:0:0:
329,192,100899,1,0,0:0:0:0:
256,192,101092,1,0,0:0:0:0:
402,192,101092,1,0,0:0:0:0:
109,192,101284,128,2,101669:0:0:0:0:
329,192,101284,1,0,0:0:0:0:
475,192,101284,1,0,0:0:0:0:
182,192,101284,1,0,0:0:0:0:
402,192,101284,1,0,0:0:0:0:
256,192,101476,1,0,0:0:0:0:
36,192,101476,1,0,0:0:0:0:
182,192,101669,128,0,101861:0:0:0:0:
329,192,101669,1,0,0:0:0:0:
475,192,101669,1,0,0:0:0:0:
256,192,101861,128,0,102438:0:0:0:0:
402,192,101861,1,0,0:0:0:0:
36,192,101861,1,0,0:0:0:0:
109,192,102053,1,2,0:0:0:0:
182,192,102053,1,2,0:0:0:0:
475,192,102053,1,0,0:0:0:0:
329,192,102053,1,0,0:0:0:0:
402,192,102245,1,0,0:0:0:0:
475,192,102438,128,0,102822:0:0:0:0:
36,192,102438,1,0,0:0:0:0:
182,192,102438,1,0,0:0:0:0:
329,192,102438,1,0,0:0:0:0:
109,192,102630,1,0,0:0:0:0:
256,192,102630,1,0,0:0:0:0:
329,192,102822,128,2,103207:0:0:0:0:
182,192,102822,1,0,0:0:0:0:
402,192,102822,1,0,0:0:0:0:
36,192,102822,1,0,0:0:0:0:
256,192,102822,1,0,0:0:0:0:
109,192,103015,1,0,0:0:0:0:
402,192,103207,128,0,103399:0:0:0:0:
36,192,103207,1,0,0:0:0:0:
182,192,103207,1,0,0:0:0:0:
475,192,103399,128,0,103784:0:0:0:0:
109,192,103399,1,0,0:0:0:0:
256,192,103399,1,0,0:0:0:0:
182,192,103592,1,2,0:0:0:0:
329,192,103592,1,2,0:0:0:0:
402,192,103592,1,0,0:0:0:0:
36,192,103784,128,0,103976:0:0:0:0:
256,192,103784,1,0,0:0:0:0:
182,192,103976,128,0,104168:0:0:0:0:
329,192,103976,1,0,0:0:0:0:
402,192,103976,1,0,0:0:0:0:
109,192,104168,128,0,104361:0:0:0:0:
475,192,104168,1,0,0:0:0:0:
402,192,104168,1,0,0:0:0:0:
36,192,104361,128,2,104553:0:0:0:0:
256,192,104361,1,0,0:0:0:0:
329,192,104361,1,0,0:0:0:0:
182,192,104361,1,0,0:0:0:0:
475,192,104361,1,0,0:0:0:0:
475,192,104553,128,0,104745:0:0:0:0:
109,192,104553,1,0,0:0:0:0:
256,192,104553,1,0,0:0:0:0:
329,192,104745,128,0,104938:0:0:0:0:
182,192,104745,1,0,0:0:0:0:
36,192,104745,1,0,0:0:0:0:
402,192,104938,128,0,105130:0:0:0:0:
109,192,104938,1,0,0:0:0:0:
256,192,104938,1,0,0:0:0:0:
475,192,105130,128,2,105514:0:0:0:0:
36,192,105130,1,0,0:0:0:0:
182,192,105130,1,0,0:0:0:0:
329,192,105130,1,0,0:0:0:0:
109,192,105322,128,0,105514:0:0:0:0:
256,192,105514,128,0,105707:0:0:0:0:
36,192,105514,1,0,0:0:0:0:
182,192,105514,1,0,0:0:0:0:
329,192,105514,1,0,0:0:0:0:
402,192,105707,128,0,106091:0:0:0:0:
109,192,105707,1,0,0:0:0:0:
36,192,105899,1,2,0:0:0:0:
182,192,105899,1,0,0:0:0:0:
256,192,105899,1,0,0:0:0:0:
329,192,105899,1,0,0:0:0:0:
475,192,106091,128,0,106668:0:0:0:0:
109,192,106091,1,0,0:0:0:0:
182,192,106284,1,0,0:0:0:0:
329,192,106284,1,0,0:0:0:0:
256,192,106476,1,0,0:0:0:0:
402,192,106476,1,0,0:0:0:0:
182,192,106668,1,2,0:0:0:0:
329,192,106668,1,2,0:0:0:0:
109,192,106668,1,0,0:0:0:0:
36,192,106668,128,0,106860:0:0:0:0:
256,192,106860,128,0,107053:0:0:0:0:
475,192,106860,1,0,0:0:0:0:
109,192,107053,128,0,107245:0:0:0:0:
402,192,107053,1,0,0:0:0:0:
182,192,107053,1,0,0:0:0:0:
329,192,107245,128,0,107437:0:0:0:0:
475,192,107245,1,0,0:0:0:0:
182,192,107437,128,2,107630:0:0:0:0:
36,192,107437,1,2,0:0:0:0:
256,192,107437,1,0,0:0:0:0:
109,192,107437,1,0,0:0:0:0:
475,192,107630,128,0,107822:0:0:0:0:
402,192,107630,1,0,0:0:0:0:
329,192,107822,128,0,108014:0:0:0:0:
256,192,107822,1,0,0:0:0:0:
182,192,107822,1,0,0:0:0:0:
36,192,108014,128,0,108206:0:0:0:0:
109,192,108014,1,0,0:0:0:0:
402,192,108014,1,0,0:0:0:0:
182,192,108206,128,2,108976:0:0:0:0:
475,192,108206,1,2,0:0:0:0:
329,192,108206,1,0,0:0:0:0:
256,192,108206,1,0,0:0:0:0:
36,192,108399,1,0,0:0:0:0:
402,192,108591,128,0,108976:0:0:0:0:
256,192,108591,1,0,0:0:0:0:
329,192,108591,1,0,0:0:0:0:
475,192,108591,1,0,0:0:0:0:
36,192,108976,1,2,0:0:0:0:
109,192,108976,1,0,0:0:0:0:
329,192,108976,1,0,0:0:0:0:
475,192,108976,1,0,0:0:0:0:
109,192,109168,1,0,0:0:0:0:
182,192,109168,1,0,0:0:0:0:
402,192,109168,1,0,0:0:0:0:
182,192,109360,1,0,0:0:0:0:
256,192,109360,1,0,0:0:0:0:
36,192,109360,1,0,0:0:0:0:
329,192,109552,1,0,0:0:0:0:
109,192,109552,1,0,0:0:0:0:
182,192,109552,1,0,0:0:0:0:
475,192,109552,1,0,0:0:0:0:
256,192,109745,1,2,0:0:0:0:
109,192,109745,1,2,0:0:0:0:
402,192,109745,1,0,0:0:0:0:
475,192,109745,1,0,0:0:0:0:
36,192,109745,128,0,109937:0:0:0:0:
182,192,109937,128,0,110129:0:0:0:0:
329,192,109937,1,0,0:0:0:0:
109,192,110129,128,0,110322:0:0:0:0:
402,192,110129,1,0,0:0:0:0:
475,192,110129,1,0,0:0:0:0:
256,192,110322,128,0,110514:0:0:0:0:
329,192,110322,1,0,0:0:0:0:
36,192,110322,1,0,0:0:0:0:
475,192,110514,128,2,110706:0:0:0:0:
109,192,110514,1,2,0:0:0:0:
182,192,110514,1,0,0:0:0:0:
402,192,110514,1,0,0:0:0:0:
329,192,110706,128,0,110899:0:0:0:0:
256,192,110706,1,0,0:0:0:0:
36,192,110706,1,0,0:0:0:0:
402,192,110899,128,0,111091:0:0:0:0:
109,192,110899,1,0,0:0:0:0:
182,192,110899,1,0,0:0:0:0:
256,192,111091,128,0,111283:0:0:0:0:
475,192,111091,1,0,0:0:0:0:
36,192,111283,1,2,0:0:0:0:
329,192,111283,1,2,0:0:0:0:
109,192,111379,1,0,0:0:0:0:
402,192,111379,1,0,0:0:0:0:
182,192,111475,1,0,0:0:0:0:
475,192,111475,1,0,0:0:0:0:
36,192,111572,1,0,0:0:0:0:
256,192,111572,1,0,0:0:0:0:
109,192,111668,1,0,0:0:0:0:
329,192,111668,1,0,0:0:0:0:
475,192,111668,1,0,0:0:0:0:
182,192,111860,1,0,0:0:0:0:
402,192,111860,1,0,0:0:0:0:
329,192,112052,1,2,0:0:0:0:
475,192,112052,1,0,0:0:0:0:
256,192,112052,1,0,0:0:0:0:
36,192,112052,1,0,0:0:0:0:
109,192,112245,1,0,0:0:0:0:
402,192,112245,1,0,0:0:0:0:
182,192,112437,1,0,0:0:0:0:
329,192,112437,1,0,0:0:0:0:
36,192,112437,1,0,0:0:0:0:
109,192,112629,1,0,0:0:0:0:
475,192,112629,1,0,0:0:0:0:
402,192,112629,1,0,0:0:0:0:
182,192,112821,1,2,0:0:0:0:
329,192,112821,1,2,0:0:0:0:
36,192,112821,1,0,0:0:0:0:
475,192,112821,128,0,113206:0:0:0:0:
256,192,113014,1,0,0:0:0:0:
36,192,113206,1,0,0:0:0:0:
182,192,113206,1,0,0:0:0:0:
109,192,113398,1,0,0:0:0:0:
329,192,113398,1,0,0:0:0:0:
256,192,113591,1,2,0:0:0:0:
402,192,113591,1,2,0:0:0:0:
475,192,113591,1,0,0:0:0:0:
36,192,113591,1,0,0:0:0:0:
109,192,113783,1,0,0:0:0:0:
329,192,113783,1,0,0:0:0:0:
182,192,113975,1,0,0:0:0:0:
402,192,113975,1,0,0:0:0:0:
256,192,114167,1,0,0:0:0:0:
475,192,114167,1,0,0:0:0:0:
36,192,114167,1,0,0:0:0:0:
109,192,114360,1,2,0:0:0:0:
182,192,114360,1,2,0:0:0:0:
329,192,114360,1,0,0:0:0:0:
402,192,114360,128,0,114744:0:0:0:0:
475,192,114360,1,0,0:0:0:0:
256,192,114552,1,0,0:0:0:0:
36,192,114552,1,0,0:0:0:0:
109,192,114744,1,0,0:0:0:0:
182,192,114744,1,0,0:0:0:0:
329,192,114744,1,0,0:0:0:0:
256,192,114937,1,0,0:0:0:0:
475,192,114937,1,0,0:0:0:0:
402,192,115129,1,2,0:0:0:0:
36,192,115129,1,0,0:0:0:0:
182,192,115129,1,0,0:0:0:0:
109,192,115129,1,0,0:0:0:0:
256,192,115321,1,0,0:0:0:0:
475,192,115321,1,0,0:0:0:0:
109,192,115513,1,0,0:0:0:0:
182,192,115513,1,0,0:0:0:0:
329,192,115513,1,0,0:0:0:0:
256,192,115706,1,0,0:0:0:0:
402,192,115706,1,0,0:0:0:0:
36,192,115706,1,0,0:0:0:0:
109,192,115898,1,2,0:0:0:0:
182,192,115898,1,2,0:0:0:0:
256,192,115898,1,0,0:0:0:0:
475,192,115898,1,0,0:0:0:0:
329,192,115898,128,0,116283:0:0:0:0:
402,192,116090,1,0,0:0:0:0:
36,192,116090,1,0,0:0:0:0:
109,192,116283,1,0,0:0:0:0:
256,192,116283,1,0,0:0:0:0:
402,192,116283,1,0,0:0:0:0:
182,192,116475,1,0,0:0:0:0:
329,192,116475,1,0,0:0:0:0:
475,192,116475,1,0,0:0:0:0:
256,192,116667,1,2,0:0:0:0:
402,192,116667,1,2,0:0:0:0:
36,192,116667,1,0,0:0:0:0:
109,192,116667,1,0,0:0:0:0:
182,192,116859,1,0,0:0:0:0:
329,192,116859,1,0,0:0:0:0:
475,192,116859,1,0,0:0:0:0:
402,192,117052,1,0,0:0:0:0:
256,192,117052,1,0,0:0:0:0:
36,192,117052,1,0,0:0:0:0:
109,192,117244,1,0,0:0:0:0:
182,192,117244,1,0,0:0:0:0:
329,192,117244,1,0,0:0:0:0:
256,192,117436,1,2,0:0:0:0:
402,192,117436,1,2,0:0:0:0:
475,192,117436,1,0,0:0:0:0:
109,192,117436,1,0,0:0:0:0:
36,192,117436,128,0,117821:0:0:0:0:
182,192,117629,1,0,0:0:0:0:
329,192,117629,1,0,0:0:0:0:
256,192,117821,1,0,0:0:0:0:
402,192,117821,1,0,0:0:0:0:
475,192,117821,128,0,118205:0:0:0:0:
109,192,118013,1,0,0:0:0:0:
329,192,118013,1,0,0:0:0:0:
182,192,118205,128,2,118590:0:0:0:0:
402,192,118205,1,0,0:0:0:0:
256,192,118205,1,0,0:0:0:0:
36,192,118205,1,0,0:0:0:0:
329,192,118205,1,0,0:0:0:0:
109,192,118398,1,0,0:0:0:0:
329,192,118398,1,0,0:0:0:0:
402,192,118590,128,0,118782:0:0:0:0:
475,192,118590,1,0,0:0:0:0:
256,192,118590,1,0,0:0:0:0:
36,192,118590,1,0,0:0:0:0:
329,192,118782,128,0,119359:0:0:0:0:
109,192,118782,1,0,0:0:0:0:
182,192,118782,1,0,0:0:0:0:
475,192,118975,1,2,0:0:0:0:
182,192,118975,1,0,0:0:0:0:
36,192,118975,1,0,0:0:0:0:
256,192,118975,1,0,0:0:0:0:
109,192,119167,1,0,0:0:0:0:
402,192,119167,1,0,0:0:0:0:
182,192,119359,128,0,119744:0:0:0:0:
36,192,119359,1,0,0:0:0:0:
256,192,119359,1,0,0:0:0:0:
475,192,119359,1,0,0:0:0:0:
329,192,119552,1,0,0:0:0:0:
109,192,119552,1,0,0:0:0:0:
402,192,119744,128,2,120128:0:0:0:0:
256,192,119744,1,2,0:0:0:0:
475,192,119744,1,0,0:0:0:0:
36,192,119744,1,0,0:0:0:0:
329,192,119744,1,0,0:0:0:0:
109,192,119936,1,0,0:0:0:0:
182,192,119936,1,0,0:0:0:0:
329,192,120128,128,0,120321:0:0:0:0:
182,192,120128,1,0,0:0:0:0:
256,192,120128,1,0,0:0:0:0:
36,192,120128,1,0,0:0:0:0:
109,192,120321,128,0,120513:0:0:0:0:
475,192,120321,1,0,0:0:0:0:
402,192,120321,1,0,0:0:0:0:
182,192,120513,128,2,120898:0:0:0:0:
256,192,120513,1,0,0:0:0:0:
402,192,120513,1,0,0:0:0:0:
329,192,120513,1,0,0:0:0:0:
36,192,120513,1,0,0:0:0:0:
109,192,120705,1,0,0:0:0:0:
329,192,120705,1,0,0:0:0:0:
475,192,120898,128,0,121282:0:0:0:0:
256,192,120898,1,0,0:0:0:0:
402,192,120898,1,0,0:0:0:0:
36,192,120898,1,0,0:0:0:0:
109,192,121090,1,0,0:0:0:0:
329,192,121090,1,0,0:0:0:0:
256,192,121282,128,2,121474:0:0:0:0:
36,192,121282,1,0,0:0:0:0:
109,192,121282,1,0,0:0:0:0:
182,192,121282,1,0,0:0:0:0:
402,192,121282,1,0,0:0:0:0:
329,192,121474,128,0,121667:0:0:0:0:
475,192,121474,1,0,0:0:0:0:
109,192,121474,1,0,0:0:0:0:
402,192,121667,128,0,121859:0:0:0:0:
182,192,121667,1,0,0:0:0:0:
36,192,121667,1,0,0:0:0:0:
475,192,121859,128,0,122820:0:0:0:0:
109,192,121859,1,0,0:0:0:0:
256,192,121859,1,0,0:0:0:0:
329,192,121859,1,0,0:0:0:0:
402,192,122051,1,2,0:0:0:0:
256,192,122051,1,2,0:0:0:0:
182,192,122051,1,0,0:0:0:0:
36,192,122051,128,0,122244:0:0:0:0:
109,192,122244,128,0,122436:0:0:0:0:
329,192,122244,1,0,0:0:0:0:
182,192,122436,128,0,122628:0:0:0:0:
402,192,122436,1,0,0:0:0:0:
36,192,122628,128,0,122820:0:0:0:0:
329,192,122628,1,0,0:0:0:0:
256,192,122820,128,2,123590:0:0:0:0:
182,192,122820,1,2,0:0:0:0:
402,192,122820,1,0,0:0:0:0:
109,192,122820,1,0,0:0:0:0:
36,192,123013,1,0,0:0:0:0:
329,192,123013,1,0,0:0:0:0:
109,192,123205,1,0,0:0:0:0:
402,192,123205,1,0,0:0:0:0:
475,192,123397,1,0,0:0:0:0:
182,192,123397,1,0,0:0:0:0:
329,192,123590,128,6,125128:0:0:0:0:
36,192,123590,128,4,125128:0:0:0:0:
402,192,123590,1,0,0:0:0:0:
109,192,123590,1,0,0:0:0:0:
475,192,124359,128,0,125128:0:0:0:0:
182,192,124359,128,0,125128:0:0:0:0:
402,192,125128,128,0,129070:0:0:0:0:
109,192,125128,128,0,129070:0:0:0:0:
256,192,125128,128,0,129070:0:0:0:0:
109,192,129166,128,0,129262:0:0:0:0:
402,192,129166,128,0,129262:0:0:0:0:
475,192,129358,1,0,0:0:0:0:
36,192,129358,1,0,0:0:0:0:
475,192,129454,1,0,0:0:0:0:
36,192,129454,1,0,0:0:0:0:
475,192,129551,1,0,0:0:0:0:
36,192,129551,1,0,0:0:0:0:
402,192,129647,1,0,0:0:0:0:
109,192,129647,1,0,0:0:0:0:
182,192,129743,1,6,0:0:0:0:
256,192,129743,1,2,0:0:0:0:
329,192,129743,1,0,0:0:0:0:
475,192,129743,128,0,129935:0:0:0:0:
36,192,129743,128,0,129935:0:0:0:0:
256,192,129935,128,0,130127:0:0:0:0:
329,192,130127,128,2,130320:0:0:0:0:
109,192,130127,1,2,0:0:0:0:
402,192,130320,128,0,130512:0:0:0:0:
182,192,130320,1,0,0:0:0:0:
475,192,130512,128,2,130704:0:0:0:0:
256,192,130512,1,0,0:0:0:0:
109,192,130512,1,0,0:0:0:0:
36,192,130704,128,0,130897:0:0:0:0:
182,192,130704,1,0,0:0:0:0:
329,192,130704,1,0,0:0:0:0:
109,192,130897,128,0,131089:0:0:0:0:
256,192,130897,1,0,0:0:0:0:
402,192,130897,1,0,0:0:0:0:
182,192,131089,128,0,131281:0:0:0:0:
329,192,131089,1,0,0:0:0:0:
475,192,131089,1,0,0:0:0:0:
256,192,131281,128,2,131473:0:0:0:0:
402,192,131281,1,2,0:0:0:0:
109,192,131281,1,0,0:0:0:0:
36,192,131281,1,0,0:0:0:0:
475,192,131473,128,0,131666:0:0:0:0:
182,192,131473,1,0,0:0:0:0:
402,192,131666,128,0,131858:0:0:0:0:
256,192,131666,1,0,0:0:0:0:
329,192,131858,128,0,132050:0:0:0:0:
36,192,131858,1,0,0:0:0:0:
256,192,132050,128,2,132243:0:0:0:0:
402,192,132050,1,0,0:0:0:0:
475,192,132050,1,0,0:0:0:0:
109,192,132050,1,0,0:0:0:0:
182,192,132050,1,0,0:0:0:0:
36,192,132243,128,0,132435:0:0:0:0:
329,192,132243,1,0,0:0:0:0:
109,192,132435,128,0,132627:0:0:0:0:
402,192,132435,1,0,0:0:0:0:
182,192,132627,128,0,132819:0:0:0:0:
329,192,132627,1,0,0:0:0:0:
256,192,132819,128,2,133012:0:0:0:0:
402,192,132819,1,2,0:0:0:0:
109,192,132819,1,0,0:0:0:0:
475,192,132819,1,0,0:0:0:0:
36,192,132819,1,0,0:0:0:0:
36,192,133012,128,0,133204:0:0:0:0:
329,192,133012,1,0,0:0:0:0:
182,192,133204,128,2,133396:0:0:0:0:
402,192,133204,1,2,0:0:0:0:
329,192,133396,128,0,133589:0:0:0:0:
109,192,133396,1,0,0:0:0:0:
475,192,133589,128,2,133781:0:0:0:0:
256,192,133589,1,0,0:0:0:0:
36,192,133589,1,0,0:0:0:0:
182,192,133589,1,0,0:0:0:0:
109,192,133781,128,0,133973:0:0:0:0:
402,192,133781,1,0,0:0:0:0:
256,192,133973,128,0,134165:0:0:0:0:
329,192,133973,1,0,0:0:0:0:
182,192,133973,1,0,0:0:0:0:
402,192,134165,128,0,134358:0:0:0:0:
36,192,134165,1,0,0:0:0:0:
329,192,134358,128,2,134550:0:0:0:0:
182,192,134358,1,2,0:0:0:0:
475,192,134358,1,0,0:0:0:0:
109,192,134550,128,0,134742:0:0:0:0:
402,192,134550,1,0,0:0:0:0:
182,192,134742,128,2,134935:0:0:0:0:
475,192,134742,1,2,0:0:0:0:
329,192,134742,1,0,0:0:0:0:
36,192,134935,128,0,135127:0:0:0:0:
256,192,134935,1,0,0:0:0:0:
109,192,135127,128,2,135319:0:0:0:0:
329,192,135127,1,0,0:0:0:0:
402,192,135127,1,0,0:0:0:0:
182,192,135127,1,0,0:0:0:0:
475,192,135319,128,0,135512:0:0:0:0:
256,192,135319,1,0,0:0:0:0:
329,192,135319,1,0,0:0:0:0:
402,192,135512,128,2,135704:0:0:0:0:
36,192,135512,1,0,0:0:0:0:
256,192,135704,128,0,135896:0:0:0:0:
182,192,135704,1,0,0:0:0:0:
109,192,135896,128,2,136281:0:0:0:0:
402,192,135896,128,2,136281:0:0:0:0:
475,192,135896,1,0,0:0:0:0:
329,192,135896,1,0,0:0:0:0:
36,192,135896,1,0,0:0:0:0:
182,192,136281,128,0,136473:0:0:0:0:
475,192,136281,1,0,0:0:0:0:
256,192,136473,128,0,136665:0:0:0:0:
402,192,136473,1,0,0:0:0:0:
329,192,136665,128,2,136858:0:0:0:0:
36,192,136665,1,0,0:0:0:0:
182,192,136665,1,0,0:0:0:0:
475,192,136665,1,0,0:0:0:0:
109,192,136858,128,0,137050:0:0:0:0:
256,192,136858,1,0,0:0:0:0:
402,192,137050,128,0,137242:0:0:0:0:
329,192,137050,1,0,0:0:0:0:
182,192,137242,128,0,137434:0:0:0:0:
109,192,137242,1,0,0:0:0:0:
475,192,137434,128,0,138204:0:0:0:0:
36,192,137434,128,0,137627:0:0:0:0:
256,192,137434,1,0,0:0:0:0:
402,192,137434,1,0,0:0:0:0:
329,192,137434,1,0,0:0:0:0:
109,192,137627,128,0,137819:0:0:0:0:
329,192,137627,1,0,0:0:0:0:
182,192,137819,128,0,138011:0:0:0:0:
402,192,137819,1,0,0:0:0:0:
256,192,138011,128,0,138204:0:0:0:0:
36,192,138011,1,0,0:0:0:0:
329,192,138204,128,2,138780:0:0:0:0:
109,192,138204,1,0,0:0:0:0:
182,192,138204,1,0,0:0:0:0:
402,192,138204,1,0,0:0:0:0:
36,192,138396,128,0,138588:0:0:0:0:
475,192,138396,1,0,0:0:0:0:
182,192,138588,128,0,138780:0:0:0:0:
402,192,138588,1,0,0:0:0:0:
256,192,138780,128,0,138973:0:0:0:0:
475,192,138780,1,0,0:0:0:0:
109,192,138973,128,2,139550:0:0:0:0:
402,192,138973,1,2,0:0:0:0:
182,192,138973,1,0,0:0:0:0:
36,192,138973,1,0,0:0:0:0:
475,192,139165,128,0,139357:0:0:0:0:
329,192,139165,1,0,0:0:0:0:
402,192,139357,128,0,139742:0:0:0:0:
256,192,139357,1,0,0:0:0:0:
182,192,139550,128,2,139742:0:0:0:0:
36,192,139550,1,2,0:0:0:0:
329,192,139550,1,0,0:0:0:0:
475,192,139550,1,0,0:0:0:0:
256,192,139742,1,2,0:0:0:0:
109,192,139742,1,0,0:0:0:0:
475,192,139742,1,0,0:0:0:0:
36,192,139742,1,0,0:0:0:0:
329,192,139934,128,0,140126:0:0:0:0:
109,192,139934,1,0,0:0:0:0:
402,192,140126,128,0,140319:0:0:0:0:
182,192,140126,1,0,0:0:0:0:
36,192,140126,1,0,0:0:0:0:
475,192,140319,128,0,140511:0:0:0:0:
256,192,140319,1,0,0:0:0:0:
109,192,140319,1,0,0:0:0:0:
182,192,140511,128,2,141280:0:0:0:0:
329,192,140511,1,0,0:0:0:0:
36,192,140511,1,0,0:0:0:0:
402,192,140511,1,0,0:0:0:0:
256,192,140703,1,0,0:0:0:0:
109,192,140703,1,0,0:0:0:0:
329,192,140896,1,0,0:0:0:0:
475,192,140896,1,0,0:0:0:0:
36,192,141088,1,0,0:0:0:0:
109,192,141088,1,0,0:0:0:0:
329,192,141280,128,2,141665:0:0:0:0:
256,192,141280,1,2,0:0:0:0:
402,192,141280,1,0,0:0:0:0:
475,192,141280,1,0,0:0:0:0:
109,192,141472,1,0,0:0:0:0:
36,192,141665,128,0,141857:0:0:0:0:
182,192,141665,1,0,0:0:0:0:
109,192,141857,128,0,142049:0:0:0:0:
256,192,141857,1,0,0:0:0:0:
182,192,142049,128,6,142626:0:0:0:0:
329,192,142049,1,2,0:0:0:0:
402,192,142049,1,0,0:0:0:0:
475,192,142049,1,0,0:0:0:0:
36,192,142049,1,0,0:0:0:0:
329,192,142242,128,0,142434:0:0:0:0:
36,192,142242,1,0,0:0:0:0:
402,192,142434,128,0,142626:0:0:0:0:
109,192,142434,1,0,0:0:0:0:
475,192,142626,128,0,142819:0:0:0:0:
256,192,142626,1,0,0:0:0:0:
36,192,142626,1,0,0:0:0:0:
329,192,142819,128,2,143011:0:0:0:0:
109,192,142819,1,0,0:0:0:0:
182,192,142819,1,0,0:0:0:0:
256,192,142819,1,0,0:0:0:0:
402,192,143011,128,0,143203:0:0:0:0:
36,192,143011,1,0,0:0:0:0:
109,192,143011,1,0,0:0:0:0:
475,192,143203,128,0,143395:0:0:0:0:
109,192,143203,1,0,0:0:0:0:
182,192,143203,1,0,0:0:0:0:
329,192,143395,128,0,143588:0:0:0:0:
256,192,143395,1,0,0:0:0:0:
36,192,143395,1,0,0:0:0:0:
182,192,143588,128,2,144165:0:0:0:0:
109,192,143588,1,2,0:0:0:0:
36,192,143588,1,0,0:0:0:0:
475,192,143588,1,0,0:0:0:0:
256,192,143780,1,0,0:0:0:0:
36,192,143972,128,0,144165:0:0:0:0:
329,192,143972,1,0,0:0:0:0:
402,192,144165,128,0,144549:0:0:0:0:
475,192,144165,1,0,0:0:0:0:
256,192,144165,1,0,0:0:0:0:
109,192,144165,1,0,0:0:0:0:
256,192,144357,128,2,144549:0:0:0:0:
182,192,144357,1,0,0:0:0:0:
36,192,144357,1,0,0:0:0:0:
109,192,144549,128,0,145126:0:0:0:0:
36,192,144549,1,0,0:0:0:0:
329,192,144549,1,0,0:0:0:0:
475,192,144549,1,0,0:0:0:0:
182,192,144741,1,0,0:0:0:0:
256,192,144934,1,0,0:0:0:0:
329,192,145126,128,2,145703:0:0:0:0:
402,192,145126,1,2,0:0:0:0:
475,192,145126,1,0,0:0:0:0:
182,192,145126,1,0,0:0:0:0:
36,192,145126,1,0,0:0:0:0:
182,192,145511,128,0,145703:0:0:0:0:
109,192,145511,1,0,0:0:0:0:
475,192,145703,128,0,146087:0:0:0:0:
36,192,145703,1,0,0:0:0:0:
256,192,145895,1,2,0:0:0:0:
109,192,145895,1,0,0:0:0:0:
329,192,145895,1,0,0:0:0:0:
182,192,145895,1,0,0:0:0:0:
402,192,146087,128,2,146664:0:0:0:0:
182,192,146087,1,0,0:0:0:0:
329,192,146087,1,0,0:0:0:0:
36,192,146087,1,0,0:0:0:0:
109,192,146280,1,0,0:0:0:0:
256,192,146472,1,0,0:0:0:0:
109,192,146664,128,2,147241:0:0:0:0:
329,192,146664,1,2,0:0:0:0:
475,192,146664,1,0,0:0:0:0:
182,192,146664,1,0,0:0:0:0:
256,192,146857,1,0,0:0:0:0:
329,192,147049,128,0,147241:0:0:0:0:
182,192,147049,1,0,0:0:0:0:
36,192,147049,1,0,0:0:0:0:
475,192,147241,128,2,147818:0:0:0:0:
256,192,147241,1,2,0:0:0:0:
402,192,147241,1,0,0:0:0:0:
182,192,147241,1,0,0:0:0:0:
36,192,147433,1,2,0:0:0:0:
109,192,147433,1,0,0:0:0:0:
256,192,147433,1,0,0:0:0:0:
182,192,147626,1,0,0:0:0:0:
329,192,147626,1,0,0:0:0:0:
402,192,147722,1,0,0:0:0:0:
256,192,147818,128,0,148203:0:0:0:0:
36,192,147818,1,0,0:0:0:0:
182,192,148010,1,0,0:0:0:0:
109,192,148203,128,2,148972:0:0:0:0:
402,192,148203,128,2,148972:0:0:0:0:
36,192,148203,1,0,0:0:0:0:
329,192,148203,1,0,0:0:0:0:
475,192,148203,1,0,0:0:0:0:
329,192,148587,1,2,0:0:0:0:
256,192,148779,1,0,0:0:0:0:
182,192,148972,128,2,149164:0:0:0:0:
475,192,148972,1,0,0:0:0:0:
329,192,148972,1,0,0:0:0:0:
36,192,148972,1,0,0:0:0:0:
256,192,149164,128,0,149356:0:0:0:0:
109,192,149164,1,0,0:0:0:0:
36,192,149356,128,0,149549:0:0:0:0:
182,192,149356,1,0,0:0:0:0:
329,192,149356,1,0,0:0:0:0:
109,192,149549,128,0,149741:0:0:0:0:
402,192,149549,1,0,0:0:0:0:
182,192,149741,128,2,150318:0:0:0:0:
475,192,149741,1,2,0:0:0:0:
329,192,149741,1,0,0:0:0:0:
256,192,149741,1,0,0:0:0:0:
36,192,149741,1,0,0:0:0:0:
402,192,149933,1,0,0:0:0:0:
256,192,150125,1,0,0:0:0:0:
109,192,150318,128,2,150702:0:0:0:0:
329,192,150318,1,0,0:0:0:0:
36,192,150318,1,0,0:0:0:0:
475,192,150318,1,0,0:0:0:0:
256,192,150510,1,0,0:0:0:0:
402,192,150510,1,0,0:0:0:0:
329,192,150510,1,0,0:0:0:0:
36,192,150702,128,2,151279:0:0:0:0:
475,192,150702,1,0,0:0:0:0:
182,192,150702,1,0,0:0:0:0:
329,192,150702,1,0,0:0:0:0:
402,192,150895,1,0,0:0:0:0:
109,192,151087,1,0,0:0:0:0:
256,192,151087,1,0,0:0:0:0:
329,192,151087,1,0,0:0:0:0:
475,192,151279,128,2,151856:0:0:0:0:
182,192,151279,1,2,0:0:0:0:
329,192,151279,1,0,0:0:0:0:
402,192,151279,1,0,0:0:0:0:
109,192,151664,1,0,0:0:0:0:
36,192,151856,1,0,0:0:0:0:
329,192,151856,1,0,0:0:0:0:
329,192,151952,1,0,0:0:0:0:
402,192,152048,1,2,0:0:0:0:
475,192,152048,1,2,0:0:0:0:
182,192,152048,1,0,0:0:0:0:
109,192,152048,1,0,0:0:0:0:
256,192,152241,1,0,0:0:0:0:
36,192,152241,1,0,0:0:0:0:
329,192,152433,1,0,0:0:0:0:
109,192,152433,1,0,0:0:0:0:
402,192,152625,1,0,0:0:0:0:
182,192,152625,1,0,0:0:0:0:
475,192,152818,1,2,0:0:0:0:
256,192,152818,1,0,0:0:0:0:
329,192,152818,1,0,0:0:0:0:
109,192,152818,128,0,153587:0:0:0:0:
36,192,152818,1,0,0:0:0:0:
182,192,153010,1,0,0:0:0:0:
402,192,153010,1,0,0:0:0:0:
256,192,153202,1,0,0:0:0:0:
475,192,153202,1,0,0:0:0:0:
329,192,153394,1,0,0:0:0:0:
36,192,153394,1,0,0:0:0:0:
182,192,153587,128,2,154356:0:0:0:0:
256,192,153587,1,0,0:0:0:0:
329,192,153587,1,0,0:0:0:0:
475,192,153587,1,0,0:0:0:0:
402,192,153587,1,0,0:0:0:0:
402,192,153779,1,0,0:0:0:0:
109,192,153779,1,0,0:0:0:0:
36,192,153971,1,0,0:0:0:0:
256,192,153971,1,0,0:0:0:0:
329,192,154164,1,0,0:0:0:0:
475,192,154164,1,0,0:0:0:0:
402,192,154356,1,6,0:0:0:0:
256,192,154356,1,2,0:0:0:0:
109,192,154356,1,0,0:0:0:0:
36,192,154356,1,0,0:0:0:0:
475,192,154356,128,0,155125:0:0:0:0:
329,192,154548,1,0,0:0:0:0:
36,192,154548,1,0,0:0:0:0:
36,192,154740,128,0,155125:0:0:0:0:
109,192,154740,1,0,0:0:0:0:
256,192,154740,1,0,0:0:0:0:
402,192,154933,1,0,0:0:0:0:
329,192,154933,1,0,0:0:0:0:
109,192,155125,128,2,155510:0:0:0:0:
256,192,155125,1,0,0:0:0:0:
402,192,155125,1,0,0:0:0:0:
182,192,155125,1,0,0:0:0:0:
329,192,155317,1,0,0:0:0:0:
182,192,155510,128,0,155702:0:0:0:0:
402,192,155510,1,0,0:0:0:0:
36,192,155510,1,0,0:0:0:0:
256,192,155702,128,0,155894:0:0:0:0:
475,192,155702,1,0,0:0:0:0:
329,192,155702,1,0,0:0:0:0:
36,192,155894,128,2,156279:0:0:0:0:
329,192,155894,128,2,156279:0:0:0:0:
402,192,155894,1,0,0:0:0:0:
182,192,155894,1,0,0:0:0:0:
109,192,155894,1,0,0:0:0:0:
256,192,156086,1,0,0:0:0:0:
475,192,156279,128,0,156663:0:0:0:0:
109,192,156279,1,0,0:0:0:0:
402,192,156279,1,0,0:0:0:0:
182,192,156471,1,0,0:0:0:0:
36,192,156471,1,0,0:0:0:0:
402,192,156663,128,2,157048:0:0:0:0:
109,192,156663,1,0,0:0:0:0:
256,192,156663,1,0,0:0:0:0:
329,192,156663,1,0,0:0:0:0:
36,192,156856,1,0,0:0:0:0:
182,192,156856,1,0,0:0:0:0:
329,192,157048,128,0,157240:0:0:0:0:
256,192,157048,1,0,0:0:0:0:
475,192,157048,1,0,0:0:0:0:
256,192,157240,128,0,157432:0:0:0:0:
402,192,157240,1,0,0:0:0:0:
182,192,157240,1,0,0:0:0:0:
109,192,157432,128,2,157817:0:0:0:0:
475,192,157432,128,2,157817:0:0:0:0:
36,192,157432,1,0,0:0:0:0:
182,192,157432,1,0,0:0:0:0:
329,192,157432,1,0,0:0:0:0:
402,192,157625,1,0,0:0:0:0:
329,192,157817,128,0,158202:0:0:0:0:
182,192,157817,1,0,0:0:0:0:
256,192,157817,1,0,0:0:0:0:
36,192,158009,1,0,0:0:0:0:
109,192,158009,1,0,0:0:0:0:
182,192,158202,128,2,158586:0:0:0:0:
256,192,158202,1,2,0:0:0:0:
402,192,158202,1,0,0:0:0:0:
475,192,158202,1,0,0:0:0:0:
36,192,158202,1,0,0:0:0:0:
109,192,158394,1,0,0:0:0:0:
329,192,158394,1,0,0:0:0:0:
36,192,158586,128,0,158779:0:0:0:0:
402,192,158586,1,0,0:0:0:0:
475,192,158586,1,0,0:0:0:0:
256,192,158779,128,0,158971:0:0:0:0:
329,192,158779,1,0,0:0:0:0:
109,192,158971,128,2,159355:0:0:0:0:
36,192,158971,1,0,0:0:0:0:
182,192,158971,1,0,0:0:0:0:
402,192,158971,1,0,0:0:0:0:
475,192,158971,1,0,0:0:0:0:
402,192,159163,128,0,159355:0:0:0:0:
329,192,159163,1,0,0:0:0:0:
256,192,159163,1,0,0:0:0:0:
182,192,159355,128,0,159548:0:0:0:0:
475,192,159355,1,0,0:0:0:0:
36,192,159355,1,0,0:0:0:0:
329,192,159548,128,0,159740:0:0:0:0:
256,192,159548,1,0,0:0:0:0:
402,192,159548,1,0,0:0:0:0:
109,192,159740,128,2,159932:0:0:0:0:
475,192,159740,1,0,0:0:0:0:
182,192,159740,1,0,0:0:0:0:
36,192,159740,1,0,0:0:0:0:
256,192,159932,128,0,160125:0:0:0:0:
402,192,159932,1,0,0:0:0:0:
329,192,159932,1,0,0:0:0:0:
475,192,160125,128,0,160317:0:0:0:0:
182,192,160125,1,0,0:0:0:0:
36,192,160125,1,0,0:0:0:0:
329,192,160317,128,0,160509:0:0:0:0:
109,192,160317,1,0,0:0:0:0:
256,192,160317,1,0,0:0:0:0:
182,192,160509,128,2,160894:0:0:0:0:
36,192,160509,1,2,0:0:0:0:
402,192,160509,1,0,0:0:0:0:
475,192,160509,1,0,0:0:0:0:
36,192,160701,1,0,0:0:0:0:
402,192,160894,128,0,161278:0:0:0:0:
109,192,160894,1,0,0:0:0:0:
256,192,160894,1,0,0:0:0:0:
36,192,161086,1,0,0:0:0:0:
182,192,161086,1,0,0:0:0:0:
329,192,161278,128,2,161663:0:0:0:0:
109,192,161278,1,0,0:0:0:0:
256,192,161278,1,0,0:0:0:0:
475,192,161278,1,0,0:0:0:0:
36,192,161471,1,0,0:0:0:0:
402,192,161471,1,0,0:0:0:0:
182,192,161663,128,0,161855:0:0:0:0:
475,192,161663,1,0,0:0:0:0:
109,192,161663,1,0,0:0:0:0:
256,192,161855,128,0,162047:0:0:0:0:
329,192,161855,1,0,0:0:0:0:
36,192,161855,1,0,0:0:0:0:
402,192,162047,128,2,162432:0:0:0:0:
109,192,162047,128,2,162432:0:0:0:0:
182,192,162047,1,0,0:0:0:0:
329,192,162047,1,0,0:0:0:0:
475,192,162047,1,0,0:0:0:0:
256,192,162240,1,0,0:0:0:0:
182,192,162432,128,0,162817:0:0:0:0:
329,192,162432,1,0,0:0:0:0:
475,192,162432,1,0,0:0:0:0:
36,192,162432,1,0,0:0:0:0:
402,192,162624,1,0,0:0:0:0:
256,192,162817,128,2,163201:0:0:0:0:
475,192,162817,1,0,0:0:0:0:
329,192,162817,1,0,0:0:0:0:
109,192,162817,1,0,0:0:0:0:
36,192,162817,1,0,0:0:0:0:
182,192,163009,1,0,0:0:0:0:
402,192,163201,128,0,163393:0:0:0:0:
109,192,163201,1,0,0:0:0:0:
36,192,163201,1,0,0:0:0:0:
329,192,163393,128,0,163586:0:0:0:0:
256,192,163393,1,0,0:0:0:0:
182,192,163586,128,2,163970:0:0:0:0:
475,192,163586,128,2,163970:0:0:0:0:
36,192,163586,1,0,0:0:0:0:
109,192,163586,1,0,0:0:0:0:
402,192,163586,1,0,0:0:0:0:
256,192,163778,1,0,0:0:0:0:
36,192,163970,128,0,164355:0:0:0:0:
329,192,163970,1,0,0:0:0:0:
402,192,163970,1,0,0:0:0:0:
182,192,164163,1,0,0:0:0:0:
402,192,164163,1,0,0:0:0:0:
109,192,164355,128,2,164547:0:0:0:0:
475,192,164355,1,0,0:0:0:0:
256,192,164355,1,0,0:0:0:0:
182,192,164547,128,0,164739:0:0:0:0:
329,192,164547,1,0,0:0:0:0:
256,192,164739,128,0,164932:0:0:0:0:
402,192,164739,1,0,0:0:0:0:
109,192,164739,1,0,0:0:0:0:
329,192,164932,128,0,165124:0:0:0:0:
182,192,164932,1,0,0:0:0:0:
475,192,165124,128,2,165316:0:0:0:0:
109,192,165124,128,0,165316:0:0:0:0:
36,192,165124,1,0,0:0:0:0:
256,192,165124,1,0,0:0:0:0:
402,192,165124,1,0,0:0:0:0:
182,192,165316,128,0,165509:0:0:0:0:
402,192,165316,128,0,165509:0:0:0:0:
329,192,165316,1,0,0:0:0:0:
36,192,165509,128,0,165701:0:0:0:0:
256,192,165509,128,0,165701:0:0:0:0:
475,192,165509,1,0,0:0:0:0:
109,192,165701,128,0,165893:0:0:0:0:
329,192,165701,1,0,0:0:0:0:
475,192,165701,1,0,0:0:0:0:
402,192,165797,1,0,0:0:0:0:
182,192,165893,128,2,166278:0:0:0:0:
329,192,165893,128,2,166278:0:0:0:0:
256,192,165893,1,0,0:0:0:0:
36,192,165893,1,0,0:0:0:0:
475,192,165893,1,0,0:0:0:0:
402,192,166086,128,0,166278:0:0:0:0:
475,192,166278,128,0,166662:0:0:0:0:
109,192,166278,128,0,166662:0:0:0:0:
256,192,166278,1,0,0:0:0:0:
36,192,166278,1,0,0:0:0:0:
182,192,166470,1,0,0:0:0:0:
329,192,166470,1,0,0:0:0:0:
402,192,166662,1,2,0:0:0:0:
256,192,166662,1,0,0:0:0:0:
36,192,166662,128,0,167047:0:0:0:0:
182,192,166662,1,0,0:0:0:0:
329,192,166855,128,0,167047:0:0:0:0:
109,192,166855,1,0,0:0:0:0:
475,192,167047,128,0,167239:0:0:0:0:
402,192,167047,1,0,0:0:0:0:
182,192,167047,1,0,0:0:0:0:
256,192,167239,128,0,167624:0:0:0:0:
329,192,167239,1,0,0:0:0:0:
109,192,167239,1,0,0:0:0:0:
475,192,167432,1,2,0:0:0:0:
109,192,167432,1,0,0:0:0:0:
36,192,167432,1,0,0:0:0:0:
182,192,167432,1,0,0:0:0:0:
402,192,167624,128,0,168201:0:0:0:0:
329,192,167624,1,0,0:0:0:0:
36,192,167624,1,0,0:0:0:0:
329,192,167816,1,0,0:0:0:0:
109,192,167816,1,0,0:0:0:0:
475,192,168008,1,0,0:0:0:0:
182,192,168008,1,0,0:0:0:0:
329,192,168201,128,2,168393:0:0:0:0:
36,192,168201,128,2,168585:0:0:0:0:
256,192,168201,1,0,0:0:0:0:
475,192,168201,1,0,0:0:0:0:
109,192,168201,1,0,0:0:0:0:
182,192,168393,128,0,168585:0:0:0:0:
402,192,168393,1,0,0:0:0:0:
402,192,168585,128,0,168778:0:0:0:0:
256,192,168585,1,0,0:0:0:0:
329,192,168585,1,0,0:0:0:0:
109,192,168778,128,0,169162:0:0:0:0:
475,192,168778,1,0,0:0:0:0:
182,192,168778,1,0,0:0:0:0:
256,192,168970,128,2,169162:0:0:0:0:
329,192,168970,1,2,0:0:0:0:
402,192,168970,1,0,0:0:0:0:
36,192,168970,1,0,0:0:0:0:
402,192,169162,128,0,169739:0:0:0:0:
182,192,169162,1,0,0:0:0:0:
475,192,169162,1,0,0:0:0:0:
329,192,169354,1,0,0:0:0:0:
109,192,169354,1,0,0:0:0:0:
182,192,169547,1,0,0:0:0:0:
256,192,169643,1,0,0:0:0:0:
36,192,169739,128,2,170124:0:0:0:0:
329,192,169739,128,2,169931:0:0:0:0:
475,192,169739,1,0,0:0:0:0:
109,192,169739,1,0,0:0:0:0:
182,192,169835,1,0,0:0:0:0:
256,192,169931,128,0,170124:0:0:0:0:
402,192,169931,1,0,0:0:0:0:
329,192,170124,1,0,0:0:0:0:
475,192,170124,1,0,0:0:0:0:
182,192,170124,1,0,0:0:0:0:
109,192,170316,1,0,0:0:0:0:
256,192,170316,1,0,0:0:0:0:
475,192,170508,1,2,0:0:0:0:
402,192,170508,1,2,0:0:0:0:
36,192,170508,1,0,0:0:0:0:
182,192,170508,1,0,0:0:0:0:
329,192,170700,128,0,170893:0:0:0:0:
109,192,170700,1,0,0:0:0:0:
475,192,170893,128,0,171085:0:0:0:0:
36,192,170893,1,0,0:0:0:0:
182,192,171085,128,0,171470:0:0:0:0:
256,192,171085,1,0,0:0:0:0:
402,192,171085,1,0,0:0:0:0:
329,192,171277,1,2,0:0:0:0:
475,192,171277,1,2,0:0:0:0:
109,192,171277,1,0,0:0:0:0:
256,192,171470,1,0,0:0:0:0:
402,192,171470,1,0,0:0:0:0:
36,192,171662,128,0,172046:0:0:0:0:
329,192,171662,1,0,0:0:0:0:
475,192,171662,1,0,0:0:0:0:
402,192,171854,1,0,0:0:0:0:
256,192,171854,1,0,0:0:0:0:
109,192,172046,128,2,172431:0:0:0:0:
182,192,172046,1,2,0:0:0:0:
329,192,172046,1,0,0:0:0:0:
475,192,172046,1,0,0:0:0:0:
256,192,172239,1,2,0:0:0:0:
475,192,172239,1,0,0:0:0:0:
402,192,172431,128,2,172816:0:0:0:0:
329,192,172431,1,0,0:0:0:0:
36,192,172431,1,0,0:0:0:0:
109,192,172623,1,2,0:0:0:0:
256,192,172623,1,2,0:0:0:0:
329,192,172816,128,2,173200:0:0:0:0:
182,192,172816,1,2,0:0:0:0:
475,192,172816,1,0,0:0:0:0:
36,192,172816,1,0,0:0:0:0:
256,192,173008,1,0,0:0:0:0:
109,192,173200,128,0,173392:0:0:0:0:
475,192,173200,1,0,0:0:0:0:
402,192,173200,1,0,0:0:0:0:
256,192,173392,128,0,173585:0:0:0:0:
36,192,173392,1,0,0:0:0:0:
402,192,173585,128,2,173777:0:0:0:0:
109,192,173585,1,0,0:0:0:0:
182,192,173585,1,0,0:0:0:0:
475,192,173585,1,0,0:0:0:0:
329,192,173777,128,0,173969:0:0:0:0:
36,192,173777,1,0,0:0:0:0:
182,192,173969,128,0,174162:0:0:0:0:
256,192,173969,1,0,0:0:0:0:
475,192,173969,1,0,0:0:0:0:
109,192,174162,128,0,174354:0:0:0:0:
402,192,174162,1,0,0:0:0:0:
329,192,174354,128,2,174739:0:0:0:0:
256,192,174354,1,2,0:0:0:0:
475,192,174354,1,0,0:0:0:0:
402,192,174354,1,0,0:0:0:0:
36,192,174354,1,0,0:0:0:0:
109,192,174546,1,0,0:0:0:0:
256,192,174546,1,0,0:0:0:0:
182,192,174739,128,0,174931:0:0:0:0:
36,192,174739,1,0,0:0:0:0:
402,192,174739,1,0,0:0:0:0:
475,192,174931,128,0,175315:0:0:0:0:
329,192,174931,1,0,0:0:0:0:
109,192,174931,1,0,0:0:0:0:
256,192,175123,128,2,175315:0:0:0:0:
402,192,175123,1,2,0:0:0:0:
329,192,175123,1,0,0:0:0:0:
182,192,175123,1,0,0:0:0:0:
36,192,175123,1,0,0:0:0:0:
109,192,175315,128,0,175700:0:0:0:0:
402,192,175315,1,0,0:0:0:0:
329,192,175508,128,0,175700:0:0:0:0:
475,192,175508,1,0,0:0:0:0:
182,192,175508,1,0,0:0:0:0:
475,192,175700,128,2,175892:0:0:0:0:
256,192,175700,1,0,0:0:0:0:
36,192,175700,1,0,0:0:0:0:
402,192,175892,128,2,176277:0:0:0:0:
109,192,175892,128,0,176277:0:0:0:0:
182,192,175892,1,0,0:0:0:0:
256,192,175892,1,0,0:0:0:0:
329,192,175892,1,0,0:0:0:0:
36,192,176085,1,0,0:0:0:0:
256,192,176277,1,0,0:0:0:0:
475,192,176277,1,0,0:0:0:0:
329,192,176277,128,0,176469:0:0:0:0:
182,192,176469,128,0,176661:0:0:0:0:
109,192,176469,1,0,0:0:0:0:
475,192,176661,128,2,176854:0:0:0:0:
256,192,176661,1,2,0:0:0:0:
402,192,176661,1,0,0:0:0:0:
329,192,176661,1,0,0:0:0:0:
36,192,176854,128,0,177046:0:0:0:0:
109,192,176854,1,0,0:0:0:0:
182,192,176854,1,0,0:0:0:0:
256,192,177046,128,0,177238:0:0:0:0:
329,192,177046,1,0,0:0:0:0:
402,192,177046,1,0,0:0:0:0:
109,192,177238,128,0,177431:0:0:0:0:
475,192,177238,1,0,0:0:0:0:
182,192,177238,1,0,0:0:0:0:
475,192,177431,128,2,178104:0:0:0:0:
329,192,177431,128,2,178104:0:0:0:0:
256,192,177431,1,0,0:0:0:0:
402,192,177431,1,0,0:0:0:0:
36,192,177431,1,0,0:0:0:0:
182,192,177623,1,0,0:0:0:0:
109,192,177815,1,0,0:0:0:0:
402,192,177815,1,0,0:0:0:0:
36,192,178007,1,0,0:0:0:0:
329,192,178200,128,2,178969:0:0:0:0:
402,192,178200,1,0,0:0:0:0:
475,192,178200,1,0,0:0:0:0:
182,192,178200,128,0,178969:0:0:0:0:
256,192,178200,1,0,0:0:0:0:
36,192,178392,128,2,178584:0:0:0:0:
109,192,178392,1,0,0:0:0:0:
256,192,178584,128,2,178777:0:0:0:0:
402,192,178584,1,0,0:0:0:0:
475,192,178777,128,2,178969:0:0:0:0:
109,192,178777,1,0,0:0:0:0:
109,192,178969,1,0,0:0:0:0:
402,192,178969,128,0,179161:0:0:0:0:
36,192,178969,128,0,179065:0:0:0:0:
256,192,178969,128,0,179065:0:0:0:0:
182,192,179161,128,0,179353:0:0:0:0:
36,192,179161,1,0,0:0:0:0:
329,192,179353,128,0,179546:0:0:0:0:
256,192,179353,1,0,0:0:0:0:
475,192,179353,1,0,0:0:0:0:
109,192,179546,128,0,179738:0:0:0:0:
402,192,179546,1,0,0:0:0:0:
36,192,179546,1,0,0:0:0:0:
475,192,179738,128,2,179930:0:0:0:0:
402,192,179738,1,0,0:0:0:0:
182,192,179738,128,0,179834:0:0:0:0:
329,192,179738,128,0,179834:0:0:0:0:
256,192,179930,128,0,180123:0:0:0:0:
36,192,179930,1,0,0:0:0:0:
402,192,180123,128,0,180315:0:0:0:0:
109,192,180123,1,0,0:0:0:0:
475,192,180123,1,0,0:0:0:0:
182,192,180315,128,0,180507:0:0:0:0:
36,192,180315,1,0,0:0:0:0:
256,192,180315,1,0,0:0:0:0:
329,192,180411,1,0,0:0:0:0:
475,192,180507,128,2,180699:0:0:0:0:
402,192,180507,1,2,0:0:0:0:
109,192,180507,1,0,0:0:0:0:
402,192,180699,128,2,180892:0:0:0:0:
329,192,180699,1,0,0:0:0:0:
182,192,180699,1,0,0:0:0:0:
36,192,180699,1,0,0:0:0:0:
329,192,180892,128,2,181084:0:0:0:0:
109,192,180892,1,2,0:0:0:0:
256,192,180892,1,0,0:0:0:0:
256,192,181084,128,2,181276:0:0:0:0:
182,192,181084,1,0,0:0:0:0:
475,192,181084,1,0,0:0:0:0:
36,192,181084,1,0,0:0:0:0:
402,192,181180,1,0,0:0:0:0:
182,192,181276,128,2,181469:0:0:0:0:
36,192,181276,1,2,0:0:0:0:
109,192,181276,1,0,0:0:0:0:
329,192,181276,1,0,0:0:0:0:
36,192,181469,1,0,0:0:0:0:
256,192,181469,1,0,0:0:0:0:
109,192,181661,1,0,0:0:0:0:
329,192,181661,1,0,0:0:0:0:
475,192,181661,1,0,0:0:0:0:
36,192,181853,1,0,0:0:0:0:
256,192,181853,1,0,0:0:0:0:
329,192,181949,1,0,0:0:0:0:
475,192,182046,128,0,182622:0:0:0:0:
182,192,182046,1,0,0:0:0:0:
109,192,182046,1,0,0:0:0:0:
402,192,182046,1,0,0:0:0:0:
256,192,182238,1,0,0:0:0:0:
36,192,182238,1,0,0:0:0:0:
182,192,182430,1,0,0:0:0:0:
402,192,182430,1,0,0:0:0:0:
329,192,182622,128,2,183007:0:0:0:0:
36,192,182622,1,2,0:0:0:0:
109,192,182622,1,0,0:0:0:0:
256,192,182622,1,0,0:0:0:0:
182,192,182815,1,2,0:0:0:0:
402,192,182815,1,0,0:0:0:0:
475,192,182815,1,0,0:0:0:0:
36,192,183007,1,0,0:0:0:0:
256,192,183007,1,0,0:0:0:0:
109,192,183103,1,0,0:0:0:0:
182,192,183199,1,2,0:0:0:0:
329,192,183199,1,0,0:0:0:0:
402,192,183199,1,0,0:0:0:0:
475,192,183199,1,0,0:0:0:0:
256,192,183392,1,0,0:0:0:0:
109,192,183392,1,0,0:0:0:0:
36,192,183584,128,6,183968:0:0:0:0:
475,192,183584,128,4,183776:0:0:0:0:
182,192,183584,1,0,0:0:0:0:
329,192,183584,1,0,0:0:0:0:
256,192,183584,1,0,0:0:0:0:
402,192,183776,128,0,183968:0:0:0:0:
182,192,183776,1,0,0:0:0:0:
329,192,183776,1,0,0:0:0:0:
109,192,183968,128,0,184353:0:0:0:0:
256,192,183968,128,0,184161:0:0:0:0:
475,192,183968,1,0,0:0:0:0:
329,192,184161,128,0,184353:0:0:0:0:
402,192,184161,1,0,0:0:0:0:
182,192,184353,1,2,0:0:0:0:
256,192,184353,1,2,0:0:0:0:
36,192,184353,1,0,0:0:0:0:
475,192,184545,128,0,184738:0:0:0:0:
109,192,184545,1,0,0:0:0:0:
329,192,184545,1,0,0:0:0:0:
402,192,184738,128,0,184930:0:0:0:0:
36,192,184738,1,0,0:0:0:0:
182,192,184738,1,0,0:0:0:0:
256,192,184930,128,0,185122:0:0:0:0:
109,192,184930,1,0,0:0:0:0:
329,192,185122,128,2,185507:0:0:0:0:
182,192,185122,1,2,0:0:0:0:
475,192,185122,1,0,0:0:0:0:
402,192,185122,1,0,0:0:0:0:
36,192,185122,1,0,0:0:0:0:
109,192,185314,1,0,0:0:0:0:
256,192,185314,1,0,0:0:0:0:
36,192,185507,128,2,185699:0:0:0:0:
402,192,185507,1,0,0:0:0:0:
182,192,185699,128,2,185891:0:0:0:0:
475,192,185699,1,0,0:0:0:0:
329,192,185699,1,0,0:0:0:0:
109,192,185699,1,0,0:0:0:0:
329,192,185891,128,2,186084:0:0:0:0:
402,192,185891,1,0,0:0:0:0:
256,192,185891,1,0,0:0:0:0:
36,192,185891,1,0,0:0:0:0:
109,192,186084,128,0,186276:0:0:0:0:
182,192,186084,1,0,0:0:0:0:
475,192,186084,1,0,0:0:0:0:
402,192,186084,1,0,0:0:0:0:
256,192,186276,128,0,186468:0:0:0:0:
36,192,186276,1,0,0:0:0:0:
329,192,186276,1,0,0:0:0:0:
402,192,186468,128,0,186660:0:0:0:0:
109,192,186468,1,0,0:0:0:0:
182,192,186468,1,0,0:0:0:0:
475,192,186660,128,2,186853:0:0:0:0:
329,192,186660,1,2,0:0:0:0:
256,192,186660,1,0,0:0:0:0:
36,192,186660,1,0,0:0:0:0:
109,192,186660,1,0,0:0:0:0:
329,192,186853,128,2,187045:0:0:0:0:
182,192,186853,1,2,0:0:0:0:
182,192,187045,128,2,187237:0:0:0:0:
36,192,187045,1,2,0:0:0:0:
402,192,187237,128,2,187430:0:0:0:0:
109,192,187237,1,2,0:0:0:0:
329,192,187237,1,0,0:0:0:0:
256,192,187430,128,2,187622:0:0:0:0:
475,192,187430,1,0,0:0:0:0:
182,192,187430,1,0,0:0:0:0:
36,192,187430,1,0,0:0:0:0:
109,192,187622,1,0,0:0:0:0:
329,192,187622,1,0,0:0:0:0:
256,192,187814,1,0,0:0:0:0:
402,192,187814,1,0,0:0:0:0:
475,192,187814,1,0,0:0:0:0:
182,192,188006,1,0,0:0:0:0:
36,192,188006,1,0,0:0:0:0:
329,192,188006,1,0,0:0:0:0:
109,192,188199,1,6,0:0:0:0:
256,192,188199,1,2,0:0:0:0:
402,192,188199,1,0,0:0:0:0:
36,192,188199,1,0,0:0:0:0:
475,192,188199,128,0,188583:0:0:0:0:
182,192,188391,1,0,0:0:0:0:
402,192,188391,1,0,0:0:0:0:
256,192,188487,1,0,0:0:0:0:
329,192,188583,1,0,0:0:0:0:
36,192,188583,1,0,0:0:0:0:
402,192,188776,128,0,189160:0:0:0:0:
109,192,188776,1,0,0:0:0:0:
256,192,188776,1,0,0:0:0:0:
36,192,188968,1,2,0:0:0:0:
182,192,188968,1,0,0:0:0:0:
329,192,188968,1,0,0:0:0:0:
109,192,189160,1,0,0:0:0:0:
256,192,189160,1,0,0:0:0:0:
475,192,189160,1,0,0:0:0:0:
329,192,189352,128,0,189737:0:0:0:0:
402,192,189352,1,0,0:0:0:0:
182,192,189352,1,0,0:0:0:0:
109,192,189545,128,0,189737:0:0:0:0:
475,192,189545,1,0,0:0:0:0:
182,192,189737,128,2,189929:0:0:0:0:
402,192,189737,1,2,0:0:0:0:
256,192,189737,1,0,0:0:0:0:
36,192,189929,128,0,190122:0:0:0:0:
475,192,189929,1,0,0:0:0:0:
329,192,190122,128,0,190314:0:0:0:0:
402,192,190122,1,0,0:0:0:0:
256,192,190122,1,0,0:0:0:0:
109,192,190122,1,0,0:0:0:0:
182,192,190314,128,0,190506:0:0:0:0:
36,192,190314,1,0,0:0:0:0:
475,192,190506,128,2,190699:0:0:0:0:
256,192,190506,1,2,0:0:0:0:
402,192,190506,1,0,0:0:0:0:
109,192,190699,128,2,190891:0:0:0:0:
182,192,190699,1,2,0:0:0:0:
329,192,190699,1,0,0:0:0:0:
36,192,190699,1,0,0:0:0:0:
402,192,190891,128,2,191083:0:0:0:0:
256,192,190891,1,0,0:0:0:0:
475,192,190891,1,0,0:0:0:0:
329,192,190891,1,0,0:0:0:0:
256,192,191083,128,2,191275:0:0:0:0:
109,192,191083,1,0,0:0:0:0:
329,192,191275,128,6,191468:0:0:0:0:
36,192,191275,128,2,191468:0:0:0:0:
182,192,191275,1,0,0:0:0:0:
475,192,191275,128,0,191372:0:0:0:0:
402,192,191275,128,0,191372:0:0:0:0:
109,192,191468,128,0,191660:0:0:0:0:
256,192,191468,1,0,0:0:0:0:
182,192,191660,128,0,191852:0:0:0:0:
36,192,191660,1,0,0:0:0:0:
402,192,191660,1,0,0:0:0:0:
256,192,191852,128,0,192045:0:0:0:0:
475,192,191852,1,0,0:0:0:0:
109,192,191852,1,0,0:0:0:0:
329,192,191852,1,0,0:0:0:0:
402,192,191948,1,0,0:0:0:0:
36,192,192045,128,2,192237:0:0:0:0:
182,192,192045,1,0,0:0:0:0:
329,192,192045,128,0,192141:0:0:0:0:
475,192,192045,128,0,192141:0:0:0:0:
109,192,192237,128,0,192429:0:0:0:0:
475,192,192237,128,0,192429:0:0:0:0:
402,192,192237,1,0,0:0:0:0:
329,192,192429,128,0,192621:0:0:0:0:
256,192,192429,1,0,0:0:0:0:
402,192,192621,128,0,192814:0:0:0:0:
36,192,192621,1,0,0:0:0:0:
182,192,192621,1,0,0:0:0:0:
109,192,192718,1,0,0:0:0:0:
475,192,192814,128,2,193006:0:0:0:0:
256,192,192814,128,0,193006:0:0:0:0:
182,192,192814,128,0,192910:0:0:0:0:
36,192,192814,128,0,192910:0:0:0:0:
182,192,193006,128,2,193198:0:0:0:0:
402,192,193006,1,2,0:0:0:0:
109,192,193006,1,0,0:0:0:0:
329,192,193006,128,0,193102:0:0:0:0:
109,192,193198,128,2,193391:0:0:0:0:
475,192,193198,1,2,0:0:0:0:
36,192,193198,1,0,0:0:0:0:
256,192,193198,128,0,193294:0:0:0:0:
475,192,193391,128,2,193583:0:0:0:0:
402,192,193391,1,2,0:0:0:0:
329,192,193391,1,0,0:0:0:0:
182,192,193391,128,0,193487:0:0:0:0:
36,192,193583,128,2,193775:0:0:0:0:
329,192,193583,1,0,0:0:0:0:
402,192,193583,1,0,0:0:0:0:
256,192,193583,1,0,0:0:0:0:
182,192,193583,128,2,193679:0:0:0:0:
329,192,193775,1,0,0:0:0:0:
109,192,193775,1,0,0:0:0:0:
256,192,193967,1,0,0:0:0:0:
475,192,193967,1,0,0:0:0:0:
402,192,194160,1,0,0:0:0:0:
182,192,194160,1,0,0:0:0:0:
256,192,194256,1,0,0:0:0:0:
329,192,194352,1,6,0:0:0:0:
109,192,194352,1,6,0:0:0:0:
36,192,194352,128,0,194448:0:0:0:0:
475,192,194352,128,0,194448:0:0:0:0:
182,192,194544,1,0,0:0:0:0:
402,192,194544,1,0,0:0:0:0:
36,192,194737,1,0,0:0:0:0:
256,192,194737,1,0,0:0:0:0:
109,192,194929,1,0,0:0:0:0:
182,192,194929,1,0,0:0:0:0:
329,192,194929,1,0,0:0:0:0:
475,192,194929,1,0,0:0:0:0:
256,192,195121,1,2,0:0:0:0:
402,192,195121,1,0,0:0:0:0:
475,192,195121,1,0,0:0:0:0:
36,192,195121,1,0,0:0:0:0:
182,192,195313,1,0,0:0:0:0:
329,192,195313,1,0,0:0:0:0:
36,192,195506,1,0,0:0:0:0:
256,192,195506,1,0,0:0:0:0:
182,192,195698,1,0,0:0:0:0:
329,192,195698,1,0,0:0:0:0:
475,192,195698,1,0,0:0:0:0:
402,192,195890,1,2,0:0:0:0:
256,192,195890,1,2,0:0:0:0:
109,192,195890,1,0,0:0:0:0:
36,192,195890,1,0,0:0:0:0:
182,192,196083,1,0,0:0:0:0:
475,192,196083,1,0,0:0:0:0:
256,192,196211,1,0,0:0:0:0:
329,192,196275,1,0,0:0:0:0:
109,192,196275,1,0,0:0:0:0:
36,192,196275,1,0,0:0:0:0:
182,192,196467,1,0,0:0:0:0:
402,192,196467,1,0,0:0:0:0:
475,192,196659,1,2,0:0:0:0:
256,192,196659,1,0,0:0:0:0:
329,192,196659,1,0,0:0:0:0:
36,192,196659,128,0,196852:0:0:0:0:
109,192,196852,1,2,0:0:0:0:
402,192,196852,1,0,0:0:0:0:
182,192,196852,128,0,197044:0:0:0:0:
329,192,197044,128,2,197236:0:0:0:0:
475,192,197044,1,0,0:0:0:0:
256,192,197044,1,0,0:0:0:0:
36,192,197044,1,0,0:0:0:0:
109,192,197236,128,2,197429:0:0:0:0:
402,192,197236,1,2,0:0:0:0:
475,192,197236,1,0,0:0:0:0:
182,192,197236,1,0,0:0:0:0:
256,192,197429,128,2,198198:0:0:0:0:
182,192,197429,1,0,0:0:0:0:
329,192,197429,1,0,0:0:0:0:
402,192,197429,128,0,197525:0:0:0:0:
36,192,197429,128,0,197525:0:0:0:0:
109,192,197621,1,0,0:0:0:0:
475,192,197621,1,0,0:0:0:0:
36,192,197813,128,0,198006:0:0:0:0:
402,192,197813,1,0,0:0:0:0:
329,192,197813,1,0,0:0:0:0:
182,192,198006,128,0,198198:0:0:0:0:
475,192,198006,1,0,0:0:0:0:
402,192,198006,1,0,0:0:0:0:
36,192,198198,128,2,198390:0:0:0:0:
329,192,198198,1,2,0:0:0:0:
109,192,198198,1,0,0:0:0:0:
475,192,198198,1,0,0:0:0:0:
475,192,198390,128,0,198582:0:0:0:0:
402,192,198390,1,0,0:0:0:0:
182,192,198390,1,0,0:0:0:0:
329,192,198582,128,0,198775:0:0:0:0:
36,192,198582,1,0,0:0:0:0:
256,192,198582,1,0,0:0:0:0:
109,192,198582,1,0,0:0:0:0:
182,192,198775,128,0,198967:0:0:0:0:
475,192,198775,1,0,0:0:0:0:
402,192,198775,1,0,0:0:0:0:
109,192,198775,1,0,0:0:0:0:
402,192,198967,128,6,199159:0:0:0:0:
256,192,198967,1,4,0:0:0:0:
329,192,198967,1,0,0:0:0:0:
36,192,198967,1,0,0:0:0:0:
109,192,199159,128,0,199352:0:0:0:0:
182,192,199159,1,0,0:0:0:0:
256,192,199352,128,0,199544:0:0:0:0:
36,192,199352,1,0,0:0:0:0:
475,192,199352,1,0,0:0:0:0:
402,192,199544,128,0,199736:0:0:0:0:
182,192,199544,1,0,0:0:0:0:
109,192,199640,1,0,0:0:0:0:
475,192,199736,128,2,199928:0:0:0:0:
36,192,199736,1,2,0:0:0:0:
256,192,199736,1,0,0:0:0:0:
329,192,199736,1,0,0:0:0:0:
109,192,199928,128,0,200121:0:0:0:0:
182,192,199928,1,0,0:0:0:0:
256,192,199928,1,0,0:0:0:0:
329,192,200121,128,0,200313:0:0:0:0:
402,192,200121,1,0,0:0:0:0:
475,192,200121,1,0,0:0:0:0:
36,192,200121,1,0,0:0:0:0:
475,192,200313,128,0,200505:0:0:0:0:
256,192,200313,1,0,0:0:0:0:
402,192,200313,1,0,0:0:0:0:
256,192,200409,1,0,0:0:0:0:
182,192,200505,128,4,201274:0:0:0:0:
109,192,200505,1,0,0:0:0:0:
329,192,200505,128,0,200601:0:0:0:0:
36,192,200505,128,0,200601:0:0:0:0:
256,192,200698,1,0,0:0:0:0:
402,192,200698,1,0,0:0:0:0:
329,192,200890,1,0,0:0:0:0:
475,192,200890,1,0,0:0:0:0:
109,192,201082,1,0,0:0:0:0:
256,192,201082,1,0,0:0:0:0:
329,192,201274,1,2,0:0:0:0:
475,192,201274,1,0,0:0:0:0:
36,192,201274,1,0,0:0:0:0:
256,192,201467,1,0,0:0:0:0:
402,192,201467,1,0,0:0:0:0:
182,192,201659,128,2,202044:0:0:0:0:
329,192,201659,1,2,0:0:0:0:
475,192,201659,1,0,0:0:0:0:
109,192,201659,1,0,0:0:0:0:
256,192,201851,1,0,0:0:0:0:
402,192,201851,1,0,0:0:0:0:
329,192,202044,128,6,202813:0:0:0:0:
36,192,202044,128,2,202236:0:0:0:0:
475,192,202044,1,0,0:0:0:0:
256,192,202044,1,0,0:0:0:0:
109,192,202044,1,0,0:0:0:0:
109,192,202236,128,0,202428:0:0:0:0:
182,192,202236,1,0,0:0:0:0:
402,192,202236,1,0,0:0:0:0:
182,192,202428,128,0,202620:0:0:0:0:
256,192,202428,1,0,0:0:0:0:
475,192,202428,1,0,0:0:0:0:
256,192,202620,128,0,202813:0:0:0:0:
109,192,202620,1,0,0:0:0:0:
475,192,202813,128,2,203005:0:0:0:0:
36,192,202813,128,2,203005:0:0:0:0:
182,192,202813,1,0,0:0:0:0:
402,192,202813,1,0,0:0:0:0:
402,192,203005,128,2,203197:0:0:0:0:
182,192,203005,128,0,203197:0:0:0:0:
109,192,203005,1,0,0:0:0:0:
329,192,203005,1,0,0:0:0:0:
109,192,203197,128,2,203390:0:0:0:0:
329,192,203197,128,2,203390:0:0:0:0:
36,192,203197,1,0,0:0:0:0:
256,192,203197,1,0,0:0:0:0:
475,192,203390,128,2,203582:0:0:0:0:
256,192,203390,128,0,203582:0:0:0:0:
182,192,203390,1,0,0:0:0:0:
402,192,203390,1,0,0:0:0:0:
36,192,203582,128,0,203774:0:0:0:0:
402,192,203582,1,0,0:0:0:0:
182,192,203582,128,0,203678:0:0:0:0:
109,192,203582,128,6,203678:0:0:0:0:
256,192,203774,128,0,203966:0:0:0:0:
475,192,203774,1,0,0:0:0:0:
109,192,203966,128,0,204159:0:0:0:0:
329,192,203966,1,0,0:0:0:0:
402,192,204159,128,0,204351:0:0:0:0:
256,192,204159,1,0,0:0:0:0:
182,192,204351,128,2,204543:0:0:0:0:
475,192,204351,128,2,204543:0:0:0:0:
109,192,204351,1,0,0:0:0:0:
36,192,204351,128,0,204447:0:0:0:0:
329,192,204351,128,0,204447:0:0:0:0:
36,192,204543,128,0,204736:0:0:0:0:
256,192,204543,1,0,0:0:0:0:
329,192,204639,1,0,0:0:0:0:
402,192,204736,128,0,204928:0:0:0:0:
182,192,204736,1,0,0:0:0:0:
109,192,204736,1,0,0:0:0:0:
475,192,204736,1,0,0:0:0:0:
256,192,204928,128,0,205120:0:0:0:0:
109,192,204928,1,0,0:0:0:0:
475,192,205120,128,2,205313:0:0:0:0:
36,192,205120,1,0,0:0:0:0:
182,192,205120,1,0,0:0:0:0:
329,192,205120,128,0,205216:0:0:0:0:
402,192,205313,128,2,205505:0:0:0:0:
109,192,205313,1,0,0:0:0:0:
182,192,205313,1,0,0:0:0:0:
256,192,205313,128,0,205409:0:0:0:0:
329,192,205505,128,2,205697:0:0:0:0:
109,192,205505,1,0,0:0:0:0:
36,192,205505,1,0,0:0:0:0:
475,192,205505,128,0,205601:0:0:0:0:
256,192,205697,128,2,205889:0:0:0:0:
475,192,205697,1,0,0:0:0:0:
182,192,205697,1,0,0:0:0:0:
402,192,205697,128,2,205793:0:0:0:0:
109,192,205793,1,0,0:0:0:0:
402,192,205889,1,0,0:0:0:0:
36,192,205889,1,0,0:0:0:0:
329,192,205889,128,0,205986:0:0:0:0:
475,192,206082,128,0,206274:0:0:0:0:
182,192,206082,1,0,0:0:0:0:
256,192,206082,1,0,0:0:0:0:
109,192,206274,128,0,206659:0:0:0:0:
329,192,206274,1,0,0:0:0:0:
402,192,206274,1,0,0:0:0:0:
182,192,206466,1,0,0:0:0:0:
256,192,206466,1,0,0:0:0:0:
475,192,206659,128,2,207043:0:0:0:0:
36,192,206659,1,0,0:0:0:0:
182,192,206659,1,0,0:0:0:0:
402,192,206659,1,0,0:0:0:0:
329,192,206659,1,0,0:0:0:0:
36,192,206851,1,0,0:0:0:0:
256,192,206851,1,0,0:0:0:0:
402,192,207043,128,2,207428:0:0:0:0:
109,192,207043,1,0,0:0:0:0:
329,192,207043,1,0,0:0:0:0:
182,192,207043,1,0,0:0:0:0:
36,192,207235,1,0,0:0:0:0:
182,192,207235,1,0,0:0:0:0:
256,192,207428,128,2,207812:0:0:0:0:
329,192,207428,1,2,0:0:0:0:
475,192,207428,1,0,0:0:0:0:
109,192,207428,1,0,0:0:0:0:
182,192,207620,1,0,0:0:0:0:
36,192,207620,1,0,0:0:0:0:
329,192,207812,128,2,208197:0:0:0:0:
109,192,207812,1,2,0:0:0:0:
402,192,207812,1,0,0:0:0:0:
475,192,207812,1,0,0:0:0:0:
256,192,208005,1,0,0:0:0:0:
36,192,208005,1,0,0:0:0:0:
182,192,208197,128,6,208966:0:0:0:0:
109,192,208197,1,4,0:0:0:0:
402,192,208197,1,0,0:0:0:0:
475,192,208197,1,0,0:0:0:0:
329,192,208389,1,0,0:0:0:0:
36,192,208389,1,0,0:0:0:0:
256,192,208581,1,0,0:0:0:0:
402,192,208581,1,0,0:0:0:0:
329,192,208774,1,0,0:0:0:0:
475,192,208774,1,0,0:0:0:0:
109,192,208966,128,2,209351:0:0:0:0:
402,192,208966,1,2,0:0:0:0:
256,192,208966,1,0,0:0:0:0:
36,192,208966,1,0,0:0:0:0:
329,192,209158,1,0,0:0:0:0:
475,192,209158,1,0,0:0:0:0:
256,192,209351,128,2,209735:0:0:0:0:
402,192,209351,1,2,0:0:0:0:
182,192,209351,1,0,0:0:0:0:
36,192,209351,1,0,0:0:0:0:
475,192,209543,1,0,0:0:0:0:
329,192,209543,1,0,0:0:0:0:
36,192,209735,128,6,210504:0:0:0:0:
109,192,209735,1,2,0:0:0:0:
402,192,209735,1,0,0:0:0:0:
182,192,209735,1,0,0:0:0:0:
256,192,209927,1,0,0:0:0:0:
475,192,209927,1,0,0:0:0:0:
329,192,210120,1,0,0:0:0:0:
109,192,210120,1,0,0:0:0:0:
182,192,210312,1,0,0:0:0:0:
402,192,210312,1,0,0:0:0:0:
475,192,210504,128,2,210889:0:0:0:0:
256,192,210504,1,0,0:0:0:0:
109,192,210504,1,0,0:0:0:0:
402,192,210504,1,0,0:0:0:0:
329,192,210504,1,0,0:0:0:0:
182,192,210697,1,0,0:0:0:0:
36,192,210697,1,0,0:0:0:0:
329,192,210889,128,0,211273:0:0:0:0:
109,192,210889,1,0,0:0:0:0:
256,192,210889,1,0,0:0:0:0:
402,192,210889,1,0,0:0:0:0:
475,192,211081,1,0,0:0:0:0:
182,192,211081,1,0,0:0:0:0:
402,192,211273,128,2,211658:0:0:0:0:
36,192,211273,1,2,0:0:0:0:
109,192,211273,1,0,0:0:0:0:
256,192,211273,1,0,0:0:0:0:
182,192,211466,1,0,0:0:0:0:
329,192,211466,1,0,0:0:0:0:
109,192,211658,128,0,212043:0:0:0:0:
256,192,211658,1,0,0:0:0:0:
475,192,211658,1,0,0:0:0:0:
36,192,211658,1,0,0:0:0:0:
402,192,211850,1,0,0:0:0:0:
182,192,211850,1,0,0:0:0:0:
256,192,212043,128,2,212427:0:0:0:0:
329,192,212043,1,2,0:0:0:0:
36,192,212043,1,0,0:0:0:0:
475,192,212043,1,0,0:0:0:0:
402,192,212043,1,0,0:0:0:0:
182,192,212235,1,0,0:0:0:0:
402,192,212427,128,0,212812:0:0:0:0:
36,192,212427,1,0,0:0:0:0:
329,192,212427,1,0,0:0:0:0:
109,192,212619,1,0,0:0:0:0:
256,192,212619,1,0,0:0:0:0:
182,192,212812,128,2,213581:0:0:0:0:
256,192,212812,1,2,0:0:0:0:
475,192,212812,1,0,0:0:0:0:
36,192,212812,128,0,212908:0:0:0:0:
329,192,212812,128,0,212908:0:0:0:0:
109,192,213004,1,0,0:0:0:0:
475,192,213004,1,0,0:0:0:0:
402,192,213196,1,0,0:0:0:0:
256,192,213196,1,0,0:0:0:0:
329,192,213389,1,0,0:0:0:0:
475,192,213389,1,0,0:0:0:0:
109,192,213389,1,0,0:0:0:0:
256,192,213581,1,2,0:0:0:0:
402,192,213581,1,0,0:0:0:0:
36,192,213581,1,0,0:0:0:0:
109,192,213773,1,0,0:0:0:0:
329,192,213773,1,0,0:0:0:0:
402,192,213966,128,0,214350:0:0:0:0:
182,192,213966,1,0,0:0:0:0:
256,192,213966,1,0,0:0:0:0:
36,192,214158,1,0,0:0:0:0:
109,192,214158,1,0,0:0:0:0:
329,192,214350,128,6,215119:0:0:0:0:
256,192,214350,1,0,0:0:0:0:
36,192,214350,1,0,0:0:0:0:
182,192,214350,128,2,214446:0:0:0:0:
475,192,214350,128,0,214446:0:0:0:0:
109,192,214542,1,0,0:0:0:0:
402,192,214542,1,0,0:0:0:0:
256,192,214735,1,0,0:0:0:0:
182,192,214735,1,0,0:0:0:0:
36,192,214927,1,0,0:0:0:0:
109,192,214927,1,0,0:0:0:0:
182,192,215119,1,2,0:0:0:0:
256,192,215119,1,2,0:0:0:0:
402,192,215119,1,0,0:0:0:0:
475,192,215119,128,0,215312:0:0:0:0:
329,192,215312,128,2,215504:0:0:0:0:
36,192,215312,1,2,0:0:0:0:
109,192,215312,1,0,0:0:0:0:
256,192,215312,1,0,0:0:0:0:
109,192,215504,128,2,215696:0:0:0:0:
182,192,215504,1,2,0:0:0:0:
402,192,215504,1,0,0:0:0:0:
475,192,215504,1,0,0:0:0:0:
182,192,215696,128,2,215888:0:0:0:0:
329,192,215696,1,2,0:0:0:0:
256,192,215696,1,0,0:0:0:0:
36,192,215696,1,0,0:0:0:0:
475,192,215888,128,6,216081:0:0:0:0:
402,192,215888,1,0,0:0:0:0:
109,192,215888,128,4,215985:0:0:0:0:
329,192,215888,128,0,215985:0:0:0:0:
36,192,216081,128,0,216273:0:0:0:0:
182,192,216081,1,0,0:0:0:0:
182,192,216273,128,0,216465:0:0:0:0:
329,192,216273,1,0,0:0:0:0:
475,192,216273,1,0,0:0:0:0:
109,192,216465,128,0,216658:0:0:0:0:
256,192,216465,1,0,0:0:0:0:
402,192,216465,1,0,0:0:0:0:
475,192,216658,128,2,216850:0:0:0:0:
36,192,216658,128,0,216850:0:0:0:0:
402,192,216658,1,0,0:0:0:0:
182,192,216658,128,0,216754:0:0:0:0:
256,192,216658,128,0,216754:0:0:0:0:
329,192,216850,128,0,217042:0:0:0:0:
109,192,216850,1,0,0:0:0:0:
182,192,217042,128,0,217234:0:0:0:0:
36,192,217042,1,0,0:0:0:0:
402,192,217042,1,0,0:0:0:0:
256,192,217234,128,0,217427:0:0:0:0:
475,192,217234,1,0,0:0:0:0:
329,192,217234,1,0,0:0:0:0:
402,192,217427,128,2,217619:0:0:0:0:
36,192,217427,1,0,0:0:0:0:
182,192,217427,1,0,0:0:0:0:
109,192,217427,128,0,217523:0:0:0:0:
329,192,217619,128,2,217811:0:0:0:0:
256,192,217619,1,0,0:0:0:0:
475,192,217619,1,0,0:0:0:0:
182,192,217619,128,2,217715:0:0:0:0:
109,192,217811,128,2,218004:0:0:0:0:
402,192,217811,1,2,0:0:0:0:
36,192,217811,1,0,0:0:0:0:
256,192,217811,128,0,217907:0:0:0:0:
182,192,218004,128,2,218196:0:0:0:0:
475,192,218004,1,0,0:0:0:0:
329,192,218004,1,0,0:0:0:0:
36,192,218004,128,0,218100:0:0:0:0:
402,192,218100,1,0,0:0:0:0:
256,192,218196,128,6,218388:0:0:0:0:
329,192,218196,1,0,0:0:0:0:
109,192,218196,128,2,218292:0:0:0:0:
475,192,218196,128,0,218292:0:0:0:0:
36,192,218388,128,0,218580:0:0:0:0:
402,192,218388,1,0,0:0:0:0:
182,192,218388,1,0,0:0:0:0:
182,192,218580,128,0,218773:0:0:0:0:
329,192,218580,1,0,0:0:0:0:
475,192,218580,1,0,0:0:0:0:
36,192,218773,128,0,218965:0:0:0:0:
256,192,218773,1,0,0:0:0:0:
402,192,218773,1,0,0:0:0:0:
402,192,218965,128,2,219157:0:0:0:0:
329,192,218965,1,2,0:0:0:0:
475,192,218965,1,0,0:0:0:0:
109,192,218965,128,0,219061:0:0:0:0:
182,192,218965,128,0,219061:0:0:0:0:
182,192,219157,128,0,219350:0:0:0:0:
256,192,219157,1,0,0:0:0:0:
329,192,219350,128,2,219542:0:0:0:0:
475,192,219350,1,0,0:0:0:0:
109,192,219350,1,0,0:0:0:0:
36,192,219542,128,0,219926:0:0:0:0:
182,192,219542,1,0,0:0:0:0:
402,192,219542,1,0,0:0:0:0:
256,192,219734,1,2,0:0:0:0:
329,192,219734,1,2,0:0:0:0:
475,192,219734,1,0,0:0:0:0:
182,192,219926,128,0,220119:0:0:0:0:
402,192,219926,1,0,0:0:0:0:
109,192,220119,128,2,220311:0:0:0:0:
329,192,220119,1,0,0:0:0:0:
475,192,220119,1,0,0:0:0:0:
256,192,220311,128,0,220503:0:0:0:0:
402,192,220311,1,0,0:0:0:0:
329,192,220503,128,2,220888:0:0:0:0:
109,192,220503,1,0,0:0:0:0:
475,192,220503,1,0,0:0:0:0:
182,192,220503,128,0,220599:0:0:0:0:
36,192,220503,128,2,220599:0:0:0:0:
402,192,220599,1,0,0:0:0:0:
475,192,220696,1,0,0:0:0:0:
109,192,220696,1,0,0:0:0:0:
182,192,220888,128,0,221080:0:0:0:0:
36,192,220888,1,0,0:0:0:0:
402,192,221080,128,0,221273:0:0:0:0:
109,192,221080,1,0,0:0:0:0:
256,192,221080,1,0,0:0:0:0:
329,192,221273,128,2,221465:0:0:0:0:
182,192,221273,1,2,0:0:0:0:
475,192,221273,1,0,0:0:0:0:
36,192,221273,1,0,0:0:0:0:
256,192,221465,128,0,221657:0:0:0:0:
402,192,221465,1,0,0:0:0:0:
109,192,221657,128,2,221849:0:0:0:0:
475,192,221657,1,0,0:0:0:0:
329,192,221657,1,0,0:0:0:0:
36,192,221657,1,0,0:0:0:0:
182,192,221849,128,0,222042:0:0:0:0:
402,192,221849,1,0,0:0:0:0:
256,192,222042,128,6,222619:0:0:0:0:
329,192,222042,1,0,0:0:0:0:
109,192,222042,1,0,0:0:0:0:
36,192,222042,128,0,222138:0:0:0:0:
475,192,222042,128,2,222138:0:0:0:0:
109,192,222234,1,0,0:0:0:0:
402,192,222234,1,0,0:0:0:0:
182,192,222426,1,0,0:0:0:0:
329,192,222426,1,0,0:0:0:0:
109,192,222619,128,0,222811:0:0:0:0:
475,192,222619,1,0,0:0:0:0:
402,192,222619,1,0,0:0:0:0:
36,192,222619,1,0,0:0:0:0:
256,192,222811,128,2,223195:0:0:0:0:
182,192,222811,1,2,0:0:0:0:
329,192,222811,1,0,0:0:0:0:
475,192,222811,1,0,0:0:0:0:
36,192,223003,1,0,0:0:0:0:
402,192,223003,1,0,0:0:0:0:
475,192,223195,128,0,223580:0:0:0:0:
109,192,223195,1,0,0:0:0:0:
329,192,223195,1,0,0:0:0:0:
182,192,223388,1,0,0:0:0:0:
256,192,223388,1,0,0:0:0:0:
402,192,223580,128,2,223965:0:0:0:0:
109,192,223580,1,0,0:0:0:0:
329,192,223580,1,0,0:0:0:0:
182,192,223580,128,0,223676:0:0:0:0:
36,192,223580,128,2,223676:0:0:0:0:
109,192,223772,1,2,0:0:0:0:
475,192,223772,1,0,0:0:0:0:
256,192,223772,1,0,0:0:0:0:
329,192,223965,128,2,224349:0:0:0:0:
36,192,223965,1,2,0:0:0:0:
182,192,223965,1,0,0:0:0:0:
36,192,224157,1,0,0:0:0:0:
475,192,224157,1,0,0:0:0:0:
402,192,224157,1,0,0:0:0:0:
109,192,224157,1,0,0:0:0:0:
256,192,224349,128,2,224734:0:0:0:0:
109,192,224349,1,2,0:0:0:0:
475,192,224349,1,0,0:0:0:0:
182,192,224349,1,0,0:0:0:0:
402,192,224541,1,2,0:0:0:0:
36,192,224541,1,0,0:0:0:0:
329,192,224541,1,0,0:0:0:0:
109,192,224734,128,2,225118:0:0:0:0:
475,192,224734,1,2,0:0:0:0:
36,192,224734,1,0,0:0:0:0:
182,192,224734,1,0,0:0:0:0:
329,192,224734,1,0,0:0:0:0:
256,192,224926,1,2,0:0:0:0:
329,192,224926,1,0,0:0:0:0:
402,192,224926,1,0,0:0:0:0:
182,192,225118,128,6,228195:0:0:0:0:
36,192,225118,128,4,228195:0:0:0:0:
475,192,225118,1,0,0:0:0:0:
329,192,225118,128,0,225214:0:0:0:0:
256,192,225118,128,0,225214:0:0:0:0:
402,192,225214,1,0,0:0:0:0:
475,192,225311,1,0,0:0:0:0:
256,192,225311,1,0,0:0:0:0:
109,192,225311,1,0,0:0:0:0:
329,192,225503,1,0,0:0:0:0:
402,192,225503,1,0,0:0:0:0:
256,192,225695,1,0,0:0:0:0:
475,192,225695,1,0,0:0:0:0:
109,192,225695,1,0,0:0:0:0:
402,192,225887,1,2,0:0:0:0:
329,192,225887,1,0,0:0:0:0:
256,192,225887,1,0,0:0:0:0:
475,192,226080,1,0,0:0:0:0:
109,192,226080,1,0,0:0:0:0:
256,192,226272,1,0,0:0:0:0:
402,192,226272,1,0,0:0:0:0:
109,192,226464,1,0,0:0:0:0:
475,192,226464,1,0,0:0:0:0:
402,192,226560,1,0,0:0:0:0:
329,192,226657,128,0,226849:0:0:0:0:
256,192,226849,128,0,227041:0:0:0:0:
475,192,226849,1,0,0:0:0:0:
402,192,227041,128,0,227233:0:0:0:0:
109,192,227041,1,0,0:0:0:0:
329,192,227233,128,0,227426:0:0:0:0:
109,192,227426,128,0,227618:0:0:0:0:
402,192,227426,1,0,0:0:0:0:
475,192,227426,1,0,0:0:0:0:
256,192,227618,128,0,227810:0:0:0:0:
402,192,227810,128,0,228003:0:0:0:0:
109,192,228003,128,0,228195:0:0:0:0:
256,192,228195,1,4,0:0:0:0:
402,192,228195,1,0,0:0:0:0:
475,192,228195,128,0,238963:0:0:0:0:
329,192,228195,128,0,238963:0:0:0:0:
109,192,231488,1,0,0:0:0:0:
182,192,232786,1,0,0:0:0:0:
36,192,233964,1,0,0:0:0:0:
109,192,235189,1,0,0:0:0:0:
402,192,236584,1,0,0:0:0:0:
