osu file format v14

[General]
AudioFilename: Sound Sepher - Ghostly Band Phantom Ensemble.mp3
AudioLeadIn: 3000
PreviewTime: 178369
Countdown: 0
SampleSet: Soft
StackLeniency: 0.7
Mode: 3
LetterboxInBreaks: 0
SpecialStyle: 0
WidescreenStoryboard: 0

[Editor]
DistanceSpacing: 0.8
BeatDivisor: 16
GridSize: 4
TimelineZoom: 2.2

[Metadata]
Title:Ghostly Band ~ Phantom Ensemble
TitleUnicode:幽霊楽団 〜 Phantom Ensemble
Artist:ESTi
ArtistUnicode:ESTi
Creator:ArcherLove
Version:EZ
Source:東方Project
Tags:Team Shanghai Alice 東方妖々夢 Touhou Youyoumu ~ Perfect Cherry Blossom comiket 66 Cradle -東方幻樂祀典- lunasa merlin lyrica prismriver sisters プリズムリバー三姉妹 ルナサ リリカメルラン sound sepher shinzo- egas00
BeatmapID:656060
BeatmapSetID:291343

[Difficulty]
HPDrainRate:7
CircleSize:7
OverallDifficulty:7
ApproachRate:5
SliderMultiplier:1.4
SliderTickRate:1

[Events]
//Background and Video events
0,0,"bg.jpg",0,0
//Break Periods
//Storyboard Layer 0 (Background)
//Storyboard Layer 1 (Fail)
//Storyboard Layer 2 (Pass)
//Storyboard Layer 3 (Foreground)
//Storyboard Sound Samples

[TimingPoints]
525,384.578405922508,4,2,1,15,1,0

[HitObjects]
475,192,525,128,0,6678:0:0:0:0:
109,192,525,1,0,0:0:0:0:
402,192,6678,128,2,7831:0:0:0:0:
109,192,6678,1,0,0:0:0:0:
329,192,7831,128,0,11293:0:0:0:0:
36,192,7831,1,0,0:0:0:0:
109,192,11293,1,0,0:0:0:0:
182,192,11870,1,0,0:0:0:0:
329,192,12446,1,0,0:0:0:0:
256,192,12831,128,2,13985:0:0:0:0:
475,192,12831,1,0,0:0:0:0:
109,192,13985,128,0,15908:0:0:0:0:
36,192,15908,128,0,17446:0:0:0:0:
182,192,17446,128,0,18215:0:0:0:0:
329,192,18215,128,0,18984:0:0:0:0:
402,192,18984,128,2,21292:0:0:0:0:
109,192,18984,1,0,0:0:0:0:
475,192,21292,128,0,21676:0:0:0:0:
475,192,22061,128,2,23599:0:0:0:0:
182,192,22061,1,0,0:0:0:0:
36,192,23599,128,0,24368:0:0:0:0:
182,192,24368,128,0,24753:0:0:0:0:
402,192,24753,128,0,25138:0:0:0:0:
329,192,25138,128,2,25714:0:0:0:0:
109,192,25138,1,0,0:0:0:0:
36,192,25714,1,0,0:0:0:0:
329,192,26291,1,2,0:0:0:0:
475,192,26484,1,2,0:0:0:0:
36,192,26868,1,0,0:0:0:0:
329,192,27060,1,2,0:0:0:0:
182,192,27253,1,2,0:0:0:0:
36,192,27445,1,0,0:0:0:0:
256,192,27830,1,0,0:0:0:0:
475,192,28214,1,0,0:0:0:0:
182,192,28406,1,0,0:0:0:0:
402,192,28599,1,0,0:0:0:0:
256,192,28791,1,0,0:0:0:0:
402,192,29176,1,0,0:0:0:0:
36,192,29368,1,2,0:0:0:0:
182,192,29560,1,2,0:0:0:0:
475,192,29945,1,0,0:0:0:0:
329,192,30137,1,2,0:0:0:0:
182,192,30329,1,2,0:0:0:0:
36,192,30522,128,0,31291:0:0:0:0:
402,192,31291,128,2,32445:0:0:0:0:
182,192,31291,1,0,0:0:0:0:
256,192,32445,128,2,33598:0:0:0:0:
109,192,32445,1,0,0:0:0:0:
36,192,33598,128,0,34367:0:0:0:0:
402,192,33598,1,0,0:0:0:0:
475,192,34367,128,2,35906:0:0:0:0:
182,192,34367,1,0,0:0:0:0:
36,192,36675,1,0,0:0:0:0:
256,192,36963,1,0,0:0:0:0:
475,192,37252,1,0,0:0:0:0:
109,192,37444,1,2,0:0:0:0:
329,192,37444,1,0,0:0:0:0:
402,192,38021,1,0,0:0:0:0:
109,192,38598,1,2,0:0:0:0:
402,192,38790,1,2,0:0:0:0:
36,192,39175,1,0,0:0:0:0:
256,192,39367,1,2,0:0:0:0:
475,192,39559,1,2,0:0:0:0:
182,192,39751,1,0,0:0:0:0:
256,192,40136,1,0,0:0:0:0:
109,192,40521,1,2,0:0:0:0:
402,192,40521,1,2,0:0:0:0:
256,192,41098,1,0,0:0:0:0:
182,192,41674,1,2,0:0:0:0:
329,192,41867,1,2,0:0:0:0:
475,192,42251,1,0,0:0:0:0:
256,192,42444,1,2,0:0:0:0:
36,192,42636,1,2,0:0:0:0:
475,192,42828,128,0,43597:0:0:0:0:
256,192,43597,128,0,44751:0:0:0:0:
109,192,43597,1,0,0:0:0:0:
36,192,44751,1,2,0:0:0:0:
475,192,44943,1,2,0:0:0:0:
475,192,45328,1,0,0:0:0:0:
256,192,45520,1,2,0:0:0:0:
36,192,45712,1,2,0:0:0:0:
475,192,45905,128,0,46674:0:0:0:0:
109,192,46674,128,0,47828:0:0:0:0:
256,192,46674,1,0,0:0:0:0:
256,192,47828,1,2,0:0:0:0:
475,192,48020,1,2,0:0:0:0:
109,192,48405,1,0,0:0:0:0:
402,192,48597,1,2,0:0:0:0:
256,192,48789,1,2,0:0:0:0:
109,192,48981,128,0,49751:0:0:0:0:
329,192,49270,1,0,0:0:0:0:
475,192,49558,1,0,0:0:0:0:
402,192,49751,128,6,50520:0:0:0:0:
182,192,49751,1,0,0:0:0:0:
182,192,50520,1,2,0:0:0:0:
36,192,50712,1,0,0:0:0:0:
109,192,50904,1,0,0:0:0:0:
182,192,51097,1,0,0:0:0:0:
402,192,51289,128,2,51866:0:0:0:0:
256,192,51289,1,0,0:0:0:0:
329,192,51866,128,0,52250:0:0:0:0:
109,192,51866,1,0,0:0:0:0:
36,192,52250,1,0,0:0:0:0:
182,192,52443,1,0,0:0:0:0:
475,192,52827,1,2,0:0:0:0:
109,192,52827,128,2,53596:0:0:0:0:
256,192,53404,1,0,0:0:0:0:
329,192,53789,1,0,0:0:0:0:
475,192,53981,128,0,54365:0:0:0:0:
256,192,54365,128,2,55135:0:0:0:0:
402,192,54365,1,0,0:0:0:0:
109,192,54750,1,0,0:0:0:0:
36,192,54942,1,0,0:0:0:0:
475,192,55135,1,2,0:0:0:0:
329,192,55327,1,0,0:0:0:0:
109,192,55519,1,0,0:0:0:0:
256,192,55712,1,0,0:0:0:0:
402,192,55904,128,2,56673:0:0:0:0:
109,192,55904,1,0,0:0:0:0:
109,192,56673,1,0,0:0:0:0:
402,192,57058,128,0,57442:0:0:0:0:
256,192,57442,128,2,58211:0:0:0:0:
36,192,57442,1,0,0:0:0:0:
109,192,58211,1,2,0:0:0:0:
402,192,58596,1,0,0:0:0:0:
475,192,58980,128,2,59750:0:0:0:0:
182,192,58980,1,0,0:0:0:0:
109,192,59750,1,2,0:0:0:0:
256,192,60134,1,0,0:0:0:0:
475,192,60326,1,0,0:0:0:0:
109,192,60519,128,2,61288:0:0:0:0:
402,192,60519,1,0,0:0:0:0:
475,192,61288,128,2,61480:0:0:0:0:
256,192,61480,128,0,61672:0:0:0:0:
36,192,61672,128,0,61865:0:0:0:0:
329,192,61865,128,0,62057:0:0:0:0:
182,192,62057,128,2,63595:0:0:0:0:
475,192,62057,1,0,0:0:0:0:
402,192,62826,1,0,0:0:0:0:
402,192,63595,128,2,64365:0:0:0:0:
36,192,63595,1,0,0:0:0:0:
109,192,64365,1,0,0:0:0:0:
329,192,64557,1,0,0:0:0:0:
256,192,64749,1,2,0:0:0:0:
182,192,64941,1,0,0:0:0:0:
109,192,65134,128,2,66672:0:0:0:0:
402,192,65134,1,0,0:0:0:0:
329,192,65903,1,0,0:0:0:0:
402,192,66672,128,2,67441:0:0:0:0:
182,192,66672,1,0,0:0:0:0:
109,192,67441,1,2,0:0:0:0:
256,192,67826,1,2,0:0:0:0:
475,192,68018,1,2,0:0:0:0:
329,192,68210,128,2,68979:0:0:0:0:
109,192,68210,1,0,0:0:0:0:
36,192,68979,1,2,0:0:0:0:
109,192,69749,128,2,70518:0:0:0:0:
402,192,69749,1,0,0:0:0:0:
182,192,70518,128,2,70710:0:0:0:0:
329,192,70710,128,2,70902:0:0:0:0:
402,192,70902,128,2,71095:0:0:0:0:
109,192,71095,128,0,71287:0:0:0:0:
256,192,71287,128,2,72825:0:0:0:0:
475,192,71287,1,0,0:0:0:0:
402,192,72056,1,0,0:0:0:0:
36,192,72825,128,2,73594:0:0:0:0:
402,192,72825,1,0,0:0:0:0:
182,192,73594,1,2,0:0:0:0:
256,192,73787,1,0,0:0:0:0:
182,192,74364,1,2,0:0:0:0:
402,192,74364,1,0,0:0:0:0:
256,192,74748,1,0,0:0:0:0:
329,192,75133,1,2,0:0:0:0:
475,192,75517,1,0,0:0:0:0:
182,192,75902,1,2,0:0:0:0:
329,192,75902,1,0,0:0:0:0:
109,192,76671,1,2,0:0:0:0:
36,192,77056,1,0,0:0:0:0:
475,192,77440,1,2,0:0:0:0:
182,192,77440,1,0,0:0:0:0:
109,192,77825,1,0,0:0:0:0:
256,192,78017,1,0,0:0:0:0:
402,192,78209,1,0,0:0:0:0:
109,192,78594,128,0,78978:0:0:0:0:
256,192,78978,128,2,79363:0:0:0:0:
475,192,78978,1,0,0:0:0:0:
402,192,79363,128,0,79748:0:0:0:0:
109,192,79748,1,2,0:0:0:0:
329,192,79748,1,0,0:0:0:0:
256,192,80132,1,0,0:0:0:0:
329,192,80325,1,0,0:0:0:0:
402,192,80517,128,2,80901:0:0:0:0:
182,192,80517,1,0,0:0:0:0:
36,192,80901,1,0,0:0:0:0:
256,192,81286,1,2,0:0:0:0:
475,192,81671,1,0,0:0:0:0:
256,192,82055,1,2,0:0:0:0:
109,192,82055,1,0,0:0:0:0:
36,192,82440,1,2,0:0:0:0:
182,192,82824,1,0,0:0:0:0:
329,192,83209,1,0,0:0:0:0:
256,192,83593,1,2,0:0:0:0:
475,192,83593,1,0,0:0:0:0:
36,192,83978,1,0,0:0:0:0:
256,192,84170,1,0,0:0:0:0:
475,192,84363,1,0,0:0:0:0:
109,192,84747,128,0,85132:0:0:0:0:
329,192,85132,128,2,85516:0:0:0:0:
475,192,85132,1,0,0:0:0:0:
182,192,85516,128,2,85901:0:0:0:0:
402,192,85901,128,0,86285:0:0:0:0:
256,192,85901,1,0,0:0:0:0:
36,192,86285,128,0,86670:0:0:0:0:
475,192,86670,1,2,0:0:0:0:
256,192,87055,1,0,0:0:0:0:
109,192,87247,1,0,0:0:0:0:
402,192,87439,128,2,87824:0:0:0:0:
109,192,87824,128,0,88208:0:0:0:0:
36,192,88208,128,2,88978:0:0:0:0:
329,192,88208,1,0,0:0:0:0:
475,192,88978,128,2,89747:0:0:0:0:
329,192,89747,128,2,90516:0:0:0:0:
109,192,89747,1,0,0:0:0:0:
36,192,90516,128,2,91285:0:0:0:0:
182,192,91285,1,2,0:0:0:0:
329,192,91670,1,0,0:0:0:0:
475,192,92054,128,2,92823:0:0:0:0:
182,192,92054,1,0,0:0:0:0:
182,192,92823,128,2,93592:0:0:0:0:
402,192,92823,1,0,0:0:0:0:
36,192,93592,128,2,94362:0:0:0:0:
475,192,94362,128,2,95900:0:0:0:0:
256,192,94362,1,0,0:0:0:0:
109,192,95131,1,0,0:0:0:0:
256,192,95900,128,2,97438:0:0:0:0:
182,192,95900,1,0,0:0:0:0:
36,192,97438,128,2,98592:0:0:0:0:
475,192,97438,1,0,0:0:0:0:
402,192,98207,1,0,0:0:0:0:
182,192,98592,1,2,0:0:0:0:
329,192,98784,1,2,0:0:0:0:
475,192,98977,128,6,100130:0:0:0:0:
36,192,99361,1,0,0:0:0:0:
182,192,99746,1,0,0:0:0:0:
402,192,100130,1,0,0:0:0:0:
329,192,100323,1,0,0:0:0:0:
182,192,100515,128,2,101669:0:0:0:0:
329,192,100899,1,0,0:0:0:0:
402,192,101284,1,0,0:0:0:0:
36,192,101669,1,0,0:0:0:0:
329,192,101861,1,0,0:0:0:0:
402,192,102053,128,2,103207:0:0:0:0:
256,192,102438,1,0,0:0:0:0:
109,192,102822,1,0,0:0:0:0:
256,192,103207,1,0,0:0:0:0:
182,192,103399,1,0,0:0:0:0:
109,192,103592,128,2,104361:0:0:0:0:
182,192,104361,128,2,105130:0:0:0:0:
402,192,104361,1,0,0:0:0:0:
256,192,105130,128,2,106668:0:0:0:0:
475,192,105514,1,0,0:0:0:0:
109,192,105899,1,0,0:0:0:0:
182,192,106284,1,0,0:0:0:0:
475,192,106668,128,2,108206:0:0:0:0:
36,192,106668,1,0,0:0:0:0:
329,192,107053,1,0,0:0:0:0:
182,192,107437,1,0,0:0:0:0:
36,192,107822,1,0,0:0:0:0:
329,192,108206,128,2,109745:0:0:0:0:
182,192,108206,1,0,0:0:0:0:
475,192,108591,1,0,0:0:0:0:
109,192,108976,1,0,0:0:0:0:
36,192,109745,128,2,110899:0:0:0:0:
475,192,109745,1,0,0:0:0:0:
402,192,110514,1,0,0:0:0:0:
109,192,110899,1,0,0:0:0:0:
256,192,111283,1,2,0:0:0:0:
475,192,111668,1,0,0:0:0:0:
402,192,112052,1,2,0:0:0:0:
182,192,112052,1,0,0:0:0:0:
36,192,112437,1,0,0:0:0:0:
109,192,112821,128,2,114360:0:0:0:0:
402,192,112821,1,0,0:0:0:0:
256,192,113206,1,0,0:0:0:0:
329,192,113591,1,0,0:0:0:0:
475,192,113975,1,0,0:0:0:0:
329,192,114360,128,2,115898:0:0:0:0:
36,192,114360,1,0,0:0:0:0:
182,192,114744,1,0,0:0:0:0:
109,192,115129,1,0,0:0:0:0:
256,192,115513,1,0,0:0:0:0:
182,192,115898,128,2,116667:0:0:0:0:
36,192,115898,1,0,0:0:0:0:
109,192,116667,128,2,117436:0:0:0:0:
402,192,116667,1,0,0:0:0:0:
36,192,117436,128,2,118975:0:0:0:0:
475,192,117436,1,0,0:0:0:0:
182,192,117821,1,0,0:0:0:0:
402,192,118205,1,0,0:0:0:0:
256,192,118590,1,0,0:0:0:0:
329,192,118975,128,2,120513:0:0:0:0:
475,192,118975,1,0,0:0:0:0:
182,192,119359,1,0,0:0:0:0:
109,192,119744,1,0,0:0:0:0:
256,192,120128,1,0,0:0:0:0:
402,192,120513,128,2,122051:0:0:0:0:
182,192,120513,1,0,0:0:0:0:
36,192,120898,1,0,0:0:0:0:
182,192,121282,1,0,0:0:0:0:
109,192,121667,1,0,0:0:0:0:
475,192,122051,128,2,123590:0:0:0:0:
329,192,122051,1,0,0:0:0:0:
36,192,122436,1,0,0:0:0:0:
182,192,122820,1,0,0:0:0:0:
36,192,123205,1,0,0:0:0:0:
256,192,123590,128,6,125128:0:0:0:0:
109,192,125128,128,0,129070:0:0:0:0:
402,192,129743,128,6,130512:0:0:0:0:
182,192,130127,1,0,0:0:0:0:
109,192,130512,1,2,0:0:0:0:
36,192,130704,1,0,0:0:0:0:
256,192,130897,1,0,0:0:0:0:
329,192,131089,1,0,0:0:0:0:
402,192,131281,128,2,132050:0:0:0:0:
109,192,131666,1,0,0:0:0:0:
182,192,132050,1,2,0:0:0:0:
256,192,132243,1,0,0:0:0:0:
329,192,132435,1,0,0:0:0:0:
402,192,132627,1,0,0:0:0:0:
256,192,132819,128,2,133973:0:0:0:0:
109,192,133204,1,0,0:0:0:0:
402,192,133589,1,0,0:0:0:0:
36,192,133781,1,0,0:0:0:0:
109,192,133973,1,0,0:0:0:0:
475,192,134165,1,0,0:0:0:0:
402,192,134358,128,2,134742:0:0:0:0:
329,192,134742,128,2,135127:0:0:0:0:
256,192,135127,128,2,135512:0:0:0:0:
36,192,135512,128,2,135896:0:0:0:0:
182,192,135896,128,2,136281:0:0:0:0:
402,192,136281,1,0,0:0:0:0:
475,192,136665,1,0,0:0:0:0:
109,192,136858,1,0,0:0:0:0:
402,192,137050,1,0,0:0:0:0:
182,192,137242,1,0,0:0:0:0:
475,192,137434,128,0,138204:0:0:0:0:
182,192,137819,1,0,0:0:0:0:
329,192,138204,1,2,0:0:0:0:
36,192,138588,1,0,0:0:0:0:
475,192,138780,1,0,0:0:0:0:
329,192,138973,128,2,139550:0:0:0:0:
109,192,139357,1,0,0:0:0:0:
256,192,139550,128,2,140126:0:0:0:0:
109,192,140126,128,0,140511:0:0:0:0:
182,192,140511,128,2,141280:0:0:0:0:
402,192,140511,1,0,0:0:0:0:
36,192,140896,1,0,0:0:0:0:
402,192,141280,128,2,142049:0:0:0:0:
256,192,141665,1,0,0:0:0:0:
182,192,141857,1,0,0:0:0:0:
36,192,142049,128,6,143588:0:0:0:0:
256,192,142434,1,0,0:0:0:0:
402,192,142819,1,0,0:0:0:0:
475,192,143588,128,2,144165:0:0:0:0:
109,192,143972,1,0,0:0:0:0:
402,192,144165,128,0,144549:0:0:0:0:
182,192,144357,1,0,0:0:0:0:
329,192,144549,128,0,145126:0:0:0:0:
256,192,145126,128,2,145703:0:0:0:0:
36,192,145511,1,0,0:0:0:0:
402,192,145703,128,0,146087:0:0:0:0:
109,192,145895,1,0,0:0:0:0:
329,192,146087,128,2,146664:0:0:0:0:
182,192,146664,128,2,147241:0:0:0:0:
475,192,147049,1,0,0:0:0:0:
329,192,147241,128,2,147818:0:0:0:0:
36,192,147433,1,0,0:0:0:0:
402,192,147818,128,0,148203:0:0:0:0:
475,192,148203,128,2,149741:0:0:0:0:
109,192,148203,1,0,0:0:0:0:
256,192,148587,1,0,0:0:0:0:
182,192,148972,1,0,0:0:0:0:
329,192,149741,128,2,151279:0:0:0:0:
109,192,149741,1,0,0:0:0:0:
36,192,150125,1,0,0:0:0:0:
182,192,150510,1,0,0:0:0:0:
36,192,151279,128,2,152818:0:0:0:0:
475,192,151279,1,0,0:0:0:0:
329,192,151664,1,0,0:0:0:0:
402,192,152048,1,0,0:0:0:0:
182,192,152818,128,2,154356:0:0:0:0:
402,192,152818,1,0,0:0:0:0:
329,192,153202,1,0,0:0:0:0:
475,192,153587,1,0,0:0:0:0:
402,192,154356,1,4,0:0:0:0:
475,192,154740,1,0,0:0:0:0:
329,192,154933,1,0,0:0:0:0:
36,192,155125,1,0,0:0:0:0:
182,192,155317,128,0,155894:0:0:0:0:
402,192,155894,1,2,0:0:0:0:
109,192,156279,1,0,0:0:0:0:
256,192,156471,1,0,0:0:0:0:
475,192,156856,1,0,0:0:0:0:
329,192,157048,1,0,0:0:0:0:
182,192,157432,128,2,158009:0:0:0:0:
329,192,158009,1,0,0:0:0:0:
475,192,158202,1,2,0:0:0:0:
329,192,158586,1,0,0:0:0:0:
182,192,158779,1,0,0:0:0:0:
36,192,158971,128,2,159740:0:0:0:0:
182,192,159740,128,2,160509:0:0:0:0:
256,192,160509,128,2,162047:0:0:0:0:
475,192,161278,1,0,0:0:0:0:
402,192,162047,128,2,163586:0:0:0:0:
109,192,162817,1,0,0:0:0:0:
109,192,163586,128,2,165124:0:0:0:0:
329,192,164355,1,0,0:0:0:0:
182,192,165124,128,2,165893:0:0:0:0:
256,192,165893,128,2,166662:0:0:0:0:
475,192,165893,1,0,0:0:0:0:
329,192,166662,128,2,168201:0:0:0:0:
109,192,167432,1,0,0:0:0:0:
475,192,168201,128,2,169739:0:0:0:0:
182,192,168970,1,0,0:0:0:0:
256,192,169739,128,2,171277:0:0:0:0:
402,192,170508,1,0,0:0:0:0:
36,192,171277,128,2,172046:0:0:0:0:
182,192,171277,1,0,0:0:0:0:
109,192,172046,128,2,172816:0:0:0:0:
402,192,172046,1,0,0:0:0:0:
182,192,172816,128,2,174162:0:0:0:0:
475,192,172816,1,0,0:0:0:0:
329,192,173585,1,0,0:0:0:0:
402,192,174354,128,2,175892:0:0:0:0:
109,192,175123,1,0,0:0:0:0:
109,192,175892,128,2,177431:0:0:0:0:
329,192,176661,1,0,0:0:0:0:
256,192,177431,128,2,178969:0:0:0:0:
402,192,178200,1,0,0:0:0:0:
402,192,178969,1,6,0:0:0:0:
109,192,178969,1,0,0:0:0:0:
402,192,179738,1,2,0:0:0:0:
109,192,179738,1,0,0:0:0:0:
402,192,180507,1,2,0:0:0:0:
329,192,180699,1,2,0:0:0:0:
256,192,180892,1,2,0:0:0:0:
109,192,181084,1,2,0:0:0:0:
182,192,181276,128,2,182046:0:0:0:0:
402,192,181276,1,0,0:0:0:0:
329,192,182046,128,6,182430:0:0:0:0:
36,192,182046,1,0,0:0:0:0:
475,192,182430,128,0,182815:0:0:0:0:
182,192,182622,1,0,0:0:0:0:
109,192,182815,1,0,0:0:0:0:
182,192,183199,128,2,183584:0:0:0:0:
36,192,183584,128,6,184353:0:0:0:0:
402,192,183584,1,0,0:0:0:0:
256,192,183968,1,0,0:0:0:0:
329,192,184353,1,2,0:0:0:0:
475,192,184738,1,0,0:0:0:0:
182,192,184738,1,0,0:0:0:0:
329,192,185122,1,2,0:0:0:0:
109,192,185122,128,2,185699:0:0:0:0:
475,192,185507,1,0,0:0:0:0:
329,192,185891,1,2,0:0:0:0:
182,192,186084,1,0,0:0:0:0:
402,192,186276,128,0,186660:0:0:0:0:
475,192,186660,128,2,187430:0:0:0:0:
109,192,186660,1,0,0:0:0:0:
256,192,187430,128,2,188199:0:0:0:0:
109,192,187430,1,0,0:0:0:0:
36,192,187814,1,0,0:0:0:0:
402,192,188199,128,6,188968:0:0:0:0:
109,192,188199,1,0,0:0:0:0:
329,192,188968,128,2,189737:0:0:0:0:
109,192,188968,1,0,0:0:0:0:
256,192,189737,128,2,190506:0:0:0:0:
475,192,189737,1,0,0:0:0:0:
402,192,190122,1,0,0:0:0:0:
109,192,190506,128,2,191275:0:0:0:0:
329,192,190506,1,0,0:0:0:0:
402,192,190891,1,0,0:0:0:0:
475,192,191275,1,4,0:0:0:0:
329,192,191660,1,0,0:0:0:0:
475,192,192045,1,2,0:0:0:0:
182,192,192045,1,0,0:0:0:0:
329,192,192429,1,0,0:0:0:0:
475,192,192814,1,2,0:0:0:0:
402,192,193006,1,2,0:0:0:0:
329,192,193198,1,2,0:0:0:0:
36,192,193391,1,2,0:0:0:0:
109,192,193583,128,2,193967:0:0:0:0:
402,192,193583,1,0,0:0:0:0:
256,192,193967,128,0,194352:0:0:0:0:
402,192,194352,128,6,195890:0:0:0:0:
109,192,194352,1,0,0:0:0:0:
256,192,194737,1,0,0:0:0:0:
182,192,195121,1,0,0:0:0:0:
329,192,195890,128,2,196659:0:0:0:0:
182,192,196275,1,0,0:0:0:0:
109,192,196659,128,2,197429:0:0:0:0:
475,192,196659,1,0,0:0:0:0:
402,192,197044,1,0,0:0:0:0:
182,192,197429,128,2,198967:0:0:0:0:
329,192,197429,1,0,0:0:0:0:
256,192,197813,1,0,0:0:0:0:
402,192,198198,1,0,0:0:0:0:
329,192,198582,1,0,0:0:0:0:
256,192,198967,128,6,200505:0:0:0:0:
36,192,198967,1,0,0:0:0:0:
109,192,199352,1,0,0:0:0:0:
402,192,199736,1,0,0:0:0:0:
109,192,200121,1,0,0:0:0:0:
329,192,200505,128,4,202044:0:0:0:0:
475,192,200505,1,0,0:0:0:0:
182,192,200890,1,0,0:0:0:0:
109,192,201274,1,0,0:0:0:0:
182,192,201659,1,0,0:0:0:0:
36,192,202044,128,4,203582:0:0:0:0:
475,192,202044,1,0,0:0:0:0:
256,192,202428,1,0,0:0:0:0:
329,192,202813,1,0,0:0:0:0:
402,192,203197,1,0,0:0:0:0:
256,192,203582,1,6,0:0:0:0:
475,192,203582,1,0,0:0:0:0:
475,192,204351,1,2,0:0:0:0:
182,192,204351,1,0,0:0:0:0:
475,192,205120,1,2,0:0:0:0:
402,192,205313,1,2,0:0:0:0:
329,192,205505,1,2,0:0:0:0:
182,192,205697,1,2,0:0:0:0:
402,192,205889,1,4,0:0:0:0:
256,192,206274,1,0,0:0:0:0:
402,192,206659,128,2,207043:0:0:0:0:
109,192,206659,1,0,0:0:0:0:
329,192,207043,128,2,207428:0:0:0:0:
256,192,207428,128,2,207812:0:0:0:0:
36,192,207428,1,0,0:0:0:0:
402,192,207812,128,2,208197:0:0:0:0:
109,192,208197,128,6,208966:0:0:0:0:
256,192,208197,1,0,0:0:0:0:
475,192,208581,1,0,0:0:0:0:
36,192,208966,128,2,209351:0:0:0:0:
329,192,208966,1,0,0:0:0:0:
402,192,209351,128,2,209735:0:0:0:0:
182,192,209735,128,6,210504:0:0:0:0:
36,192,209735,1,0,0:0:0:0:
402,192,210120,1,0,0:0:0:0:
329,192,210504,128,2,210889:0:0:0:0:
475,192,210504,1,0,0:0:0:0:
182,192,210889,128,0,211273:0:0:0:0:
109,192,211273,128,2,211658:0:0:0:0:
329,192,211273,1,0,0:0:0:0:
402,192,211658,128,0,212043:0:0:0:0:
256,192,212043,128,2,212427:0:0:0:0:
36,192,212043,1,0,0:0:0:0:
475,192,212427,128,0,212812:0:0:0:0:
36,192,212812,128,2,214350:0:0:0:0:
256,192,212812,1,0,0:0:0:0:
329,192,213581,1,0,0:0:0:0:
402,192,213966,1,0,0:0:0:0:
256,192,214350,128,6,215888:0:0:0:0:
475,192,214350,1,0,0:0:0:0:
402,192,214735,1,0,0:0:0:0:
109,192,215119,1,0,0:0:0:0:
402,192,215504,1,0,0:0:0:0:
475,192,215888,1,6,0:0:0:0:
109,192,215888,1,0,0:0:0:0:
36,192,216273,1,0,0:0:0:0:
329,192,216658,1,2,0:0:0:0:
475,192,216658,1,0,0:0:0:0:
182,192,217042,1,0,0:0:0:0:
402,192,217427,1,2,0:0:0:0:
329,192,217619,1,2,0:0:0:0:
109,192,217811,1,2,0:0:0:0:
182,192,218004,1,2,0:0:0:0:
256,192,218196,128,6,218580:0:0:0:0:
36,192,218196,1,0,0:0:0:0:
402,192,218580,128,0,218965:0:0:0:0:
475,192,218965,128,2,219350:0:0:0:0:
182,192,218965,1,0,0:0:0:0:
402,192,219350,128,2,219734:0:0:0:0:
329,192,219734,128,2,220119:0:0:0:0:
109,192,219734,1,0,0:0:0:0:
36,192,220119,128,2,220503:0:0:0:0:
109,192,220503,128,2,221273:0:0:0:0:
402,192,220503,1,0,0:0:0:0:
182,192,221273,128,2,221657:0:0:0:0:
329,192,221273,1,0,0:0:0:0:
256,192,221657,128,2,222042:0:0:0:0:
475,192,221657,1,0,0:0:0:0:
329,192,222042,128,6,222619:0:0:0:0:
36,192,222042,1,0,0:0:0:0:
109,192,222619,128,0,222811:0:0:0:0:
256,192,222811,128,2,223195:0:0:0:0:
475,192,222811,1,0,0:0:0:0:
402,192,223195,128,0,223580:0:0:0:0:
475,192,223580,128,2,223965:0:0:0:0:
182,192,223965,128,0,224349:0:0:0:0:
329,192,224349,128,2,224734:0:0:0:0:
109,192,224349,1,0,0:0:0:0:
36,192,224734,128,2,225118:0:0:0:0:
182,192,225118,128,6,226657:0:0:0:0:
475,192,225118,1,0,0:0:0:0:
402,192,225887,1,0,0:0:0:0:
329,192,226272,1,0,0:0:0:0:
475,192,226657,1,0,0:0:0:0:
109,192,226849,1,0,0:0:0:0:
329,192,227041,1,0,0:0:0:0:
36,192,227233,1,0,0:0:0:0:
182,192,227426,1,0,0:0:0:0:
402,192,227618,1,0,0:0:0:0:
36,192,227810,1,0,0:0:0:0:
109,192,228003,1,0,0:0:0:0:
256,192,228195,128,4,238963:0:0:0:0:
402,192,231488,1,0,0:0:0:0:
475,192,232786,1,0,0:0:0:0:
109,192,233940,1,0,0:0:0:0:
402,192,235189,1,0,0:0:0:0:
36,192,236584,1,0,0:0:0:0:
