osu file format v14

[General]
AudioFilename: Sound Sepher - Ghostly Band Phantom Ensemble.mp3
AudioLeadIn: 3000
PreviewTime: 178369
Countdown: 0
SampleSet: Soft
StackLeniency: 0.7
Mode: 3
LetterboxInBreaks: 0
SpecialStyle: 0
WidescreenStoryboard: 0

[Editor]
DistanceSpacing: 0.8
BeatDivisor: 8
GridSize: 4
TimelineZoom: 2.2

[Metadata]
Title:Ghostly Band ~ Phantom Ensemble
TitleUnicode:幽霊楽団 〜 Phantom Ensemble
Artist:ESTi
ArtistUnicode:ESTi
Creator:ArcherLove
Version:MX
Source:東方Project
Tags:Team Shanghai Alice 東方妖々夢 Touhou Youyoumu ~ Perfect Cherry Blossom comiket 66 Cradle -東方幻樂祀典- lunasa merlin lyrica prismriver sisters プリズムリバー三姉妹 ルナサ リリカメルラン sound sepher shinzo- egas00
BeatmapID:691638
BeatmapSetID:291343

[Difficulty]
HPDrainRate:8
CircleSize:7
OverallDifficulty:8
ApproachRate:5
SliderMultiplier:1.4
SliderTickRate:1

[Events]
//Background and Video events
0,0,"bg.jpg",0,0
//Break Periods
//Storyboard Layer 0 (Background)
//Storyboard Layer 1 (Fail)
//Storyboard Layer 2 (Pass)
//Storyboard Layer 3 (Foreground)
//Storyboard Sound Samples

[TimingPoints]
525,384.578405922508,4,2,1,15,1,0
1294,-111.111111111111,4,2,1,15,0,0
49558,-90.9090909090909,4,2,1,15,0,0
49751,-100,4,2,1,15,0,0

[HitObjects]
475,192,428,5,0,0:0:0:0:
402,192,476,1,0,0:0:0:0:
329,192,525,1,0,0:0:0:0:
36,192,573,1,0,0:0:0:0:
256,192,573,128,2,6678:0:0:0:0:
109,192,573,128,2,6678:0:0:0:0:
36,192,6678,5,0,0:0:0:0:
475,192,6678,1,0,0:0:0:0:
402,192,6678,1,2,0:0:0:0:
329,192,6678,1,2,0:0:0:0:
182,192,6678,1,0,0:0:0:0:
109,192,7831,1,0,0:0:0:0:
256,192,7831,1,0,0:0:0:0:
402,192,7831,1,0,0:0:0:0:
109,192,11293,1,0,0:0:0:0:
329,192,11870,1,0,0:0:0:0:
402,192,12446,1,0,0:0:0:0:
475,192,12831,1,0,0:0:0:0:
329,192,12831,1,2,0:0:0:0:
109,192,12831,1,0,0:0:0:0:
36,192,12831,1,0,0:0:0:0:
182,192,12831,1,2,0:0:0:0:
402,192,13985,1,0,0:0:0:0:
36,192,15908,1,0,0:0:0:0:
256,192,17446,1,0,0:0:0:0:
329,192,18215,1,0,0:0:0:0:
402,192,18984,1,0,0:0:0:0:
182,192,18984,1,2,0:0:0:0:
109,192,18984,1,0,0:0:0:0:
36,192,18984,1,0,0:0:0:0:
256,192,18984,1,2,0:0:0:0:
475,192,21292,1,0,0:0:0:0:
475,192,22061,1,0,0:0:0:0:
329,192,22061,1,0,0:0:0:0:
36,192,22061,1,0,0:0:0:0:
256,192,22061,1,2,0:0:0:0:
182,192,22061,1,2,0:0:0:0:
402,192,23599,1,0,0:0:0:0:
329,192,24368,1,0,0:0:0:0:
475,192,24753,1,0,0:0:0:0:
256,192,25041,1,0,0:0:0:0:
329,192,25089,1,0,0:0:0:0:
402,192,25138,1,2,0:0:0:0:
475,192,25138,1,2,0:0:0:0:
182,192,25138,1,0,0:0:0:0:
36,192,25138,1,0,0:0:0:0:
182,192,25714,1,0,0:0:0:0:
329,192,26291,1,2,0:0:0:0:
109,192,26291,1,0,0:0:0:0:
402,192,26484,1,2,0:0:0:0:
182,192,26484,1,0,0:0:0:0:
109,192,26868,1,0,0:0:0:0:
402,192,27060,1,2,0:0:0:0:
182,192,27060,1,0,0:0:0:0:
329,192,27253,1,2,0:0:0:0:
36,192,27445,1,0,0:0:0:0:
36,192,27830,1,0,0:0:0:0:
256,192,28022,1,0,0:0:0:0:
402,192,28214,1,0,0:0:0:0:
182,192,28214,1,0,0:0:0:0:
475,192,28406,1,0,0:0:0:0:
329,192,28599,1,0,0:0:0:0:
402,192,28791,1,0,0:0:0:0:
109,192,28791,1,0,0:0:0:0:
182,192,29176,1,0,0:0:0:0:
109,192,29368,1,2,0:0:0:0:
402,192,29368,1,0,0:0:0:0:
256,192,29560,1,2,0:0:0:0:
36,192,29560,1,0,0:0:0:0:
475,192,29560,1,0,0:0:0:0:
36,192,29945,1,0,0:0:0:0:
182,192,30137,1,2,0:0:0:0:
402,192,30137,1,0,0:0:0:0:
182,192,30329,1,2,0:0:0:0:
36,192,30522,1,0,0:0:0:0:
475,192,30522,1,0,0:0:0:0:
36,192,30906,1,0,0:0:0:0:
36,192,31291,1,0,0:0:0:0:
256,192,31291,1,2,0:0:0:0:
329,192,31339,1,0,0:0:0:0:
109,192,31339,1,2,0:0:0:0:
402,192,31339,1,0,0:0:0:0:
402,192,31868,1,0,0:0:0:0:
36,192,32445,1,0,0:0:0:0:
256,192,32445,1,0,0:0:0:0:
182,192,32445,1,2,0:0:0:0:
402,192,32445,1,0,0:0:0:0:
182,192,32637,1,2,0:0:0:0:
475,192,32637,1,0,0:0:0:0:
36,192,33021,1,0,0:0:0:0:
402,192,33214,1,2,0:0:0:0:
402,192,33406,1,2,0:0:0:0:
329,192,33598,1,0,0:0:0:0:
109,192,33598,1,0,0:0:0:0:
36,192,33598,1,0,0:0:0:0:
36,192,33983,1,0,0:0:0:0:
36,192,34367,1,0,0:0:0:0:
182,192,34367,1,2,0:0:0:0:
329,192,34367,1,2,0:0:0:0:
109,192,34367,1,0,0:0:0:0:
182,192,34944,1,0,0:0:0:0:
402,192,35521,1,2,0:0:0:0:
109,192,35521,1,0,0:0:0:0:
402,192,35713,1,2,0:0:0:0:
182,192,35713,1,0,0:0:0:0:
36,192,36098,1,0,0:0:0:0:
329,192,36290,1,2,0:0:0:0:
329,192,36483,1,2,0:0:0:0:
256,192,36675,1,0,0:0:0:0:
36,192,36675,1,0,0:0:0:0:
329,192,36963,1,0,0:0:0:0:
109,192,37059,1,0,0:0:0:0:
402,192,37252,1,0,0:0:0:0:
402,192,37444,1,0,0:0:0:0:
329,192,37444,1,0,0:0:0:0:
256,192,37444,1,2,0:0:0:0:
182,192,37444,1,2,0:0:0:0:
36,192,37444,1,0,0:0:0:0:
182,192,38021,1,0,0:0:0:0:
402,192,38598,1,2,0:0:0:0:
36,192,38598,1,0,0:0:0:0:
256,192,38598,1,0,0:0:0:0:
475,192,38598,1,0,0:0:0:0:
182,192,38790,1,2,0:0:0:0:
329,192,38790,1,0,0:0:0:0:
36,192,39175,1,0,0:0:0:0:
475,192,39367,1,2,0:0:0:0:
329,192,39559,1,2,0:0:0:0:
36,192,39751,1,0,0:0:0:0:
36,192,40136,1,0,0:0:0:0:
36,192,40521,1,0,0:0:0:0:
182,192,40521,1,2,0:0:0:0:
402,192,40521,1,0,0:0:0:0:
329,192,40521,1,2,0:0:0:0:
109,192,41098,1,0,0:0:0:0:
36,192,41674,1,0,0:0:0:0:
182,192,41674,1,2,0:0:0:0:
402,192,41674,1,0,0:0:0:0:
329,192,41867,1,2,0:0:0:0:
475,192,41867,1,0,0:0:0:0:
36,192,42251,1,0,0:0:0:0:
402,192,42444,1,2,0:0:0:0:
402,192,42636,1,2,0:0:0:0:
36,192,42828,1,0,0:0:0:0:
256,192,42828,1,0,0:0:0:0:
36,192,43213,1,0,0:0:0:0:
256,192,43597,1,0,0:0:0:0:
36,192,43597,1,0,0:0:0:0:
329,192,43645,1,0,0:0:0:0:
109,192,43645,1,0,0:0:0:0:
402,192,43645,1,2,0:0:0:0:
475,192,43645,1,2,0:0:0:0:
182,192,44174,1,0,0:0:0:0:
36,192,44751,1,2,0:0:0:0:
329,192,44751,1,0,0:0:0:0:
182,192,44943,1,2,0:0:0:0:
402,192,44943,1,0,0:0:0:0:
475,192,45328,1,0,0:0:0:0:
329,192,45520,1,2,0:0:0:0:
329,192,45712,1,2,0:0:0:0:
36,192,45905,1,0,0:0:0:0:
182,192,45905,1,0,0:0:0:0:
36,192,46289,1,0,0:0:0:0:
36,192,46578,1,0,0:0:0:0:
109,192,46626,1,0,0:0:0:0:
182,192,46674,1,0,0:0:0:0:
329,192,46674,1,0,0:0:0:0:
402,192,46674,1,2,0:0:0:0:
475,192,46722,1,2,0:0:0:0:
256,192,46722,1,0,0:0:0:0:
256,192,47251,1,0,0:0:0:0:
109,192,47828,1,2,0:0:0:0:
329,192,47828,1,0,0:0:0:0:
109,192,48020,1,2,0:0:0:0:
402,192,48020,1,0,0:0:0:0:
36,192,48405,1,0,0:0:0:0:
475,192,48597,1,2,0:0:0:0:
329,192,48789,1,2,0:0:0:0:
182,192,48981,1,0,0:0:0:0:
36,192,48981,1,0,0:0:0:0:
256,192,49270,1,0,0:0:0:0:
109,192,49366,1,0,0:0:0:0:
329,192,49558,1,0,0:0:0:0:
402,192,49751,1,2,0:0:0:0:
36,192,49751,1,2,0:0:0:0:
182,192,49751,1,0,0:0:0:0:
256,192,49751,1,4,0:0:0:0:
475,192,49751,1,0,0:0:0:0:
109,192,49943,1,0,0:0:0:0:
182,192,50135,1,0,0:0:0:0:
329,192,50135,1,0,0:0:0:0:
256,192,50327,1,0,0:0:0:0:
402,192,50520,1,2,0:0:0:0:
109,192,50520,1,0,0:0:0:0:
36,192,50520,1,0,0:0:0:0:
329,192,50520,1,0,0:0:0:0:
182,192,50712,1,0,0:0:0:0:
329,192,50712,1,0,0:0:0:0:
475,192,50712,1,0,0:0:0:0:
256,192,50904,1,0,0:0:0:0:
402,192,50904,1,0,0:0:0:0:
36,192,50904,1,0,0:0:0:0:
329,192,51097,1,0,0:0:0:0:
475,192,51097,1,0,0:0:0:0:
109,192,51097,1,0,0:0:0:0:
402,192,51289,1,0,0:0:0:0:
36,192,51289,1,0,0:0:0:0:
475,192,51289,1,0,0:0:0:0:
182,192,51289,1,2,0:0:0:0:
256,192,51289,1,2,0:0:0:0:
109,192,51481,1,0,0:0:0:0:
329,192,51481,1,0,0:0:0:0:
182,192,51673,1,0,0:0:0:0:
402,192,51673,1,0,0:0:0:0:
256,192,51866,1,2,0:0:0:0:
36,192,51866,1,0,0:0:0:0:
329,192,51866,1,0,0:0:0:0:
402,192,52058,1,2,0:0:0:0:
182,192,52058,1,0,0:0:0:0:
109,192,52058,1,0,0:0:0:0:
475,192,52058,1,0,0:0:0:0:
109,192,52250,1,0,0:0:0:0:
475,192,52250,1,0,0:0:0:0:
256,192,52250,1,0,0:0:0:0:
182,192,52443,1,0,0:0:0:0:
402,192,52443,1,0,0:0:0:0:
36,192,52443,1,0,0:0:0:0:
109,192,52635,1,0,0:0:0:0:
36,192,52827,1,0,0:0:0:0:
475,192,52827,1,2,0:0:0:0:
402,192,52827,1,2,0:0:0:0:
256,192,52827,1,0,0:0:0:0:
182,192,52827,1,0,0:0:0:0:
182,192,53212,1,0,0:0:0:0:
329,192,53404,1,0,0:0:0:0:
109,192,53404,1,0,0:0:0:0:
36,192,53404,1,0,0:0:0:0:
475,192,53596,1,2,0:0:0:0:
182,192,53596,1,0,0:0:0:0:
329,192,53596,1,0,0:0:0:0:
402,192,53789,1,0,0:0:0:0:
256,192,53789,1,0,0:0:0:0:
36,192,53789,1,0,0:0:0:0:
109,192,53981,1,0,0:0:0:0:
329,192,53981,1,0,0:0:0:0:
182,192,54173,1,0,0:0:0:0:
36,192,54365,1,0,0:0:0:0:
475,192,54365,1,0,0:0:0:0:
109,192,54365,1,2,0:0:0:0:
256,192,54365,1,2,0:0:0:0:
329,192,54365,1,0,0:0:0:0:
182,192,54558,1,0,0:0:0:0:
329,192,54750,1,0,0:0:0:0:
402,192,54750,1,0,0:0:0:0:
256,192,54942,1,0,0:0:0:0:
329,192,54942,1,0,0:0:0:0:
475,192,55135,1,2,0:0:0:0:
36,192,55135,1,0,0:0:0:0:
182,192,55135,1,0,0:0:0:0:
402,192,55135,1,0,0:0:0:0:
329,192,55327,1,0,0:0:0:0:
182,192,55327,1,0,0:0:0:0:
36,192,55519,1,0,0:0:0:0:
109,192,55519,1,0,0:0:0:0:
256,192,55519,1,0,0:0:0:0:
109,192,55712,1,0,0:0:0:0:
329,192,55712,1,0,0:0:0:0:
256,192,55904,1,2,0:0:0:0:
36,192,55904,1,0,0:0:0:0:
182,192,55904,1,0,0:0:0:0:
402,192,55904,1,2,0:0:0:0:
475,192,55904,1,0,0:0:0:0:
182,192,56288,1,0,0:0:0:0:
109,192,56288,1,0,0:0:0:0:
402,192,56288,1,0,0:0:0:0:
329,192,56481,1,0,0:0:0:0:
475,192,56481,1,0,0:0:0:0:
36,192,56481,1,0,0:0:0:0:
109,192,56481,1,0,0:0:0:0:
402,192,56673,1,0,0:0:0:0:
256,192,56673,1,2,0:0:0:0:
182,192,56673,1,0,0:0:0:0:
109,192,56865,1,0,0:0:0:0:
36,192,57058,1,0,0:0:0:0:
329,192,57058,1,0,0:0:0:0:
182,192,57250,1,0,0:0:0:0:
36,192,57442,1,0,0:0:0:0:
475,192,57442,1,0,0:0:0:0:
402,192,57442,1,0,0:0:0:0:
256,192,57442,1,2,0:0:0:0:
109,192,57442,1,2,0:0:0:0:
329,192,57634,1,0,0:0:0:0:
109,192,57827,1,0,0:0:0:0:
402,192,57827,1,0,0:0:0:0:
182,192,58019,1,0,0:0:0:0:
36,192,58211,1,0,0:0:0:0:
256,192,58211,1,2,0:0:0:0:
475,192,58211,1,0,0:0:0:0:
329,192,58211,1,0,0:0:0:0:
109,192,58404,1,0,0:0:0:0:
402,192,58404,1,0,0:0:0:0:
182,192,58596,1,0,0:0:0:0:
475,192,58596,1,0,0:0:0:0:
109,192,58788,1,0,0:0:0:0:
256,192,58980,1,2,0:0:0:0:
402,192,58980,1,2,0:0:0:0:
182,192,58980,1,0,0:0:0:0:
475,192,58980,1,0,0:0:0:0:
36,192,58980,1,0,0:0:0:0:
329,192,58980,1,0,0:0:0:0:
256,192,59365,1,0,0:0:0:0:
109,192,59365,1,0,0:0:0:0:
182,192,59557,1,0,0:0:0:0:
402,192,59557,1,0,0:0:0:0:
475,192,59750,1,2,0:0:0:0:
36,192,59750,1,0,0:0:0:0:
256,192,59750,1,0,0:0:0:0:
329,192,59942,1,0,0:0:0:0:
182,192,59942,1,0,0:0:0:0:
36,192,60134,1,0,0:0:0:0:
256,192,60134,1,0,0:0:0:0:
475,192,60326,1,0,0:0:0:0:
182,192,60326,1,0,0:0:0:0:
402,192,60326,1,0,0:0:0:0:
402,192,60519,1,0,0:0:0:0:
256,192,60519,1,2,0:0:0:0:
109,192,60519,1,0,0:0:0:0:
329,192,60519,1,2,0:0:0:0:
36,192,60519,1,0,0:0:0:0:
182,192,60711,1,0,0:0:0:0:
329,192,60903,1,0,0:0:0:0:
109,192,61096,1,0,0:0:0:0:
475,192,61096,1,0,0:0:0:0:
402,192,61288,1,0,0:0:0:0:
256,192,61288,1,2,0:0:0:0:
36,192,61288,1,0,0:0:0:0:
182,192,61288,1,0,0:0:0:0:
329,192,61288,1,0,0:0:0:0:
329,192,61480,1,2,0:0:0:0:
475,192,61480,1,0,0:0:0:0:
109,192,61480,1,0,0:0:0:0:
402,192,61672,1,0,0:0:0:0:
182,192,61672,1,2,0:0:0:0:
36,192,61672,1,0,0:0:0:0:
329,192,61865,1,0,0:0:0:0:
109,192,61865,1,2,0:0:0:0:
256,192,61865,1,0,0:0:0:0:
36,192,62057,1,0,0:0:0:0:
182,192,62057,1,2,0:0:0:0:
475,192,62057,1,0,0:0:0:0:
256,192,62057,1,2,0:0:0:0:
402,192,62057,1,0,0:0:0:0:
109,192,62249,1,0,0:0:0:0:
182,192,62442,1,0,0:0:0:0:
402,192,62442,1,0,0:0:0:0:
329,192,62634,1,0,0:0:0:0:
36,192,62634,1,0,0:0:0:0:
182,192,62826,1,2,0:0:0:0:
475,192,62826,1,0,0:0:0:0:
256,192,62826,1,0,0:0:0:0:
402,192,63018,1,0,0:0:0:0:
109,192,63018,1,0,0:0:0:0:
182,192,63211,1,0,0:0:0:0:
36,192,63211,1,0,0:0:0:0:
329,192,63403,1,0,0:0:0:0:
109,192,63403,1,0,0:0:0:0:
402,192,63403,1,0,0:0:0:0:
256,192,63595,1,0,0:0:0:0:
182,192,63595,1,2,0:0:0:0:
36,192,63595,1,0,0:0:0:0:
329,192,63595,1,2,0:0:0:0:
475,192,63595,1,0,0:0:0:0:
109,192,63788,1,0,0:0:0:0:
256,192,63980,1,0,0:0:0:0:
36,192,64172,1,0,0:0:0:0:
402,192,64172,1,2,0:0:0:0:
182,192,64172,1,2,0:0:0:0:
329,192,64365,1,0,0:0:0:0:
475,192,64365,1,0,0:0:0:0:
182,192,64365,1,0,0:0:0:0:
256,192,64365,1,0,0:0:0:0:
36,192,64557,1,0,0:0:0:0:
109,192,64557,1,2,0:0:0:0:
256,192,64557,1,0,0:0:0:0:
109,192,64749,1,0,0:0:0:0:
182,192,64749,1,2,0:0:0:0:
402,192,64749,1,0,0:0:0:0:
182,192,64941,1,0,0:0:0:0:
256,192,64941,1,2,0:0:0:0:
475,192,64941,1,0,0:0:0:0:
182,192,65134,1,2,0:0:0:0:
329,192,65134,1,2,0:0:0:0:
109,192,65134,1,0,0:0:0:0:
402,192,65134,1,0,0:0:0:0:
36,192,65134,1,0,0:0:0:0:
475,192,65134,1,0,0:0:0:0:
182,192,65518,1,0,0:0:0:0:
329,192,65518,1,0,0:0:0:0:
36,192,65711,1,0,0:0:0:0:
475,192,65711,1,0,0:0:0:0:
329,192,65903,1,2,0:0:0:0:
182,192,65903,1,0,0:0:0:0:
256,192,65903,1,0,0:0:0:0:
36,192,66095,1,0,0:0:0:0:
402,192,66095,1,0,0:0:0:0:
182,192,66287,1,0,0:0:0:0:
256,192,66287,1,0,0:0:0:0:
329,192,66287,1,0,0:0:0:0:
256,192,66480,1,0,0:0:0:0:
402,192,66480,1,0,0:0:0:0:
109,192,66480,1,0,0:0:0:0:
36,192,66672,1,0,0:0:0:0:
475,192,66672,1,0,0:0:0:0:
329,192,66672,1,2,0:0:0:0:
182,192,66672,1,2,0:0:0:0:
256,192,66672,1,0,0:0:0:0:
109,192,66864,1,0,0:0:0:0:
182,192,67057,1,0,0:0:0:0:
329,192,67057,1,0,0:0:0:0:
36,192,67249,1,0,0:0:0:0:
475,192,67441,1,0,0:0:0:0:
182,192,67441,1,0,0:0:0:0:
256,192,67441,1,0,0:0:0:0:
329,192,67441,1,0,0:0:0:0:
109,192,67633,1,0,0:0:0:0:
329,192,67633,1,0,0:0:0:0:
182,192,67826,1,2,0:0:0:0:
402,192,67826,1,0,0:0:0:0:
36,192,67826,1,0,0:0:0:0:
256,192,68018,1,2,0:0:0:0:
475,192,68018,1,0,0:0:0:0:
329,192,68210,1,2,0:0:0:0:
182,192,68210,1,2,0:0:0:0:
109,192,68210,1,0,0:0:0:0:
402,192,68210,1,0,0:0:0:0:
36,192,68210,1,0,0:0:0:0:
182,192,68595,1,0,0:0:0:0:
329,192,68595,1,0,0:0:0:0:
109,192,68787,1,0,0:0:0:0:
475,192,68787,1,0,0:0:0:0:
256,192,68787,1,2,0:0:0:0:
402,192,68787,1,2,0:0:0:0:
329,192,68979,1,2,0:0:0:0:
182,192,68979,1,0,0:0:0:0:
402,192,68979,1,0,0:0:0:0:
256,192,69172,1,0,0:0:0:0:
36,192,69172,1,0,0:0:0:0:
182,192,69364,1,0,0:0:0:0:
329,192,69364,1,0,0:0:0:0:
109,192,69556,1,0,0:0:0:0:
182,192,69556,1,0,0:0:0:0:
36,192,69749,1,0,0:0:0:0:
329,192,69749,1,0,0:0:0:0:
475,192,69749,1,2,0:0:0:0:
256,192,69749,1,0,0:0:0:0:
402,192,69749,1,2,0:0:0:0:
182,192,69941,1,0,0:0:0:0:
109,192,70133,1,0,0:0:0:0:
402,192,70325,1,2,0:0:0:0:
256,192,70325,1,2,0:0:0:0:
36,192,70325,1,0,0:0:0:0:
329,192,70518,1,0,0:0:0:0:
182,192,70518,1,2,0:0:0:0:
109,192,70518,1,0,0:0:0:0:
475,192,70518,1,0,0:0:0:0:
475,192,70710,1,0,0:0:0:0:
256,192,70710,1,2,0:0:0:0:
402,192,70710,1,0,0:0:0:0:
36,192,70902,1,0,0:0:0:0:
329,192,70902,1,0,0:0:0:0:
182,192,70902,1,2,0:0:0:0:
109,192,71095,1,2,0:0:0:0:
256,192,71095,1,0,0:0:0:0:
36,192,71287,1,2,0:0:0:0:
329,192,71287,1,0,0:0:0:0:
402,192,71287,1,0,0:0:0:0:
182,192,71287,1,2,0:0:0:0:
475,192,71287,1,0,0:0:0:0:
256,192,71672,1,0,0:0:0:0:
109,192,71864,1,0,0:0:0:0:
402,192,72056,1,2,0:0:0:0:
182,192,72056,1,0,0:0:0:0:
329,192,72056,1,0,0:0:0:0:
256,192,72248,1,2,0:0:0:0:
475,192,72248,1,2,0:0:0:0:
36,192,72248,1,0,0:0:0:0:
182,192,72441,1,0,0:0:0:0:
36,192,72633,1,0,0:0:0:0:
109,192,72793,1,0,0:0:0:0:
329,192,72793,1,2,0:0:0:0:
402,192,72825,1,0,0:0:0:0:
256,192,72825,1,0,0:0:0:0:
182,192,72825,1,2,0:0:0:0:
475,192,72825,1,0,0:0:0:0:
329,192,73018,1,0,0:0:0:0:
475,192,73210,1,0,0:0:0:0:
36,192,73402,1,0,0:0:0:0:
182,192,73594,1,2,0:0:0:0:
329,192,73594,1,0,0:0:0:0:
475,192,73594,1,0,0:0:0:0:
109,192,73594,1,0,0:0:0:0:
256,192,73787,1,0,0:0:0:0:
402,192,73787,1,0,0:0:0:0:
36,192,74364,1,0,0:0:0:0:
475,192,74364,1,0,0:0:0:0:
182,192,74364,1,2,0:0:0:0:
329,192,74364,1,2,0:0:0:0:
109,192,74460,1,0,0:0:0:0:
402,192,74460,1,0,0:0:0:0:
182,192,74556,1,0,0:0:0:0:
329,192,74556,1,0,0:0:0:0:
256,192,74748,1,0,0:0:0:0:
329,192,75133,1,2,0:0:0:0:
402,192,75133,1,0,0:0:0:0:
109,192,75133,1,0,0:0:0:0:
182,192,75133,1,0,0:0:0:0:
475,192,75517,1,0,0:0:0:0:
402,192,75902,1,0,0:0:0:0:
256,192,75902,1,2,0:0:0:0:
182,192,75902,1,2,0:0:0:0:
109,192,75998,1,0,0:0:0:0:
329,192,75998,1,0,0:0:0:0:
36,192,76094,1,0,0:0:0:0:
402,192,76094,1,0,0:0:0:0:
256,192,76671,1,2,0:0:0:0:
109,192,76671,1,0,0:0:0:0:
402,192,76671,1,0,0:0:0:0:
182,192,76671,1,0,0:0:0:0:
329,192,76863,1,0,0:0:0:0:
182,192,77056,1,0,0:0:0:0:
36,192,77056,1,0,0:0:0:0:
36,192,77440,1,0,0:0:0:0:
109,192,77440,1,0,0:0:0:0:
329,192,77440,1,2,0:0:0:0:
475,192,77440,1,0,0:0:0:0:
256,192,77440,1,2,0:0:0:0:
182,192,77536,1,0,0:0:0:0:
402,192,77536,1,0,0:0:0:0:
256,192,77632,1,0,0:0:0:0:
475,192,77632,1,0,0:0:0:0:
109,192,77825,1,0,0:0:0:0:
36,192,77825,1,0,0:0:0:0:
402,192,77825,1,2,0:0:0:0:
256,192,78049,1,0,0:0:0:0:
109,192,78049,1,0,0:0:0:0:
109,192,78209,1,0,0:0:0:0:
475,192,78209,1,2,0:0:0:0:
402,192,78209,1,0,0:0:0:0:
36,192,78594,1,0,0:0:0:0:
256,192,78594,1,0,0:0:0:0:
329,192,78786,1,0,0:0:0:0:
182,192,78978,1,0,0:0:0:0:
402,192,78978,1,2,0:0:0:0:
475,192,78978,1,2,0:0:0:0:
36,192,78978,1,0,0:0:0:0:
329,192,78978,1,0,0:0:0:0:
256,192,79075,1,0,0:0:0:0:
109,192,79075,1,0,0:0:0:0:
329,192,79171,1,0,0:0:0:0:
182,192,79171,1,0,0:0:0:0:
402,192,79363,1,0,0:0:0:0:
402,192,79748,1,2,0:0:0:0:
182,192,79748,1,2,0:0:0:0:
475,192,79748,1,2,0:0:0:0:
36,192,79748,1,0,0:0:0:0:
329,192,79748,1,0,0:0:0:0:
256,192,79844,1,0,0:0:0:0:
109,192,79844,1,0,0:0:0:0:
329,192,79940,1,0,0:0:0:0:
182,192,79940,1,0,0:0:0:0:
402,192,79940,1,0,0:0:0:0:
36,192,80132,1,0,0:0:0:0:
475,192,80132,1,0,0:0:0:0:
256,192,80132,1,0,0:0:0:0:
402,192,80325,1,0,0:0:0:0:
182,192,80325,1,0,0:0:0:0:
475,192,80517,1,0,0:0:0:0:
36,192,80517,1,0,0:0:0:0:
109,192,80517,1,0,0:0:0:0:
329,192,80517,1,2,0:0:0:0:
256,192,80517,1,2,0:0:0:0:
182,192,80613,1,0,0:0:0:0:
402,192,80613,1,0,0:0:0:0:
256,192,80709,1,0,0:0:0:0:
329,192,80709,1,0,0:0:0:0:
402,192,80901,1,0,0:0:0:0:
109,192,81030,1,0,0:0:0:0:
109,192,81158,1,0,0:0:0:0:
475,192,81286,1,0,0:0:0:0:
256,192,81286,1,2,0:0:0:0:
329,192,81286,1,0,0:0:0:0:
182,192,81671,1,0,0:0:0:0:
402,192,81671,1,0,0:0:0:0:
256,192,81863,1,0,0:0:0:0:
109,192,82055,1,0,0:0:0:0:
329,192,82055,1,2,0:0:0:0:
36,192,82055,1,0,0:0:0:0:
182,192,82055,1,0,0:0:0:0:
475,192,82055,1,2,0:0:0:0:
256,192,82151,1,0,0:0:0:0:
402,192,82151,1,0,0:0:0:0:
182,192,82247,1,0,0:0:0:0:
475,192,82247,1,0,0:0:0:0:
109,192,82440,1,0,0:0:0:0:
36,192,82824,1,0,0:0:0:0:
475,192,82824,1,0,0:0:0:0:
256,192,82824,1,2,0:0:0:0:
109,192,82824,1,0,0:0:0:0:
402,192,82824,1,0,0:0:0:0:
329,192,83017,1,0,0:0:0:0:
182,192,83209,1,0,0:0:0:0:
36,192,83209,1,0,0:0:0:0:
329,192,83401,1,0,0:0:0:0:
36,192,83593,1,0,0:0:0:0:
182,192,83593,1,0,0:0:0:0:
109,192,83593,1,0,0:0:0:0:
475,192,83593,1,2,0:0:0:0:
329,192,83593,1,2,0:0:0:0:
256,192,83690,1,0,0:0:0:0:
402,192,83690,1,0,0:0:0:0:
329,192,83786,1,0,0:0:0:0:
475,192,83786,1,0,0:0:0:0:
182,192,83882,1,0,0:0:0:0:
36,192,83978,1,0,0:0:0:0:
402,192,84234,1,0,0:0:0:0:
109,192,84363,1,2,0:0:0:0:
402,192,84363,1,0,0:0:0:0:
182,192,84363,1,0,0:0:0:0:
256,192,84619,1,0,0:0:0:0:
109,192,84747,1,0,0:0:0:0:
256,192,85004,1,0,0:0:0:0:
109,192,85004,1,0,0:0:0:0:
329,192,85132,1,2,0:0:0:0:
402,192,85132,1,2,0:0:0:0:
36,192,85132,1,0,0:0:0:0:
182,192,85132,1,0,0:0:0:0:
475,192,85228,1,0,0:0:0:0:
256,192,85228,1,0,0:0:0:0:
109,192,85228,1,0,0:0:0:0:
329,192,85324,1,0,0:0:0:0:
182,192,85324,1,0,0:0:0:0:
402,192,85516,1,0,0:0:0:0:
256,192,85516,1,0,0:0:0:0:
109,192,85516,1,0,0:0:0:0:
256,192,85901,1,2,0:0:0:0:
329,192,85901,1,2,0:0:0:0:
109,192,85901,1,0,0:0:0:0:
475,192,85901,1,0,0:0:0:0:
36,192,85901,1,0,0:0:0:0:
402,192,85997,1,0,0:0:0:0:
182,192,85997,1,0,0:0:0:0:
36,192,86093,1,0,0:0:0:0:
329,192,86093,1,0,0:0:0:0:
109,192,86093,1,0,0:0:0:0:
402,192,86285,1,0,0:0:0:0:
182,192,86285,1,0,0:0:0:0:
36,192,86285,1,0,0:0:0:0:
109,192,86478,1,0,0:0:0:0:
402,192,86670,1,2,0:0:0:0:
182,192,86670,1,0,0:0:0:0:
36,192,86670,1,0,0:0:0:0:
329,192,86670,1,0,0:0:0:0:
475,192,86670,1,2,0:0:0:0:
256,192,86766,1,0,0:0:0:0:
109,192,86766,1,0,0:0:0:0:
329,192,86862,1,0,0:0:0:0:
182,192,86862,1,0,0:0:0:0:
402,192,87055,1,0,0:0:0:0:
109,192,87055,1,0,0:0:0:0:
475,192,87247,1,0,0:0:0:0:
109,192,87439,1,0,0:0:0:0:
182,192,87439,1,0,0:0:0:0:
329,192,87439,1,0,0:0:0:0:
402,192,87439,1,0,0:0:0:0:
402,192,87824,1,0,0:0:0:0:
475,192,87824,1,0,0:0:0:0:
182,192,87824,1,0,0:0:0:0:
256,192,88016,1,0,0:0:0:0:
109,192,88016,1,0,0:0:0:0:
402,192,88208,1,0,0:0:0:0:
475,192,88208,1,0,0:0:0:0:
36,192,88208,1,0,0:0:0:0:
329,192,88208,1,2,0:0:0:0:
182,192,88208,1,2,0:0:0:0:
256,192,88305,1,0,0:0:0:0:
109,192,88305,1,0,0:0:0:0:
329,192,88401,1,0,0:0:0:0:
182,192,88401,1,0,0:0:0:0:
109,192,88593,1,0,0:0:0:0:
475,192,88978,1,0,0:0:0:0:
36,192,88978,1,0,0:0:0:0:
182,192,88978,1,2,0:0:0:0:
402,192,88978,1,0,0:0:0:0:
329,192,88978,1,0,0:0:0:0:
256,192,89170,1,0,0:0:0:0:
329,192,89362,1,0,0:0:0:0:
36,192,89362,1,0,0:0:0:0:
182,192,89554,1,0,0:0:0:0:
402,192,89554,1,0,0:0:0:0:
329,192,89747,1,2,0:0:0:0:
109,192,89747,1,0,0:0:0:0:
36,192,89747,1,0,0:0:0:0:
256,192,89747,1,2,0:0:0:0:
475,192,89747,1,0,0:0:0:0:
402,192,89843,1,0,0:0:0:0:
182,192,89843,1,0,0:0:0:0:
475,192,89939,1,0,0:0:0:0:
256,192,89939,1,0,0:0:0:0:
329,192,90035,1,0,0:0:0:0:
402,192,90131,1,2,0:0:0:0:
109,192,90131,1,0,0:0:0:0:
182,192,90131,1,0,0:0:0:0:
256,192,90324,1,0,0:0:0:0:
329,192,90324,1,0,0:0:0:0:
36,192,90324,1,0,0:0:0:0:
475,192,90516,1,2,0:0:0:0:
182,192,90516,1,0,0:0:0:0:
109,192,90516,1,0,0:0:0:0:
402,192,90708,1,0,0:0:0:0:
329,192,90900,1,0,0:0:0:0:
182,192,90900,1,0,0:0:0:0:
402,192,91093,1,0,0:0:0:0:
109,192,91093,1,0,0:0:0:0:
36,192,91285,1,0,0:0:0:0:
182,192,91285,1,2,0:0:0:0:
329,192,91285,1,0,0:0:0:0:
475,192,91285,1,0,0:0:0:0:
256,192,91285,1,2,0:0:0:0:
109,192,91381,1,0,0:0:0:0:
402,192,91381,1,0,0:0:0:0:
182,192,91477,1,0,0:0:0:0:
329,192,91477,1,0,0:0:0:0:
256,192,91670,1,0,0:0:0:0:
109,192,91670,1,0,0:0:0:0:
402,192,91670,1,0,0:0:0:0:
36,192,92054,1,0,0:0:0:0:
256,192,92054,1,0,0:0:0:0:
109,192,92054,1,0,0:0:0:0:
402,192,92054,1,2,0:0:0:0:
475,192,92054,1,2,0:0:0:0:
182,192,92150,1,0,0:0:0:0:
329,192,92150,1,0,0:0:0:0:
475,192,92246,1,0,0:0:0:0:
36,192,92246,1,0,0:0:0:0:
182,192,92439,1,0,0:0:0:0:
329,192,92439,1,0,0:0:0:0:
256,192,92631,1,0,0:0:0:0:
182,192,92823,1,2,0:0:0:0:
329,192,92823,1,0,0:0:0:0:
36,192,92823,1,0,0:0:0:0:
109,192,92823,1,2,0:0:0:0:
475,192,92823,1,0,0:0:0:0:
256,192,92919,1,0,0:0:0:0:
402,192,92919,1,0,0:0:0:0:
182,192,93016,1,0,0:0:0:0:
475,192,93016,1,0,0:0:0:0:
256,192,93208,1,0,0:0:0:0:
109,192,93208,1,0,0:0:0:0:
402,192,93400,1,0,0:0:0:0:
36,192,93400,1,0,0:0:0:0:
475,192,93592,1,0,0:0:0:0:
256,192,93592,1,0,0:0:0:0:
182,192,93592,1,2,0:0:0:0:
329,192,93592,1,0,0:0:0:0:
109,192,93785,1,0,0:0:0:0:
402,192,93785,1,0,0:0:0:0:
182,192,93977,1,0,0:0:0:0:
329,192,93977,1,0,0:0:0:0:
256,192,94169,1,0,0:0:0:0:
402,192,94169,1,0,0:0:0:0:
329,192,94362,1,0,0:0:0:0:
182,192,94362,1,0,0:0:0:0:
109,192,94362,1,2,0:0:0:0:
475,192,94362,1,0,0:0:0:0:
36,192,94362,1,2,0:0:0:0:
402,192,94458,1,0,0:0:0:0:
256,192,94458,1,0,0:0:0:0:
329,192,94554,1,0,0:0:0:0:
182,192,94554,1,0,0:0:0:0:
256,192,94746,1,0,0:0:0:0:
329,192,94938,1,0,0:0:0:0:
402,192,95131,1,2,0:0:0:0:
256,192,95131,1,2,0:0:0:0:
109,192,95131,1,0,0:0:0:0:
36,192,95131,1,0,0:0:0:0:
475,192,95131,1,0,0:0:0:0:
182,192,95227,1,0,0:0:0:0:
329,192,95227,1,0,0:0:0:0:
475,192,95323,1,0,0:0:0:0:
256,192,95323,1,0,0:0:0:0:
182,192,95515,1,0,0:0:0:0:
36,192,95515,1,0,0:0:0:0:
402,192,95900,1,2,0:0:0:0:
256,192,95900,1,0,0:0:0:0:
109,192,95900,1,0,0:0:0:0:
475,192,95900,1,2,0:0:0:0:
36,192,95900,1,0,0:0:0:0:
182,192,95996,1,0,0:0:0:0:
329,192,95996,1,0,0:0:0:0:
256,192,96092,1,0,0:0:0:0:
402,192,96092,1,0,0:0:0:0:
182,192,96188,1,0,0:0:0:0:
329,192,96188,1,0,0:0:0:0:
109,192,96285,1,0,0:0:0:0:
256,192,96285,1,0,0:0:0:0:
256,192,96541,1,0,0:0:0:0:
109,192,96669,1,0,0:0:0:0:
329,192,96669,1,0,0:0:0:0:
475,192,96669,1,0,0:0:0:0:
36,192,96861,1,0,0:0:0:0:
109,192,97054,1,0,0:0:0:0:
329,192,97054,1,0,0:0:0:0:
329,192,97246,1,0,0:0:0:0:
475,192,97246,1,0,0:0:0:0:
256,192,97438,1,2,0:0:0:0:
109,192,97438,1,0,0:0:0:0:
475,192,97438,1,0,0:0:0:0:
402,192,97438,1,0,0:0:0:0:
36,192,97438,1,0,0:0:0:0:
182,192,97438,1,2,0:0:0:0:
329,192,97631,1,2,0:0:0:0:
402,192,97823,1,2,0:0:0:0:
475,192,98015,1,2,0:0:0:0:
329,192,98207,1,2,0:0:0:0:
109,192,98207,1,0,0:0:0:0:
402,192,98207,1,0,0:0:0:0:
182,192,98207,1,0,0:0:0:0:
256,192,98207,1,0,0:0:0:0:
256,192,98400,1,2,0:0:0:0:
36,192,98400,1,0,0:0:0:0:
182,192,98592,1,2,0:0:0:0:
329,192,98592,1,0,0:0:0:0:
475,192,98592,1,0,0:0:0:0:
109,192,98784,1,2,0:0:0:0:
402,192,98784,1,0,0:0:0:0:
36,192,98977,1,2,0:0:0:0:
475,192,98977,1,0,0:0:0:0:
182,192,98977,1,2,0:0:0:0:
329,192,98977,1,0,0:0:0:0:
256,192,98977,1,4,0:0:0:0:
402,192,99361,1,0,0:0:0:0:
182,192,99361,1,0,0:0:0:0:
329,192,99361,1,0,0:0:0:0:
36,192,99553,1,0,0:0:0:0:
256,192,99553,1,0,0:0:0:0:
329,192,99746,1,0,0:0:0:0:
182,192,99746,1,2,0:0:0:0:
402,192,99746,1,0,0:0:0:0:
475,192,99746,1,0,0:0:0:0:
109,192,99938,1,0,0:0:0:0:
256,192,99938,1,0,0:0:0:0:
256,192,100130,1,0,0:0:0:0:
36,192,100130,1,0,0:0:0:0:
329,192,100130,1,0,0:0:0:0:
182,192,100323,1,0,0:0:0:0:
109,192,100323,1,0,0:0:0:0:
402,192,100323,1,0,0:0:0:0:
36,192,100515,1,0,0:0:0:0:
402,192,100515,1,0,0:0:0:0:
256,192,100515,1,2,0:0:0:0:
182,192,100515,1,2,0:0:0:0:
475,192,100515,1,0,0:0:0:0:
109,192,100707,1,0,0:0:0:0:
475,192,100899,1,0,0:0:0:0:
256,192,100899,1,0,0:0:0:0:
329,192,100899,1,0,0:0:0:0:
182,192,101092,1,0,0:0:0:0:
36,192,101092,1,0,0:0:0:0:
402,192,101284,1,0,0:0:0:0:
329,192,101284,1,0,0:0:0:0:
256,192,101284,1,2,0:0:0:0:
475,192,101284,1,0,0:0:0:0:
109,192,101284,1,0,0:0:0:0:
182,192,101476,1,0,0:0:0:0:
329,192,101476,1,0,0:0:0:0:
329,192,101669,1,0,0:0:0:0:
36,192,101669,1,0,0:0:0:0:
402,192,101669,1,0,0:0:0:0:
182,192,101861,1,0,0:0:0:0:
402,192,101861,1,0,0:0:0:0:
475,192,101861,1,0,0:0:0:0:
36,192,102053,1,0,0:0:0:0:
256,192,102053,1,2,0:0:0:0:
109,192,102053,1,0,0:0:0:0:
329,192,102053,1,2,0:0:0:0:
402,192,102053,1,0,0:0:0:0:
109,192,102245,1,0,0:0:0:0:
475,192,102438,1,0,0:0:0:0:
182,192,102438,1,0,0:0:0:0:
329,192,102438,1,0,0:0:0:0:
109,192,102630,1,0,0:0:0:0:
256,192,102630,1,0,0:0:0:0:
402,192,102822,1,2,0:0:0:0:
256,192,102822,1,0,0:0:0:0:
329,192,102822,1,0,0:0:0:0:
36,192,102822,1,0,0:0:0:0:
182,192,103015,1,0,0:0:0:0:
329,192,103207,1,0,0:0:0:0:
109,192,103207,1,0,0:0:0:0:
475,192,103207,1,0,0:0:0:0:
256,192,103399,1,0,0:0:0:0:
109,192,103399,1,0,0:0:0:0:
36,192,103592,1,0,0:0:0:0:
402,192,103592,1,0,0:0:0:0:
256,192,103592,1,2,0:0:0:0:
182,192,103592,1,2,0:0:0:0:
475,192,103592,1,0,0:0:0:0:
402,192,103784,1,0,0:0:0:0:
109,192,103784,1,0,0:0:0:0:
329,192,103976,1,0,0:0:0:0:
182,192,103976,1,0,0:0:0:0:
36,192,103976,1,0,0:0:0:0:
256,192,104168,1,0,0:0:0:0:
402,192,104168,1,0,0:0:0:0:
109,192,104168,1,0,0:0:0:0:
182,192,104361,1,2,0:0:0:0:
475,192,104361,1,0,0:0:0:0:
36,192,104361,1,0,0:0:0:0:
329,192,104361,1,0,0:0:0:0:
256,192,104361,1,0,0:0:0:0:
109,192,104553,1,0,0:0:0:0:
402,192,104553,1,0,0:0:0:0:
329,192,104553,1,0,0:0:0:0:
182,192,104745,1,0,0:0:0:0:
36,192,104745,1,0,0:0:0:0:
256,192,104745,1,0,0:0:0:0:
36,192,104938,1,0,0:0:0:0:
109,192,104938,1,0,0:0:0:0:
256,192,104938,1,0,0:0:0:0:
182,192,105130,1,2,0:0:0:0:
109,192,105130,1,0,0:0:0:0:
256,192,105130,1,2,0:0:0:0:
402,192,105130,1,0,0:0:0:0:
475,192,105130,1,0,0:0:0:0:
109,192,105322,1,0,0:0:0:0:
329,192,105514,1,0,0:0:0:0:
182,192,105514,1,0,0:0:0:0:
475,192,105514,1,0,0:0:0:0:
402,192,105707,1,0,0:0:0:0:
109,192,105707,1,0,0:0:0:0:
36,192,105899,1,2,0:0:0:0:
329,192,105899,1,0,0:0:0:0:
182,192,105899,1,0,0:0:0:0:
256,192,105899,1,0,0:0:0:0:
475,192,106091,1,0,0:0:0:0:
256,192,106091,1,0,0:0:0:0:
182,192,106284,1,0,0:0:0:0:
329,192,106284,1,0,0:0:0:0:
109,192,106284,1,0,0:0:0:0:
109,192,106476,1,0,0:0:0:0:
256,192,106476,1,0,0:0:0:0:
36,192,106476,1,0,0:0:0:0:
36,192,106668,1,0,0:0:0:0:
402,192,106668,1,2,0:0:0:0:
329,192,106668,1,2,0:0:0:0:
475,192,106668,1,0,0:0:0:0:
182,192,106668,1,0,0:0:0:0:
109,192,106860,1,0,0:0:0:0:
402,192,107053,1,0,0:0:0:0:
182,192,107053,1,0,0:0:0:0:
329,192,107053,1,0,0:0:0:0:
256,192,107245,1,0,0:0:0:0:
475,192,107245,1,0,0:0:0:0:
329,192,107437,1,0,0:0:0:0:
109,192,107437,1,2,0:0:0:0:
36,192,107437,1,0,0:0:0:0:
402,192,107437,1,0,0:0:0:0:
182,192,107437,1,0,0:0:0:0:
182,192,107630,1,0,0:0:0:0:
109,192,107630,1,0,0:0:0:0:
256,192,107822,1,0,0:0:0:0:
402,192,107822,1,0,0:0:0:0:
475,192,107822,1,0,0:0:0:0:
36,192,108014,1,0,0:0:0:0:
329,192,108014,1,0,0:0:0:0:
182,192,108206,1,0,0:0:0:0:
329,192,108206,1,2,0:0:0:0:
402,192,108206,1,2,0:0:0:0:
109,192,108206,1,0,0:0:0:0:
256,192,108206,1,0,0:0:0:0:
36,192,108399,1,0,0:0:0:0:
182,192,108399,1,0,0:0:0:0:
475,192,108591,1,0,0:0:0:0:
329,192,108591,1,0,0:0:0:0:
402,192,108591,1,0,0:0:0:0:
256,192,108783,1,0,0:0:0:0:
475,192,108783,1,0,0:0:0:0:
109,192,108976,1,2,0:0:0:0:
36,192,108976,1,0,0:0:0:0:
402,192,108976,1,0,0:0:0:0:
182,192,108976,1,0,0:0:0:0:
256,192,109168,1,0,0:0:0:0:
329,192,109168,1,0,0:0:0:0:
182,192,109168,1,0,0:0:0:0:
402,192,109360,1,0,0:0:0:0:
182,192,109360,1,0,0:0:0:0:
109,192,109360,1,0,0:0:0:0:
475,192,109552,1,0,0:0:0:0:
109,192,109552,1,0,0:0:0:0:
256,192,109552,1,0,0:0:0:0:
36,192,109745,1,0,0:0:0:0:
182,192,109745,1,0,0:0:0:0:
256,192,109745,1,0,0:0:0:0:
329,192,109745,1,2,0:0:0:0:
402,192,109745,1,2,0:0:0:0:
109,192,109937,1,0,0:0:0:0:
256,192,109937,1,0,0:0:0:0:
256,192,110129,1,0,0:0:0:0:
182,192,110129,1,0,0:0:0:0:
402,192,110129,1,0,0:0:0:0:
402,192,110322,1,0,0:0:0:0:
475,192,110322,1,0,0:0:0:0:
475,192,110514,1,0,0:0:0:0:
36,192,110514,1,2,0:0:0:0:
329,192,110514,1,0,0:0:0:0:
109,192,110514,1,2,0:0:0:0:
256,192,110514,1,0,0:0:0:0:
402,192,110514,1,0,0:0:0:0:
256,192,110706,1,0,0:0:0:0:
182,192,110706,1,0,0:0:0:0:
182,192,110899,1,0,0:0:0:0:
329,192,110899,1,0,0:0:0:0:
475,192,110899,1,0,0:0:0:0:
109,192,110899,1,0,0:0:0:0:
109,192,111091,1,0,0:0:0:0:
256,192,111091,1,0,0:0:0:0:
36,192,111283,1,0,0:0:0:0:
402,192,111283,1,2,0:0:0:0:
182,192,111283,1,0,0:0:0:0:
329,192,111283,1,2,0:0:0:0:
475,192,111379,1,0,0:0:0:0:
109,192,111475,1,0,0:0:0:0:
256,192,111475,1,0,0:0:0:0:
402,192,111572,1,0,0:0:0:0:
475,192,111668,1,0,0:0:0:0:
182,192,111668,1,0,0:0:0:0:
329,192,111668,1,0,0:0:0:0:
256,192,111860,1,0,0:0:0:0:
402,192,111860,1,0,0:0:0:0:
402,192,112052,1,2,0:0:0:0:
109,192,112052,1,0,0:0:0:0:
475,192,112052,1,0,0:0:0:0:
182,192,112052,1,0,0:0:0:0:
329,192,112245,1,0,0:0:0:0:
256,192,112245,1,0,0:0:0:0:
36,192,112437,1,0,0:0:0:0:
256,192,112437,1,0,0:0:0:0:
109,192,112437,1,0,0:0:0:0:
109,192,112629,1,0,0:0:0:0:
402,192,112629,1,0,0:0:0:0:
182,192,112629,1,0,0:0:0:0:
329,192,112821,1,2,0:0:0:0:
256,192,112821,1,2,0:0:0:0:
36,192,112821,1,0,0:0:0:0:
475,192,112821,1,0,0:0:0:0:
182,192,112821,1,0,0:0:0:0:
36,192,113206,1,0,0:0:0:0:
182,192,113206,1,0,0:0:0:0:
329,192,113206,1,0,0:0:0:0:
256,192,113398,1,0,0:0:0:0:
402,192,113398,1,0,0:0:0:0:
329,192,113591,1,2,0:0:0:0:
475,192,113591,1,0,0:0:0:0:
182,192,113591,1,0,0:0:0:0:
109,192,113591,1,0,0:0:0:0:
36,192,113591,1,0,0:0:0:0:
402,192,113783,1,0,0:0:0:0:
256,192,113783,1,0,0:0:0:0:
475,192,113975,1,0,0:0:0:0:
36,192,113975,1,0,0:0:0:0:
402,192,114167,1,0,0:0:0:0:
109,192,114167,1,0,0:0:0:0:
182,192,114167,1,0,0:0:0:0:
36,192,114360,1,0,0:0:0:0:
182,192,114360,1,2,0:0:0:0:
256,192,114360,1,2,0:0:0:0:
329,192,114360,1,0,0:0:0:0:
475,192,114360,1,0,0:0:0:0:
109,192,114552,1,0,0:0:0:0:
182,192,114552,1,0,0:0:0:0:
256,192,114744,1,0,0:0:0:0:
402,192,114744,1,0,0:0:0:0:
182,192,114744,1,0,0:0:0:0:
329,192,114937,1,0,0:0:0:0:
109,192,114937,1,0,0:0:0:0:
182,192,115129,1,0,0:0:0:0:
475,192,115129,1,0,0:0:0:0:
402,192,115129,1,2,0:0:0:0:
36,192,115129,1,0,0:0:0:0:
256,192,115321,1,0,0:0:0:0:
182,192,115321,1,0,0:0:0:0:
329,192,115513,1,0,0:0:0:0:
182,192,115513,1,0,0:0:0:0:
109,192,115513,1,0,0:0:0:0:
402,192,115706,1,0,0:0:0:0:
36,192,115706,1,0,0:0:0:0:
256,192,115706,1,0,0:0:0:0:
109,192,115898,1,0,0:0:0:0:
182,192,115898,1,0,0:0:0:0:
329,192,115898,1,2,0:0:0:0:
256,192,115898,1,2,0:0:0:0:
475,192,115898,1,0,0:0:0:0:
402,192,116090,1,0,0:0:0:0:
36,192,116090,1,0,0:0:0:0:
182,192,116283,1,0,0:0:0:0:
402,192,116283,1,0,0:0:0:0:
329,192,116283,1,0,0:0:0:0:
109,192,116475,1,0,0:0:0:0:
182,192,116475,1,0,0:0:0:0:
329,192,116475,1,0,0:0:0:0:
36,192,116667,1,0,0:0:0:0:
402,192,116667,1,2,0:0:0:0:
475,192,116667,1,0,0:0:0:0:
256,192,116667,1,0,0:0:0:0:
109,192,116667,1,0,0:0:0:0:
182,192,116859,1,0,0:0:0:0:
329,192,116859,1,0,0:0:0:0:
402,192,116859,1,0,0:0:0:0:
256,192,117052,1,0,0:0:0:0:
109,192,117052,1,0,0:0:0:0:
182,192,117052,1,0,0:0:0:0:
329,192,117244,1,0,0:0:0:0:
36,192,117244,1,0,0:0:0:0:
109,192,117244,1,0,0:0:0:0:
256,192,117436,1,2,0:0:0:0:
109,192,117436,1,2,0:0:0:0:
475,192,117436,1,0,0:0:0:0:
402,192,117436,1,0,0:0:0:0:
182,192,117629,1,0,0:0:0:0:
329,192,117629,1,0,0:0:0:0:
475,192,117821,1,0,0:0:0:0:
256,192,117821,1,0,0:0:0:0:
402,192,117821,1,0,0:0:0:0:
109,192,118013,1,0,0:0:0:0:
182,192,118013,1,0,0:0:0:0:
329,192,118205,1,2,0:0:0:0:
475,192,118205,1,0,0:0:0:0:
36,192,118205,1,0,0:0:0:0:
256,192,118205,1,0,0:0:0:0:
182,192,118205,1,0,0:0:0:0:
402,192,118398,1,0,0:0:0:0:
109,192,118398,1,0,0:0:0:0:
182,192,118590,1,0,0:0:0:0:
329,192,118590,1,0,0:0:0:0:
475,192,118590,1,0,0:0:0:0:
36,192,118782,1,0,0:0:0:0:
402,192,118782,1,0,0:0:0:0:
182,192,118782,1,0,0:0:0:0:
475,192,118975,1,0,0:0:0:0:
329,192,118975,1,2,0:0:0:0:
256,192,118975,1,2,0:0:0:0:
109,192,118975,1,0,0:0:0:0:
182,192,119167,1,0,0:0:0:0:
402,192,119167,1,0,0:0:0:0:
36,192,119359,1,0,0:0:0:0:
329,192,119359,1,0,0:0:0:0:
109,192,119359,1,0,0:0:0:0:
402,192,119552,1,0,0:0:0:0:
256,192,119552,1,0,0:0:0:0:
182,192,119744,1,0,0:0:0:0:
329,192,119744,1,2,0:0:0:0:
475,192,119744,1,0,0:0:0:0:
36,192,119744,1,0,0:0:0:0:
109,192,119936,1,0,0:0:0:0:
182,192,119936,1,0,0:0:0:0:
329,192,120128,1,0,0:0:0:0:
36,192,120128,1,0,0:0:0:0:
256,192,120128,1,0,0:0:0:0:
475,192,120321,1,0,0:0:0:0:
182,192,120321,1,0,0:0:0:0:
402,192,120321,1,0,0:0:0:0:
109,192,120513,1,2,0:0:0:0:
36,192,120513,1,0,0:0:0:0:
256,192,120513,1,2,0:0:0:0:
402,192,120513,1,0,0:0:0:0:
329,192,120513,1,0,0:0:0:0:
182,192,120705,1,0,0:0:0:0:
475,192,120705,1,0,0:0:0:0:
256,192,120898,1,0,0:0:0:0:
402,192,120898,1,0,0:0:0:0:
36,192,120898,1,0,0:0:0:0:
329,192,121090,1,0,0:0:0:0:
109,192,121090,1,0,0:0:0:0:
36,192,121282,1,0,0:0:0:0:
475,192,121282,1,0,0:0:0:0:
256,192,121282,1,2,0:0:0:0:
402,192,121282,1,0,0:0:0:0:
109,192,121282,1,0,0:0:0:0:
182,192,121474,1,0,0:0:0:0:
402,192,121474,1,0,0:0:0:0:
329,192,121474,1,0,0:0:0:0:
329,192,121667,1,0,0:0:0:0:
36,192,121667,1,0,0:0:0:0:
256,192,121667,1,0,0:0:0:0:
109,192,121667,1,0,0:0:0:0:
475,192,121859,1,0,0:0:0:0:
182,192,121859,1,0,0:0:0:0:
256,192,121859,1,0,0:0:0:0:
256,192,122051,1,0,0:0:0:0:
329,192,122051,1,2,0:0:0:0:
109,192,122051,1,0,0:0:0:0:
36,192,122051,1,0,0:0:0:0:
402,192,122051,1,2,0:0:0:0:
182,192,122244,1,0,0:0:0:0:
256,192,122436,1,0,0:0:0:0:
109,192,122436,1,0,0:0:0:0:
402,192,122436,1,0,0:0:0:0:
329,192,122628,1,0,0:0:0:0:
36,192,122628,1,0,0:0:0:0:
402,192,122820,1,0,0:0:0:0:
256,192,122820,1,2,0:0:0:0:
475,192,122820,1,0,0:0:0:0:
182,192,122820,1,0,0:0:0:0:
109,192,122820,1,0,0:0:0:0:
109,192,123013,1,0,0:0:0:0:
329,192,123013,1,0,0:0:0:0:
182,192,123205,1,0,0:0:0:0:
475,192,123205,1,0,0:0:0:0:
256,192,123397,1,0,0:0:0:0:
36,192,123590,1,0,0:0:0:0:
475,192,123590,1,0,0:0:0:0:
182,192,123590,128,2,124359:0:0:0:0:
329,192,123590,128,4,124359:0:0:0:0:
36,192,124359,128,0,125128:0:0:0:0:
475,192,124359,128,0,125128:0:0:0:0:
109,192,125128,128,0,129070:0:0:0:0:
402,192,125128,128,0,129070:0:0:0:0:
256,192,125128,128,0,129070:0:0:0:0:
109,192,129166,128,0,129262:0:0:0:0:
402,192,129166,128,0,129262:0:0:0:0:
109,192,129358,1,0,0:0:0:0:
402,192,129358,1,0,0:0:0:0:
109,192,129454,1,0,0:0:0:0:
402,192,129454,1,0,0:0:0:0:
109,192,129551,1,0,0:0:0:0:
402,192,129551,1,0,0:0:0:0:
109,192,129647,1,0,0:0:0:0:
402,192,129647,1,0,0:0:0:0:
36,192,129743,1,0,0:0:0:0:
182,192,129743,1,2,0:0:0:0:
329,192,129743,1,2,0:0:0:0:
475,192,129743,1,0,0:0:0:0:
256,192,129743,1,4,0:0:0:0:
109,192,129935,1,0,0:0:0:0:
182,192,130127,1,0,0:0:0:0:
402,192,130127,1,2,0:0:0:0:
256,192,130320,1,0,0:0:0:0:
36,192,130320,1,0,0:0:0:0:
329,192,130512,1,2,0:0:0:0:
475,192,130512,1,0,0:0:0:0:
182,192,130512,1,0,0:0:0:0:
109,192,130512,1,0,0:0:0:0:
36,192,130704,1,0,0:0:0:0:
402,192,130704,1,0,0:0:0:0:
256,192,130704,1,0,0:0:0:0:
182,192,130897,1,0,0:0:0:0:
475,192,130897,1,0,0:0:0:0:
109,192,130897,1,0,0:0:0:0:
256,192,131089,1,0,0:0:0:0:
402,192,131089,1,0,0:0:0:0:
182,192,131089,1,0,0:0:0:0:
329,192,131281,1,2,0:0:0:0:
36,192,131281,1,0,0:0:0:0:
475,192,131281,1,0,0:0:0:0:
109,192,131281,1,0,0:0:0:0:
109,192,131473,1,0,0:0:0:0:
256,192,131473,1,0,0:0:0:0:
182,192,131666,1,0,0:0:0:0:
475,192,131666,1,0,0:0:0:0:
256,192,131858,1,0,0:0:0:0:
329,192,132050,1,2,0:0:0:0:
402,192,132050,1,0,0:0:0:0:
36,192,132050,1,0,0:0:0:0:
182,192,132050,1,0,0:0:0:0:
182,192,132243,1,0,0:0:0:0:
109,192,132243,1,0,0:0:0:0:
475,192,132243,1,0,0:0:0:0:
329,192,132435,1,0,0:0:0:0:
36,192,132435,1,0,0:0:0:0:
182,192,132435,1,0,0:0:0:0:
402,192,132627,1,0,0:0:0:0:
256,192,132627,1,0,0:0:0:0:
109,192,132627,1,0,0:0:0:0:
475,192,132819,1,0,0:0:0:0:
182,192,132819,1,2,0:0:0:0:
329,192,132819,1,2,0:0:0:0:
109,192,132819,1,0,0:0:0:0:
36,192,133012,1,0,0:0:0:0:
109,192,133204,1,0,0:0:0:0:
402,192,133204,1,2,0:0:0:0:
182,192,133396,1,0,0:0:0:0:
329,192,133396,1,0,0:0:0:0:
256,192,133589,1,2,0:0:0:0:
475,192,133589,1,0,0:0:0:0:
36,192,133589,1,0,0:0:0:0:
329,192,133589,1,0,0:0:0:0:
109,192,133781,1,0,0:0:0:0:
402,192,133781,1,0,0:0:0:0:
256,192,133973,1,0,0:0:0:0:
36,192,133973,1,0,0:0:0:0:
475,192,134165,1,0,0:0:0:0:
109,192,134165,1,0,0:0:0:0:
402,192,134358,1,2,0:0:0:0:
329,192,134358,1,2,0:0:0:0:
182,192,134358,1,0,0:0:0:0:
36,192,134358,1,0,0:0:0:0:
475,192,134550,1,0,0:0:0:0:
109,192,134550,1,0,0:0:0:0:
256,192,134742,1,0,0:0:0:0:
182,192,134742,1,2,0:0:0:0:
402,192,134742,1,0,0:0:0:0:
475,192,134935,1,0,0:0:0:0:
36,192,134935,1,0,0:0:0:0:
182,192,135127,1,0,0:0:0:0:
329,192,135127,1,0,0:0:0:0:
109,192,135127,1,2,0:0:0:0:
256,192,135127,1,0,0:0:0:0:
475,192,135319,1,0,0:0:0:0:
182,192,135319,1,0,0:0:0:0:
36,192,135512,1,2,0:0:0:0:
402,192,135512,1,0,0:0:0:0:
256,192,135704,1,0,0:0:0:0:
109,192,135896,1,0,0:0:0:0:
329,192,135896,1,2,0:0:0:0:
36,192,135896,1,0,0:0:0:0:
402,192,135896,1,2,0:0:0:0:
475,192,135896,1,0,0:0:0:0:
182,192,136281,1,0,0:0:0:0:
402,192,136281,1,0,0:0:0:0:
256,192,136473,1,0,0:0:0:0:
36,192,136473,1,0,0:0:0:0:
329,192,136665,1,0,0:0:0:0:
109,192,136665,1,0,0:0:0:0:
182,192,136665,1,2,0:0:0:0:
475,192,136665,1,0,0:0:0:0:
402,192,136858,1,0,0:0:0:0:
256,192,136858,1,0,0:0:0:0:
475,192,137050,1,0,0:0:0:0:
182,192,137050,1,0,0:0:0:0:
329,192,137242,1,0,0:0:0:0:
109,192,137242,1,0,0:0:0:0:
36,192,137434,1,0,0:0:0:0:
475,192,137434,1,0,0:0:0:0:
182,192,137434,1,0,0:0:0:0:
402,192,137434,1,0,0:0:0:0:
109,192,137627,1,0,0:0:0:0:
329,192,137627,1,0,0:0:0:0:
182,192,137819,1,0,0:0:0:0:
402,192,137819,1,0,0:0:0:0:
256,192,138011,1,0,0:0:0:0:
329,192,138204,1,2,0:0:0:0:
36,192,138204,1,0,0:0:0:0:
475,192,138204,1,0,0:0:0:0:
182,192,138204,1,0,0:0:0:0:
109,192,138396,1,0,0:0:0:0:
182,192,138396,1,0,0:0:0:0:
256,192,138588,1,0,0:0:0:0:
36,192,138588,1,0,0:0:0:0:
402,192,138780,1,0,0:0:0:0:
475,192,138780,1,0,0:0:0:0:
182,192,138973,1,0,0:0:0:0:
109,192,138973,1,0,0:0:0:0:
329,192,138973,1,2,0:0:0:0:
256,192,138973,1,2,0:0:0:0:
36,192,139165,1,0,0:0:0:0:
109,192,139357,1,0,0:0:0:0:
256,192,139357,1,0,0:0:0:0:
182,192,139550,1,0,0:0:0:0:
329,192,139550,1,2,0:0:0:0:
402,192,139550,1,2,0:0:0:0:
36,192,139550,1,0,0:0:0:0:
475,192,139742,1,2,0:0:0:0:
109,192,139742,1,0,0:0:0:0:
329,192,139742,1,0,0:0:0:0:
182,192,139742,1,0,0:0:0:0:
256,192,139934,1,0,0:0:0:0:
182,192,139934,1,0,0:0:0:0:
329,192,140126,1,0,0:0:0:0:
109,192,140126,1,0,0:0:0:0:
402,192,140319,1,0,0:0:0:0:
36,192,140319,1,0,0:0:0:0:
329,192,140511,1,0,0:0:0:0:
182,192,140511,1,2,0:0:0:0:
109,192,140511,1,2,0:0:0:0:
475,192,140511,1,0,0:0:0:0:
256,192,140703,1,0,0:0:0:0:
402,192,140703,1,0,0:0:0:0:
256,192,140896,1,0,0:0:0:0:
36,192,140896,1,0,0:0:0:0:
109,192,141088,1,0,0:0:0:0:
329,192,141088,1,0,0:0:0:0:
182,192,141088,1,0,0:0:0:0:
402,192,141280,1,2,0:0:0:0:
182,192,141280,1,0,0:0:0:0:
256,192,141280,1,0,0:0:0:0:
475,192,141280,1,2,0:0:0:0:
36,192,141280,1,0,0:0:0:0:
109,192,141280,1,0,0:0:0:0:
329,192,141472,1,0,0:0:0:0:
182,192,141472,1,0,0:0:0:0:
109,192,141665,1,0,0:0:0:0:
475,192,141665,1,0,0:0:0:0:
256,192,141665,1,0,0:0:0:0:
182,192,141857,1,0,0:0:0:0:
36,192,141857,1,0,0:0:0:0:
329,192,141857,1,0,0:0:0:0:
256,192,142049,1,2,0:0:0:0:
402,192,142049,1,2,0:0:0:0:
329,192,142049,1,4,0:0:0:0:
109,192,142049,1,0,0:0:0:0:
475,192,142049,1,0,0:0:0:0:
36,192,142242,1,0,0:0:0:0:
182,192,142434,1,0,0:0:0:0:
402,192,142434,1,0,0:0:0:0:
256,192,142626,1,0,0:0:0:0:
36,192,142626,1,0,0:0:0:0:
329,192,142819,1,0,0:0:0:0:
182,192,142819,1,2,0:0:0:0:
475,192,142819,1,0,0:0:0:0:
109,192,142819,1,0,0:0:0:0:
109,192,143011,1,0,0:0:0:0:
402,192,143011,1,0,0:0:0:0:
256,192,143203,1,0,0:0:0:0:
182,192,143203,1,0,0:0:0:0:
402,192,143395,1,0,0:0:0:0:
109,192,143395,1,0,0:0:0:0:
475,192,143588,1,2,0:0:0:0:
329,192,143588,1,2,0:0:0:0:
109,192,143588,1,0,0:0:0:0:
256,192,143588,1,0,0:0:0:0:
36,192,143588,1,0,0:0:0:0:
182,192,143780,1,0,0:0:0:0:
256,192,143972,1,0,0:0:0:0:
109,192,143972,1,0,0:0:0:0:
402,192,144165,1,0,0:0:0:0:
329,192,144165,1,0,0:0:0:0:
182,192,144165,1,0,0:0:0:0:
36,192,144165,1,0,0:0:0:0:
475,192,144357,1,2,0:0:0:0:
109,192,144357,1,0,0:0:0:0:
182,192,144357,1,0,0:0:0:0:
256,192,144549,1,0,0:0:0:0:
329,192,144549,1,0,0:0:0:0:
182,192,144741,1,0,0:0:0:0:
329,192,144934,1,0,0:0:0:0:
182,192,145126,1,2,0:0:0:0:
256,192,145126,1,2,0:0:0:0:
36,192,145126,1,0,0:0:0:0:
402,192,145126,1,0,0:0:0:0:
475,192,145126,1,0,0:0:0:0:
182,192,145511,1,0,0:0:0:0:
475,192,145511,1,0,0:0:0:0:
256,192,145703,1,0,0:0:0:0:
402,192,145703,1,0,0:0:0:0:
475,192,145703,1,0,0:0:0:0:
36,192,145703,1,0,0:0:0:0:
109,192,145895,1,2,0:0:0:0:
256,192,145895,1,0,0:0:0:0:
402,192,145895,1,0,0:0:0:0:
329,192,146087,1,2,0:0:0:0:
182,192,146087,1,0,0:0:0:0:
475,192,146087,1,2,0:0:0:0:
36,192,146280,1,0,0:0:0:0:
256,192,146472,1,0,0:0:0:0:
329,192,146664,1,0,0:0:0:0:
182,192,146664,1,2,0:0:0:0:
109,192,146664,1,2,0:0:0:0:
402,192,146664,1,0,0:0:0:0:
256,192,146664,1,0,0:0:0:0:
475,192,146857,1,0,0:0:0:0:
109,192,147049,1,0,0:0:0:0:
256,192,147049,1,0,0:0:0:0:
36,192,147049,1,0,0:0:0:0:
402,192,147241,1,2,0:0:0:0:
329,192,147241,1,2,0:0:0:0:
182,192,147241,1,0,0:0:0:0:
109,192,147241,1,0,0:0:0:0:
256,192,147241,1,0,0:0:0:0:
475,192,147433,1,2,0:0:0:0:
182,192,147433,1,0,0:0:0:0:
402,192,147433,1,0,0:0:0:0:
329,192,147626,1,0,0:0:0:0:
36,192,147626,1,0,0:0:0:0:
475,192,147722,1,0,0:0:0:0:
182,192,147818,1,0,0:0:0:0:
329,192,148010,1,0,0:0:0:0:
36,192,148203,1,2,0:0:0:0:
402,192,148203,1,0,0:0:0:0:
256,192,148203,1,0,0:0:0:0:
109,192,148203,1,2,0:0:0:0:
182,192,148203,1,0,0:0:0:0:
402,192,148587,1,2,0:0:0:0:
36,192,148779,1,0,0:0:0:0:
182,192,148972,1,0,0:0:0:0:
402,192,148972,1,0,0:0:0:0:
109,192,148972,1,2,0:0:0:0:
329,192,148972,1,0,0:0:0:0:
256,192,149164,1,0,0:0:0:0:
475,192,149164,1,0,0:0:0:0:
329,192,149356,1,0,0:0:0:0:
109,192,149356,1,0,0:0:0:0:
402,192,149549,1,0,0:0:0:0:
36,192,149549,1,0,0:0:0:0:
475,192,149741,1,0,0:0:0:0:
256,192,149741,1,2,0:0:0:0:
182,192,149741,1,2,0:0:0:0:
109,192,149741,1,0,0:0:0:0:
36,192,149933,1,0,0:0:0:0:
182,192,150125,1,0,0:0:0:0:
256,192,150318,1,2,0:0:0:0:
402,192,150318,1,0,0:0:0:0:
109,192,150318,1,2,0:0:0:0:
329,192,150318,1,0,0:0:0:0:
475,192,150510,1,0,0:0:0:0:
36,192,150702,1,2,0:0:0:0:
182,192,150702,1,2,0:0:0:0:
329,192,150702,1,0,0:0:0:0:
109,192,150702,1,0,0:0:0:0:
329,192,150895,1,0,0:0:0:0:
109,192,151087,1,0,0:0:0:0:
256,192,151087,1,0,0:0:0:0:
402,192,151087,1,0,0:0:0:0:
182,192,151279,1,0,0:0:0:0:
329,192,151279,1,2,0:0:0:0:
402,192,151279,1,2,0:0:0:0:
36,192,151279,1,0,0:0:0:0:
475,192,151279,1,0,0:0:0:0:
182,192,151664,1,0,0:0:0:0:
402,192,151856,1,0,0:0:0:0:
36,192,151856,1,0,0:0:0:0:
402,192,151952,1,0,0:0:0:0:
256,192,152048,1,0,0:0:0:0:
475,192,152048,1,2,0:0:0:0:
109,192,152048,1,0,0:0:0:0:
182,192,152241,1,0,0:0:0:0:
329,192,152241,1,0,0:0:0:0:
256,192,152433,1,0,0:0:0:0:
109,192,152433,1,0,0:0:0:0:
329,192,152625,1,0,0:0:0:0:
36,192,152625,1,0,0:0:0:0:
402,192,152818,1,2,0:0:0:0:
475,192,152818,1,0,0:0:0:0:
256,192,152818,1,2,0:0:0:0:
182,192,152818,1,0,0:0:0:0:
109,192,153010,1,0,0:0:0:0:
329,192,153010,1,0,0:0:0:0:
182,192,153202,1,0,0:0:0:0:
402,192,153202,1,0,0:0:0:0:
256,192,153394,1,0,0:0:0:0:
475,192,153394,1,0,0:0:0:0:
329,192,153587,1,2,0:0:0:0:
182,192,153587,1,0,0:0:0:0:
402,192,153587,1,2,0:0:0:0:
36,192,153587,1,0,0:0:0:0:
109,192,153587,1,0,0:0:0:0:
256,192,153779,1,0,0:0:0:0:
329,192,153971,1,0,0:0:0:0:
475,192,153971,1,0,0:0:0:0:
36,192,153971,1,0,0:0:0:0:
182,192,154164,1,0,0:0:0:0:
329,192,154164,1,0,0:0:0:0:
109,192,154164,1,0,0:0:0:0:
256,192,154356,1,4,0:0:0:0:
402,192,154356,1,2,0:0:0:0:
36,192,154356,1,0,0:0:0:0:
109,192,154356,1,2,0:0:0:0:
475,192,154356,1,0,0:0:0:0:
475,192,154740,1,0,0:0:0:0:
256,192,154740,1,0,0:0:0:0:
182,192,154740,1,0,0:0:0:0:
329,192,154933,1,0,0:0:0:0:
109,192,154933,1,0,0:0:0:0:
36,192,154933,1,0,0:0:0:0:
402,192,155125,1,2,0:0:0:0:
182,192,155125,1,0,0:0:0:0:
36,192,155125,1,0,0:0:0:0:
475,192,155317,1,0,0:0:0:0:
36,192,155317,1,0,0:0:0:0:
329,192,155510,1,0,0:0:0:0:
109,192,155510,1,0,0:0:0:0:
182,192,155510,1,0,0:0:0:0:
256,192,155702,1,0,0:0:0:0:
402,192,155702,1,0,0:0:0:0:
36,192,155894,1,0,0:0:0:0:
402,192,155894,1,2,0:0:0:0:
182,192,155894,1,0,0:0:0:0:
475,192,155894,1,2,0:0:0:0:
109,192,155894,1,0,0:0:0:0:
329,192,155990,1,0,0:0:0:0:
256,192,156086,1,0,0:0:0:0:
329,192,156279,1,0,0:0:0:0:
182,192,156279,1,0,0:0:0:0:
475,192,156279,1,0,0:0:0:0:
36,192,156471,1,0,0:0:0:0:
109,192,156471,1,0,0:0:0:0:
256,192,156663,1,2,0:0:0:0:
475,192,156663,1,0,0:0:0:0:
329,192,156663,1,0,0:0:0:0:
182,192,156663,1,0,0:0:0:0:
402,192,156856,1,0,0:0:0:0:
109,192,156856,1,0,0:0:0:0:
182,192,157048,1,0,0:0:0:0:
36,192,157048,1,0,0:0:0:0:
36,192,157240,1,0,0:0:0:0:
256,192,157240,1,0,0:0:0:0:
109,192,157432,1,0,0:0:0:0:
182,192,157432,1,0,0:0:0:0:
475,192,157432,1,2,0:0:0:0:
402,192,157432,1,2,0:0:0:0:
36,192,157432,1,0,0:0:0:0:
329,192,157432,1,0,0:0:0:0:
256,192,157529,1,0,0:0:0:0:
329,192,157625,1,0,0:0:0:0:
475,192,157817,1,0,0:0:0:0:
182,192,157817,1,0,0:0:0:0:
256,192,157817,1,0,0:0:0:0:
36,192,158009,1,0,0:0:0:0:
109,192,158009,1,0,0:0:0:0:
402,192,158202,1,0,0:0:0:0:
256,192,158202,1,2,0:0:0:0:
475,192,158202,1,0,0:0:0:0:
109,192,158202,1,0,0:0:0:0:
36,192,158394,1,0,0:0:0:0:
182,192,158394,1,0,0:0:0:0:
329,192,158586,1,0,0:0:0:0:
109,192,158586,1,0,0:0:0:0:
475,192,158586,1,0,0:0:0:0:
256,192,158779,1,0,0:0:0:0:
402,192,158779,1,0,0:0:0:0:
182,192,158779,1,0,0:0:0:0:
256,192,158971,1,2,0:0:0:0:
475,192,158971,1,0,0:0:0:0:
109,192,158971,1,0,0:0:0:0:
36,192,158971,1,0,0:0:0:0:
182,192,158971,1,2,0:0:0:0:
329,192,158971,1,0,0:0:0:0:
402,192,159067,1,0,0:0:0:0:
329,192,159163,1,0,0:0:0:0:
109,192,159163,1,0,0:0:0:0:
182,192,159163,1,0,0:0:0:0:
256,192,159355,1,0,0:0:0:0:
402,192,159355,1,0,0:0:0:0:
36,192,159355,1,0,0:0:0:0:
182,192,159548,1,0,0:0:0:0:
329,192,159548,1,0,0:0:0:0:
402,192,159548,1,0,0:0:0:0:
109,192,159740,1,2,0:0:0:0:
475,192,159740,1,0,0:0:0:0:
256,192,159740,1,2,0:0:0:0:
36,192,159740,1,0,0:0:0:0:
182,192,159740,1,0,0:0:0:0:
329,192,159836,1,0,0:0:0:0:
36,192,159932,1,0,0:0:0:0:
256,192,159932,1,0,0:0:0:0:
402,192,159932,1,0,0:0:0:0:
182,192,159932,1,0,0:0:0:0:
182,192,160125,1,0,0:0:0:0:
329,192,160125,1,0,0:0:0:0:
475,192,160125,1,0,0:0:0:0:
109,192,160317,1,0,0:0:0:0:
402,192,160317,1,0,0:0:0:0:
36,192,160317,1,0,0:0:0:0:
182,192,160509,1,0,0:0:0:0:
475,192,160509,1,0,0:0:0:0:
329,192,160509,1,2,0:0:0:0:
256,192,160509,1,2,0:0:0:0:
402,192,160509,1,0,0:0:0:0:
109,192,160605,1,0,0:0:0:0:
36,192,160701,1,0,0:0:0:0:
475,192,160894,1,0,0:0:0:0:
182,192,160894,1,0,0:0:0:0:
329,192,160894,1,0,0:0:0:0:
256,192,161086,1,0,0:0:0:0:
329,192,161086,1,0,0:0:0:0:
402,192,161278,1,2,0:0:0:0:
109,192,161278,1,0,0:0:0:0:
182,192,161278,1,0,0:0:0:0:
256,192,161278,1,0,0:0:0:0:
475,192,161471,1,0,0:0:0:0:
36,192,161471,1,0,0:0:0:0:
329,192,161663,1,0,0:0:0:0:
182,192,161663,1,0,0:0:0:0:
402,192,161663,1,0,0:0:0:0:
256,192,161855,1,0,0:0:0:0:
36,192,161855,1,0,0:0:0:0:
329,192,161855,1,0,0:0:0:0:
109,192,162047,1,2,0:0:0:0:
182,192,162047,1,2,0:0:0:0:
402,192,162047,1,0,0:0:0:0:
475,192,162047,1,0,0:0:0:0:
36,192,162047,1,0,0:0:0:0:
256,192,162144,1,0,0:0:0:0:
329,192,162240,1,0,0:0:0:0:
109,192,162240,1,0,0:0:0:0:
475,192,162432,1,0,0:0:0:0:
182,192,162432,1,0,0:0:0:0:
256,192,162432,1,0,0:0:0:0:
329,192,162624,1,0,0:0:0:0:
402,192,162817,1,2,0:0:0:0:
256,192,162817,1,0,0:0:0:0:
475,192,162817,1,2,0:0:0:0:
109,192,162817,1,0,0:0:0:0:
36,192,163009,1,0,0:0:0:0:
182,192,163009,1,0,0:0:0:0:
329,192,163201,1,0,0:0:0:0:
109,192,163201,1,0,0:0:0:0:
182,192,163393,1,0,0:0:0:0:
402,192,163393,1,0,0:0:0:0:
109,192,163586,1,2,0:0:0:0:
36,192,163586,1,2,0:0:0:0:
475,192,163586,1,0,0:0:0:0:
329,192,163586,1,0,0:0:0:0:
402,192,163586,1,0,0:0:0:0:
182,192,163682,1,0,0:0:0:0:
256,192,163778,1,0,0:0:0:0:
475,192,163970,1,0,0:0:0:0:
182,192,163970,1,0,0:0:0:0:
329,192,163970,1,0,0:0:0:0:
402,192,164163,1,0,0:0:0:0:
36,192,164163,1,0,0:0:0:0:
182,192,164355,1,2,0:0:0:0:
475,192,164355,1,0,0:0:0:0:
329,192,164355,1,0,0:0:0:0:
109,192,164355,1,0,0:0:0:0:
256,192,164547,1,0,0:0:0:0:
402,192,164547,1,0,0:0:0:0:
329,192,164739,1,0,0:0:0:0:
36,192,164739,1,0,0:0:0:0:
182,192,164739,1,0,0:0:0:0:
402,192,164932,1,0,0:0:0:0:
109,192,164932,1,0,0:0:0:0:
256,192,164932,1,0,0:0:0:0:
182,192,165124,1,2,0:0:0:0:
329,192,165124,1,0,0:0:0:0:
256,192,165124,1,2,0:0:0:0:
475,192,165124,1,0,0:0:0:0:
402,192,165124,1,0,0:0:0:0:
109,192,165220,1,0,0:0:0:0:
36,192,165316,1,0,0:0:0:0:
329,192,165316,1,0,0:0:0:0:
109,192,165509,1,0,0:0:0:0:
256,192,165509,1,0,0:0:0:0:
402,192,165701,1,0,0:0:0:0:
36,192,165701,1,0,0:0:0:0:
256,192,165797,1,0,0:0:0:0:
402,192,165893,1,0,0:0:0:0:
182,192,165893,1,2,0:0:0:0:
109,192,165893,1,0,0:0:0:0:
475,192,165893,1,0,0:0:0:0:
256,192,166086,1,0,0:0:0:0:
475,192,166086,1,0,0:0:0:0:
36,192,166086,1,0,0:0:0:0:
109,192,166278,1,0,0:0:0:0:
329,192,166278,1,0,0:0:0:0:
402,192,166278,1,0,0:0:0:0:
36,192,166470,1,0,0:0:0:0:
256,192,166470,1,0,0:0:0:0:
109,192,166662,1,2,0:0:0:0:
182,192,166662,1,2,0:0:0:0:
475,192,166662,1,0,0:0:0:0:
36,192,166662,1,0,0:0:0:0:
402,192,166662,1,0,0:0:0:0:
329,192,166662,1,0,0:0:0:0:
256,192,166759,1,0,0:0:0:0:
329,192,166855,1,0,0:0:0:0:
109,192,166855,1,0,0:0:0:0:
475,192,167047,1,0,0:0:0:0:
182,192,167047,1,0,0:0:0:0:
36,192,167047,1,0,0:0:0:0:
256,192,167239,1,0,0:0:0:0:
109,192,167239,1,0,0:0:0:0:
402,192,167432,1,2,0:0:0:0:
182,192,167432,1,0,0:0:0:0:
329,192,167432,1,0,0:0:0:0:
36,192,167432,1,0,0:0:0:0:
475,192,167624,1,0,0:0:0:0:
256,192,167624,1,0,0:0:0:0:
329,192,167816,1,0,0:0:0:0:
182,192,167816,1,0,0:0:0:0:
402,192,167816,1,0,0:0:0:0:
256,192,168008,1,0,0:0:0:0:
109,192,168008,1,0,0:0:0:0:
182,192,168008,1,0,0:0:0:0:
36,192,168201,1,0,0:0:0:0:
182,192,168201,1,2,0:0:0:0:
329,192,168201,1,2,0:0:0:0:
402,192,168201,1,0,0:0:0:0:
475,192,168201,1,0,0:0:0:0:
256,192,168297,1,0,0:0:0:0:
109,192,168393,1,0,0:0:0:0:
329,192,168393,1,0,0:0:0:0:
402,192,168393,1,0,0:0:0:0:
36,192,168585,1,0,0:0:0:0:
182,192,168585,1,0,0:0:0:0:
256,192,168585,1,0,0:0:0:0:
402,192,168778,1,0,0:0:0:0:
109,192,168778,1,0,0:0:0:0:
109,192,168970,1,0,0:0:0:0:
329,192,168970,1,2,0:0:0:0:
256,192,168970,1,0,0:0:0:0:
475,192,168970,1,0,0:0:0:0:
475,192,169162,1,0,0:0:0:0:
182,192,169162,1,0,0:0:0:0:
182,192,169354,1,0,0:0:0:0:
402,192,169354,1,0,0:0:0:0:
256,192,169547,1,0,0:0:0:0:
109,192,169547,1,0,0:0:0:0:
475,192,169547,1,0,0:0:0:0:
36,192,169643,1,0,0:0:0:0:
182,192,169643,1,0,0:0:0:0:
109,192,169739,1,0,0:0:0:0:
256,192,169739,1,0,0:0:0:0:
475,192,169739,1,2,0:0:0:0:
402,192,169739,1,2,0:0:0:0:
182,192,169835,1,0,0:0:0:0:
329,192,169835,1,0,0:0:0:0:
256,192,169931,1,0,0:0:0:0:
402,192,169931,1,0,0:0:0:0:
36,192,169931,1,0,0:0:0:0:
329,192,170124,1,0,0:0:0:0:
182,192,170124,1,0,0:0:0:0:
109,192,170124,1,0,0:0:0:0:
256,192,170316,1,0,0:0:0:0:
36,192,170316,1,0,0:0:0:0:
109,192,170508,1,0,0:0:0:0:
402,192,170508,1,2,0:0:0:0:
475,192,170508,1,0,0:0:0:0:
256,192,170508,1,0,0:0:0:0:
182,192,170700,1,0,0:0:0:0:
329,192,170700,1,0,0:0:0:0:
256,192,170893,1,0,0:0:0:0:
109,192,170893,1,0,0:0:0:0:
402,192,171085,1,0,0:0:0:0:
36,192,171085,1,0,0:0:0:0:
182,192,171085,1,0,0:0:0:0:
329,192,171277,1,0,0:0:0:0:
402,192,171277,1,0,0:0:0:0:
36,192,171277,1,2,0:0:0:0:
109,192,171277,1,2,0:0:0:0:
256,192,171277,1,0,0:0:0:0:
182,192,171373,1,0,0:0:0:0:
475,192,171470,1,0,0:0:0:0:
256,192,171470,1,0,0:0:0:0:
402,192,171662,1,0,0:0:0:0:
36,192,171662,1,0,0:0:0:0:
182,192,171662,1,0,0:0:0:0:
329,192,171854,1,0,0:0:0:0:
109,192,171854,1,0,0:0:0:0:
256,192,171854,1,0,0:0:0:0:
256,192,172046,1,0,0:0:0:0:
402,192,172046,1,2,0:0:0:0:
475,192,172046,1,0,0:0:0:0:
36,192,172046,1,0,0:0:0:0:
182,192,172143,1,0,0:0:0:0:
36,192,172239,1,0,0:0:0:0:
475,192,172239,1,0,0:0:0:0:
109,192,172239,1,2,0:0:0:0:
109,192,172431,1,0,0:0:0:0:
402,192,172431,1,0,0:0:0:0:
256,192,172431,1,2,0:0:0:0:
36,192,172623,1,0,0:0:0:0:
329,192,172623,1,2,0:0:0:0:
475,192,172623,1,0,0:0:0:0:
109,192,172816,1,0,0:0:0:0:
256,192,172816,1,2,0:0:0:0:
402,192,172816,1,2,0:0:0:0:
475,192,172816,1,0,0:0:0:0:
182,192,172912,1,0,0:0:0:0:
36,192,173008,1,0,0:0:0:0:
256,192,173008,1,0,0:0:0:0:
402,192,173200,1,0,0:0:0:0:
109,192,173200,1,0,0:0:0:0:
329,192,173200,1,0,0:0:0:0:
182,192,173392,1,0,0:0:0:0:
475,192,173392,1,0,0:0:0:0:
329,192,173585,1,2,0:0:0:0:
109,192,173585,1,0,0:0:0:0:
36,192,173585,1,0,0:0:0:0:
256,192,173585,1,0,0:0:0:0:
402,192,173777,1,0,0:0:0:0:
182,192,173777,1,0,0:0:0:0:
256,192,173969,1,0,0:0:0:0:
329,192,173969,1,0,0:0:0:0:
36,192,173969,1,0,0:0:0:0:
109,192,174162,1,0,0:0:0:0:
475,192,174162,1,0,0:0:0:0:
402,192,174162,1,0,0:0:0:0:
402,192,174354,1,0,0:0:0:0:
256,192,174354,1,2,0:0:0:0:
182,192,174354,1,2,0:0:0:0:
329,192,174354,1,0,0:0:0:0:
475,192,174354,1,0,0:0:0:0:
109,192,174450,1,0,0:0:0:0:
36,192,174546,1,0,0:0:0:0:
329,192,174546,1,0,0:0:0:0:
475,192,174739,1,0,0:0:0:0:
256,192,174739,1,0,0:0:0:0:
109,192,174739,1,0,0:0:0:0:
402,192,174931,1,0,0:0:0:0:
182,192,174931,1,0,0:0:0:0:
182,192,175123,1,0,0:0:0:0:
329,192,175123,1,2,0:0:0:0:
402,192,175123,1,0,0:0:0:0:
256,192,175123,1,0,0:0:0:0:
109,192,175219,1,0,0:0:0:0:
475,192,175315,1,0,0:0:0:0:
256,192,175315,1,0,0:0:0:0:
36,192,175315,1,0,0:0:0:0:
109,192,175508,1,0,0:0:0:0:
402,192,175508,1,0,0:0:0:0:
182,192,175508,1,0,0:0:0:0:
36,192,175700,1,0,0:0:0:0:
256,192,175700,1,2,0:0:0:0:
329,192,175700,1,2,0:0:0:0:
182,192,175700,1,0,0:0:0:0:
475,192,175700,1,0,0:0:0:0:
109,192,175892,1,2,0:0:0:0:
402,192,175892,1,0,0:0:0:0:
36,192,175892,1,2,0:0:0:0:
329,192,175892,1,0,0:0:0:0:
475,192,175892,1,0,0:0:0:0:
182,192,175988,1,0,0:0:0:0:
256,192,176085,1,0,0:0:0:0:
109,192,176085,1,0,0:0:0:0:
329,192,176277,1,0,0:0:0:0:
182,192,176277,1,0,0:0:0:0:
475,192,176277,1,0,0:0:0:0:
256,192,176469,1,0,0:0:0:0:
36,192,176469,1,0,0:0:0:0:
182,192,176661,1,0,0:0:0:0:
329,192,176661,1,2,0:0:0:0:
475,192,176661,1,0,0:0:0:0:
109,192,176661,1,0,0:0:0:0:
256,192,176854,1,0,0:0:0:0:
402,192,176854,1,0,0:0:0:0:
182,192,176854,1,0,0:0:0:0:
329,192,177046,1,0,0:0:0:0:
109,192,177046,1,0,0:0:0:0:
182,192,177046,1,0,0:0:0:0:
402,192,177238,1,0,0:0:0:0:
36,192,177238,1,0,0:0:0:0:
256,192,177238,1,0,0:0:0:0:
329,192,177431,1,2,0:0:0:0:
475,192,177431,1,0,0:0:0:0:
182,192,177431,1,0,0:0:0:0:
109,192,177431,1,0,0:0:0:0:
402,192,177431,1,0,0:0:0:0:
36,192,177623,1,0,0:0:0:0:
109,192,177815,1,0,0:0:0:0:
402,192,177815,1,0,0:0:0:0:
182,192,178007,1,0,0:0:0:0:
256,192,178200,1,2,0:0:0:0:
475,192,178200,1,0,0:0:0:0:
36,192,178200,1,0,0:0:0:0:
402,192,178200,1,0,0:0:0:0:
182,192,178200,1,0,0:0:0:0:
329,192,178392,1,2,0:0:0:0:
36,192,178392,1,0,0:0:0:0:
109,192,178392,1,0,0:0:0:0:
402,192,178584,1,2,0:0:0:0:
182,192,178584,1,0,0:0:0:0:
109,192,178584,1,0,0:0:0:0:
475,192,178777,1,2,0:0:0:0:
329,192,178777,1,0,0:0:0:0:
256,192,178777,1,0,0:0:0:0:
36,192,178777,1,0,0:0:0:0:
402,192,178969,1,2,0:0:0:0:
256,192,178969,1,2,0:0:0:0:
182,192,178969,1,4,0:0:0:0:
36,192,178969,1,0,0:0:0:0:
109,192,178969,1,0,0:0:0:0:
475,192,178969,1,0,0:0:0:0:
109,192,179161,1,0,0:0:0:0:
329,192,179161,1,0,0:0:0:0:
182,192,179353,1,0,0:0:0:0:
329,192,179353,1,0,0:0:0:0:
402,192,179353,1,0,0:0:0:0:
256,192,179546,1,0,0:0:0:0:
36,192,179546,1,0,0:0:0:0:
475,192,179546,1,0,0:0:0:0:
402,192,179738,1,2,0:0:0:0:
475,192,179738,1,0,0:0:0:0:
329,192,179738,1,2,0:0:0:0:
109,192,179738,1,0,0:0:0:0:
36,192,179738,1,0,0:0:0:0:
329,192,179930,1,0,0:0:0:0:
182,192,179930,1,0,0:0:0:0:
256,192,180123,1,0,0:0:0:0:
36,192,180123,1,0,0:0:0:0:
402,192,180123,1,0,0:0:0:0:
182,192,180315,1,0,0:0:0:0:
36,192,180315,1,0,0:0:0:0:
329,192,180315,1,0,0:0:0:0:
256,192,180411,1,0,0:0:0:0:
109,192,180507,1,0,0:0:0:0:
475,192,180507,1,2,0:0:0:0:
329,192,180507,1,0,0:0:0:0:
402,192,180699,1,2,0:0:0:0:
256,192,180699,1,0,0:0:0:0:
182,192,180699,1,0,0:0:0:0:
109,192,180699,1,0,0:0:0:0:
36,192,180892,1,0,0:0:0:0:
329,192,180892,1,2,0:0:0:0:
109,192,180892,1,0,0:0:0:0:
475,192,180892,1,0,0:0:0:0:
256,192,181084,1,2,0:0:0:0:
182,192,181084,1,0,0:0:0:0:
402,192,181084,1,0,0:0:0:0:
109,192,181084,1,0,0:0:0:0:
329,192,181180,1,0,0:0:0:0:
109,192,181276,1,2,0:0:0:0:
36,192,181276,1,0,0:0:0:0:
475,192,181276,1,0,0:0:0:0:
182,192,181276,1,0,0:0:0:0:
402,192,181276,1,0,0:0:0:0:
256,192,181469,1,0,0:0:0:0:
109,192,181469,1,0,0:0:0:0:
329,192,181469,1,0,0:0:0:0:
402,192,181661,1,0,0:0:0:0:
182,192,181661,1,0,0:0:0:0:
475,192,181661,1,0,0:0:0:0:
109,192,181853,1,0,0:0:0:0:
36,192,181853,1,0,0:0:0:0:
256,192,181853,1,0,0:0:0:0:
256,192,181949,1,0,0:0:0:0:
182,192,182046,1,2,0:0:0:0:
329,192,182046,1,2,0:0:0:0:
109,192,182046,1,0,0:0:0:0:
402,192,182046,1,4,0:0:0:0:
475,192,182046,1,0,0:0:0:0:
256,192,182238,1,0,0:0:0:0:
36,192,182238,1,0,0:0:0:0:
475,192,182430,1,0,0:0:0:0:
329,192,182430,1,0,0:0:0:0:
109,192,182622,1,0,0:0:0:0:
182,192,182622,1,2,0:0:0:0:
402,192,182622,1,0,0:0:0:0:
256,192,182622,1,2,0:0:0:0:
36,192,182622,1,0,0:0:0:0:
475,192,182815,1,2,0:0:0:0:
109,192,182815,1,0,0:0:0:0:
256,192,182815,1,0,0:0:0:0:
36,192,183007,1,0,0:0:0:0:
329,192,183007,1,0,0:0:0:0:
329,192,183103,1,0,0:0:0:0:
402,192,183199,1,2,0:0:0:0:
182,192,183199,1,0,0:0:0:0:
256,192,183199,1,2,0:0:0:0:
109,192,183199,1,0,0:0:0:0:
475,192,183199,1,0,0:0:0:0:
182,192,183392,1,0,0:0:0:0:
329,192,183392,1,0,0:0:0:0:
475,192,183584,1,0,0:0:0:0:
256,192,183584,1,2,0:0:0:0:
402,192,183584,1,4,0:0:0:0:
109,192,183584,1,2,0:0:0:0:
36,192,183584,1,0,0:0:0:0:
182,192,183776,1,0,0:0:0:0:
329,192,183776,1,0,0:0:0:0:
402,192,183968,1,0,0:0:0:0:
109,192,183968,1,0,0:0:0:0:
329,192,184161,1,0,0:0:0:0:
36,192,184161,1,0,0:0:0:0:
182,192,184353,1,0,0:0:0:0:
475,192,184353,1,2,0:0:0:0:
256,192,184353,1,0,0:0:0:0:
256,192,184545,1,0,0:0:0:0:
402,192,184545,1,0,0:0:0:0:
329,192,184738,1,0,0:0:0:0:
36,192,184738,1,0,0:0:0:0:
109,192,184930,1,0,0:0:0:0:
256,192,184930,1,0,0:0:0:0:
182,192,185122,1,2,0:0:0:0:
329,192,185122,1,2,0:0:0:0:
402,192,185122,1,0,0:0:0:0:
36,192,185122,1,0,0:0:0:0:
475,192,185122,1,0,0:0:0:0:
402,192,185314,1,0,0:0:0:0:
256,192,185314,1,0,0:0:0:0:
109,192,185507,1,2,0:0:0:0:
256,192,185507,1,0,0:0:0:0:
475,192,185507,1,0,0:0:0:0:
36,192,185507,1,0,0:0:0:0:
182,192,185699,1,2,0:0:0:0:
329,192,185699,1,0,0:0:0:0:
402,192,185699,1,0,0:0:0:0:
36,192,185699,1,0,0:0:0:0:
109,192,185699,1,0,0:0:0:0:
475,192,185891,1,2,0:0:0:0:
182,192,185891,1,0,0:0:0:0:
329,192,185891,1,0,0:0:0:0:
402,192,185891,1,0,0:0:0:0:
109,192,185891,1,0,0:0:0:0:
256,192,186084,1,0,0:0:0:0:
475,192,186084,1,0,0:0:0:0:
36,192,186084,1,0,0:0:0:0:
182,192,186084,1,0,0:0:0:0:
329,192,186276,1,0,0:0:0:0:
109,192,186276,1,0,0:0:0:0:
36,192,186276,1,0,0:0:0:0:
402,192,186468,1,0,0:0:0:0:
182,192,186468,1,0,0:0:0:0:
36,192,186468,1,0,0:0:0:0:
402,192,186660,1,0,0:0:0:0:
329,192,186660,1,0,0:0:0:0:
109,192,186660,1,2,0:0:0:0:
182,192,186660,1,2,0:0:0:0:
475,192,186660,1,0,0:0:0:0:
182,192,186853,1,0,0:0:0:0:
402,192,186853,1,2,0:0:0:0:
109,192,187045,1,0,0:0:0:0:
256,192,187045,1,2,0:0:0:0:
329,192,187045,1,0,0:0:0:0:
36,192,187237,1,0,0:0:0:0:
402,192,187237,1,2,0:0:0:0:
329,192,187430,1,2,0:0:0:0:
475,192,187430,1,0,0:0:0:0:
109,192,187430,1,0,0:0:0:0:
182,192,187430,1,0,0:0:0:0:
182,192,187622,1,0,0:0:0:0:
36,192,187622,1,0,0:0:0:0:
256,192,187622,1,0,0:0:0:0:
402,192,187814,1,0,0:0:0:0:
109,192,187814,1,0,0:0:0:0:
475,192,187814,1,0,0:0:0:0:
329,192,188006,1,0,0:0:0:0:
36,192,188006,1,0,0:0:0:0:
109,192,188006,1,0,0:0:0:0:
402,192,188199,1,2,0:0:0:0:
182,192,188199,1,0,0:0:0:0:
475,192,188199,1,4,0:0:0:0:
256,192,188199,1,2,0:0:0:0:
36,192,188199,1,0,0:0:0:0:
329,192,188391,1,0,0:0:0:0:
109,192,188391,1,0,0:0:0:0:
402,192,188487,1,0,0:0:0:0:
109,192,188583,1,0,0:0:0:0:
256,192,188583,1,0,0:0:0:0:
475,192,188583,1,0,0:0:0:0:
182,192,188776,1,0,0:0:0:0:
329,192,188776,1,0,0:0:0:0:
36,192,188776,1,0,0:0:0:0:
402,192,188968,1,2,0:0:0:0:
475,192,188968,1,0,0:0:0:0:
256,192,188968,1,0,0:0:0:0:
256,192,189160,1,0,0:0:0:0:
329,192,189160,1,0,0:0:0:0:
109,192,189160,1,0,0:0:0:0:
402,192,189352,1,0,0:0:0:0:
36,192,189352,1,0,0:0:0:0:
475,192,189545,1,0,0:0:0:0:
109,192,189545,1,0,0:0:0:0:
402,192,189737,1,0,0:0:0:0:
182,192,189737,1,2,0:0:0:0:
329,192,189737,1,2,0:0:0:0:
109,192,189929,1,0,0:0:0:0:
475,192,189929,1,0,0:0:0:0:
182,192,190122,1,0,0:0:0:0:
402,192,190122,1,0,0:0:0:0:
256,192,190122,1,0,0:0:0:0:
109,192,190314,1,0,0:0:0:0:
329,192,190314,1,0,0:0:0:0:
36,192,190506,1,0,0:0:0:0:
402,192,190506,1,2,0:0:0:0:
256,192,190506,1,0,0:0:0:0:
182,192,190699,1,0,0:0:0:0:
329,192,190699,1,2,0:0:0:0:
402,192,190699,1,0,0:0:0:0:
109,192,190699,1,0,0:0:0:0:
475,192,190891,1,2,0:0:0:0:
256,192,190891,1,0,0:0:0:0:
36,192,190891,1,0,0:0:0:0:
182,192,190891,1,0,0:0:0:0:
402,192,191083,1,2,0:0:0:0:
109,192,191083,1,0,0:0:0:0:
182,192,191083,1,0,0:0:0:0:
329,192,191083,1,0,0:0:0:0:
36,192,191275,1,0,0:0:0:0:
475,192,191275,1,2,0:0:0:0:
329,192,191275,1,4,0:0:0:0:
256,192,191275,1,2,0:0:0:0:
109,192,191275,1,0,0:0:0:0:
182,192,191468,1,0,0:0:0:0:
256,192,191660,1,0,0:0:0:0:
475,192,191660,1,0,0:0:0:0:
402,192,191852,1,0,0:0:0:0:
109,192,191852,1,0,0:0:0:0:
182,192,191948,1,0,0:0:0:0:
402,192,191948,1,0,0:0:0:0:
329,192,192045,1,2,0:0:0:0:
475,192,192045,1,0,0:0:0:0:
36,192,192045,1,0,0:0:0:0:
256,192,192045,1,2,0:0:0:0:
109,192,192045,1,0,0:0:0:0:
182,192,192237,1,0,0:0:0:0:
402,192,192237,1,0,0:0:0:0:
109,192,192429,1,0,0:0:0:0:
475,192,192429,1,0,0:0:0:0:
329,192,192621,1,0,0:0:0:0:
36,192,192621,1,0,0:0:0:0:
329,192,192718,1,0,0:0:0:0:
256,192,192814,1,2,0:0:0:0:
475,192,192814,1,0,0:0:0:0:
182,192,192814,1,0,0:0:0:0:
109,192,192814,1,0,0:0:0:0:
402,192,192814,1,0,0:0:0:0:
402,192,193006,1,0,0:0:0:0:
256,192,193006,1,2,0:0:0:0:
36,192,193006,1,0,0:0:0:0:
182,192,193006,1,0,0:0:0:0:
329,192,193198,1,0,0:0:0:0:
182,192,193198,1,2,0:0:0:0:
109,192,193198,1,0,0:0:0:0:
475,192,193198,1,0,0:0:0:0:
256,192,193391,1,0,0:0:0:0:
109,192,193391,1,2,0:0:0:0:
402,192,193391,1,0,0:0:0:0:
36,192,193391,1,0,0:0:0:0:
36,192,193583,1,2,0:0:0:0:
329,192,193583,1,0,0:0:0:0:
475,192,193583,1,0,0:0:0:0:
182,192,193583,1,2,0:0:0:0:
256,192,193583,1,0,0:0:0:0:
402,192,193775,1,0,0:0:0:0:
109,192,193775,1,0,0:0:0:0:
256,192,193967,1,0,0:0:0:0:
475,192,193967,1,0,0:0:0:0:
329,192,194160,1,0,0:0:0:0:
109,192,194160,1,0,0:0:0:0:
256,192,194256,1,0,0:0:0:0:
36,192,194352,1,0,0:0:0:0:
182,192,194352,1,2,0:0:0:0:
475,192,194352,1,2,0:0:0:0:
402,192,194352,1,4,0:0:0:0:
329,192,194544,1,0,0:0:0:0:
109,192,194544,1,0,0:0:0:0:
475,192,194737,1,0,0:0:0:0:
256,192,194737,1,0,0:0:0:0:
182,192,194929,1,0,0:0:0:0:
402,192,194929,1,0,0:0:0:0:
109,192,194929,1,0,0:0:0:0:
329,192,195121,1,2,0:0:0:0:
36,192,195121,1,0,0:0:0:0:
475,192,195121,1,0,0:0:0:0:
256,192,195121,1,0,0:0:0:0:
109,192,195121,1,0,0:0:0:0:
256,192,195313,1,0,0:0:0:0:
182,192,195313,1,0,0:0:0:0:
36,192,195506,1,0,0:0:0:0:
402,192,195506,1,0,0:0:0:0:
475,192,195698,1,0,0:0:0:0:
109,192,195698,1,0,0:0:0:0:
329,192,195698,1,0,0:0:0:0:
329,192,195890,1,0,0:0:0:0:
256,192,195890,1,2,0:0:0:0:
402,192,195890,1,0,0:0:0:0:
36,192,195890,1,0,0:0:0:0:
182,192,195890,1,2,0:0:0:0:
109,192,196083,1,0,0:0:0:0:
402,192,196083,1,0,0:0:0:0:
36,192,196083,1,0,0:0:0:0:
182,192,196211,1,0,0:0:0:0:
256,192,196275,1,0,0:0:0:0:
475,192,196275,1,0,0:0:0:0:
329,192,196275,1,0,0:0:0:0:
109,192,196467,1,0,0:0:0:0:
36,192,196467,1,0,0:0:0:0:
402,192,196659,1,0,0:0:0:0:
475,192,196659,1,0,0:0:0:0:
329,192,196659,1,2,0:0:0:0:
329,192,196852,1,2,0:0:0:0:
182,192,196852,1,0,0:0:0:0:
109,192,196852,1,0,0:0:0:0:
475,192,196852,1,0,0:0:0:0:
256,192,197044,1,2,0:0:0:0:
109,192,197044,1,0,0:0:0:0:
36,192,197044,1,0,0:0:0:0:
402,192,197044,1,0,0:0:0:0:
402,192,197236,1,0,0:0:0:0:
329,192,197236,1,2,0:0:0:0:
475,192,197236,1,0,0:0:0:0:
182,192,197236,1,0,0:0:0:0:
109,192,197429,1,2,0:0:0:0:
475,192,197429,1,0,0:0:0:0:
256,192,197429,1,0,0:0:0:0:
329,192,197429,1,0,0:0:0:0:
36,192,197621,1,0,0:0:0:0:
256,192,197621,1,0,0:0:0:0:
182,192,197813,1,0,0:0:0:0:
402,192,197813,1,0,0:0:0:0:
109,192,197813,1,0,0:0:0:0:
475,192,198006,1,0,0:0:0:0:
256,192,198006,1,0,0:0:0:0:
329,192,198006,1,0,0:0:0:0:
109,192,198198,1,0,0:0:0:0:
402,192,198198,1,2,0:0:0:0:
475,192,198198,1,0,0:0:0:0:
182,192,198198,1,0,0:0:0:0:
329,192,198198,1,0,0:0:0:0:
256,192,198390,1,0,0:0:0:0:
36,192,198390,1,0,0:0:0:0:
329,192,198582,1,0,0:0:0:0:
182,192,198582,1,0,0:0:0:0:
402,192,198582,1,0,0:0:0:0:
402,192,198775,1,0,0:0:0:0:
36,192,198775,1,0,0:0:0:0:
182,192,198775,1,0,0:0:0:0:
256,192,198967,1,2,0:0:0:0:
109,192,198967,1,0,0:0:0:0:
329,192,198967,1,2,0:0:0:0:
475,192,198967,1,4,0:0:0:0:
402,192,198967,1,0,0:0:0:0:
182,192,199159,1,0,0:0:0:0:
329,192,199159,1,0,0:0:0:0:
36,192,199352,1,0,0:0:0:0:
402,192,199352,1,0,0:0:0:0:
329,192,199544,1,0,0:0:0:0:
109,192,199544,1,0,0:0:0:0:
182,192,199640,1,0,0:0:0:0:
475,192,199736,1,0,0:0:0:0:
256,192,199736,1,2,0:0:0:0:
402,192,199736,1,0,0:0:0:0:
109,192,199928,1,0,0:0:0:0:
329,192,199928,1,0,0:0:0:0:
182,192,199928,1,0,0:0:0:0:
256,192,200121,1,0,0:0:0:0:
402,192,200121,1,0,0:0:0:0:
182,192,200121,1,0,0:0:0:0:
402,192,200313,1,0,0:0:0:0:
475,192,200313,1,0,0:0:0:0:
36,192,200313,1,0,0:0:0:0:
329,192,200409,1,0,0:0:0:0:
256,192,200505,1,4,0:0:0:0:
475,192,200505,1,0,0:0:0:0:
182,192,200505,1,0,0:0:0:0:
402,192,200698,1,0,0:0:0:0:
109,192,200698,1,0,0:0:0:0:
182,192,200890,1,0,0:0:0:0:
36,192,200890,1,0,0:0:0:0:
329,192,201082,1,0,0:0:0:0:
109,192,201082,1,0,0:0:0:0:
475,192,201274,1,2,0:0:0:0:
182,192,201274,1,0,0:0:0:0:
329,192,201274,1,0,0:0:0:0:
256,192,201274,1,0,0:0:0:0:
475,192,201467,1,0,0:0:0:0:
36,192,201467,1,0,0:0:0:0:
256,192,201659,1,2,0:0:0:0:
329,192,201659,1,2,0:0:0:0:
109,192,201659,1,0,0:0:0:0:
402,192,201851,1,0,0:0:0:0:
36,192,201851,1,0,0:0:0:0:
182,192,202044,1,2,0:0:0:0:
109,192,202044,1,2,0:0:0:0:
329,192,202044,1,4,0:0:0:0:
475,192,202044,1,0,0:0:0:0:
256,192,202236,1,0,0:0:0:0:
36,192,202236,1,0,0:0:0:0:
329,192,202428,1,0,0:0:0:0:
109,192,202428,1,0,0:0:0:0:
402,192,202620,1,0,0:0:0:0:
256,192,202620,1,0,0:0:0:0:
475,192,202813,1,0,0:0:0:0:
36,192,202813,1,0,0:0:0:0:
182,192,202813,1,2,0:0:0:0:
109,192,202813,1,2,0:0:0:0:
329,192,202813,1,0,0:0:0:0:
109,192,203005,1,2,0:0:0:0:
329,192,203005,1,0,0:0:0:0:
402,192,203005,1,0,0:0:0:0:
256,192,203005,1,0,0:0:0:0:
182,192,203005,1,0,0:0:0:0:
182,192,203197,1,0,0:0:0:0:
475,192,203197,1,0,0:0:0:0:
36,192,203197,1,0,0:0:0:0:
402,192,203197,1,2,0:0:0:0:
329,192,203197,1,0,0:0:0:0:
256,192,203390,1,2,0:0:0:0:
402,192,203390,1,0,0:0:0:0:
109,192,203390,1,0,0:0:0:0:
182,192,203390,1,0,0:0:0:0:
475,192,203582,1,2,0:0:0:0:
329,192,203582,1,2,0:0:0:0:
36,192,203582,1,0,0:0:0:0:
109,192,203582,1,0,0:0:0:0:
182,192,203582,1,4,0:0:0:0:
256,192,203774,1,0,0:0:0:0:
109,192,203966,1,0,0:0:0:0:
402,192,203966,1,0,0:0:0:0:
109,192,204159,1,0,0:0:0:0:
182,192,204159,1,0,0:0:0:0:
329,192,204351,1,2,0:0:0:0:
475,192,204351,1,0,0:0:0:0:
36,192,204351,1,0,0:0:0:0:
256,192,204351,1,2,0:0:0:0:
182,192,204351,1,0,0:0:0:0:
402,192,204543,1,0,0:0:0:0:
182,192,204543,1,0,0:0:0:0:
109,192,204639,1,0,0:0:0:0:
36,192,204736,1,0,0:0:0:0:
475,192,204736,1,0,0:0:0:0:
329,192,204736,1,0,0:0:0:0:
402,192,204928,1,0,0:0:0:0:
256,192,204928,1,0,0:0:0:0:
329,192,205120,1,0,0:0:0:0:
475,192,205120,1,2,0:0:0:0:
109,192,205120,1,0,0:0:0:0:
182,192,205120,1,0,0:0:0:0:
36,192,205313,1,0,0:0:0:0:
402,192,205313,1,2,0:0:0:0:
256,192,205313,1,0,0:0:0:0:
475,192,205313,1,0,0:0:0:0:
109,192,205313,1,0,0:0:0:0:
182,192,205505,1,0,0:0:0:0:
329,192,205505,1,2,0:0:0:0:
109,192,205505,1,0,0:0:0:0:
402,192,205505,1,0,0:0:0:0:
329,192,205697,1,0,0:0:0:0:
256,192,205697,1,2,0:0:0:0:
36,192,205697,1,0,0:0:0:0:
182,192,205697,1,0,0:0:0:0:
329,192,205793,1,0,0:0:0:0:
475,192,205889,1,0,0:0:0:0:
36,192,205889,1,2,0:0:0:0:
182,192,205889,1,4,0:0:0:0:
402,192,205889,1,2,0:0:0:0:
109,192,205889,1,0,0:0:0:0:
109,192,206082,1,0,0:0:0:0:
329,192,206082,1,0,0:0:0:0:
402,192,206274,1,0,0:0:0:0:
256,192,206274,1,0,0:0:0:0:
475,192,206274,1,0,0:0:0:0:
182,192,206466,1,0,0:0:0:0:
36,192,206466,1,0,0:0:0:0:
475,192,206659,1,0,0:0:0:0:
109,192,206659,1,0,0:0:0:0:
182,192,206659,1,0,0:0:0:0:
402,192,206659,1,2,0:0:0:0:
256,192,206659,1,0,0:0:0:0:
36,192,206851,1,0,0:0:0:0:
256,192,206851,1,0,0:0:0:0:
109,192,207043,1,0,0:0:0:0:
329,192,207043,1,2,0:0:0:0:
402,192,207043,1,0,0:0:0:0:
182,192,207043,1,0,0:0:0:0:
475,192,207235,1,0,0:0:0:0:
402,192,207235,1,0,0:0:0:0:
182,192,207235,1,0,0:0:0:0:
36,192,207235,1,0,0:0:0:0:
36,192,207428,1,2,0:0:0:0:
329,192,207428,1,2,0:0:0:0:
256,192,207428,1,0,0:0:0:0:
402,192,207428,1,0,0:0:0:0:
475,192,207620,1,0,0:0:0:0:
109,192,207620,1,0,0:0:0:0:
329,192,207812,1,2,0:0:0:0:
182,192,207812,1,2,0:0:0:0:
36,192,207812,1,0,0:0:0:0:
109,192,208005,1,0,0:0:0:0:
256,192,208005,1,0,0:0:0:0:
36,192,208197,1,0,0:0:0:0:
402,192,208197,1,4,0:0:0:0:
182,192,208197,1,2,0:0:0:0:
256,192,208197,1,2,0:0:0:0:
475,192,208197,1,0,0:0:0:0:
329,192,208389,1,0,0:0:0:0:
475,192,208389,1,0,0:0:0:0:
256,192,208581,1,0,0:0:0:0:
36,192,208581,1,0,0:0:0:0:
36,192,208774,1,0,0:0:0:0:
182,192,208774,1,0,0:0:0:0:
109,192,208966,1,0,0:0:0:0:
256,192,208966,1,2,0:0:0:0:
402,192,208966,1,0,0:0:0:0:
329,192,208966,1,2,0:0:0:0:
36,192,209158,1,0,0:0:0:0:
182,192,209158,1,0,0:0:0:0:
182,192,209351,1,2,0:0:0:0:
329,192,209351,1,2,0:0:0:0:
402,192,209543,1,0,0:0:0:0:
109,192,209543,1,0,0:0:0:0:
36,192,209735,1,4,0:0:0:0:
475,192,209735,1,2,0:0:0:0:
256,192,209735,1,2,0:0:0:0:
182,192,209735,1,0,0:0:0:0:
109,192,209927,1,0,0:0:0:0:
329,192,209927,1,0,0:0:0:0:
402,192,210120,1,0,0:0:0:0:
36,192,210120,1,0,0:0:0:0:
256,192,210312,1,0,0:0:0:0:
109,192,210312,1,0,0:0:0:0:
402,192,210504,1,2,0:0:0:0:
109,192,210504,1,0,0:0:0:0:
182,192,210504,1,0,0:0:0:0:
475,192,210504,1,0,0:0:0:0:
329,192,210504,1,0,0:0:0:0:
329,192,210697,1,0,0:0:0:0:
36,192,210697,1,0,0:0:0:0:
256,192,210889,1,0,0:0:0:0:
402,192,210889,1,0,0:0:0:0:
182,192,210889,1,0,0:0:0:0:
475,192,211081,1,0,0:0:0:0:
109,192,211081,1,0,0:0:0:0:
109,192,211273,1,0,0:0:0:0:
36,192,211273,1,0,0:0:0:0:
329,192,211273,1,2,0:0:0:0:
402,192,211273,1,2,0:0:0:0:
182,192,211273,1,0,0:0:0:0:
256,192,211466,1,0,0:0:0:0:
475,192,211466,1,0,0:0:0:0:
182,192,211658,1,0,0:0:0:0:
329,192,211658,1,0,0:0:0:0:
402,192,211658,1,0,0:0:0:0:
109,192,211658,1,0,0:0:0:0:
256,192,211850,1,0,0:0:0:0:
475,192,211850,1,0,0:0:0:0:
36,192,211850,1,0,0:0:0:0:
109,192,212043,1,2,0:0:0:0:
329,192,212043,1,2,0:0:0:0:
182,192,212043,1,0,0:0:0:0:
402,192,212235,1,0,0:0:0:0:
329,192,212427,1,0,0:0:0:0:
182,192,212427,1,0,0:0:0:0:
109,192,212619,1,0,0:0:0:0:
256,192,212619,1,0,0:0:0:0:
36,192,212812,1,0,0:0:0:0:
182,192,212812,1,0,0:0:0:0:
329,192,212812,1,2,0:0:0:0:
402,192,212812,1,2,0:0:0:0:
475,192,212812,1,0,0:0:0:0:
256,192,213004,1,0,0:0:0:0:
109,192,213004,1,0,0:0:0:0:
402,192,213004,1,0,0:0:0:0:
329,192,213196,1,0,0:0:0:0:
475,192,213196,1,0,0:0:0:0:
182,192,213196,1,0,0:0:0:0:
109,192,213389,1,0,0:0:0:0:
36,192,213389,1,0,0:0:0:0:
475,192,213581,1,2,0:0:0:0:
182,192,213581,1,0,0:0:0:0:
329,192,213581,1,0,0:0:0:0:
109,192,213773,1,0,0:0:0:0:
402,192,213773,1,0,0:0:0:0:
36,192,213966,1,0,0:0:0:0:
182,192,213966,1,0,0:0:0:0:
329,192,214158,1,0,0:0:0:0:
256,192,214158,1,0,0:0:0:0:
402,192,214350,1,2,0:0:0:0:
475,192,214350,1,2,0:0:0:0:
182,192,214350,1,4,0:0:0:0:
109,192,214350,1,0,0:0:0:0:
36,192,214350,1,0,0:0:0:0:
329,192,214542,1,0,0:0:0:0:
109,192,214542,1,0,0:0:0:0:
36,192,214735,1,0,0:0:0:0:
402,192,214735,1,0,0:0:0:0:
109,192,214927,1,0,0:0:0:0:
256,192,214927,1,0,0:0:0:0:
182,192,215119,1,2,0:0:0:0:
329,192,215119,1,2,0:0:0:0:
36,192,215119,1,0,0:0:0:0:
475,192,215119,1,0,0:0:0:0:
402,192,215312,1,0,0:0:0:0:
109,192,215312,1,2,0:0:0:0:
182,192,215312,1,0,0:0:0:0:
256,192,215312,1,0,0:0:0:0:
475,192,215504,1,0,0:0:0:0:
36,192,215504,1,0,0:0:0:0:
109,192,215504,1,0,0:0:0:0:
329,192,215504,1,0,0:0:0:0:
182,192,215504,1,0,0:0:0:0:
329,192,215696,1,0,0:0:0:0:
182,192,215696,1,2,0:0:0:0:
402,192,215696,1,0,0:0:0:0:
256,192,215696,1,0,0:0:0:0:
36,192,215696,1,0,0:0:0:0:
402,192,215888,1,2,0:0:0:0:
256,192,215888,1,4,0:0:0:0:
475,192,215888,1,2,0:0:0:0:
109,192,215888,1,0,0:0:0:0:
36,192,215888,1,0,0:0:0:0:
182,192,216081,1,0,0:0:0:0:
329,192,216081,1,0,0:0:0:0:
256,192,216273,1,0,0:0:0:0:
402,192,216273,1,0,0:0:0:0:
109,192,216465,1,0,0:0:0:0:
36,192,216465,1,0,0:0:0:0:
475,192,216658,1,0,0:0:0:0:
329,192,216658,1,2,0:0:0:0:
256,192,216658,1,0,0:0:0:0:
402,192,216658,1,0,0:0:0:0:
182,192,216850,1,0,0:0:0:0:
36,192,216850,1,0,0:0:0:0:
256,192,217042,1,0,0:0:0:0:
109,192,217042,1,0,0:0:0:0:
329,192,217234,1,0,0:0:0:0:
36,192,217234,1,0,0:0:0:0:
402,192,217427,1,2,0:0:0:0:
475,192,217427,1,0,0:0:0:0:
109,192,217427,1,0,0:0:0:0:
256,192,217427,1,0,0:0:0:0:
402,192,217619,1,0,0:0:0:0:
329,192,217619,1,2,0:0:0:0:
109,192,217619,1,0,0:0:0:0:
182,192,217619,1,0,0:0:0:0:
329,192,217811,1,0,0:0:0:0:
256,192,217811,1,2,0:0:0:0:
36,192,217811,1,0,0:0:0:0:
182,192,217811,1,0,0:0:0:0:
109,192,218004,1,2,0:0:0:0:
256,192,218004,1,0,0:0:0:0:
402,192,218004,1,0,0:0:0:0:
475,192,218004,1,0,0:0:0:0:
329,192,218100,1,0,0:0:0:0:
182,192,218196,1,2,0:0:0:0:
36,192,218196,1,2,0:0:0:0:
475,192,218196,1,4,0:0:0:0:
109,192,218388,1,0,0:0:0:0:
402,192,218388,1,0,0:0:0:0:
256,192,218580,1,0,0:0:0:0:
36,192,218580,1,0,0:0:0:0:
329,192,218773,1,0,0:0:0:0:
109,192,218773,1,0,0:0:0:0:
402,192,218965,1,2,0:0:0:0:
36,192,218965,1,0,0:0:0:0:
256,192,218965,1,0,0:0:0:0:
475,192,218965,1,2,0:0:0:0:
109,192,218965,1,0,0:0:0:0:
182,192,219157,1,0,0:0:0:0:
256,192,219157,1,0,0:0:0:0:
329,192,219350,1,2,0:0:0:0:
109,192,219350,1,0,0:0:0:0:
402,192,219350,1,2,0:0:0:0:
475,192,219542,1,0,0:0:0:0:
256,192,219542,1,0,0:0:0:0:
402,192,219734,1,2,0:0:0:0:
36,192,219734,1,2,0:0:0:0:
182,192,219734,1,0,0:0:0:0:
256,192,219926,1,0,0:0:0:0:
109,192,219926,1,0,0:0:0:0:
475,192,220119,1,2,0:0:0:0:
182,192,220119,1,0,0:0:0:0:
402,192,220119,1,2,0:0:0:0:
36,192,220311,1,0,0:0:0:0:
329,192,220311,1,0,0:0:0:0:
109,192,220503,1,2,0:0:0:0:
182,192,220503,1,2,0:0:0:0:
475,192,220503,1,0,0:0:0:0:
402,192,220503,1,0,0:0:0:0:
36,192,220503,1,0,0:0:0:0:
329,192,220503,1,0,0:0:0:0:
256,192,220599,1,0,0:0:0:0:
329,192,220696,1,0,0:0:0:0:
109,192,220696,1,0,0:0:0:0:
182,192,220888,1,0,0:0:0:0:
402,192,220888,1,0,0:0:0:0:
109,192,221080,1,0,0:0:0:0:
329,192,221080,1,0,0:0:0:0:
256,192,221273,1,2,0:0:0:0:
475,192,221273,1,2,0:0:0:0:
36,192,221273,1,0,0:0:0:0:
182,192,221273,1,0,0:0:0:0:
402,192,221465,1,0,0:0:0:0:
109,192,221465,1,0,0:0:0:0:
329,192,221657,1,2,0:0:0:0:
36,192,221657,1,0,0:0:0:0:
256,192,221657,1,2,0:0:0:0:
109,192,221849,1,0,0:0:0:0:
475,192,221849,1,0,0:0:0:0:
182,192,222042,1,4,0:0:0:0:
402,192,222042,1,2,0:0:0:0:
36,192,222042,1,0,0:0:0:0:
475,192,222042,1,0,0:0:0:0:
256,192,222042,1,0,0:0:0:0:
256,192,222234,1,0,0:0:0:0:
109,192,222234,1,0,0:0:0:0:
329,192,222426,1,0,0:0:0:0:
475,192,222426,1,0,0:0:0:0:
109,192,222619,1,0,0:0:0:0:
402,192,222619,1,0,0:0:0:0:
256,192,222619,1,0,0:0:0:0:
182,192,222811,1,0,0:0:0:0:
475,192,222811,1,2,0:0:0:0:
36,192,222811,1,0,0:0:0:0:
329,192,222811,1,0,0:0:0:0:
329,192,223003,1,0,0:0:0:0:
109,192,223003,1,0,0:0:0:0:
475,192,223195,1,0,0:0:0:0:
182,192,223195,1,0,0:0:0:0:
402,192,223195,1,0,0:0:0:0:
256,192,223388,1,0,0:0:0:0:
329,192,223388,1,0,0:0:0:0:
402,192,223580,1,0,0:0:0:0:
109,192,223580,1,2,0:0:0:0:
36,192,223580,1,0,0:0:0:0:
182,192,223580,1,2,0:0:0:0:
475,192,223580,1,0,0:0:0:0:
329,192,223580,1,0,0:0:0:0:
256,192,223772,1,2,0:0:0:0:
109,192,223772,1,0,0:0:0:0:
182,192,223772,1,2,0:0:0:0:
402,192,223772,1,0,0:0:0:0:
329,192,223965,1,2,0:0:0:0:
475,192,223965,1,0,0:0:0:0:
36,192,223965,1,0,0:0:0:0:
256,192,223965,1,2,0:0:0:0:
109,192,223965,1,0,0:0:0:0:
109,192,224157,1,0,0:0:0:0:
329,192,224157,1,0,0:0:0:0:
402,192,224157,1,0,0:0:0:0:
182,192,224157,1,0,0:0:0:0:
256,192,224349,1,0,0:0:0:0:
402,192,224349,1,2,0:0:0:0:
475,192,224349,1,2,0:0:0:0:
36,192,224349,1,0,0:0:0:0:
109,192,224349,1,0,0:0:0:0:
329,192,224541,1,2,0:0:0:0:
182,192,224541,1,0,0:0:0:0:
475,192,224541,1,2,0:0:0:0:
36,192,224541,1,0,0:0:0:0:
109,192,224734,1,2,0:0:0:0:
256,192,224734,1,2,0:0:0:0:
36,192,224734,1,0,0:0:0:0:
402,192,224734,1,0,0:0:0:0:
475,192,224734,1,0,0:0:0:0:
329,192,224926,1,2,0:0:0:0:
109,192,224926,1,0,0:0:0:0:
182,192,224926,1,2,0:0:0:0:
402,192,224926,1,0,0:0:0:0:
182,192,225118,1,2,0:0:0:0:
475,192,225118,1,0,0:0:0:0:
36,192,225118,1,0,0:0:0:0:
256,192,225118,1,2,0:0:0:0:
329,192,225118,1,0,0:0:0:0:
402,192,225214,1,0,0:0:0:0:
109,192,225311,1,0,0:0:0:0:
329,192,225311,1,0,0:0:0:0:
182,192,225503,1,0,0:0:0:0:
402,192,225503,1,0,0:0:0:0:
256,192,225695,1,0,0:0:0:0:
475,192,225695,1,0,0:0:0:0:
402,192,225695,1,0,0:0:0:0:
109,192,225887,1,2,0:0:0:0:
402,192,226080,1,0,0:0:0:0:
256,192,226080,1,0,0:0:0:0:
109,192,226272,1,0,0:0:0:0:
329,192,226272,1,0,0:0:0:0:
475,192,226464,1,0,0:0:0:0:
182,192,226464,1,0,0:0:0:0:
402,192,226560,1,0,0:0:0:0:
329,192,226657,1,0,0:0:0:0:
36,192,226657,1,0,0:0:0:0:
182,192,226849,1,0,0:0:0:0:
475,192,226849,1,0,0:0:0:0:
109,192,227041,1,0,0:0:0:0:
329,192,227041,1,0,0:0:0:0:
402,192,227233,1,0,0:0:0:0:
36,192,227233,128,0,227426:0:0:0:0:
182,192,227426,1,0,0:0:0:0:
475,192,227426,128,0,227618:0:0:0:0:
256,192,227426,1,0,0:0:0:0:
329,192,227618,128,0,227810:0:0:0:0:
182,192,227810,128,0,228003:0:0:0:0:
36,192,228003,128,0,228195:0:0:0:0:
182,192,228195,1,0,0:0:0:0:
329,192,228195,1,0,0:0:0:0:
402,192,228195,1,4,0:0:0:0:
256,192,228195,128,0,238963:0:0:0:0:
109,192,228195,128,0,238963:0:0:0:0:
402,192,231488,1,0,0:0:0:0:
475,192,232786,1,0,0:0:0:0:
182,192,233940,1,0,0:0:0:0:
329,192,235189,1,0,0:0:0:0:
36,192,236584,1,0,0:0:0:0:
