osu file format v14

[General]
AudioFilename: audio.mp3
AudioLeadIn: 0
PreviewTime: 103226
Countdown: 0
SampleSet: Soft
StackLeniency: 0.5
Mode: 0
LetterboxInBreaks: 0
EpilepsyWarning: 1
WidescreenStoryboard: 1

[Editor]
Bookmarks: 24167,46756,69344,80638,91932,103226,125815,148403,159697,204873,216167,227462,250050,261344,272638,283932,306520,351697,362991,386638
DistanceSpacing: 0.7
BeatDivisor: 4
GridSize: 8
TimelineZoom: 2.7

[Metadata]
Title:Echoes -ziki_7 Remix-
TitleUnicode:Echoes -ziki_7 Remix-
Artist:ESQUARIA feat. Meramipop
ArtistUnicode:ESQUARIA feat. めらみぽっぷ
Creator:-Tochi
Version:Native Faith
Source:東方風神録 ~ Mountain of Faith.
Tags:東方Project ESQUARIA Suwako Moriya drumstep dnb drum and bass dubstep touhou EPIC FAITH 2 RUON Kaito 東方風神録 ~ Mountain of Faith ZUN 上海アリス幻樂団
BeatmapID:1616718
BeatmapSetID:768768

[Difficulty]
HPDrainRate:6
CircleSize:4.1
OverallDifficulty:8.5
ApproachRate:9.3
SliderMultiplier:2
SliderTickRate:1

[Events]
//Background and Video events
0,0,"bg.jpg",0,0
//Break Periods
2,250250,254790
//Storyboard Layer 0 (Background)
//Storyboard Layer 1 (Fail)
//Storyboard Layer 2 (Pass)
//Storyboard Layer 3 (Foreground)
//Storyboard Sound Samples

[TimingPoints]
168,352.941176470588,4,2,1,70,1,0
24167,-100,4,2,1,70,0,0
27167,-111.111111111111,4,2,1,70,0,0
27520,-125,4,2,1,70,0,0
28226,-100,4,2,1,70,0,0
32462,-90.9090909090908,4,2,1,70,0,0
32815,-100,4,2,1,70,0,0
33167,-111.111111111111,4,2,1,70,0,0
33873,-100,4,2,1,70,0,0
38462,-111.111111111111,4,2,1,70,0,0
38815,-125,4,2,1,70,0,0
39520,-100,4,2,1,70,0,0
43756,-125,4,2,1,70,0,0
46756,-142.857142857143,4,2,1,60,0,0
53815,-142.857142857143,4,2,1,40,0,0
54520,-142.857142857143,4,2,1,30,0,0
55226,-142.857142857143,4,2,1,50,0,0
56285,-142.857142857143,4,2,1,60,0,0
56638,-142.857142857143,4,2,1,50,0,0
56991,-142.857142857143,4,2,1,30,0,0
57344,-142.857142857143,4,2,1,50,0,0
57697,-142.857142857143,4,2,1,60,0,0
65109,-142.857142857143,4,2,1,50,0,0
65462,-142.857142857143,4,2,1,40,0,0
66167,-142.857142857143,4,2,1,50,0,0
68462,-142.857142857143,4,2,1,5,0,0
68638,-142.857142857143,4,2,1,60,0,0
69344,-111.111111111111,4,2,2,60,0,0
74285,-125,4,2,2,60,0,0
74462,-125,4,2,2,50,0,0
74638,-125,4,2,2,40,0,0
74991,-111.111111111111,4,2,2,60,0,0
76403,-111.111111111111,4,2,2,40,0,0
76932,-111.111111111111,4,2,2,60,0,0
77109,-111.111111111111,4,2,2,50,0,0
77462,-111.111111111111,4,2,2,60,0,0
77815,-111.111111111111,4,2,2,50,0,0
78167,-111.111111111111,4,2,2,40,0,0
78520,-111.111111111111,4,2,2,60,0,0
89109,-200,4,2,1,60,0,0
90344,-200,4,2,2,60,0,0
91226,-200,4,2,1,60,0,0
91403,-125,4,2,2,70,0,0
95991,-125,4,2,2,40,0,0
96167,-125,4,2,2,70,0,0
100403,-100,4,2,2,70,0,0
101109,-83.3333333333333,4,2,2,70,0,0
103226,-125,4,2,1,60,0,0
113462,-125,4,2,2,60,0,0
113815,-125,4,2,1,60,0,0
114167,-125,4,2,2,60,0,0
114520,-125,4,2,1,60,0,0
118050,-100,4,2,1,60,0,0
119462,-125,4,2,1,60,0,0
121932,-125,4,2,2,60,0,0
122109,-125,4,2,1,60,0,0
122550,-125,4,2,1,5,0,0
122638,-125,4,2,1,60,0,0
122991,-125,4,2,1,60,0,0
125153,-125,4,2,1,5,0,0
125285,-125,4,2,1,60,0,0
125329,-125,4,2,1,5,0,0
125462,-71.4285714285714,4,2,1,60,0,0
125815,-125,4,2,2,60,0,0
148403,-166.666666666667,4,2,2,60,0,0
156697,-100,4,2,2,60,0,0
156962,-100,4,2,2,5,0,0
157050,-100,4,2,2,60,0,0
158462,-117.647058823529,4,2,2,60,0,0
158638,-142.857142857143,4,2,2,60,0,0
158815,-181.818181818182,4,2,2,60,0,0
158991,-100,4,2,1,60,0,0
159256,-100,4,2,2,5,0,0
159344,-100,4,2,2,60,0,0
159697,-76.9230769230769,4,2,1,80,0,1
160050,-66.6666666666667,4,2,1,80,0,1
161109,-76.9230769230769,4,2,1,80,0,1
162167,-100,4,2,1,80,0,1
162520,-76.9230769230769,4,2,1,80,0,1
162873,-66.6666666666667,4,2,1,80,0,1
163579,-76.9230769230769,4,2,1,80,0,1
163756,-66.6666666666667,4,2,1,80,0,1
163932,-76.9230769230769,4,2,1,80,0,1
164285,-66.6666666666667,4,2,1,80,0,1
164638,-76.9230769230769,4,2,1,80,0,1
164991,-66.6666666666667,4,2,1,80,0,1
165344,-76.9230769230769,4,2,1,80,0,1
165697,-66.6666666666667,4,2,1,80,0,1
166756,-76.9230769230769,4,2,1,80,0,1
166976,-76.9230769230769,4,2,1,5,0,1
167020,-76.9230769230769,4,2,1,80,0,1
167241,-76.9230769230769,4,2,1,5,0,1
167285,-76.9230769230769,4,2,1,80,0,1
167462,-66.6666666666667,4,2,1,80,0,1
167815,-100,4,2,1,80,0,1
168167,-76.9230769230769,4,2,1,80,0,1
170638,-66.6666666666667,4,2,1,80,0,0
170991,-66.6666666666667,4,2,1,80,0,1
171344,-58.8235294117647,4,2,1,80,0,1
171697,-52.6315789473684,4,2,1,80,0,1
172138,-52.6315789473684,4,2,1,5,0,1
172226,-52.6315789473684,4,2,1,80,0,1
172403,-66.6666666666667,4,2,1,80,0,1
172756,-58.8235294117647,4,2,1,80,0,1
173109,-52.6315789473684,4,2,1,80,0,1
173462,-58.8235294117647,4,2,1,80,0,1
173815,-66.6666666666667,4,2,1,80,0,1
175226,-76.9230769230769,4,2,1,80,0,1
175579,-66.6666666666667,4,2,1,80,0,1
175932,-76.9230769230769,4,2,1,80,0,1
176285,-100,4,2,1,80,0,1
176638,-76.9230769230769,4,2,1,80,0,1
176991,-66.6666666666667,4,2,1,80,0,1
178050,-76.9230769230769,4,2,1,80,0,1
178270,-76.9230769230769,4,2,1,5,0,1
178315,-76.9230769230769,4,2,1,80,0,1
178535,-76.9230769230769,4,2,1,5,0,1
178579,-76.9230769230769,4,2,1,80,0,1
178756,-66.6666666666667,4,2,1,80,0,1
179109,-100,4,2,1,80,0,1
179462,-76.9230769230769,4,2,1,80,0,1
181932,-76.9230769230769,4,2,1,80,0,0
182285,-76.9230769230769,4,2,1,80,0,1
182638,-66.6666666666667,4,2,1,80,0,1
183697,-76.9230769230769,4,2,1,80,0,1
184756,-100,4,2,1,80,0,1
185109,-76.9230769230769,4,2,1,80,0,1
185462,-66.6666666666667,4,2,1,80,0,1
186167,-76.9230769230769,4,2,1,80,0,1
186344,-66.6666666666667,4,2,1,80,0,1
186520,-76.9230769230769,4,2,1,80,0,1
186873,-66.6666666666667,4,2,1,80,0,1
187226,-76.9230769230769,4,2,1,80,0,1
187579,-66.6666666666667,4,2,1,80,0,1
187932,-76.9230769230769,4,2,1,80,0,1
188285,-66.6666666666667,4,2,1,80,0,1
189344,-76.9230769230769,4,2,1,80,0,1
189565,-76.9230769230769,4,2,1,5,0,1
189609,-76.9230769230769,4,2,1,80,0,1
189829,-76.9230769230769,4,2,1,5,0,1
189873,-76.9230769230769,4,2,1,80,0,1
190050,-66.6666666666667,4,2,1,80,0,1
190403,-100,4,2,1,80,0,1
190756,-76.9230769230769,4,2,1,80,0,1
193226,-66.6666666666667,4,2,1,80,0,0
193579,-66.6666666666667,4,2,1,80,0,1
193932,-58.8235294117647,4,2,1,80,0,1
194285,-52.6315789473684,4,2,1,80,0,1
194991,-66.6666666666667,4,2,1,80,0,1
195344,-58.8235294117647,4,2,1,80,0,1
195697,-52.6315789473684,4,2,1,80,0,1
196050,-58.8235294117647,4,2,1,80,0,1
196403,-66.6666666666667,4,2,1,80,0,1
197109,-55.5555555555556,4,2,1,80,0,1
197815,-76.9230769230769,4,2,1,80,0,1
198167,-66.6666666666667,4,2,1,80,0,1
198520,-76.9230769230769,4,2,1,80,0,1
199579,-66.6666666666667,4,2,1,80,0,1
200638,-76.9230769230769,4,2,1,80,0,1
200859,-76.9230769230769,4,2,1,5,0,1
200903,-76.9230769230769,4,2,1,80,0,1
201123,-76.9230769230769,4,2,1,5,0,1
201167,-76.9230769230769,4,2,1,80,0,1
201344,-66.6666666666667,4,2,1,80,0,1
202050,-76.9230769230769,4,2,1,80,0,1
202756,-90.9090909090909,4,2,1,80,0,1
203462,-111.111111111111,4,2,1,80,0,1
204167,-111.111111111111,4,2,1,80,0,1
204873,-111.111111111111,4,2,2,60,0,0
207697,-100,4,2,2,60,0,0
208403,-83.3333333333333,4,2,2,60,0,0
209109,-100,4,2,2,60,0,0
209815,-83.3333333333333,4,2,2,60,0,0
210520,-111.111111111111,4,2,2,60,0,0
214050,-100,4,2,2,60,0,0
214756,-83.3333333333333,4,2,2,60,0,0
215462,-111.111111111111,4,2,2,60,0,0
215726,-111.111111111111,4,2,2,5,0,0
215815,-111.111111111111,4,2,2,60,0,0
215859,-111.111111111111,4,2,2,5,0,0
215991,-111.111111111111,4,2,2,60,0,0
216035,-111.111111111111,4,2,2,5,0,0
216167,-111.111111111111,4,2,2,60,0,0
218991,-100,4,2,2,60,0,0
219697,-83.3333333333333,4,2,2,60,0,0
220403,-100,4,2,2,60,0,0
221109,-83.3333333333333,4,2,2,60,0,0
221815,-111.111111111111,4,2,2,60,0,0
225344,-100,4,2,2,60,0,0
226050,-83.3333333333333,4,2,2,60,0,0
226756,-100,4,2,2,60,0,0
227462,-125,4,2,1,60,0,0
237697,-125,4,2,2,60,0,0
238050,-125,4,2,1,60,0,0
238403,-125,4,2,2,60,0,0
238756,-99.9999999999999,4,2,1,60,0,0
239285,-125,4,2,1,60,0,0
241579,-111.111111111111,4,2,1,60,0,0
242285,-100,4,2,1,60,0,0
243520,-125,4,2,1,60,0,0
244403,-100,4,2,1,60,0,0
245109,-83.3333333333333,4,2,1,60,0,0
245815,-100,4,2,1,60,0,0
247226,-83.3333333333333,4,2,1,60,0,0
250050,-125,4,2,2,60,0,0
260991,-166.666666666667,4,2,2,60,0,0
261344,-100,4,2,2,70,0,0
270873,-125,4,2,2,70,0,0
271403,-100,4,2,2,70,0,0
272638,-166.666666666667,4,2,2,60,0,0
281109,-200,4,2,2,60,0,0
282167,-100,4,2,2,60,0,0
282520,-125,4,2,2,60,0,0
283226,-142.857142857143,4,2,1,60,0,0
283932,-76.923076923077,4,2,1,80,0,1
284285,-66.6666666666667,4,2,1,80,0,1
285344,-52.6315789473684,4,2,1,80,0,1
286050,-76.9230769230769,4,2,1,80,0,1
287109,-66.6666666666667,4,2,1,80,0,1
288873,-83.3333333333333,4,2,1,80,0,1
289579,-76.9230769230769,4,2,1,80,0,1
289932,-66.6666666666667,4,2,1,80,0,1
290285,-76.9230769230769,4,2,1,80,0,1
290638,-125,4,2,1,80,0,1
290991,-76.9230769230769,4,2,1,80,0,1
291212,-76.9230769230769,4,2,1,5,0,1
291256,-76.9230769230769,4,2,1,80,0,1
291476,-76.9230769230769,4,2,1,5,0,1
291520,-76.9230769230769,4,2,1,80,0,1
291697,-66.6666666666667,4,2,1,80,0,1
292050,-100,4,2,1,80,0,1
292403,-76.9230769230769,4,2,1,80,0,1
294873,-76.9230769230769,4,2,1,80,0,0
295226,-66.6666666666667,4,2,1,80,0,1
295579,-58.8235294117647,4,2,1,80,0,1
295932,-52.6315789473684,4,2,1,80,0,1
296638,-66.6666666666667,4,2,1,80,0,1
296991,-58.8235294117647,4,2,1,80,0,1
297344,-52.6315789473684,4,2,1,80,0,1
297697,-58.8235294117647,4,2,1,80,0,1
298050,-76.9230769230769,4,2,1,80,0,1
299462,-76.9230769230769,4,2,1,80,0,1
299815,-66.6666666666667,4,2,1,80,0,1
300167,-76.9230769230769,4,2,1,80,0,1
300520,-100,4,2,1,80,0,1
300873,-76.9230769230769,4,2,1,80,0,1
301226,-66.6666666666667,4,2,1,80,0,1
302285,-76.9230769230769,4,2,1,80,0,1
302506,-76.9230769230769,4,2,1,5,0,1
302550,-76.9230769230769,4,2,1,80,0,1
302770,-76.9230769230769,4,2,1,5,0,1
302815,-76.9230769230769,4,2,1,80,0,1
302991,-66.6666666666667,4,2,1,80,0,1
303344,-100,4,2,1,80,0,1
303697,-76.9230769230769,4,2,1,80,0,1
306167,-76.9230769230769,4,2,1,80,0,0
306520,-100,4,2,1,70,0,1
306609,-100,4,2,1,70,0,0
317815,-100,4,2,1,70,0,1
317903,-100,4,2,1,70,0,0
329109,-100,4,2,1,70,0,1
329197,-100,4,2,1,70,0,0
340403,-100,4,2,1,70,0,1
340491,-100,4,2,1,70,0,0
351697,-166.666666666667,4,2,1,70,0,0
362991,-125,4,2,2,60,0,0
385579,-200,4,2,2,60,0,0
386638,-200,4,2,2,20,0,0

[Colours]
Combo1 : 199,201,154
Combo2 : 188,138,107
Combo3 : 236,125,94
Combo4 : 217,206,202

[HitObjects]
322,257,24167,6,0,P|232:245|118:232,1,200,6|8,1:2|0:0,0:0:0:0:
285,128,24697,2,0,P|335:123|385:116,1,100,2|0,0:0|0:0,0:0:0:0:
407,248,25050,1,2,1:2:0:0:
278,149,25226,1,10,0:0:0:0:
424,262,25403,1,2,0:0:0:0:
257,329,25579,5,0,1:0:0:0:
249,331,25756,1,0,0:0:0:0:
159,250,25932,5,8,0:0:0:0:
151,247,26109,1,0,0:0:0:0:
113,131,26285,5,2,0:0:0:0:
159,250,26462,1,2,1:2:0:0:
218,85,26638,1,10,0:0:0:0:
159,250,26815,6,0,L|57:267,1,100,0|0,0:0|1:0,0:0:0:0:
325,339,27167,2,0,L|233:323,1,89.9999972534181,0|8,0:0|0:0,0:0:0:0:
483,251,27520,1,0,0:0:0:0:
483,251,27609,1,0,0:0:0:0:
483,251,27697,2,0,L|397:265,1,80,0|0,0:0|1:0,0:0:0:0:
254,209,28050,1,8,0:0:0:0:
414,80,28226,6,0,L|410:109,4,25,0|0|0|0|2,1:0|1:0|1:0|1:0|1:2,0:0:0:0:
257,63,28579,1,2,0:0:0:0:
346,260,28756,5,10,0:0:0:0:
319,134,28932,1,2,0:0:0:0:
180,280,29109,5,0,0:0:0:0:
265,225,29285,1,2,0:0:0:0:
180,280,29462,2,0,B|108:305|108:305|42:269,1,150,8|0,0:0|1:0,0:0:0:0:
41,257,29815,6,0,P|61:162|79:44,1,200,2|10,1:2|0:0,0:0:0:0:
277,301,30344,2,0,P|227:292|179:279,1,100,2|0,0:0|0:0,0:0:0:0:
328,164,30697,1,2,1:2:0:0:
159,261,30873,1,10,0:0:0:0:
299,170,31050,1,2,0:0:0:0:
157,70,31226,5,0,1:0:0:0:
162,65,31403,1,0,0:0:0:0:
316,39,31579,5,8,0:0:0:0:
321,44,31756,1,0,0:0:0:0:
352,203,31932,5,0,0:0:0:0:
347,208,32109,1,2,1:2:0:0:
188,239,32285,5,10,0:0:0:0:
427,354,32462,2,0,B|374:377|374:377|320:366,1,110.000003356934,0|0,0:0|1:0,0:0:0:0:
133,164,32815,2,0,B|179:142|179:142|226:152,1,100,0|8,0:0|0:0,0:0:0:0:
322,285,33167,1,0,0:0:0:0:
322,285,33344,2,0,B|366:293|366:293|410:274,1,89.9999972534181,0|0,0:0|1:0,0:0:0:0:
200,321,33697,1,8,0:0:0:0:
341,176,33873,6,0,L|337:147,4,25,0|0|0|0|0,1:0|1:0|1:0|1:0|1:0,0:0:0:0:
493,225,34226,1,0,0:0:0:0:
235,171,34403,5,8,0:0:0:0:
417,135,34579,1,0,0:0:0:0:
206,46,34756,5,2,1:2:0:0:
319,114,34932,1,2,0:2:0:0:
135,191,35109,5,10,0:2:0:0:
235,171,35285,1,2,0:0:0:0:
235,171,35373,1,0,1:0:0:0:
235,171,35462,6,0,B|250:231|254:299|254:299|209:356,1,200,6|10,1:2|0:0,0:0:0:0:
118,198,35991,2,0,P|126:248|134:299,1,100,2|0,0:0|0:0,0:0:0:0:
23,250,36344,1,2,1:2:0:0:
158,114,36520,1,10,0:0:0:0:
26,220,36697,1,2,0:0:0:0:
14,65,36873,5,0,1:0:0:0:
19,70,37050,1,0,0:0:0:0:
158,114,37226,5,8,0:0:0:0:
163,109,37403,1,0,0:0:0:0:
302,65,37579,5,2,0:2:0:0:
446,114,37756,1,2,1:2:0:0:
415,121,37844,1,0,1:0:0:0:
384,128,37932,1,10,0:0:0:0:
420,313,38109,6,0,L|439:215,1,100,0|0,0:0|1:0,0:0:0:0:
302,65,38462,2,0,L|285:153,1,89.9999972534181,0|8,0:0|0:0,0:0:0:0:
105,236,38815,1,0,0:0:0:0:
105,236,38991,2,0,L|119:149,1,80,0|0,0:0|1:0,0:0:0:0:
265,214,39344,1,8,0:0:0:0:
157,68,39520,6,0,L|141:46,4,25,0|0|0|0|2,1:0|1:0|1:0|1:0|1:2,0:0:0:0:
0,212,39873,1,2,1:2:0:0:
199,148,40050,5,10,0:0:0:0:
28,127,40226,1,2,0:0:0:0:
152,258,40403,5,2,0:0:0:0:
152,258,40491,1,8,0:0:0:0:
152,258,40579,1,2,1:2:0:0:
114,138,40756,1,8,0:0:0:0:
47,356,40932,1,2,0:0:0:0:
47,356,41020,1,2,0:0:0:0:
47,356,41109,6,0,B|14:333|14:333|97:313|171:356,1,200,2|10,1:2|0:0,0:0:0:0:
261,291,41638,2,0,P|310:282|359:270,1,100,2|0,0:0|0:0,0:0:0:0:
281,181,41991,1,2,1:2:0:0:
411,351,42167,1,10,0:0:0:0:
281,181,42344,1,2,0:0:0:0:
489,277,42520,6,0,B|502:195|502:195|482:161|482:161|496:81,2,200,0|8|0,1:0|0:0|0:0,0:0:0:0:
376,136,43403,1,0,1:0:0:0:
411,220,43579,1,10,0:0:0:0:
427,59,43756,6,0,P|357:28|265:41,1,160,0|0,1:0|1:0,0:0:0:0:
186,133,44285,1,8,0:0:0:0:
94,104,44462,1,0,0:0:0:0:
94,104,44550,1,0,3:0:0:0:
94,104,44638,5,8,3:2:0:0:
273,184,44815,1,0,0:0:0:0:
147,217,44991,5,8,0:0:0:0:
385,183,45168,1,0,0:0:0:0:
385,183,45256,1,0,3:0:0:0:
385,183,45344,2,0,L|399:235,1,40,0|0,1:0|0:0,0:0:0:0:
324,58,45520,2,0,L|310:110,1,40,0|0,3:0|0:0,0:0:0:0:
252,281,45697,5,8,0:0:0:0:
186,133,45873,1,0,3:0:0:0:
334,334,46050,2,0,L|344:295,1,40,0|8,3:0|0:0,0:0:0:0:
273,184,46226,5,0,1:0:0:0:
449,310,46403,5,8,0:0:0:0:
298,202,46579,5,0,3:0:0:0:
420,291,46756,5,4,1:2:0:0:
100,162,47462,2,0,L|83:240,1,69.9999978637696,2|0,0:0|0:0,0:0:0:0:
184,50,47815,2,0,L|201:128,1,69.9999978637696,2|0,0:0|0:0,0:0:0:0:
303,227,48167,6,0,P|371:244|437:207,1,139.999995727539,2|0,0:0|0:0,0:0:0:0:
291,320,48697,2,0,L|212:333,1,69.9999978637696,2|0,0:0|0:0,0:0:0:0:
359,145,49050,2,0,L|218:129,1,139.999995727539,2|0,0:0|0:0,0:0:0:0:
378,125,49579,5,2,0:0:0:0:
303,227,49756,1,2,0:0:0:0:
315,232,50109,2,0,L|334:307,1,69.9999978637696,2|0,0:0|0:0,0:0:0:0:
216,157,50462,1,2,0:0:0:0:
192,257,50638,1,2,0:0:0:0:
325,127,50815,5,2,3:2:0:0:
427,107,50991,1,0,3:0:0:0:
358,27,51167,1,0,3:0:0:0:
394,205,51344,1,0,3:0:0:0:
358,27,51520,2,0,P|319:24|281:21,1,69.9999978637696,0|0,3:0|0:0,0:0:0:0:
146,162,51873,2,0,P|184:159|223:156,1,69.9999978637696,0|2,3:0|0:0,0:0:0:0:
310,226,52226,1,2,3:2:0:0:
187,62,52403,6,0,B|146:51|146:51|112:60,1,69.9999978637696,0|0,3:0|0:0,0:0:0:0:
146,162,52756,1,0,3:0:0:0:
105,262,52932,2,0,B|146:273|146:273|172:265,1,69.9999978637696,0|0,3:0|0:0,0:0:0:0:
270,111,53285,1,0,3:0:0:0:
260,227,53462,1,0,3:0:0:0:
336,57,53638,1,0,3:0:0:0:
323,284,53815,5,0,3:0:0:0:
329,280,53991,1,0,3:0:0:0:
172,265,54167,5,0,3:0:0:0:
166,261,54343,1,0,3:0:0:0:
264,198,54520,5,0,3:0:0:0:
270,194,54697,1,2,3:2:0:0:
190,136,54873,5,2,3:2:0:0:
276,190,55050,1,2,3:2:0:0:
153,212,55226,6,0,P|146:142|146:72,2,139.999995727539,0|0|0,3:0|0:0|0:0,0:0:0:0:
146,225,56285,5,0,3:0:0:0:
265,251,56462,1,0,3:0:0:0:
188,293,56638,5,0,3:0:0:0:
284,279,56815,1,0,3:0:0:0:
230,361,56991,5,0,3:0:0:0:
303,307,57167,1,0,3:0:0:0:
230,361,57344,5,0,3:0:0:0:
363,247,57520,1,0,3:0:0:0:
203,275,57697,5,0,3:0:0:0:
282,206,57873,1,0,3:0:0:0:
164,150,58050,6,0,P|263:118|319:124,1,139.999995727539,4|0,1:2|3:0,0:0:0:0:
150,166,58579,1,0,3:0:0:0:
269,274,58756,2,0,P|277:237|281:205,1,69.9999978637696,2|0,0:0|3:0,0:0:0:0:
285,51,59109,2,0,P|289:85|297:119,1,69.9999978637696,2|0,3:2|3:0,0:0:0:0:
331,326,59462,6,0,B|284:307|284:307|196:321,1,139.999995727539,2|0,0:0|0:0,0:0:0:0:
89,263,59991,1,2,0:0:0:0:
77,254,60167,5,0,3:0:0:0:
148,166,60344,1,2,3:2:0:0:
50,139,60520,5,0,3:0:0:0:
106,70,60697,1,0,3:0:0:0:
168,253,60873,5,2,0:0:0:0:
341,165,61050,2,0,L|410:128,1,69.9999978637696,2|0,0:0|0:0,0:0:0:0:
273,246,61403,2,0,L|417:285,1,139.999995727539,2|2,0:0|0:0,0:0:0:0:
250,240,61932,1,2,0:0:0:0:
402,131,62109,1,2,3:2:0:0:
252,148,62285,5,0,3:0:0:0:
154,87,62462,1,0,3:0:0:0:
239,159,62638,1,0,3:0:0:0:
144,193,62815,2,0,L|73:218,2,69.9999978637696,0|0|0,3:0|0:0|3:0,0:0:0:0:
154,87,63344,2,0,L|87:110,1,69.9999978637696,2|2,0:0|3:2,0:0:0:0:
60,321,63697,6,0,P|121:355|188:339,1,139.999995727539,0|0,3:0|3:0,0:0:0:0:
279,258,64226,2,0,P|338:224|405:238,1,139.999995727539,0|0,3:0|3:0,0:0:0:0:
387,95,64756,5,0,3:0:0:0:
334,188,64932,1,0,3:0:0:0:
273,105,65109,5,0,3:0:0:0:
228,183,65285,1,0,3:0:0:0:
159,115,65462,5,0,3:0:0:0:
122,178,65638,1,0,3:0:0:0:
122,178,65991,5,2,0:0:0:0:
228,183,66167,1,2,3:2:0:0:
273,105,66344,1,2,3:2:0:0:
334,188,66520,5,0,3:0:0:0:
256,192,66609,12,0,68462,0:0:0:0:
402,89,68638,5,0,3:0:0:0:
336,206,68814,1,0,3:0:0:0:
259,102,68991,5,0,3:0:0:0:
203,200,69167,1,0,3:0:0:0:
116,115,69344,6,0,P|55:206|80:280,1,179.999994506836,4|8,1:2|0:0,0:0:0:0:
123,114,69873,2,0,P|105:163|118:198,1,89.9999972534181,0|0,0:0|0:0,0:0:0:0:
265,271,70226,1,0,1:0:0:0:
160,302,70403,1,0,3:0:0:0:
355,199,70579,6,0,B|371:158|371:158|350:111,1,89.9999972534181,0|0,3:0|0:0,0:0:0:0:
130,113,70932,1,0,1:0:0:0:
130,113,71109,2,0,B|114:154|114:154|135:201,1,89.9999972534181,8|0,0:0|0:0,0:0:0:0:
339,105,71462,5,0,3:0:0:0:
214,148,71638,1,0,1:0:0:0:
366,97,71815,5,0,3:0:0:0:
261,60,71991,1,0,3:0:0:0:
343,17,72167,6,0,P|343:86|324:205,2,179.999994506836,0|8|0,1:0|0:0|3:0,0:0:0:0:
214,148,73050,1,0,1:0:0:0:
362,288,73226,1,0,3:0:0:0:
479,175,73403,1,8,0:0:0:0:
478,174,73491,2,0,L|443:179,1,22.4999993133545,0|0,1:0|1:0,0:0:0:0:
480,176,73579,2,0,B|437:188|437:188|392:169,1,89.9999972534181,0|0,1:0|1:0,0:0:0:0:
75,307,73932,2,0,B|118:319|118:319|159:301,1,89.9999972534181,8|0,0:0|3:0,0:0:0:0:
214,148,74285,5,0,1:0:0:0:
211,155,74462,1,0,3:0:0:0:
107,214,74638,5,0,3:0:0:0:
110,221,74815,1,8,3:2:0:0:
258,54,74991,6,0,L|355:42,1,89.9999972534181,0|0,1:0|0:0,0:0:0:0:
158,64,75344,1,8,0:0:0:0:
307,143,75520,2,0,L|393:187,1,89.9999972534181,0|0,3:0|0:0,0:0:0:0:
158,64,75873,1,0,1:0:0:0:
346,42,76050,2,0,L|436:31,1,89.9999972534181,0|8,3:0|3:2,0:0:0:0:
261,243,76403,5,0,3:0:0:0:
350,304,76579,1,0,1:0:0:0:
178,261,76756,5,8,3:2:0:0:
264,267,76932,5,0,3:0:0:0:
56,345,77109,1,0,3:0:0:0:
181,283,77285,1,0,1:0:0:0:
34,178,77462,5,0,3:0:0:0:
95,267,77638,1,8,3:2:0:0:
52,95,77815,5,0,1:0:0:0:
58,181,77991,1,0,3:0:0:0:
111,34,78167,5,8,3:2:0:0:
80,95,78343,1,0,3:0:0:0:
181,23,78520,5,0,3:0:0:0:
135,52,78697,1,0,1:0:0:0:
128,126,78873,1,0,3:0:0:0:
191,180,79050,6,0,B|268:210|291:132|369:163,1,179.999994506836,0|0,1:0|1:0,0:0:0:0:
472,83,79579,1,8,0:0:0:0:
333,241,79756,1,0,0:0:0:0:
386,95,79932,6,0,L|403:169,1,44.999998626709,0|8,1:0|0:0,0:0:0:0:
418,228,80109,1,0,3:0:0:0:
247,253,80285,5,0,3:0:0:0:
398,317,80462,1,8,3:2:0:0:
398,317,80550,1,8,3:2:0:0:
398,317,80638,6,0,B|459:303|459:303|494:311,1,89.9999972534181,4|0,1:0|0:0,0:0:0:0:
144,255,80991,2,0,B|83:241|83:241|48:249,1,89.9999972534181,0|0,1:0|3:0,0:0:0:0:
386,95,81344,2,0,L|374:186,1,89.9999972534181,0|0,1:0|3:0,0:0:0:0:
144,255,81697,2,0,L|132:165,1,89.9999972534181,0|0,1:0|3:0,0:0:0:0:
468,214,82050,5,0,1:0:0:0:
278,160,82226,1,0,3:0:0:0:
232,285,82403,5,0,1:0:0:0:
79,328,82579,1,0,3:0:0:0:
132,165,82756,6,0,L|38:151,1,89.9999972534181,0|0,1:0|3:0,0:0:0:0:
356,59,83109,2,0,L|262:73,1,89.9999972534181,0|0,1:0|3:0,0:0:0:0:
232,285,83462,6,0,L|321:298,1,89.9999972534181,0|0,1:0|3:0,0:0:0:0:
468,214,83815,2,0,L|378:200,1,89.9999972534181,0|0,1:0|3:0,0:0:0:0:
144,255,84167,1,0,1:0:0:0:
132,165,84344,1,0,3:0:0:0:
232,285,84520,1,0,1:0:0:0:
79,328,84697,1,0,3:0:0:0:
225,190,84873,6,0,B|245:150|245:150|226:104,1,89.9999972534181,0|0,1:0|3:0,0:0:0:0:
408,287,85226,2,0,B|428:327|428:327|409:373,1,89.9999972534181,0|0,1:0|3:0,0:0:0:0:
149,144,85579,2,0,L|55:133,1,89.9999972534181,0|0,1:0|3:0,0:0:0:0:
241,318,85932,2,0,L|331:329,1,89.9999972534181,0|0,1:0|3:0,0:0:0:0:
501,79,86285,6,0,P|417:55|357:116,1,179.999994506836,0|0,1:0|1:0,0:0:0:0:
471,247,86815,1,0,3:0:0:0:
439,137,86991,1,0,1:0:0:0:
411,330,87167,1,0,3:0:0:0:
310,235,87344,1,0,1:0:0:0:
241,318,87520,6,0,L|151:324,1,89.9999972534181,0|0,3:0|1:0,0:0:0:0:
373,203,87873,2,0,L|283:196,1,89.9999972534181,0|0,3:0|1:0,0:0:0:0:
505,318,88226,2,0,L|415:324,2,89.9999972534181,0|0|0,3:0|1:0|3:0,0:0:0:0:
310,235,88756,1,0,1:0:0:0:
396,339,88932,1,0,1:0:0:0:
443,152,89109,6,0,B|463:131|461:102|461:102|508:189|452:237,1,200,0|8,1:0|0:0,0:0:0:0:
382,101,90344,1,8,0:0:0:0:
454,234,90520,6,0,B|410:237|410:237|398:246|398:246|351:251,1,100,0|8,1:0|0:0,0:0:0:0:
476,232,91050,1,0,3:0:0:0:
368,341,91226,5,8,0:0:0:0:
263,187,91403,1,0,3:0:0:0:
441,136,91579,5,0,3:0:0:0:
357,250,91756,1,0,3:0:0:0:
282,89,91932,6,0,P|210:52|125:93,1,160,4|2,1:2|0:0,0:0:0:0:
97,154,92462,1,2,0:0:0:0:
205,152,92638,2,0,B|228:199|228:199|220:235,1,80,8|2,0:0|0:0,0:0:0:0:
103,327,92991,2,0,B|126:280|126:280|118:244,1,80,2|8,0:0|0:0,0:0:0:0:
59,84,93344,6,0,L|144:76,1,80,0|0,1:0|1:0,0:0:0:0:
222,50,93697,1,2,0:0:0:0:
301,102,93873,1,2,0:0:0:0:
301,102,93962,1,0,1:0:0:0:
301,102,94050,2,0,P|285:174|277:273,1,160,8|8,1:2|0:0,0:0:0:0:
205,152,94579,1,0,0:0:0:0:
366,236,94756,6,0,P|375:197|378:157,1,80,0|2,1:0|0:0,0:0:0:0:
313,23,95109,2,0,P|303:61|300:101,1,80,2|2,0:0|0:0,0:0:0:0:
300,101,95373,1,2,0:0:0:0:
300,101,95462,6,0,P|225:126|127:89,1,160,8|0,1:2|0:0,0:0:0:0:
45,151,95991,2,0,L|59:168,3,20,8|8|8|8,0:0|0:0|0:0|0:0,0:0:0:0:
69,183,96167,6,0,P|83:220|74:270,1,80,0|0,1:0|1:0,0:0:0:0:
40,338,96520,1,0,0:0:0:0:
40,338,96697,2,0,L|90:349,1,40,0|0,0:0|0:0,0:0:0:0:
165,306,96873,5,8,1:2:0:0:
260,274,97050,1,2,0:0:0:0:
149,190,97226,5,10,0:0:0:0:
41,153,97403,2,0,L|88:137,1,40,2|8,0:0|0:0,0:0:0:0:
230,91,97579,5,2,1:2:0:0:
339,54,97756,1,2,0:0:0:0:
286,179,97932,5,2,0:0:0:0:
380,211,98109,1,2,0:0:0:0:
230,268,98285,5,10,1:2:0:0:
275,338,98462,1,2,0:0:0:0:
149,190,98638,5,2,0:0:0:0:
139,288,98815,1,10,0:0:0:0:
77,108,98991,5,0,1:0:0:0:
0,187,99167,1,0,1:0:0:0:
258,176,99344,5,10,0:0:0:0:
149,190,99520,1,0,0:0:0:0:
149,190,99608,1,2,0:0:0:0:
149,190,99697,2,0,P|212:197|294:261,1,160,10|0,1:2|1:0,0:0:0:0:
322,349,100226,1,2,0:0:0:0:
288,252,100403,6,0,P|293:171|382:103,1,200,0|10,1:0|0:0,0:0:0:0:
486,122,100932,1,0,0:0:0:0:
382,102,101109,6,0,B|270:70|262:182|150:142,1,239.999992675781,8|2,1:2|0:0,0:0:0:0:
62,94,101638,1,8,0:0:0:0:
288,252,101815,5,2,1:2:0:0:
195,228,101991,1,2,0:0:0:0:
122,270,102167,1,10,0:0:0:0:
48,251,102343,1,2,0:0:0:0:
62,94,102520,5,10,1:2:0:0:
152,116,102697,1,2,0:0:0:0:
262,61,102872,1,10,0:0:0:0:
378,91,103050,1,2,0:0:0:0:
360,319,103226,6,0,B|288:343|288:343|240:326,2,120,4|2|2,1:2|0:0|0:0,0:0:0:0:
434,257,103932,2,0,P|457:187|403:117,1,160,8|0,0:0|0:0,0:0:0:0:
411,120,104462,1,0,3:0:0:0:
425,264,104638,6,0,P|441:212|402:160,2,120,0|2|2,1:0|0:0|3:2,0:0:0:0:
348,288,105256,1,0,3:0:0:0:
333,281,105344,2,0,P|297:235|314:179,2,120,8|2|2,1:2|0:0|0:0,0:0:0:0:
341,84,106050,6,0,L|216:70,1,120,0|2,1:0|0:0,0:0:0:0:
195,228,106579,1,2,0:0:0:0:
195,228,106756,2,0,L|70:242,1,120,8|2,0:0|0:0,0:0:0:0:
452,287,107285,2,0,B|400:282,1,40,0|0,3:0|3:0,0:0:0:0:
452,294,107462,6,0,L|288:275,1,160,0|2,1:0|0:0,0:0:0:0:
213,314,107991,1,0,0:0:0:0:
313,180,108167,2,0,L|221:166,1,80,8|0,0:0|0:0,0:0:0:0:
88,90,108520,2,0,L|81:74,4,10,2|0|0|0|0,0:0|0:0|0:0|0:0|0:0,0:0:0:0:
68,173,108697,1,0,3:0:0:0:
61,208,108785,1,0,3:0:0:0:
55,243,108873,6,0,P|96:270|165:255,2,120,0|2|2,1:0|0:0|0:0,0:0:0:0:
190,75,109579,2,0,P|242:40|332:59,1,160,8|0,0:0|0:0,0:0:0:0:
381,142,110109,1,0,0:0:0:0:
268,138,110285,5,0,1:0:0:0:
335,287,110462,2,0,L|247:275,1,80,0|0,1:0|0:0,0:0:0:0:
492,221,110815,1,0,3:0:0:0:
492,221,110903,1,0,3:0:0:0:
492,221,110991,2,0,L|412:231,1,80,8|0,0:0|0:0,0:0:0:0:
268,138,111344,5,0,1:0:0:0:
397,235,111520,1,0,0:0:0:0:
190,75,111697,6,0,P|156:126|170:184,1,120,0|2,1:0|0:0,0:0:0:0:
77,307,112226,1,2,0:0:0:0:
77,307,112403,2,0,P|43:259|54:201,1,120,8|2,0:0|0:0,0:0:0:0:
250,145,112932,1,2,0:0:0:0:
250,145,113109,5,2,1:2:0:0:
343,169,113285,1,2,0:0:0:0:
416,127,113461,1,10,0:0:0:0:
490,146,113637,1,2,0:0:0:0:
476,303,113814,5,10,1:2:0:0:
386,281,113991,1,2,0:0:0:0:
276,336,114167,1,10,0:0:0:0:
160,306,114344,1,2,0:0:0:0:
74,130,114520,6,0,B|48:56|48:56|74:1,2,120,4|2|2,1:2|0:0|0:0,0:0:0:0:
139,200,115226,2,0,P|212:228|281:193,1,160,8|0,0:0|0:0,0:0:0:0:
280,193,115756,1,0,3:0:0:0:
132,192,115932,6,0,P|187:213|240:186,2,120,0|2|2,1:0|0:0|3:2,0:0:0:0:
111,114,116550,1,0,3:0:0:0:
121,102,116638,2,0,P|173:76|227:98,2,120,8|2|2,0:0|0:0|0:0,0:0:0:0:
318,140,117344,6,0,L|437:157,1,120,0|2,1:0|0:0,0:0:0:0:
186,255,117873,1,2,0:0:0:0:
186,255,118050,6,0,L|336:233,1,150,8|2,0:0|0:0,0:0:0:0:
31,61,118579,2,0,L|87:70,1,50,0|0,3:0|3:0,0:0:0:0:
30,70,118756,6,0,L|227:98,1,200,0|2,1:0|0:0,0:0:0:0:
325,74,119285,1,0,0:0:0:0:
142,190,119462,2,0,L|226:214,1,80,8|0,0:0|0:0,0:0:0:0:
374,306,119815,2,0,L|378:322,4,10,2|0|0|0|0,0:0|0:0|0:0|0:0|0:0,0:0:0:0:
408,227,119992,1,0,3:0:0:0:
421,194,120080,1,0,3:0:0:0:
433,161,120167,6,0,P|477:227|474:334,1,160,0|2,1:0|0:0,0:0:0:0:
495,78,120697,1,0,0:0:0:0:
426,152,120873,2,0,P|391:172|348:168,1,80,8|0,0:0|0:0,0:0:0:0:
126,187,121226,2,0,P|161:167|204:171,1,80,2|0,0:0|0:0,0:0:0:0:
379,85,121579,5,0,1:0:0:0:
276,231,121756,1,0,1:0:0:0:
346,361,121932,2,0,L|253:353,1,80,8|0,0:0|3:0,0:0:0:0:
266,354,122197,1,0,3:0:0:0:
266,354,122285,2,0,P|234:313|251:250,1,120,8|0,0:0|0:0,0:0:0:0:
276,231,122638,1,0,1:0:0:0:
276,231,122991,6,0,P|199:224|115:212,1,160,0|2,1:0|0:0,0:0:0:0:
220,102,123520,1,0,0:0:0:0:
220,102,123697,2,0,P|296:95|380:83,1,160,8|2,0:0|0:0,0:0:0:0:
472,60,124226,1,0,0:0:0:0:
295,188,124403,6,0,P|332:193|379:200,1,80,0|2,1:0|0:0,0:0:0:0:
140,113,124756,2,0,P|179:107|219:101,1,80,8|0,0:0|1:0,0:0:0:0:
458,150,125109,6,0,L|481:157,1,20,8|8,0:0|0:0,0:0:0:0:
321,86,125285,2,0,L|340:80,1,20,8|8,0:0|0:0,0:0:0:0:
168,220,125462,6,0,B|123:237|123:237|84:215,2,93.3333304850261,8|8|8,0:0|0:0|0:0,1:1:0:0:
298,249,125815,6,0,P|212:191|83:217,1,240,6|2,1:2|3:2,0:0:0:0:
147,155,126520,2,0,P|182:88|145:9,1,160,2|0,3:2|0:0,0:0:0:0:
65,35,127050,1,2,3:2:0:0:
65,35,127138,1,2,3:2:0:0:
65,35,127226,5,2,3:2:0:0:
251,6,127491,5,2,0:0:0:0:
147,155,127756,5,2,0:0:0:0:
147,155,127932,2,0,L|231:169,1,80,2|0,0:0|0:0,0:0:0:0:
332,145,128285,1,2,0:0:0:0:
314,231,128462,1,2,0:0:0:0:
420,207,128638,6,0,P|460:277|432:353,1,160,2|0,0:0|0:0,0:0:0:0:
350,371,129167,2,0,P|307:370|268:348,1,80,2|0,0:0|0:0,0:0:0:0:
216,286,129520,2,0,P|251:268|291:268,1,80,2|0,0:0|0:0,0:0:0:0:
291,268,129873,1,2,3:2:0:0:
132,341,130050,6,0,L|116:241,2,80,2|0|0,3:2|3:0|3:0,0:0:0:0:
189,192,130579,2,0,L|205:92,1,80,0|0,3:0|0:0,0:0:0:0:
105,21,130932,1,0,3:0:0:0:
105,21,131109,2,0,B|140:39|140:39|185:25,1,80,2|2,0:0|0:0,0:0:0:0:
349,103,131462,6,0,B|277:138|277:138|196:110,1,160,2|0,0:0|0:0,0:0:0:0:
63,138,131991,2,0,L|79:224,1,80,2|0,0:0|0:0,0:0:0:0:
223,355,132344,2,0,L|208:276,1,80,2|0,0:0|0:0,0:0:0:0:
114,330,132697,1,2,0:0:0:0:
229,250,132873,6,0,P|291:249|349:279,1,120,2|2,0:0|0:0,0:0:0:0:
393,190,133403,1,2,0:0:0:0:
393,190,133579,2,0,P|455:191|513:161,2,120,2|2|2,0:0|0:0|0:0,0:0:0:0:
342,273,134285,6,0,P|381:277|418:292,1,80,2|0,0:0|0:0,0:0:0:0:
506,166,134638,2,0,P|466:161|429:146,1,80,2|0,0:0|0:0,0:0:0:0:
236,70,134991,2,0,P|298:77|350:45,1,120,2|2,0:0|0:0,0:0:0:0:
248,200,135520,1,2,0:0:0:0:
248,200,135697,6,0,P|178:163|99:169,1,160,2|8,0:0|0:0,0:0:0:0:
34,228,136226,1,0,0:0:0:0:
86,90,136403,2,0,L|98:168,1,80,0|0,3:0|3:0,0:0:0:0:
203,52,136756,2,0,L|190:130,1,80,8|0,3:2|3:0,0:0:0:0:
90,315,137109,6,0,P|201:282|300:343,1,240,4|2,1:2|3:2,0:0:0:0:
417,304,137815,2,0,P|475:248|479:165,1,160,2|0,3:2|0:0,0:0:0:0:
433,98,138344,1,2,3:2:0:0:
433,98,138432,1,2,3:2:0:0:
433,98,138520,5,2,3:2:0:0:
256,53,138785,5,2,0:0:0:0:
336,210,139050,5,2,0:0:0:0:
336,210,139226,2,0,L|253:216,1,80,2|0,0:0|0:0,0:0:0:0:
174,269,139579,1,2,0:0:0:0:
163,181,139756,1,2,0:0:0:0:
80,234,139932,6,0,P|41:181|71:98,1,160,2|0,0:0|0:0,0:0:0:0:
144,50,140462,2,0,L|233:33,1,80,2|0,0:0|0:0,0:0:0:0:
283,98,140815,2,0,L|361:82,1,80,2|0,0:0|0:0,0:0:0:0:
361,82,141167,1,2,3:2:0:0:
276,195,141344,6,0,B|251:227|251:227|259:266,2,80,2|0|0,3:2|3:0|3:0,0:0:0:0:
147,254,141873,2,0,B|139:293|139:293|164:325,1,80,0|0,3:0|3:0,0:0:0:0:
296,352,142226,1,0,3:0:0:0:
296,352,142403,2,0,L|386:345,1,80,2|2,0:0|0:0,0:0:0:0:
455,228,142756,6,0,P|486:160|454:85,1,160,2|0,0:0|0:0,0:0:0:0:
366,90,143285,2,0,P|334:161|366:232,1,160,2|2,0:0|0:0,0:0:0:0:
420,302,143815,1,2,0:0:0:0:
420,302,143991,1,2,0:0:0:0:
366,232,144167,5,2,0:0:0:0:
299,289,144344,2,0,P|260:308|219:308,1,80,2|0,0:0|0:0,0:0:0:0:
90,188,144697,2,0,P|162:217|238:196,1,160,2|2,0:0|0:0,0:0:0:0:
213,27,145226,1,2,0:0:0:0:
167,118,145403,1,2,0:0:0:0:
275,187,145579,6,0,B|338:192|338:192|365:210|365:210|432:216,1,160,2|0,0:0|0:0,0:0:0:0:
201,304,146109,2,0,P|126:335|44:319,1,160,2|2,0:0|0:0,0:0:0:0:
109,217,146638,2,0,P|145:201|184:207,1,80,2|2,0:0|0:0,0:0:0:0:
342,303,146991,6,0,P|400:314|510:327,2,160,2|8|0,0:0|0:0|0:0,0:0:0:0:
342,303,148050,1,2,0:0:0:0:
307,222,148226,1,2,0:0:0:0:
442,194,148403,6,0,B|514:134|458:31|458:31|383:101|357:21|288:57|288:57|218:43|184:114,2,479.999985351563,4|2|0,1:2|0:0|0:0,0:0:0:0:
442,194,152285,1,2,0:0:0:0:
442,194,152462,1,2,0:0:0:0:
104,316,153520,5,2,0:0:0:0:
175,243,153697,1,2,0:0:0:0:
248,312,153873,1,2,3:2:0:0:
319,239,154050,5,0,1:0:0:0:
413,323,154226,1,0,1:0:0:0:
318,131,154403,5,0,1:0:0:0:
421,224,154579,1,0,1:0:0:0:
317,24,154756,5,0,1:0:0:0:
430,125,154932,1,0,1:0:0:0:
319,239,155109,5,2,1:2:0:0:
197,129,155285,1,2,1:2:0:0:
85,242,155462,5,0,1:0:0:0:
168,110,155638,1,0,1:0:0:0:
215,259,155815,5,0,1:0:0:0:
254,76,155991,1,0,1:0:0:0:
345,276,156167,5,2,1:2:0:0:
340,42,156344,1,2,1:2:0:0:
462,203,156520,1,2,1:2:0:0:
246,366,156697,6,0,B|308:354|308:354|325:359|325:359|396:346,1,150,2|0,1:2|0:0,0:0:0:0:
482,338,157050,1,0,1:0:0:0:
482,338,157138,1,0,1:0:0:0:
482,338,157226,5,2,1:2:0:0:
475,293,157315,1,0,1:0:0:0:
468,248,157403,1,0,1:0:0:0:
462,203,157491,1,0,1:0:0:0:
480,160,157579,2,0,L|425:151,3,50,2|0|0|0,1:2|1:0|1:0|1:0,1:1:0:0:
409,107,157932,1,2,1:2:0:0:
354,110,158020,1,0,1:0:0:0:
298,114,158109,1,0,1:0:0:0:
243,118,158197,1,0,1:0:0:0:
188,122,158285,6,0,P|161:120|136:106,1,50,2|0,1:2|1:0,0:0:0:0:
218,203,158462,6,0,P|197:208|175:204,1,42.5000008106232,0|0,1:0|1:0,0:0:0:0:
273,268,158638,6,0,P|259:277|241:281,1,34.9999989318848,0|0,1:0|1:0,0:0:0:0:
348,310,158815,6,0,P|340:321|328:328,1,27.5000008392334,0|0,1:0|1:0,0:0:0:0:
431,325,158991,6,0,P|473:277|467:185,1,150,8|0,0:0|0:0,0:0:0:0:
452,164,159344,1,2,0:0:0:0:
431,325,159520,1,2,0:0:0:0:
298,114,159697,6,0,P|241:82|134:138,1,194.999991073609,4|0,1:2|0:0,0:0:0:0:
135,218,160050,2,0,P|220:283|322:246,1,225.000008583069,2|0,0:0|0:0,0:0:0:0:
414,223,160403,6,0,P|442:199|451:163,1,75.0000028610231,10|0,0:0|0:0,0:0:0:0:
343,123,160579,2,0,P|362:91|359:54,1,75.0000028610231,2|0,0:0|0:0,0:0:0:0:
418,241,160756,5,2,0:0:0:0:
350,137,160932,1,10,0:0:0:0:
413,359,161109,6,0,P|353:308|230:314,1,194.999991073609,0|0,1:0|0:0,0:0:0:0:
216,329,161462,1,2,0:0:0:0:
216,329,161638,2,0,B|185:348|185:348|154:335,1,64.9999970245363,0|0,1:0|0:0,0:0:0:0:
29,321,161815,6,0,B|111:282|126:368|217:328,1,194.999991073609,8|0,0:0|0:0,0:0:0:0:
185,176,162167,2,0,B|145:207|145:207|173:247,1,100,2|0,0:0|3:0,0:0:0:0:
109,197,162432,1,0,1:0:0:0:
94,202,162520,6,0,P|156:201|287:217,1,194.999991073609,0|0,1:0|0:0,0:0:0:0:
500,340,162873,2,0,B|429:342|384:277|384:277|366:324|320:341,1,225.000008583069,2|0,0:0|0:0,0:0:0:0:
291,249,163226,1,8,0:0:0:0:
464,75,163403,6,0,L|367:60,1,75.0000028610231,0|0,3:0|0:0,0:0:0:0:
307,27,163579,2,0,L|235:54,1,64.9999970245363,0|0,3:0|0:0,0:0:0:0:
147,63,163756,1,0,3:0:0:0:
147,63,163844,2,0,L|118:89,1,37.5000014305115,0|0,3:0|3:0,0:0:0:0:
147,63,163932,6,0,P|87:101|122:214,1,194.999991073609,0|0,3:0|0:0,0:0:0:0:
197,211,164285,2,0,P|249:161|226:94,1,150.000005722046,8|0,0:0|1:0,0:0:0:0:
9,323,164638,6,0,B|85:295|71:378|189:371,1,194.999991073609,8|0,0:0|0:0,0:0:0:0:
318,318,164991,2,0,B|347:301|355:276|355:276|391:318|444:316,1,150.000005722046,8|0,0:0|1:0,0:0:0:0:
450,314,165256,1,0,1:0:0:0:
464,310,165344,6,0,L|447:244,1,64.9999970245363,2|0,1:2|0:0,0:0:0:0:
490,179,165520,2,0,L|507:113,1,64.9999970245363,2|0,0:0|0:0,0:0:0:0:
484,27,165697,2,0,B|412:47|412:47|369:202,1,225.000008583069,2|0,0:0|0:0,0:0:0:0:
450,314,166050,5,10,3:2:0:0:
431,301,166138,1,2,3:2:0:0:
404,287,166226,5,2,3:2:0:0:
375,275,166315,1,2,3:2:0:0:
345,269,166403,5,2,3:2:0:0:
307,267,166491,1,2,3:2:0:0:
262,274,166579,5,2,3:2:0:0:
213,293,166667,1,2,3:2:0:0:
167,332,166756,6,0,L|334:317,1,162.499992561341,0|0,1:0|0:0,0:0:0:0:
307,267,167020,2,0,L|145:252,1,162.499992561341,0|0,1:0|0:0,0:0:0:0:
167,202,167285,2,0,L|247:194,1,64.9999970245363,0|0,1:0|0:0,0:0:0:0:
503,109,167462,6,0,B|491:143|463:160|463:160|512:230|488:321,1,225.000008583069,8|0,0:0|0:0,0:0:0:0:
398,290,167815,2,0,P|398:240|371:198,1,100,2|0,0:0|1:0,0:0:0:0:
363,193,168079,1,0,1:0:0:0:
353,189,168167,6,0,B|286:194|286:194|271:204|271:204|156:213,1,194.999991073609,0|0,0:0|0:0,0:0:0:0:
157,242,168520,2,0,P|101:204|112:141,1,129.999994049073,2|0,0:0|0:0,0:0:0:0:
363,193,168873,5,8,3:2:0:0:
153,78,169050,1,0,3:0:0:0:
303,105,169226,5,2,3:2:0:0:
162,64,169403,1,8,3:2:0:0:
353,189,169579,5,0,1:0:0:0:
106,148,169756,1,0,3:0:0:0:
243,213,169932,5,10,3:2:0:0:
99,166,170109,1,0,3:0:0:0:
383,241,170285,5,8,3:2:0:0:
73,277,170462,1,0,3:0:0:0:
446,292,170638,6,0,B|410:326|410:326|296:308,1,150.000005722046,8|0,3:2|1:0,0:0:0:0:
66,48,170991,6,0,P|174:23|267:89,1,225.000008583069,4|0,1:2|0:0,0:0:0:0:
272,182,171344,2,0,P|168:251|46:222,1,255.000004863739,2|0,0:0|0:0,0:0:0:0:
56,198,171697,6,0,B|76:177|76:177|-10:224|-10:224|209:312|209:312|259:289|259:289|313:311,1,474.999987316132,8|0,0:0|0:0,0:0:0:0:
407,275,172226,1,2,0:0:0:0:
427,306,172315,1,0,0:0:0:0:
347,336,172403,6,0,P|317:264|355:116,1,225.000008583069,0|0,1:0|0:0,0:0:0:0:
437,110,172756,2,0,P|488:201|432:336,1,255.000004863739,2|0,0:0|0:0,0:0:0:0:
224,312,173109,6,0,P|126:351|167:239,1,284.999992389679,8|0,0:0|0:0,0:0:0:0:
235,182,173462,2,0,P|290:150|314:228,1,170.000003242493,8|0,0:0|1:0,0:0:0:0:
322,321,173726,1,0,1:0:0:0:
322,321,173815,6,0,P|362:330|396:313,1,75.0000028610231,2|0,1:2|0:0,0:0:0:0:
488,239,173991,2,0,P|497:199|480:165,1,75.0000028610231,2|0,0:0|0:0,0:0:0:0:
406,73,174167,2,0,B|364:64|350:23|350:23|306:83|218:66,1,225.000008583069,2|0,0:0|0:0,0:0:0:0:
130,74,174520,5,8,3:2:0:0:
163,146,174638,5,0,3:0:0:0:
193,209,174756,5,0,3:0:0:0:
146,285,174873,5,0,3:0:0:0:
90,273,174991,5,0,3:0:0:0:
43,260,175109,5,0,3:0:0:0:
20,341,175226,6,0,P|129:308|202:337,1,194.999991073609,0|0,1:0|0:0,0:0:0:0:
241,256,175579,2,0,P|370:274|432:340,1,225.000008583069,2|0,0:0|0:0,0:0:0:0:
432,339,175932,6,0,B|399:321|399:321|441:209|441:209|407:191,1,194.999991073609,8|0,0:0|0:0,0:0:0:0:
201,184,176285,6,0,B|173:198|164:225|164:225|158:173|115:150,1,150,0|0,3:0|1:0,0:0:0:0:
87,154,176638,6,0,P|68:185|69:218,1,64.9999970245363,2|0,1:2|0:0,0:0:0:0:
170,36,176815,2,0,P|189:67|188:100,1,64.9999970245363,2|0,0:0|0:0,0:0:0:0:
269,274,176991,2,0,P|326:232|469:281,1,225.000008583069,2|0,0:0|0:0,0:0:0:0:
424,348,177344,1,8,0:0:0:0:
424,348,177520,6,0,B|384:349|384:349|380:343|380:343|338:338,1,75.0000028610231,0|0,3:0|0:0,0:0:0:0:
353,180,177697,2,0,B|324:176|324:176|320:171|320:171|281:171,1,75.0000028610231,2|0,3:2|0:0,0:0:0:0:
243,294,177873,2,0,B|214:291|214:291|210:286|210:286|171:286,1,75.0000028610231,0|0,3:0|0:0,0:0:0:0:
186,167,178050,6,0,P|139:130|117:26,1,162.499992561341,0|0,1:0|0:0,0:0:0:0:
71,92,178315,2,0,P|58:170|0:225,1,162.499992561341,0|0,1:0|0:0,0:0:0:0:
70,228,178579,2,0,P|100:213|133:221,1,64.9999970245363,0|0,1:0|0:0,0:0:0:0:
353,180,178756,6,0,P|443:173|384:94,1,225.000008583069,8|0,0:0|0:0,0:0:0:0:
303,36,179109,2,0,P|256:22|213:46,1,100,2|0,0:0|1:0,0:0:0:0:
208,55,179373,1,0,1:0:0:0:
207,68,179462,6,0,B|219:153|219:153|231:166|231:166|246:263,1,194.999991073609,0|0,1:0|0:0,0:0:0:0:
225,280,179815,2,0,B|330:289|330:289|290:311,1,129.999994049073,2|0,0:0|0:0,0:0:0:0:
140,215,180167,5,8,3:2:0:0:
383,170,180344,1,0,3:0:0:0:
231,167,180520,5,2,3:2:0:0:
382,186,180697,1,8,3:2:0:0:
147,49,180873,5,0,1:0:0:0:
418,87,181050,1,0,3:0:0:0:
264,88,181226,5,8,3:2:0:0:
422,71,181403,1,0,3:0:0:0:
153,135,181579,5,0,3:0:0:0:
153,135,181667,1,8,3:2:0:0:
153,135,181756,1,0,1:0:0:0:
358,258,181932,5,0,3:0:0:0:
318,0,182109,1,0,3:0:0:0:
274,319,182285,6,0,P|357:359|447:309,1,194.999991073609,4|0,1:2|0:0,0:0:0:0:
462,237,182638,2,0,P|386:163|275:175,1,225.000008583069,2|0,0:0|0:0,0:0:0:0:
96,188,182991,6,0,P|135:191|168:219,1,75.0000028610231,10|0,0:0|0:0,0:0:0:0:
248,298,183167,2,0,P|209:301|176:329,1,75.0000028610231,2|0,0:0|0:0,0:0:0:0:
92,209,183344,5,2,0:0:0:0:
252,277,183520,1,10,0:0:0:0:
8,155,183697,6,0,P|110:152|184:96,1,194.999991073609,0|0,0:0|0:0,0:0:0:0:
213,74,184050,1,2,0:0:0:0:
213,74,184226,2,0,P|241:99|266:108,1,64.9999970245363,0|0,1:0|0:0,0:0:0:0:
394,123,184403,6,0,P|285:116|211:72,1,194.999991073609,8|0,0:0|0:0,0:0:0:0:
190,198,184756,2,0,B|230:229|230:229|202:269,1,100,2|0,0:0|3:0,0:0:0:0:
270,229,185021,1,0,1:0:0:0:
285,224,185109,6,0,P|223:225|92:209,1,194.999991073609,0|0,1:0|0:0,0:0:0:0:
212,73,185462,2,0,P|278:19|276:119,1,225.000008583069,2|0,0:0|0:0,0:0:0:0:
119,109,185815,1,8,0:0:0:0:
407,34,185991,6,0,L|434:103,1,75.0000028610231,0|0,3:0|0:0,0:0:0:0:
485,183,186167,2,0,L|473:256,1,64.9999970245363,2|0,3:2|0:0,0:0:0:0:
478,351,186344,1,0,3:0:0:0:
478,351,186432,2,0,L|458:383,1,37.5000014305115,0|0,3:0|3:0,0:0:0:0:
478,351,186520,6,0,P|398:300|303:325,1,194.999991073609,0|0,1:0|0:0,0:0:0:0:
228,355,186873,2,0,P|165:370|94:324,1,150.000005722046,8|0,0:0|1:0,0:0:0:0:
56,58,187226,6,0,B|149:58|116:148|217:151,1,194.999991073609,8|0,0:0|0:0,0:0:0:0:
349,113,187579,2,0,B|399:118|453:74|453:74|441:86|434:104,1,150.000005722046,8|0,0:0|1:0,0:0:0:0:
507,129,187844,1,0,1:0:0:0:
512,141,187932,6,0,P|525:178|517:222,1,64.9999970245363,2|0,1:2|0:0,0:0:0:0:
406,285,188109,2,0,P|395:254|373:230,1,64.9999970245363,2|0,0:0|0:0,0:0:0:0:
154,217,188285,2,0,P|253:270|325:358,1,225.000008583069,2|0,0:0|0:0,0:0:0:0:
445,359,188638,5,10,1:2:0:0:
484,313,188726,1,2,3:2:0:0:
503,264,188814,5,2,3:2:0:0:
510,219,188902,1,2,3:2:0:0:
508,181,188991,5,2,3:2:0:0:
502,151,189078,1,2,3:2:0:0:
490,122,189167,5,2,3:2:0:0:
476,95,189255,1,2,3:2:0:0:
461,77,189344,6,0,L|296:53,1,162.499992561341,0|0,1:0|0:0,0:0:0:0:
272,90,189609,2,0,L|296:255,1,162.499992561341,0|0,1:0|0:0,0:0:0:0:
339,266,189873,2,0,L|400:237,1,64.9999970245363,0|0,1:0|0:0,0:0:0:0:
488,46,190050,6,0,B|459:13|459:13|416:36|416:36|265:13,1,225.000008583069,8|0,0:0|0:0,0:0:0:0:
239,86,190403,2,0,P|198:113|127:99,1,100,2|0,0:0|1:0,0:0:0:0:
135,104,190667,1,0,1:0:0:0:
123,93,190756,6,0,B|101:160|101:160|112:178|112:178|85:279,1,194.999991073609,0|0,1:0|0:0,0:0:0:0:
64,301,191109,2,0,B|44:321|44:321|98:301|157:338,1,129.999994049073,2|0,0:0|0:0,0:0:0:0:
427,232,191462,5,8,3:2:0:0:
182,259,191638,1,0,3:0:0:0:
337,304,191815,5,2,3:2:0:0:
184,274,191991,1,8,3:2:0:0:
440,323,192167,5,0,1:0:0:0:
497,95,192343,1,0,3:0:0:0:
409,224,192520,5,10,3:2:0:0:
512,101,192696,1,0,3:0:0:0:
347,340,192873,5,8,3:2:0:0:
388,31,193049,1,0,3:0:0:0:
480,350,193226,6,0,B|458:325|458:325|423:347|423:347|343:340,1,150.000005722046,8|0,3:2|1:0,0:0:0:0:
93,120,193579,6,0,B|168:44|168:44|279:83,1,225.000008583069,4|0,1:2|0:0,0:0:0:0:
423,214,193932,2,0,B|394:233|374:266|374:266|312:250|308:184|308:184|344:172|367:144,1,255.000004863739,2|0,0:0|0:0,0:0:0:0:
471,311,194285,6,0,B|228:342|354:96|154:127|154:127|144:114|144:114|88:119,1,474.999987316132,8|0,0:0|0:0,0:0:0:0:
109,203,194815,1,2,0:0:0:0:
100,239,194903,1,2,0:0:0:0:
29,286,194991,6,0,B|128:252|124:366|239:330,1,225.000008583069,0|0,1:0|0:0,0:0:0:0:
319,264,195344,2,0,P|378:201|308:61,1,255.000004863739,2|0,0:0|0:0,0:0:0:0:
142,116,195697,6,0,P|60:142|121:37,1,284.999992389679,8|0,0:0|0:0,0:0:0:0:
228,145,196050,2,0,B|241:223|241:223|227:234|227:234|240:305,1,170.000003242493,8|0,0:0|1:0,0:0:0:0:
332,350,196315,1,0,1:0:0:0:
332,350,196403,6,0,P|292:356|257:334,1,75.0000028610231,2|0,1:2|0:0,0:0:0:0:
121,305,196579,2,0,P|98:271|103:230,1,75.0000028610231,2|0,0:0|0:0,0:0:0:0:
88,88,196756,2,0,B|123:64|129:30|129:30|200:70|284:43,1,225.000008583069,2|0,0:0|0:0,0:0:0:0:
494,121,197109,5,8,3:2:0:0:
410,121,197226,2,0,B|340:122|340:122|370:94|375:59|375:59|469:58|469:58|405:228|405:228|411:249|411:249|388:319,1,509.999984436036,0|0,3:2|0:0,0:0:0:0:
445,365,197815,6,0,P|357:325|262:339,1,194.999991073609,0|0,1:0|0:0,1:1:0:0:
212,269,198167,2,0,P|119:268|15:352,1,225.000008583069,2|0,0:0|0:0,0:0:0:0:
18,346,198520,6,0,P|-11:285|43:180,1,194.999991073609,8|0,0:0|0:0,0:0:0:0:
102,91,198873,5,8,0:0:0:0:
146,80,198962,1,0,3:0:0:0:
219,136,199050,5,0,1:0:0:0:
263,145,199138,1,0,3:0:0:0:
336,201,199226,6,0,P|353:231|352:265,1,64.9999970245363,2|0,1:2|0:0,0:0:0:0:
448,317,199403,2,0,P|465:287|464:253,1,64.9999970245363,2|0,0:0|0:0,0:0:0:0:
406,132,199579,2,0,B|319:116|319:116|283:134|283:134|181:116,1,225.000008583069,2|0,0:0|0:0,0:0:0:0:
101,83,199932,5,8,3:2:0:0:
131,61,200020,1,0,3:0:0:0:
175,39,200108,5,0,3:0:0:0:
223,19,200197,1,0,3:0:0:0:
272,9,200285,5,2,3:2:0:0:
333,6,200373,1,0,3:0:0:0:
407,17,200461,5,8,3:2:0:0:
487,48,200549,1,0,3:0:0:0:
428,140,200638,6,0,P|412:219|439:294,1,162.499992561341,0|0,1:0|0:0,0:0:0:0:
356,339,200903,2,0,P|280:312|201:327,1,162.499992561341,0|0,1:0|0:0,0:0:0:0:
126,270,201167,2,0,P|141:241|139:209,1,64.9999970245363,0|0,1:0|0:0,0:0:0:0:
48,78,201344,6,0,B|3:151|3:151|29:292,1,225.000008583069,8|0,0:0|0:0,0:0:0:0:
42,296,201697,2,0,B|50:195|50:195|148:121,1,225.000008583069,2|0,0:0|0:0,0:0:0:0:
295,142,202050,6,0,P|239:186|219:303,1,194.999991073609,0|0,1:0|0:0,0:0:0:0:
234,324,202403,2,0,P|269:245|369:215,1,194.999991073609,2|0,0:0|0:0,0:0:0:0:
468,227,202756,6,0,P|410:246|360:334,1,165.000005035401,8|0,0:0|0:0,0:0:0:0:
360,359,203109,2,0,P|410:307|497:312,1,165.000005035401,2|0,0:0|0:0,0:0:0:0:
323,344,203462,6,0,P|277:362|200:333,1,134.999995880127,0|0,1:0|0:0,0:0:0:0:
190,312,203815,2,0,P|248:317|300:269,1,134.999995880127,2|0,0:0|0:0,0:0:0:0:
333,182,204167,5,0,3:0:0:0:
339,141,204256,1,2,0:0:0:0:
303,88,204344,5,0,3:0:0:0:
282,58,204433,1,2,0:0:0:0:
224,46,204520,5,0,3:0:0:0:
192,40,204609,1,2,0:0:0:0:
150,69,204697,5,0,3:0:0:0:
125,86,204786,1,2,0:0:0:0:
107,128,204873,6,0,B|113:195|113:195|97:222|97:222|105:305,1,179.999994506836,4|0,1:2|3:0,0:0:0:0:
246,281,205403,2,0,L|340:265,1,89.9999972534181,0|8,3:0|0:0,0:0:0:0:
140,298,205756,1,0,3:0:0:0:
211,194,205932,2,0,B|231:153|231:153|209:111,1,89.9999972534181,0|0,3:0|0:0,0:0:0:0:
35,80,206285,5,0,1:0:0:0:
0,176,206462,1,0,3:0:0:0:
90,168,206638,5,0,3:0:0:0:
100,261,206815,1,2,0:0:0:0:
100,261,206903,1,2,0:0:0:0:
100,261,206991,1,8,3:2:0:0:
178,228,207167,5,0,3:0:0:0:
215,307,207344,1,0,3:0:0:0:
178,228,207520,1,0,3:0:0:0:
215,307,207697,6,0,P|281:335|376:263,1,200,0|2,1:0|0:0,0:0:0:0:
363,168,208226,1,0,0:0:0:0:
375,264,208403,6,0,B|250:307|271:184|146:227,1,239.999992675781,8|2,1:2|0:0,0:0:0:0:
63,262,208932,1,0,0:0:0:0:
151,226,209109,6,0,P|191:141|131:61,1,200,0|8,1:0|0:0,0:0:0:0:
93,148,209638,1,2,0:0:0:0:
134,62,209815,6,0,B|257:19|236:140|359:97,1,239.999992675781,8|2,1:2|0:0,0:0:0:0:
391,84,210256,2,0,L|404:76,4,14.9999995422363,2|0|0|0|0,0:0|0:0|0:0|0:0|0:0,0:0:0:0:
361,268,210520,6,0,L|268:254,1,89.9999972534181,8|2,1:2|0:0,0:0:0:0:
451,287,210873,1,0,3:0:0:0:
275,336,211050,2,0,B|254:295|254:295|271:254,1,89.9999972534181,0|8,3:0|0:0,0:0:0:0:
444,303,211403,1,0,3:0:0:0:
355,178,211579,5,0,3:0:0:0:
469,146,211756,1,0,3:0:0:0:
271,143,211932,5,0,1:0:0:0:
347,87,212109,1,0,1:0:0:0:
177,129,212285,5,0,3:0:0:0:
218,66,212462,1,2,0:0:0:0:
218,66,212550,1,2,0:0:0:0:
218,66,212638,1,8,0:0:0:0:
119,236,212815,5,0,3:0:0:0:
59,114,212991,1,0,1:0:0:0:
232,279,213167,5,0,3:0:0:0:
141,218,213343,1,0,1:0:0:0:
348,258,213520,5,0,3:0:0:0:
238,250,213697,1,0,0:0:0:0:
417,195,213873,5,0,3:0:0:0:
337,233,214050,2,0,P|283:165|327:67,1,200,8|0,1:2|3:0,0:0:0:0:
420,100,214579,1,0,3:0:0:0:
323,69,214756,6,0,B|201:27|222:148|99:105,1,239.999992675781,0|0,1:0|0:0,0:0:0:0:
142,13,215285,1,0,1:0:0:0:
49,200,215462,6,0,B|32:287|32:287|69:314,1,134.999995880127,8|0,3:2|0:0,0:0:0:0:
150,308,215815,2,0,L|183:298,1,22.4999993133545,2|0,3:2|0:0,0:0:0:0:
281,239,215991,2,0,L|302:245,1,22.4999993133545,2|0,3:2|0:0,0:0:0:0:
422,322,216167,6,0,B|498:319|513:233|513:233|505:256|489:271,1,179.999994506836,0|0,3:0|3:0,0:0:0:0:
332,361,216697,1,0,3:0:0:0:
332,361,216873,2,0,B|268:348|268:348|243:358,1,89.9999972534181,10|0,0:0|3:0,0:0:0:0:
343,202,217226,2,0,B|407:215|407:215|432:205,1,89.9999972534181,2|0,3:2|3:0,0:0:0:0:
185,221,217579,6,0,P|126:159|150:76,1,179.999994506836,2|0,1:2|0:0,0:0:0:0:
271,40,218109,2,0,P|292:36|325:26,2,44.999998626709,2|0|8,0:0|0:0|3:2,0:0:0:0:
211,137,218462,2,0,L|304:151,1,89.9999972534181,2|0,3:2|3:0,0:0:0:0:
395,102,218815,1,0,3:0:0:0:
268,261,218991,6,0,B|339:254|339:254|390:282|390:282|462:276,1,200,2|2,1:2|0:0,0:0:0:0:
416,369,219520,1,0,0:0:0:0:
460,276,219697,6,0,P|472:159|379:75,1,239.999992675781,8|2,1:2|0:0,0:0:0:0:
336,166,220226,1,2,3:2:0:0:
390,78,220403,6,0,B|318:70|318:70|267:97|267:97|195:89,1,200,0|2,1:0|0:0,0:0:0:0:
129,12,220932,1,0,3:0:0:0:
197,89,221109,6,0,B|236:205|114:198|166:314,1,239.999992675781,0|2,1:0|0:0,0:0:0:0:
79,362,221638,1,2,0:0:0:0:
243,263,221815,6,0,B|287:250|287:250|328:268,1,89.9999972534181,0|0,3:0|0:0,0:0:0:0:
415,313,222167,1,0,3:0:0:0:
333,166,222344,2,0,B|374:184|374:184|418:171,1,89.9999972534181,0|0,3:0|0:0,0:0:0:0:
511,140,222696,1,0,3:0:0:0:
278,77,222873,5,0,3:0:0:0:
197,185,223050,1,0,3:0:0:0:
143,110,223226,5,0,3:0:0:0:
111,213,223403,1,0,3:0:0:0:
26,172,223579,5,0,3:0:0:0:
35,270,223756,1,0,3:0:0:0:
35,270,223844,1,0,3:0:0:0:
35,270,223932,1,0,3:0:0:0:
178,269,224109,5,2,3:2:0:0:
306,341,224285,1,2,1:2:0:0:
419,292,224462,5,2,3:2:0:0:
304,314,224638,1,0,1:0:0:0:
397,270,224815,5,0,3:0:0:0:
456,197,224991,1,0,3:0:0:0:
425,106,225167,5,0,3:0:0:0:
428,190,225344,2,0,B|331:222|337:121|241:160,1,200,0|0,1:0|3:0,0:0:0:0:
198,252,225873,1,0,3:0:0:0:
241,159,226050,6,0,B|123:119|130:242|13:195,1,239.999992675781,0|2,1:0|0:0,0:0:0:0:
60,107,226579,1,0,0:0:0:0:
113,300,226756,6,0,P|103:328|89:342,3,50,0|2|2|2,3:0|0:0|3:2|0:0,0:0:0:0:
198,252,227109,2,0,P|210:278|210:298,3,50,0|2|2|2,3:0|0:0|3:2|0:0,0:0:0:0:
328,345,227462,6,0,B|375:364|375:364|442:346,2,120,4|2|2,1:2|0:0|0:0,0:0:0:0:
237,245,228167,2,0,L|262:81,1,160,8|0,0:0|0:0,0:0:0:0:
261,86,228697,1,0,3:0:0:0:
219,254,228873,6,0,P|161:269|90:275,2,120,0|2|2,1:0|0:0|3:2,0:0:0:0:
295,202,229491,1,0,3:0:0:0:
309,196,229579,2,0,P|367:181|438:175,2,120,8|2|2,1:2|0:0|0:0,0:0:0:0:
101,273,230285,2,0,B|61:321|61:321|43:293|15:288,1,120,0|2,1:0|0:0,0:0:0:0:
100,110,230815,1,2,0:0:0:0:
15,95,230991,2,0,B|43:91|61:63|61:63|101:111,1,120,8|2,0:0|0:0,0:0:0:0:
48,192,231520,1,0,3:0:0:0:
48,192,231697,6,0,L|127:200,1,80,0|0,1:0|0:0,0:0:0:0:
175,60,232050,2,0,L|202:135,1,80,2|0,0:0|0:0,0:0:0:0:
464,192,232403,1,8,0:0:0:0:
384,200,232579,1,0,0:0:0:0:
309,135,232756,1,2,0:0:0:0:
313,122,232844,1,0,3:0:0:0:
318,109,232932,1,0,3:0:0:0:
323,97,233020,1,0,3:0:0:0:
337,60,233109,6,0,L|460:47,2,120,0|2|2,1:0|0:0|0:0,0:0:0:0:
227,174,233815,2,0,B|328:186|328:186|337:193|337:193|384:199,1,160,8|0,0:0|0:0,0:0:0:0:
294,278,234344,1,0,0:0:0:0:
227,174,234520,5,0,1:0:0:0:
136,304,234697,2,0,L|56:294,1,80,0|0,1:0|0:0,0:0:0:0:
307,329,235050,1,0,3:0:0:0:
307,329,235138,1,0,3:0:0:0:
307,329,235226,2,0,L|227:338,1,80,8|0,0:0|0:0,0:0:0:0:
56,294,235579,5,0,1:0:0:0:
198,355,235756,1,0,0:0:0:0:
176,234,235932,6,0,P|159:178|193:131,1,120,0|2,1:0|0:0,0:0:0:0:
306,328,236462,1,2,0:0:0:0:
306,328,236638,2,0,P|340:281|323:226,1,120,8|2,0:0|0:0,0:0:0:0:
176,234,237167,1,2,0:0:0:0:
176,234,237344,5,2,1:2:0:0:
153,106,237520,1,2,0:0:0:0:
282,45,237697,5,10,0:0:0:0:
261,166,237873,1,2,0:0:0:0:
66,261,238050,5,10,1:2:0:0:
176,234,238227,1,2,0:0:0:0:
302,286,238403,6,0,L|360:272,1,40,10|2,0:0|0:0,0:0:0:0:
444,250,238579,2,0,L|405:259,1,40,2|2,0:0|0:0,0:0:0:0:
302,302,238756,6,0,B|229:281|234:351|161:331,1,150,4|2,1:2|0:0,0:0:0:0:
15,149,239285,2,0,P|14:109|37:77,1,80,2|8,0:0|0:0,0:0:0:0:
208,209,239638,5,0,0:0:0:0:
106,171,239815,1,0,0:0:0:0:
260,117,239991,1,0,3:0:0:0:
204,200,240167,5,0,1:0:0:0:
334,201,240343,1,0,0:0:0:0:
269,274,240520,5,0,0:0:0:0:
366,310,240697,1,2,3:2:0:0:
366,310,240786,1,0,3:0:0:0:
366,310,240874,5,8,0:0:0:0:
443,227,241050,1,0,0:0:0:0:
304,92,241226,5,0,0:0:0:0:
204,200,241402,1,2,0:0:0:0:
284,341,241579,6,0,P|343:349|417:359,1,134.999995880127,0|2,1:0|0:0,0:0:0:0:
204,200,242109,1,2,0:0:0:0:
204,200,242285,6,0,P|272:190|358:179,1,150,8|2,0:0|0:0,0:0:0:0:
140,327,242815,1,0,3:0:0:0:
140,327,242991,5,0,1:0:0:0:
55,223,243167,1,0,0:0:0:0:
55,223,243256,1,0,0:0:0:0:
55,223,243344,1,2,0:0:0:0:
221,121,243520,6,0,L|202:208,1,80,0|8,0:0|0:0,0:0:0:0:
301,360,243873,2,0,L|283:281,1,80,0|2,0:0|0:0,0:0:0:0:
327,181,244226,1,0,3:0:0:0:
283,281,244403,6,0,B|185:265|201:353|97:329,1,200,0|2,1:0|0:0,0:0:0:0:
97,330,245109,6,0,B|117:213|11:231|42:107,1,239.999992675781,8|2,0:0|0:0,0:0:0:0:
42,106,245815,6,0,B|135:72|136:161|233:118,1,200,0|2,1:0|0:0,0:0:0:0:
233,118,246520,6,0,B|186:133|186:133|89:95|89:95|42:106,1,200,8|0,0:0|1:0,0:0:0:0:
98,328,247226,6,0,B|118:211|12:229|43:105,1,239.999992675781,0|0,1:0|1:0,0:0:0:0:
140,146,247756,1,0,0:0:0:0:
43,105,247932,6,0,B|166:74|148:179|265:159,1,239.999992675781,0|0,1:0|1:0,0:0:0:0:
237,60,248462,1,0,0:0:0:0:
188,250,248638,5,0,1:0:0:0:
273,274,248815,1,0,1:0:0:0:
324,74,248991,1,8,0:0:0:0:
237,60,249167,1,0,1:0:0:0:
363,275,249344,5,8,0:0:0:0:
401,120,249520,1,0,1:0:0:0:
453,276,249697,5,8,0:0:0:0:
478,166,249873,1,0,1:0:0:0:
409,355,250050,5,4,1:2:0:0:
230,122,255344,6,0,P|269:127|306:114,1,80,2|2,0:0|0:0,0:0:0:0:
431,36,255697,1,2,1:2:0:0:
446,333,256226,6,0,B|405:345|405:345|375:323,1,80,2|0,1:2|0:0,0:0:0:0:
158,200,256579,2,0,B|199:188|199:188|229:210,1,80,2|0,0:0|0:0,0:0:0:0:
300,268,256932,1,2,0:0:0:0:
182,287,257109,6,0,L|63:304,2,120,2|2|2,1:2|0:0|1:2,0:0:0:0:
350,156,257815,2,0,L|482:175,2,120,2|2|2,0:0|0:0|0:0,0:0:0:0:
126,63,258520,6,0,P|146:102|153:144,1,80,2|0,1:2|0:0,0:0:0:0:
147,247,258873,2,0,P|138:286|120:321,1,80,10|0,0:0|0:0,0:0:0:0:
31,321,259226,2,0,P|12:285|11:203,1,120,2|2,1:2|0:0,0:0:0:0:
2,135,259579,2,0,P|10:95|28:60,1,80,8|2,0:0|0:0,0:0:0:0:
230,61,259932,6,0,P|264:78|314:78,1,80,2|0,1:2|0:0,0:0:0:0:
413,38,260285,1,8,0:0:0:0:
255,163,260462,1,0,1:0:0:0:
465,147,260638,2,0,L|397:132,1,40,0|0,1:0|1:0,0:0:0:0:
256,250,260815,2,0,L|188:235,1,40,0|0,1:0|1:0,0:0:0:0:
106,70,260991,6,0,L|13:50,1,89.9999972534181,8|0,3:2|0:0,0:0:0:0:
133,75,261344,6,0,P|231:54|344:31,1,200,4|8,1:2|0:0,0:0:0:0:
411,90,261873,1,2,1:2:0:0:
311,146,262050,2,0,P|268:209|319:320,1,200,2|8,0:0|0:0,0:0:0:0:
409,334,262579,1,2,3:2:0:0:
433,329,262667,1,2,3:2:0:0:
457,324,262756,6,0,P|471:253|475:165,1,150,2|2,1:2|0:0,0:0:0:0:
475,175,263109,1,8,0:0:0:0:
384,217,263285,1,2,1:2:0:0:
311,146,263462,2,0,P|271:126|199:140,1,100,2|0,0:0|0:0,0:0:0:0:
227,303,263815,1,10,0:0:0:0:
252,214,263991,1,2,0:0:0:0:
145,187,264167,6,0,P|48:206|-6:286,1,200,2|8,1:2|0:0,0:0:0:0:
67,354,264697,2,0,L|178:370,1,100,2|0,1:2|0:0,0:0:0:0:
246,308,265050,2,0,L|357:324,1,100,2|0,0:0|0:0,0:0:0:0:
344,322,265403,1,2,1:2:0:0:
162,293,265579,5,2,3:2:0:0:
312,232,265756,1,0,3:0:0:0:
169,194,265932,5,8,3:2:0:0:
238,117,266109,2,0,P|183:105|124:97,1,100,0|0,1:0|0:0,0:0:0:0:
133,289,266462,1,0,1:0:0:0:
133,289,266550,1,0,1:0:0:0:
133,289,266638,2,0,P|182:281|231:270,1,100,10|2,0:0|0:0,0:0:0:0:
489,247,266991,6,0,P|437:266|313:198,1,200,2|8,1:2|0:0,0:0:0:0:
332,105,267520,2,0,P|372:84|451:93,1,100,2|0,1:2|0:0,0:0:0:0:
397,169,267873,1,2,0:0:0:0:
354,0,268050,1,10,0:0:0:0:
397,169,268226,1,2,0:0:0:0:
255,45,268403,5,2,1:2:0:0:
192,122,268579,2,0,P|142:135|84:116,1,100,2|8,0:0|0:0,0:0:0:0:
213,242,268932,2,0,P|300:219|401:252,1,200,2|2,1:2|0:0,0:0:0:0:
353,341,269462,1,10,0:0:0:0:
253,332,269638,1,2,0:0:0:0:
440,330,269815,6,0,P|454:246|435:118,1,200,2|8,1:2|0:0,0:0:0:0:
212,241,270344,1,2,3:2:0:0:
212,142,270520,2,0,P|204:191|211:240,1,100,0|2,1:0|0:0,0:0:0:0:
352,340,270873,2,0,P|360:301|380:266,1,80,10|2,0:0|0:0,0:0:0:0:
440,330,271226,5,2,1:2:0:0:
211,339,271403,2,0,P|218:289|211:240,1,100,0|0,3:0|0:0,0:0:0:0:
112,120,271756,1,0,1:0:0:0:
136,291,271932,1,0,1:0:0:0:
101,287,272020,1,0,1:0:0:0:
65,283,272109,1,0,1:0:0:0:
30,279,272197,1,0,1:0:0:0:
22,249,272285,5,10,0:0:0:0:
113,206,272462,1,2,0:0:0:0:
18,107,272638,6,0,B|182:34|231:164|279:295|444:222,2,479.999985351563,4|2|0,1:2|0:0|0:0,0:0:0:0:
18,107,276520,1,2,0:0:0:0:
18,107,276696,1,2,0:0:0:0:
18,107,277756,5,2,0:0:0:0:
92,176,277932,1,2,3:2:0:0:
194,169,278109,1,2,3:2:0:0:
254,87,278285,2,0,P|303:47|466:94,1,239.999992675781,2|0,0:0|0:0,0:0:0:0:
403,282,279344,2,0,L|329:271,1,59.9999981689454,2|2,0:0|0:0,0:0:0:0:
389,181,279697,5,0,0:0:0:0:
389,181,280403,2,0,L|318:187,1,59.9999981689454,2|2,0:0|0:0,0:0:0:0:
254,87,280756,2,0,L|313:81,1,59.9999981689454,2|2,0:0|0:0,0:0:0:0:
389,181,281109,6,0,L|103:209,1,275,0|0,3:0|3:0,0:0:0:0:
84,175,282167,6,0,L|91:111,3,50,0|0|0|0,3:0|3:0|3:0|3:0,0:0:0:0:
206,278,282520,6,0,L|212:334,2,53.3333333333333,0|0|0,3:0|3:0|3:0,0:0:0:0:
270,152,282873,6,0,L|276:95,2,53.3333333333333,0|0|0,3:0|3:0|3:0,0:0:0:0:
396,250,283226,6,0,L|389:181,1,69.9999978637696,8|0,3:2|0:0,0:0:0:0:
131,313,283579,5,2,0:0:0:0:
289,298,283756,1,2,0:0:0:0:
35,261,283932,6,0,P|5:206|69:92,1,194.999991073609,4|0,1:2|0:0,0:0:0:0:
138,71,284285,2,0,B|248:38|233:150|345:118,1,225.000008583069,2|0,0:0|0:0,0:0:0:0:
417,69,284638,6,0,P|449:48|502:56,1,75.0000028610231,10|0,0:0|0:0,0:0:0:0:
440,194,284815,2,0,P|476:185|512:198,1,75.0000028610231,2|0,0:0|0:0,0:0:0:0:
407,82,284991,5,2,0:0:0:0:
432,208,285167,1,0,0:0:0:0:
309,52,285344,6,0,B|286:13|230:-1|189:27|174:59|174:59|144:75|81:84|0:58|20:0|90:9,1,379.999989852906,0|2,1:0|0:0,0:0:0:0:
243,93,285873,1,2,0:0:0:0:
50,262,286050,6,0,P|97:294|228:271,1,194.999991073609,8|0,0:0|0:0,0:0:0:0:
247,247,286403,1,2,0:0:0:0:
247,247,286579,2,0,B|273:229|273:229|307:237,1,64.9999970245363,0|0,1:0|1:0,0:0:0:0:
417,157,286756,6,0,P|353:157|228:73,1,194.999991073609,0|0,1:0|0:0,0:0:0:0:
28,67,287109,2,0,B|87:35|164:86|164:86|167:44|207:21,1,225.000008583069,2|0,0:0|0:0,0:0:0:0:
333,73,287462,6,0,P|290:97|242:91,2,100.000003814697,8|0|0,3:2|3:0|3:0,0:0:0:0:
413,165,287815,6,0,P|364:158|321:182,2,100.000003814697,0|0|0,3:0|3:0|3:0,0:0:0:0:
484,211,288167,5,0,1:0:0:0:
392,246,288285,5,0,3:0:0:0:
302,257,288403,5,0,3:0:0:0:
307,349,288520,5,0,3:0:0:0:
240,322,288638,5,0,3:0:0:0:
189,288,288756,5,0,3:0:0:0:
107,327,288873,6,0,P|67:323|36:299,2,79.9999975585938,0|0|0,3:0|3:0|3:0,0:0:0:0:
302,257,289226,5,0,3:0:0:0:
302,257,289344,5,0,3:0:0:0:
302,257,289462,5,0,3:0:0:0:
302,257,289579,6,0,L|283:176,1,64.9999970245363,2|0,1:2|0:0,0:0:0:0:
224,136,289756,2,0,L|243:55,1,64.9999970245363,2|0,0:0|0:0,0:0:0:0:
332,0,289932,6,0,B|385:19|385:19|424:198,1,225.000008583069,2|0,0:0|0:0,0:0:0:0:
302,257,290285,6,0,P|222:218|105:214,1,194.999991073609,8|0,0:0|0:0,0:0:0:0:
42,262,290638,6,0,B|83:218|83:218|25:203,1,120,2|0,0:0|0:0,0:0:0:0:
101,337,290991,6,0,L|266:354,1,162.499992561341,0|0,1:0|0:0,0:0:0:0:
334,285,291256,2,0,L|172:301,1,162.499992561341,0|0,1:0|0:0,0:0:0:0:
122,243,291520,2,0,L|202:251,1,64.9999970245363,0|0,1:0|0:0,0:0:0:0:
406,341,291697,6,0,B|430:280|430:280|391:204|391:204|419:122,1,225.000008583069,8|0,0:0|0:0,0:0:0:0:
468,27,292050,2,0,P|424:50|367:45,1,100,2|0,0:0|1:0,0:0:0:0:
365,43,292315,1,0,1:0:0:0:
356,37,292403,6,0,B|272:-2|263:94|172:53,1,194.999991073609,0|0,1:0|0:0,0:0:0:0:
164,26,292756,2,0,B|110:4|110:4|47:42,1,129.999994049073,2|0,0:0|0:0,0:0:0:0:
146,322,293109,5,8,3:2:0:0:
119,103,293285,1,0,3:0:0:0:
166,228,293462,5,2,3:2:0:0:
105,107,293638,1,8,3:2:0:0:
315,204,293815,5,0,1:0:0:0:
73,255,293991,1,0,3:0:0:0:
235,175,294167,5,8,3:2:0:0:
82,268,294344,1,0,3:0:0:0:
164,26,294520,5,8,3:2:0:0:
232,314,294697,1,0,3:0:0:0:
159,111,294873,5,0,3:0:0:0:
236,228,295050,1,0,3:0:0:0:
44,60,295226,6,0,P|-10:128|9:264,1,225.000008583069,4|0,1:2|0:0,0:0:0:0:
93,321,295579,2,0,P|173:229|141:111,1,255.000004863739,2|0,0:0|0:0,0:0:0:0:
7,43,295932,6,0,B|-6:88|-6:88|71:78|71:78|86:32|86:32|155:22|155:22|192:56|192:56|283:42,1,379.999989852906,8|0,3:2|0:0,0:0:0:0:
399,132,296373,2,0,B|405:154|405:154|366:149|366:149|359:126|359:126|325:121|325:121|306:138|306:138|262:131,1,189.999994926453,0|0,3:0|0:0,0:0:0:0:
140,110,296638,6,0,P|198:174|220:307,1,225.000008583069,0|0,1:0|0:0,0:0:0:0:
307,355,296991,2,0,P|320:229|398:131,1,255.000004863739,2|0,0:0|0:0,0:0:0:0:
316,6,297344,6,0,P|226:66|334:68,1,284.999992389679,8|0,0:0|0:0,0:0:0:0:
472,127,297697,2,0,P|526:163|460:165,1,170.000003242493,2|0,0:0|1:0,0:0:0:0:
395,234,297962,1,0,1:0:0:0:
395,234,298050,6,0,P|320:284|21:148,1,454.999979171754,0|0,1:0|0:0,0:0:0:0:
67,60,298756,6,0,L|80:26,1,32.4999985122681,8|0,3:2|0:0,0:0:0:0:
111,49,298844,2,0,L|129:17,1,32.4999985122681,0|0,3:0|0:0,0:0:0:0:
158,45,298932,2,0,L|181:17,1,32.4999985122681,0|0,3:0|0:0,0:0:0:0:
204,50,299020,2,0,L|232:27,1,32.4999985122681,0|0,3:0|0:0,0:0:0:0:
249,62,299109,2,0,L|280:44,1,32.4999985122681,0|0,3:0|0:0,0:0:0:0:
290,82,299197,2,0,L|324:70,1,32.4999985122681,0|0,3:0|0:0,0:0:0:0:
328,109,299285,2,0,L|363:103,1,32.4999985122681,0|0,3:0|0:0,0:0:0:0:
361,141,299373,2,0,L|397:141,1,32.4999985122681,0|0,3:0|0:0,0:0:0:0:
435,221,299462,6,0,B|367:245|367:245|323:218|323:218|255:243,1,194.999991073609,0|0,1:0|0:0,0:0:0:0:
174,284,299815,2,0,P|110:366|16:321,1,225.000008583069,2|0,0:0|0:0,0:0:0:0:
116,214,300167,2,0,P|198:174|255:246,1,194.999991073609,8|0,0:0|0:0,0:0:0:0:
314,317,300520,6,0,B|323:350|323:350|400:365|400:365|422:338,1,150,0|0,3:0|1:0,0:0:0:0:
448,315,300873,6,0,P|457:292|440:246,1,64.9999970245363,2|0,1:2|0:0,0:0:0:0:
363,171,301050,2,0,P|367:146|343:104,1,64.9999970245363,2|0,0:0|0:0,0:0:0:0:
160,41,301226,6,0,B|182:83|235:83|235:83|214:153|253:211,1,225.000008583069,2|0,0:0|0:0,0:0:0:0:
448,315,301579,6,0,B|452:304|452:304|464:298|464:298|462:283|462:283|471:273|471:273|462:260|462:260|469:247|469:247|457:241|457:241|456:225|456:225|441:222|441:222|434:208|434:208|420:212|420:212|408:205|408:205|396:212|396:212|384:210|384:210|378:221|378:221|364:224|364:224|361:239|361:239|350:246|350:246|321:307|246:310|246:310|220:311|220:311|187:293|187:293|178:311|178:311|88:314,1,525.000020027161,8|0,0:0|0:0,0:0:0:0:
0,273,302285,6,0,P|62:218|88:138,1,162.499992561341,0|0,1:0|0:0,0:0:0:0:
91,71,302550,2,0,P|146:133|226:159,1,162.499992561341,0|0,1:0|0:0,0:0:0:0:
293,162,302815,2,0,P|262:189|249:229,1,64.9999970245363,0|0,1:0|0:0,0:0:0:0:
98,335,302991,6,0,B|148:345|176:307|176:307|235:282|308:314,1,225.000008583069,8|0,0:0|0:0,0:0:0:0:
406,269,303344,2,0,P|433:237|412:173,1,100,2|0,0:0|1:0,0:0:0:0:
416,175,303609,1,0,1:0:0:0:
407,169,303697,6,0,P|365:113|414:3,1,194.999991073609,0|0,1:0|0:0,0:0:0:0:
437,20,304050,2,0,P|484:61|473:122,1,129.999994049073,2|0,0:0|0:0,0:0:0:0:
244,304,304403,5,8,0:0:0:0:
395,289,304579,1,2,0:0:0:0:
144,266,304756,5,2,0:0:0:0:
388,306,304932,1,8,0:0:0:0:
100,98,305109,5,0,1:0:0:0:
150,354,305285,1,2,0:0:0:0:
173,169,305462,5,8,0:0:0:0:
130,350,305638,1,2,0:0:0:0:
214,54,305815,5,2,0:0:0:0:
214,54,305903,1,8,0:0:0:0:
214,54,305991,1,0,1:0:0:0:
323,371,306167,5,2,0:0:0:0:
259,156,306344,1,2,0:0:0:0:
277,268,306520,6,0,P|352:271|466:320,1,200,4|0,1:2|0:0,0:0:0:0:
277,268,307050,1,2,0:0:0:0:
355,162,307226,2,0,P|255:170|166:213,1,200,8|0,0:0|0:0,0:0:0:0:
118,313,307756,1,2,0:0:0:0:
119,317,307844,1,2,0:0:0:0:
120,321,307932,5,0,1:0:0:0:
85,141,308197,5,2,0:0:0:0:
25,308,308462,5,2,0:0:0:0:
166,213,308638,2,0,P|212:201|262:212,1,100,8|0,0:0|0:0,0:0:0:0:
215,289,308991,1,2,0:0:0:0:
214,114,309167,1,0,1:0:0:0:
214,114,309256,1,0,1:0:0:0:
214,114,309344,6,0,P|316:118|405:155,1,200,0|0,1:0|0:0,0:0:0:0:
380,242,309873,2,0,P|429:240|475:221,1,100,2|8,0:0|0:0,0:0:0:0:
437,67,310226,2,0,P|387:68|341:87,1,100,2|0,0:0|0:0,0:0:0:0:
405,155,310579,1,2,0:0:0:0:
440,70,310756,5,0,1:0:0:0:
281,134,310932,1,2,0:0:0:0:
380,242,311109,5,2,0:0:0:0:
316,323,311285,1,0,1:0:0:0:
316,323,311462,1,8,0:0:0:0:
458,273,311638,2,0,B|471:226|471:226|442:184,1,100,2|2,0:0|0:0,0:0:0:0:
215,207,311991,1,0,1:0:0:0:
215,207,312079,1,0,1:0:0:0:
215,207,312167,6,0,P|169:231|58:233,1,150,0|0,1:0|0:0,0:0:0:0:
51,244,312520,1,2,0:0:0:0:
209,80,312697,2,0,P|262:99|351:93,1,100,2|8,0:0|0:0,0:0:0:0:
299,121,313050,2,0,P|373:109|434:66,1,150,2|0,0:0|0:0,0:0:0:0:
436,47,313403,1,2,0:0:0:0:
448,198,313579,6,0,B|465:254|465:254|439:282|439:282|456:335,1,150,0|2,1:0|0:0,0:0:0:0:
263,322,314109,5,2,0:0:0:0:
363,231,314285,6,0,B|312:246|312:246|284:221|284:221|227:238,1,150,8|2,0:0|0:0,0:0:0:0:
34,344,314815,2,0,P|21:327|27:294,1,50,0|0,1:0|1:0,0:0:0:0:
79,239,314991,6,0,P|103:201|95:140,1,100,0|0,1:0|0:0,0:0:0:0:
220,143,315344,2,0,P|213:98|168:56,1,100,2|0,0:0|0:0,0:0:0:0:
111,314,315697,2,0,P|168:349|249:337,2,150,8|2|2,0:0|0:0|0:0,0:0:0:0:
220,155,316403,6,0,P|262:129|409:164,1,200,0|0,1:0|0:0,0:0:0:0:
310,248,316932,1,0,1:0:0:0:
310,248,317020,1,0,1:0:0:0:
310,248,317109,5,8,0:0:0:0:
280,84,317285,1,2,0:0:0:0:
401,257,317462,5,2,0:0:0:0:
235,301,317638,1,2,0:0:0:0:
471,331,317815,6,0,P|499:248|476:133,1,200,4|0,1:2|0:0,0:0:0:0:
401,257,318344,1,2,0:0:0:0:
322,139,318520,2,0,P|302:236|331:331,1,200,8|0,0:0|0:0,0:0:0:0:
401,257,319050,1,2,0:0:0:0:
401,252,319138,1,2,0:0:0:0:
401,247,319226,5,0,1:0:0:0:
200,199,319491,5,2,0:0:0:0:
330,330,319756,5,2,0:0:0:0:
201,290,319932,2,0,P|183:242|204:193,1,100,8|0,0:0|0:0,0:0:0:0:
280,243,320285,1,2,0:0:0:0:
89,259,320462,1,0,1:0:0:0:
89,259,320550,1,0,1:0:0:0:
89,259,320638,6,0,P|63:190|86:62,1,200,0|0,1:0|0:0,0:0:0:0:
186,35,321167,2,0,P|188:91|164:139,1,100,2|8,0:0|0:0,0:0:0:0:
209,229,321520,2,0,P|248:198|270:154,1,100,2|0,0:0|0:0,0:0:0:0:
270,154,321873,1,2,0:0:0:0:
170,130,322050,5,0,1:0:0:0:
370,122,322226,1,0,0:0:0:0:
288,236,322403,5,0,0:0:0:0:
403,251,322579,1,2,0:0:0:0:
432,74,322756,2,0,P|384:45|324:58,1,100,8|0,0:0|0:0,0:0:0:0:
295,226,323109,1,2,0:0:0:0:
370,122,323285,1,2,0:0:0:0:
331,317,323462,6,0,P|272:341|127:316,1,200,0|0,1:0|0:0,0:0:0:0:
71,252,323991,2,0,P|56:204|67:156,1,100,2|8,0:0|0:0,0:0:0:0:
149,200,324344,1,2,0:0:0:0:
71,252,324520,1,0,0:0:0:0:
241,190,324697,1,2,0:0:0:0:
67,156,324873,5,0,1:0:0:0:
319,242,325050,1,2,0:0:0:0:
319,242,325138,2,0,P|333:194|322:146,1,100,0|0,1:0|0:0,0:0:0:0:
305,127,325403,1,0,1:0:0:0:
149,200,325579,1,8,0:0:0:0:
241,190,325756,1,2,0:0:0:0:
140,113,325932,1,2,0:0:0:0:
214,280,326109,1,0,1:0:0:0:
214,280,326197,1,0,1:0:0:0:
214,280,326285,6,0,P|336:274|402:330,1,200,0|0,1:0|0:0,0:0:0:0:
307,368,326815,1,2,0:0:0:0:
469,260,326991,2,0,P|489:205|476:148,1,100,8|0,0:0|0:0,0:0:0:0:
372,55,327344,2,0,L|268:42,1,100,2|2,0:0|0:0,0:0:0:0:
172,93,327697,5,0,1:0:0:0:
446,14,327873,2,0,B|464:60|464:60|439:103,1,100,2|0,0:0|0:0,0:0:0:0:
195,11,328226,1,0,1:0:0:0:
195,11,328315,1,0,1:0:0:0:
195,11,328403,5,8,0:0:0:0:
305,130,328579,1,2,0:0:0:0:
150,167,328756,5,2,0:0:0:0:
220,243,328932,1,2,0:0:0:0:
128,319,329109,6,0,P|193:281|335:313,1,200,4|0,1:2|0:0,0:0:0:0:
128,319,329638,1,2,0:0:0:0:
272,185,329815,2,0,P|346:197|434:313,1,200,8|0,0:0|0:0,0:0:0:0:
312,296,330344,1,2,0:0:0:0:
307,294,330432,1,2,0:0:0:0:
302,292,330520,5,0,1:0:0:0:
349,106,330785,5,2,0:0:0:0:
194,217,331050,5,2,0:0:0:0:
83,173,331226,2,0,L|98:297,1,100,8|0,0:0|0:0,0:0:0:0:
194,217,331579,1,2,0:0:0:0:
305,261,331756,1,0,1:0:0:0:
305,261,331844,1,0,1:0:0:0:
305,261,331932,6,0,P|293:167|303:54,1,200,0|0,1:0|0:0,0:0:0:0:
482,136,332462,2,0,P|433:141|373:128,1,100,2|8,0:0|0:0,0:0:0:0:
210,63,332815,2,0,P|160:53|111:58,1,100,2|0,0:0|0:0,0:0:0:0:
156,149,333167,1,2,0:0:0:0:
210,63,333344,5,0,1:0:0:0:
62,149,333520,1,2,0:0:0:0:
241,152,333697,5,2,0:0:0:0:
171,234,333873,1,0,1:0:0:0:
171,234,334050,1,8,0:0:0:0:
324,84,334226,2,0,L|335:183,1,100,2|2,0:0|0:0,0:0:0:0:
70,276,334579,1,0,1:0:0:0:
165,242,334756,6,0,P|229:242|349:333,1,200,0|2,1:0|0:0,0:0:0:0:
458,241,335285,2,0,L|475:123,1,100,2|8,0:0|0:0,0:0:0:0:
494,130,335638,2,0,P|444:85|420:5,1,150,0|2,0:0|0:0,0:0:0:0:
395,2,335991,1,0,0:0:0:0:
241,152,336167,6,0,P|172:179|76:175,2,150,0|2|2,1:0|0:0|0:0,0:0:0:0:
393,310,336873,2,0,P|318:309|248:282,1,150,8|2,0:0|0:0,0:0:0:0:
148,83,337403,1,0,1:0:0:0:
148,83,337491,1,0,1:0:0:0:
148,83,337579,6,0,B|200:58|200:58|254:66,1,100,0|0,1:0|0:0,0:0:0:0:
281,214,337932,2,0,B|333:239|333:239|374:232,1,100,2|0,0:0|0:0,0:0:0:0:
481,72,338285,2,0,B|425:64|425:64|393:88|393:88|337:80,2,150,8|2|2,0:0|0:0|0:0,0:0:0:0:
467,249,338991,6,0,P|387:261|264:197,1,200,0|0,1:0|0:0,0:0:0:0:
453,155,339520,1,0,1:0:0:0:
453,155,339609,1,0,1:0:0:0:
453,155,339697,5,8,0:0:0:0:
495,326,339873,1,2,0:0:0:0:
369,221,340050,5,2,0:0:0:0:
392,314,340226,2,0,L|314:304,1,50,2|0,0:0|0:0,0:0:0:0:
269,256,340403,6,0,P|171:246|75:303,1,200,4|0,1:2|0:0,0:0:0:0:
192,344,340932,1,2,0:0:0:0:
189,155,341109,2,0,P|287:145|383:202,1,200,8|0,0:0|0:0,0:0:0:0:
392,314,341638,1,2,0:0:0:0:
391,318,341726,1,2,0:0:0:0:
390,323,341815,5,0,1:0:0:0:
467,115,342079,5,2,0:0:0:0:
501,287,342344,5,2,0:0:0:0:
373,191,342520,2,0,P|316:176|254:190,1,100,8|0,0:0|0:0,0:0:0:0:
180,239,342873,1,2,0:0:0:0:
265,88,343050,1,0,1:0:0:0:
265,88,343138,1,0,1:0:0:0:
265,88,343226,6,0,P|185:111|70:74,1,200,0|0,1:0|0:0,0:0:0:0:
326,25,343756,2,0,P|350:63|342:133,1,100,2|8,0:0|0:0,0:0:0:0:
271,215,344109,2,0,P|233:239|163:231,1,100,2|0,0:0|0:0,0:0:0:0:
68,191,344462,1,2,0:0:0:0:
208,163,344638,5,0,1:0:0:0:
30,282,344815,1,0,0:0:0:0:
121,92,344991,5,0,0:0:0:0:
68,191,345168,1,2,0:0:0:0:
46,13,345344,2,0,L|171:-4,1,100,8|0,0:0|0:0,0:0:0:0:
240,36,345697,1,2,0:0:0:0:
121,92,345873,1,2,0:0:0:0:
121,92,345962,1,0,0:0:0:0:
121,92,346050,6,0,P|211:112|317:134,1,200,0|0,1:0|0:0,0:0:0:0:
384,208,346579,2,0,P|337:232|274:223,1,100,2|8,0:0|0:0,0:0:0:0:
358,40,346932,1,2,0:0:0:0:
316,133,347109,1,0,0:0:0:0:
254,52,347285,1,2,0:0:0:0:
316,133,347462,5,0,1:0:0:0:
186,112,347638,1,2,0:0:0:0:
186,112,347726,2,0,P|166:64|170:13,1,100,0|0,1:0|0:0,0:0:0:0:
189,2,347991,1,0,1:0:0:0:
358,40,348167,1,8,0:0:0:0:
256,61,348344,1,2,0:0:0:0:
446,88,348520,1,2,0:0:0:0:
316,133,348697,1,0,1:0:0:0:
316,133,348785,1,0,1:0:0:0:
316,133,348873,6,0,P|284:220|327:324,1,200,0|0,1:0|0:0,0:0:0:0:
449,181,349403,2,0,P|463:134|443:85,1,100,2|8,0:0|0:0,0:0:0:0:
261,53,349756,1,0,0:0:0:0:
391,136,349932,1,2,0:0:0:0:
256,61,350109,1,2,0:0:0:0:
386,144,350285,5,0,1:0:0:0:
191,124,350462,2,0,P|168:78|176:19,1,100,2|8,0:0|0:0,0:0:0:0:
380,13,350815,1,0,0:0:0:0:
380,13,350903,1,0,1:0:0:0:
380,13,350991,2,0,L|446:4,2,50,8|8|0,0:0|0:0|1:0,0:0:0:0:
299,218,351344,5,8,0:0:0:0:
219,206,351462,5,8,0:0:0:0:
140,194,351579,5,8,0:0:0:0:
167,268,351697,6,0,P|350:236|190:132,2,479.999985351563,4|2|0,1:2|0:0|0:0,0:0:0:0:
167,268,355579,1,2,0:0:0:0:
167,268,355756,1,2,0:0:0:0:
81,72,356815,5,2,0:0:0:0:
174,49,356991,1,2,0:0:0:0:
255,99,357167,1,2,0:0:0:0:
266,194,357344,2,0,P|305:274|475:164,1,359.999989013672,2|2,0:0|0:0,0:0:0:0:
438,74,358579,1,2,0:0:0:0:
373,191,358756,5,2,0:0:0:0:
373,191,359462,2,0,L|302:180,1,59.9999981689454,2|2,0:0|0:0,0:0:0:0:
195,89,359815,2,0,L|254:98,1,59.9999981689454,2|2,0:0|0:0,0:0:0:0:
423,289,360167,6,0,B|372:271|329:288|329:288|290:329|290:329|248:337|204:319,3,239.999992675781,2|2|2|2,0:0|0:0|0:0|0:0,0:0:0:0:
265,186,362638,2,0,L|250:254,1,59.9999981689454,2|2,0:0|0:0,0:0:0:0:
42,363,362991,6,0,P|4:307|21:208,1,160,4|2,1:2|0:0,0:0:0:0:
84,166,363520,1,2,0:0:0:0:
167,195,363697,2,0,B|216:208|216:208|263:182,1,80,8|2,0:0|0:0,0:0:0:0:
349,280,364050,2,0,B|300:267|300:267|253:293,1,80,0|2,0:0|0:0,0:0:0:0:
432,228,364403,6,0,L|443:317,1,80,0|2,1:0|0:0,0:0:0:0:
383,373,364756,2,0,L|303:363,1,80,0|2,0:0|0:0,0:0:0:0:
189,285,365109,6,0,P|183:221|202:114,1,160,8|2,0:0|0:0,0:0:0:0:
280,156,365638,1,2,0:0:0:0:
123,95,365815,2,0,P|108:134|100:189,1,80,0|2,1:0|0:0,0:0:0:0:
113,260,366167,2,0,P|152:276|207:286,1,80,0|2,0:0|0:0,0:0:0:0:
299,297,366520,5,8,0:0:0:0:
361,234,366697,1,2,0:0:0:0:
426,292,366873,1,2,0:0:0:0:
488,229,367050,1,2,0:0:0:0:
411,90,367226,6,0,P|412:130|423:169,3,80,0|2|2|2,1:0|0:0|0:0|0:0,0:0:0:0:
274,257,367932,6,0,P|277:218|290:180,3,80,10|2|2|2,0:0|0:0|0:0|0:0,0:0:0:0:
108,362,368638,5,0,1:0:0:0:
39,263,368815,1,2,0:0:0:0:
221,315,368991,5,2,0:0:0:0:
131,272,369168,1,2,0:0:0:0:
287,227,369344,5,8,0:0:0:0:
207,233,369520,1,2,0:0:0:0:
367,185,369697,5,2,0:0:0:0:
359,281,369874,1,2,0:0:0:0:
240,149,370050,5,0,1:0:0:0:
287,227,370226,2,0,P|358:262|450:264,1,160,0|2,1:0|0:0,0:0:0:0:
287,227,370756,2,0,P|207:231|136:266,1,160,8|2,0:0|0:0,0:0:0:0:
74,329,371285,1,2,0:0:0:0:
228,322,371462,5,0,1:0:0:0:
287,227,371638,1,2,0:0:0:0:
179,211,371815,5,2,0:0:0:0:
315,126,371991,1,2,0:0:0:0:
338,324,372167,5,8,0:0:0:0:
287,227,372344,1,2,0:0:0:0:
460,268,372520,5,2,0:0:0:0:
348,339,372697,1,2,0:0:0:0:
380,199,372873,5,0,1:0:0:0:
417,119,373050,1,0,1:0:0:0:
365,57,373226,1,2,0:0:0:0:
293,50,373403,1,2,0:0:0:0:
241,87,373579,1,8,0:0:0:0:
200,156,373756,1,2,0:0:0:0:
112,195,373932,1,2,0:0:0:0:
13,159,374109,1,2,0:0:0:0:
200,156,374285,6,0,P|228:238|196:331,1,160,0|2,1:0|0:0,0:0:0:0:
140,360,374815,1,2,0:0:0:0:
79,296,374991,2,0,P|64:255|81:208,1,80,8|2,0:0|0:0,0:0:0:0:
200,156,375344,2,0,L|282:150,1,80,0|2,0:0|0:0,0:0:0:0:
27,128,375697,2,0,L|106:133,1,80,0|2,1:0|0:0,0:0:0:0:
161,243,376050,2,0,L|243:237,1,80,0|2,0:0|0:0,0:0:0:0:
374,133,376403,2,0,P|338:135|293:123,1,80,8|0,0:0|0:0,0:0:0:0:
410,264,376756,2,0,P|375:252|336:225,1,80,2|2,0:0|0:0,0:0:0:0:
296,124,377109,5,0,1:0:0:0:
241,54,377285,1,2,0:0:0:0:
161,60,377462,1,0,0:0:0:0:
115,115,377638,1,2,0:0:0:0:
118,179,377815,1,8,0:0:0:0:
147,216,377991,1,2,0:0:0:0:
207,236,378167,1,2,0:0:0:0:
260,284,378344,1,2,0:0:0:0:
289,358,378520,6,0,P|326:366|377:374,3,80,0|2|2|2,1:0|0:0|0:0|0:0,0:0:0:0:
225,200,379226,2,0,P|186:209|146:215,3,80,10|2|2|2,0:0|0:0|0:0|0:0,0:0:0:0:
364,116,379932,5,0,1:0:0:0:
241,54,380109,1,2,0:0:0:0:
460,154,380285,5,2,0:0:0:0:
416,52,380462,1,2,0:0:0:0:
498,231,380638,5,8,0:0:0:0:
409,220,380815,1,2,0:0:0:0:
326,293,380991,5,2,0:0:0:0:
219,279,381168,1,2,0:0:0:0:
136,352,381344,6,0,L|40:342,1,80,0|0,1:0|1:0,0:0:0:0:
172,201,381697,2,0,L|251:192,1,80,0|2,0:0|0:0,0:0:0:0:
405,301,382050,2,0,L|325:292,1,80,8|0,0:0|0:0,0:0:0:0:
83,229,382403,2,0,L|92:149,1,80,2|2,0:0|0:0,0:0:0:0:
202,89,382756,5,0,1:0:0:0:
280,127,382932,1,2,0:0:0:0:
360,125,383109,1,2,0:0:0:0:
420,106,383285,1,2,0:0:0:0:
455,73,383462,1,8,0:0:0:0:
459,66,383638,1,2,0:0:0:0:
409,198,383815,1,2,0:0:0:0:
413,191,383991,1,2,0:0:0:0:
319,53,384167,5,0,1:0:0:0:
195,16,384344,1,0,1:0:0:0:
91,57,384520,1,2,0:0:0:0:
45,151,384697,1,2,0:0:0:0:
53,238,384873,1,8,0:0:0:0:
98,303,385050,1,2,0:0:0:0:
157,325,385226,1,2,0:0:0:0:
205,321,385403,1,2,0:0:0:0:
231,304,385579,6,0,P|262:190|324:291,1,300,0|0,1:0|0:0,0:0:0:0:
