osu file format v14

[General]
AudioFilename: audio.mp3
AudioLeadIn: 0
PreviewTime: 169583
Countdown: 1
SampleSet: Soft
StackLeniency: 0.5
Mode: 0
LetterboxInBreaks: 0
WidescreenStoryboard: 0

[Editor]
Bookmarks: 1744,4518,12842,23940,35039,46137,57235,68333,85328,90530,96079,103015,114114,119663,125212,136310,147409,158507,164056,169605,180703,191802,202900,211570,225096,238969,250414,261166,272264,294461,305559
DistanceSpacing: 1.5
BeatDivisor: 4
GridSize: 32
TimelineZoom: 1.7

[Metadata]
Title:Loreleied - RUON Remix -
TitleUnicode:Loreleied - RUON Remix -
Artist:ESQUARIA
ArtistUnicode:ESQUARIA
Creator:Lasse
Version:Lunatic
Source:東方地霊殿 ~ Subterranean Animism.
Tags:CHICACO CleanTears ヤヤネヒロコ EXFLORA ETERNITY WISH ラストリモート Last Remote Touhou Project Koishi Komeiji ZUN dnb drum and bass drumstep
BeatmapID:1659100
BeatmapSetID:790734

[Difficulty]
HPDrainRate:5
CircleSize:4
OverallDifficulty:8.7
ApproachRate:9.3
SliderMultiplier:1.92
SliderTickRate:1

[Events]
//Background and Video events
0,0,"koishi.jpg",0,0
//Break Periods
//Storyboard Layer 0 (Background)
//Storyboard Layer 1 (Fail)
//Storyboard Layer 2 (Pass)
//Storyboard Layer 3 (Foreground)
//Storyboard Sound Samples

[TimingPoints]
357,346.820809248555,4,2,1,10,1,0
703,-100,4,2,1,30,0,0
1050,-100,4,2,1,40,0,0
1397,-100,4,2,1,50,0,0
1570,-100,4,2,99,5,0,0
1744,-125,4,2,1,54,0,0
11628,-125,4,2,1,50,0,0
11802,-125,4,2,1,54,0,0
11975,-125,4,2,1,50,0,0
12148,-125,4,2,1,54,0,0
12322,-125,4,2,1,50,0,0
12495,-125,4,2,1,54,0,0
12842,-117.647058823529,4,2,1,56,0,0
22553,-142.857142857143,4,2,1,58,0,0
23940,-100,4,2,1,60,0,0
31050,-100,4,2,1,54,0,0
31224,-100,4,2,1,60,0,0
31397,-100,4,2,1,54,0,0
31570,-100,4,2,1,60,0,0
31744,-100,4,2,1,54,0,0
31917,-100,4,2,1,60,0,0
32091,-100,4,2,1,54,0,0
32264,-100,4,2,1,60,0,0
46137,-100,4,2,1,64,0,0
62784,-100,4,2,1,65,0,0
64172,-100,4,2,1,66,0,0
65559,-100,4,2,1,67,0,0
66946,-90.9090909090909,4,2,1,60,0,0
67640,-90.9090909090909,4,2,1,58,0,0
67987,-90.9090909090909,4,2,1,56,0,0
68333,-125,4,2,1,54,0,0
68680,-142.857142857143,4,2,1,54,0,0
85328,-166.666666666667,4,2,1,48,0,0
87842,-166.666666666667,4,2,1,50,0,0
90010,-166.666666666667,4,2,43,30,0,0
90183,-125,4,2,1,64,0,0
90530,-100,4,2,1,66,0,0
96079,-100,4,2,1,68,0,0
97466,-100,4,2,1,70,0,0
98854,-100,4,2,1,72,0,0
100111,-100,4,2,1,60,0,0
100241,-100,4,2,1,50,0,0
102842,-100,4,2,43,30,0,0
103015,-66.6666666666667,4,2,1,74,0,1
104056,-83.3333333333333,4,2,1,74,0,1
104750,-100,4,2,1,74,0,1
105443,-83.3333333333333,4,2,1,74,0,1
105790,-66.6666666666667,4,2,1,74,0,1
106830,-83.3333333333333,4,2,1,74,0,1
107524,-100,4,2,1,74,0,1
108565,-200,4,2,1,50,0,1
108911,-62.5,4,2,1,74,0,1
109258,-100,4,2,1,74,0,1
109778,-166.666666666667,4,2,1,60,0,1
109952,-76.9230769230769,4,2,1,74,0,1
110472,-100,4,2,1,60,0,1
110646,-71.4285714285714,4,2,1,74,0,1
111339,-83.3333333333333,4,2,1,74,0,1
111686,-62.5,4,2,1,74,0,1
112033,-125,4,2,1,74,0,1
112380,-62.5,4,2,1,74,0,1
112726,-58.8235294117647,4,2,1,74,0,1
113073,-76.9230769230769,4,2,1,74,0,1
113420,-90.9090909090909,4,2,1,74,0,1
113767,-90.9090909090909,4,2,1,74,0,0
114114,-66.6666666666667,4,2,1,74,0,1
115154,-83.3333333333333,4,2,1,74,0,1
115848,-100,4,2,1,74,0,1
116541,-83.3333333333333,4,2,1,74,0,1
116888,-66.6666666666667,4,2,1,74,0,1
117929,-83.3333333333333,4,2,1,74,0,1
118622,-100,4,2,1,74,0,1
119663,-200,4,2,1,50,0,1
120010,-62.5,4,2,1,74,0,1
120357,-100,4,2,1,74,0,1
120877,-166.666666666667,4,2,1,60,0,1
121050,-76.9230769230769,4,2,1,74,0,1
121570,-100,4,2,1,60,0,1
121744,-71.4285714285714,4,2,1,74,0,1
122437,-83.3333333333333,4,2,1,74,0,1
122784,-62.5,4,2,1,74,0,1
123131,-125,4,2,1,74,0,1
123478,-62.5,4,2,1,74,0,1
123825,-58.8235294117647,4,2,1,74,0,1
124172,-76.9230769230769,4,2,1,74,0,1
124518,-90.9090909090909,4,2,1,74,0,1
125212,-100,4,2,1,60,0,0
132322,-100,4,2,1,54,0,0
132495,-100,4,2,1,60,0,0
132669,-100,4,2,1,54,0,0
132842,-100,4,2,1,60,0,0
133015,-100,4,2,1,54,0,0
133189,-100,4,2,1,60,0,0
133362,-100,4,2,1,54,0,0
133536,-100,4,2,1,60,0,0
147409,-166.666666666667,4,2,1,50,0,0
157120,-142.857142857143,4,2,1,52,0,0
158160,-117.647058823529,4,2,1,60,0,0
158507,-90.9090909090909,4,2,1,64,0,0
164056,-90.9090909090909,4,2,1,68,0,0
165443,-90.9090909090909,4,2,1,70,0,0
166830,-90.9090909090909,4,2,1,72,0,0
168088,-90.9090909090909,4,2,1,60,0,0
168218,-90.9090909090909,4,2,1,60,0,0
168912,-90.9090909090909,4,2,1,62,0,0
169259,-90.9090909090909,4,2,1,64,0,0
169605,-76.9230769230769,4,2,1,74,0,1
169952,-62.5,4,2,1,74,0,1
170125,-100,4,2,1,74,0,1
170472,-76.9230769230769,4,2,1,74,0,1
170646,-62.5,4,2,1,74,0,1
170992,-76.9230769230769,4,2,1,74,0,1
171339,-62.5,4,2,1,74,0,1
171513,-100,4,2,1,74,0,1
171859,-76.9230769230769,4,2,1,74,0,1
172033,-62.5,4,2,1,74,0,1
172206,-100,4,2,1,74,0,1
172380,-76.9230769230769,4,2,1,74,0,1
172726,-62.5,4,2,1,74,0,1
172900,-100,4,2,1,74,0,1
173247,-76.9230769230769,4,2,1,74,0,1
173420,-62.5,4,2,1,74,0,1
173767,-76.9230769230769,4,2,1,74,0,1
174114,-62.5,4,2,1,74,0,1
174287,-100,4,2,1,74,0,1
174634,-76.9230769230769,4,2,1,74,0,1
174807,-100,4,2,1,74,0,1
175154,-76.9230769230769,4,2,1,74,0,1
175501,-62.5,4,2,1,74,0,1
175674,-100,4,2,1,74,0,1
176021,-76.9230769230769,4,2,1,74,0,1
176195,-62.5,4,2,1,74,0,1
176541,-76.9230769230769,4,2,1,74,0,1
176888,-62.5,4,2,1,74,0,1
177062,-100,4,2,1,74,0,1
177409,-76.9230769230769,4,2,1,74,0,1
177582,-62.5,4,2,1,74,0,1
177755,-100,4,2,1,74,0,1
177929,-76.9230769230769,4,2,1,74,0,1
178276,-62.5,4,2,1,74,0,1
178622,-100,4,2,1,74,0,1
178796,-76.9230769230769,4,2,1,74,0,1
178969,-62.5,4,2,1,74,0,1
179143,-100,4,2,1,74,0,1
179316,-76.9230769230769,4,2,1,74,0,1
179489,-100,4,2,1,74,0,1
179663,-62.5,4,2,1,74,0,1
179836,-76.9230769230769,4,2,1,74,0,1
180183,-76.9230769230769,4,2,1,74,0,1
180357,-62.5,4,2,1,70,0,0
180703,-76.9230769230769,4,2,1,74,0,1
181050,-62.5,4,2,1,74,0,1
181224,-100,4,2,1,74,0,1
181570,-76.9230769230769,4,2,1,74,0,1
181744,-62.5,4,2,1,74,0,1
182091,-76.9230769230769,4,2,1,74,0,1
182437,-62.5,4,2,1,74,0,1
182611,-100,4,2,1,74,0,1
182958,-76.9230769230769,4,2,1,74,0,1
183131,-62.5,4,2,1,74,0,1
183304,-100,4,2,1,74,0,1
183478,-76.9230769230769,4,2,1,74,0,1
183825,-62.5,4,2,1,74,0,1
183998,-100,4,2,1,74,0,1
184345,-76.9230769230769,4,2,1,74,0,1
184518,-62.5,4,2,1,74,0,1
184865,-76.9230769230769,4,2,1,74,0,1
185212,-62.5,4,2,1,74,0,1
185385,-100,4,2,1,74,0,1
185732,-76.9230769230769,4,2,1,74,0,1
185906,-100,4,2,1,74,0,1
186252,-76.9230769230769,4,2,1,74,0,1
186599,-62.5,4,2,1,74,0,1
186773,-100,4,2,1,74,0,1
187120,-76.9230769230769,4,2,1,74,0,1
187293,-62.5,4,2,1,74,0,1
187640,-76.9230769230769,4,2,1,74,0,1
187987,-62.5,4,2,1,74,0,1
188160,-100,4,2,1,74,0,1
188507,-76.9230769230769,4,2,1,74,0,1
188680,-62.5,4,2,1,74,0,1
188854,-100,4,2,1,74,0,1
189027,-83.3333333333333,4,2,1,50,0,0
191281,-83.3333333333333,4,2,43,30,0,0
191455,-83.3333333333333,4,2,1,70,0,0
191802,-55.5555555555556,4,2,1,76,0,1
192148,-71.4285714285714,4,2,1,76,0,1
194229,-100,4,2,1,76,0,1
194576,-55.5555555555556,4,2,1,76,0,1
194923,-50,4,2,1,76,0,1
194966,-50,4,2,99,5,0,1
195096,-50,4,2,1,76,0,1
195140,-50,4,2,99,5,0,1
195270,-50,4,2,1,76,0,1
195313,-50,4,2,99,5,0,1
195443,-50,4,2,1,76,0,1
195487,-50,4,2,99,5,0,1
195617,-62.5,4,2,1,76,0,1
195963,-58.8235294117647,4,2,1,76,0,1
196310,-50,4,2,1,76,0,1
196354,-50,4,2,99,5,0,1
196484,-50,4,2,1,76,0,1
196527,-50,4,2,99,5,0,1
196657,-50,4,2,1,76,0,1
196700,-50,4,2,99,5,0,1
196830,-50,4,2,1,76,0,1
196874,-50,4,2,99,5,0,1
197004,-83.3333333333333,4,2,1,76,0,1
197351,-200,4,2,1,64,0,1
197611,-200,4,2,1,50,0,1
197698,-62.5,4,2,1,76,0,1
198044,-100,4,2,1,76,0,1
198565,-166.666666666667,4,2,1,64,0,1
198738,-76.9230769230769,4,2,1,76,0,1
199258,-100,4,2,1,64,0,1
199432,-71.4285714285714,4,2,1,76,0,1
200125,-83.3333333333333,4,2,1,76,0,1
200472,-55.5555555555556,4,2,1,76,0,1
200819,-125,4,2,1,76,0,1
201166,-55.5555555555556,4,2,1,76,0,1
201512,-58.8235294117647,4,2,1,76,0,1
201859,-76.9230769230769,4,2,1,76,0,1
202206,-90.9090909090909,4,2,1,76,0,1
202553,-90.9090909090909,4,2,1,76,0,0
202900,-50,4,2,1,76,0,1
203247,-100,4,2,1,76,0,1
203420,-71.4285714285714,4,2,1,76,0,1
203940,-58.8235294117647,4,2,1,76,0,1
204287,-71.4285714285714,4,2,1,76,0,1
205328,-100,4,2,1,76,0,1
205674,-55.5555555555556,4,2,1,76,0,1
206021,-50,4,2,1,76,0,1
206065,-50,4,2,99,5,0,1
206195,-50,4,2,1,76,0,1
206238,-50,4,2,99,5,0,1
206368,-50,4,2,1,76,0,1
206411,-50,4,2,99,5,0,1
206541,-50,4,2,1,76,0,1
206585,-50,4,2,99,5,0,1
206715,-62.5,4,2,1,76,0,1
207062,-58.8235294117647,4,2,1,76,0,1
207409,-50,4,2,1,76,0,1
207452,-50,4,2,99,5,0,1
207582,-50,4,2,1,76,0,1
207625,-50,4,2,99,5,0,1
207755,-50,4,2,1,76,0,1
207799,-50,4,2,99,5,0,1
207929,-50,4,2,1,76,0,1
207972,-50,4,2,99,5,0,1
208102,-83.3333333333333,4,2,1,76,0,1
208449,-200,4,2,1,64,0,1
208709,-200,4,2,1,50,0,1
208796,-62.5,4,2,1,76,0,1
209143,-100,4,2,1,76,0,1
209663,-166.666666666667,4,2,1,76,0,1
209836,-71.4285714285714,4,2,1,76,0,1
210530,-71.4285714285714,4,2,1,76,0,1
211224,-83.3333333333333,4,2,1,76,0,1
211570,-62.5,4,2,1,76,0,1
212611,-71.4285714285714,4,2,1,76,0,1
213131,-71.4285714285714,4,2,1,68,0,1
213218,-71.4285714285714,4,2,1,66,0,1
213304,-71.4285714285714,4,2,1,64,0,1
213391,-71.4285714285714,4,2,1,62,0,1
213478,-71.4285714285714,4,2,1,60,0,1
213565,-71.4285714285714,4,2,1,58,0,1
213651,-71.4285714285714,4,2,1,52,0,1
213738,-71.4285714285714,4,2,1,56,0,1
213825,-71.4285714285714,4,2,1,54,0,1
213911,-71.4285714285714,4,2,1,52,0,1
213998,-200,4,2,1,50,0,0
214085,-200,4,2,1,30,0,0
216773,-200,4,2,1,40,0,0
217120,-200,4,2,1,44,0,0
217206,-200,4,2,1,30,0,0
219547,-200,4,2,1,40,0,0
219894,-200,4,2,1,44,0,0
219980,-200,4,2,1,30,0,0
222322,-200,4,2,1,40,0,0
222669,-200,4,2,1,44,0,0
222755,-200,4,2,1,30,0,0
225096,-166.666666666667,4,2,1,40,0,0
225443,-166.666666666667,4,2,1,46,0,0
225530,-166.666666666667,4,2,1,34,0,0
227177,-166.666666666667,4,2,1,36,0,0
227351,-166.666666666667,4,2,1,46,0,0
227524,-166.666666666667,4,2,1,36,0,0
227871,-166.666666666667,4,2,1,46,0,0
228218,-166.666666666667,4,2,1,36,0,0
228391,-166.666666666667,4,2,1,46,0,0
228738,-166.666666666667,4,2,1,36,0,0
229085,-166.666666666667,4,2,1,42,0,0
229258,-166.666666666667,4,2,1,46,0,0
229345,-166.666666666667,4,2,1,34,0,0
230646,-166.666666666667,4,2,1,40,0,0
230992,-166.666666666667,4,2,1,46,0,0
231339,-166.666666666667,4,2,1,40,0,0
231513,-166.666666666667,4,2,1,42,0,0
231859,-166.666666666667,4,2,1,36,0,0
232206,-166.666666666667,4,2,1,42,0,0
232380,-166.666666666667,4,2,1,46,0,0
232466,-166.666666666667,4,2,1,36,0,0
233420,-166.666666666667,4,2,1,40,0,0
233767,-166.666666666667,4,2,1,46,0,0
233854,-166.666666666667,4,2,1,36,0,0
234287,-166.666666666667,4,2,1,34,0,0
234634,-166.666666666667,4,2,1,46,0,0
234981,-166.666666666667,4,2,1,34,0,0
235154,-250,4,2,1,48,0,0
235241,-250,4,2,1,5,0,0
236195,-250,4,2,1,20,0,0
236281,-250,4,2,1,30,0,0
238276,-250,4,2,43,30,0,0
238622,-250,4,2,1,56,0,0
238969,-100,4,2,1,60,0,0
244518,-100,4,2,1,68,0,0
245906,-100,4,2,1,70,0,0
247292,-100,4,2,1,72,0,0
248550,-100,4,2,1,60,0,0
248680,-100,4,2,1,62,0,0
249374,-100,4,2,1,64,0,0
249721,-100,4,2,1,66,0,0
250067,-71.4285714285714,4,2,1,70,0,0
250241,-100,4,2,1,66,0,0
250414,-62.5,4,2,1,74,0,1
250588,-100,4,2,1,74,0,1
250934,-76.9230769230769,4,2,1,74,0,1
251108,-62.5,4,2,1,74,0,1
251455,-76.9230769230769,4,2,1,74,0,1
251802,-62.5,4,2,1,74,0,1
251975,-100,4,2,1,74,0,1
252322,-76.9230769230769,4,2,1,74,0,1
252495,-62.5,4,2,1,74,0,1
252669,-100,4,2,1,74,0,1
252842,-76.9230769230769,4,2,1,74,0,1
253189,-62.5,4,2,1,74,0,1
253362,-100,4,2,1,74,0,1
253709,-76.9230769230769,4,2,1,74,0,1
253883,-62.5,4,2,1,74,0,1
254229,-76.9230769230769,4,2,1,74,0,1
254576,-62.5,4,2,1,74,0,1
254750,-100,4,2,1,74,0,1
255096,-76.9230769230769,4,2,1,74,0,1
255270,-100,4,2,1,74,0,1
255617,-76.9230769230769,4,2,1,74,0,1
255963,-62.5,4,2,1,74,0,1
256137,-100,4,2,1,74,0,1
256484,-76.9230769230769,4,2,1,74,0,1
256657,-62.5,4,2,1,74,0,1
257004,-76.9230769230769,4,2,1,74,0,1
257351,-62.5,4,2,1,74,0,1
257524,-100,4,2,1,74,0,1
257871,-76.9230769230769,4,2,1,74,0,1
258044,-62.5,4,2,1,74,0,1
258218,-100,4,2,1,74,0,1
258391,-76.9230769230769,4,2,1,74,0,1
258738,-62.5,4,2,1,74,0,1
259085,-100,4,2,1,74,0,1
259258,-76.9230769230769,4,2,1,74,0,1
259432,-62.5,4,2,1,74,0,1
259605,-100,4,2,1,74,0,1
259778,-76.9230769230769,4,2,1,74,0,1
259952,-100,4,2,1,74,0,1
260125,-62.5,4,2,1,74,0,1
260299,-76.9230769230769,4,2,1,74,0,1
260646,-76.9230769230769,4,2,1,74,0,1
260819,-62.5,4,2,1,70,0,0
261166,-76.9230769230769,4,2,1,74,0,1
261513,-62.5,4,2,1,74,0,1
261686,-100,4,2,1,74,0,1
262033,-76.9230769230769,4,2,1,74,0,1
262206,-62.5,4,2,1,74,0,1
262553,-76.9230769230769,4,2,1,74,0,1
262900,-62.5,4,2,1,74,0,1
263073,-100,4,2,1,74,0,1
263420,-76.9230769230769,4,2,1,74,0,1
263593,-62.5,4,2,1,74,0,1
263767,-100,4,2,1,74,0,1
263940,-76.9230769230769,4,2,1,74,0,1
264287,-62.5,4,2,1,74,0,1
264461,-100,4,2,1,74,0,1
264807,-76.9230769230769,4,2,1,74,0,1
264981,-62.5,4,2,1,74,0,1
265328,-76.9230769230769,4,2,1,74,0,1
265674,-62.5,4,2,1,74,0,1
265848,-100,4,2,1,74,0,1
266195,-76.9230769230769,4,2,1,74,0,1
266368,-100,4,2,1,74,0,1
266715,-76.9230769230769,4,2,1,74,0,1
267062,-62.5,4,2,1,74,0,1
267235,-100,4,2,1,74,0,1
267582,-76.9230769230769,4,2,1,74,0,1
267755,-62.5,4,2,1,74,0,1
268102,-76.9230769230769,4,2,1,74,0,1
268449,-62.5,4,2,1,74,0,1
268622,-100,4,2,1,74,0,1
268969,-76.9230769230769,4,2,1,74,0,1
269143,-62.5,4,2,1,74,0,1
269316,-100,4,2,1,74,0,1
269489,-83.3333333333333,4,2,1,50,0,0
271744,-83.3333333333333,4,2,43,30,0,0
271917,-83.3333333333333,4,2,1,70,0,0
272264,-58.8235294117647,4,2,1,74,0,1
272611,-76.9230769230769,4,2,1,74,0,1
272784,-99.9999999999999,4,2,1,74,0,1
273131,-76.9230769230769,4,2,1,74,0,1
273304,-62.5,4,2,1,74,0,1
273478,-100,4,2,1,74,0,1
273651,-76.9230769230769,4,2,1,74,0,1
273825,-100,4,2,1,74,0,1
273998,-62.5,4,2,1,74,0,1
274518,-76.9230769230769,4,2,1,74,0,1
274692,-62.5,4,2,1,74,0,1
275039,-76.9230769230769,4,2,1,74,0,1
275385,-62.5,4,2,1,74,0,1
275559,-100,4,2,1,74,0,1
275906,-76.9230769230769,4,2,1,74,0,1
276079,-62.5,4,2,1,74,0,1
276426,-76.9230769230769,4,2,1,74,0,1
276773,-62.5,4,2,1,74,0,1
277293,-76.9230769230769,4,2,1,74,0,1
277813,-200,4,2,1,62,0,1
278073,-200,4,2,1,50,0,1
278160,-62.5,4,2,1,74,0,1
278507,-100,4,2,1,74,0,1
279027,-166.666666666667,4,2,1,60,0,1
279200,-76.9230769230769,4,2,1,74,0,1
279721,-100,4,2,1,60,0,1
279894,-71.4285714285714,4,2,1,74,0,1
280588,-83.3333333333333,4,2,1,74,0,1
280935,-62.5,4,2,1,74,0,1
281281,-125,4,2,1,74,0,1
281628,-62.5,4,2,1,74,0,1
281975,-58.8235294117647,4,2,1,74,0,1
282322,-76.9230769230769,4,2,1,74,0,1
282669,-90.9090909090909,4,2,1,74,0,1
283015,-90.9090909090909,4,2,1,74,0,0
283362,-50,4,2,1,74,0,1
283709,-76.9230769230769,4,2,1,74,0,1
283883,-99.9999999999999,4,2,1,74,0,1
284229,-76.9230769230769,4,2,1,74,0,1
284403,-62.5,4,2,1,74,0,1
284576,-100,4,2,1,74,0,1
284750,-76.9230769230769,4,2,1,74,0,1
284923,-100,4,2,1,74,0,1
285096,-62.5,4,2,1,74,0,1
285617,-76.9230769230769,4,2,1,74,0,1
285790,-62.5,4,2,1,74,0,1
286137,-76.9230769230769,4,2,1,74,0,1
286484,-62.5,4,2,1,74,0,1
286657,-100,4,2,1,74,0,1
287004,-76.9230769230769,4,2,1,74,0,1
287177,-62.5,4,2,1,74,0,1
287524,-76.9230769230769,4,2,1,74,0,1
287871,-62.5,4,2,1,74,0,1
288391,-76.9230769230769,4,2,1,74,0,1
288911,-200,4,2,1,62,0,1
289172,-200,4,2,1,50,0,1
289258,-62.5,4,2,1,74,0,1
289605,-100,4,2,1,74,0,1
290125,-166.666666666667,4,2,1,60,0,1
290299,-76.9230769230769,4,2,1,74,0,1
290819,-100,4,2,1,60,0,1
290992,-71.4285714285714,4,2,1,74,0,1
291686,-83.3333333333333,4,2,1,74,0,1
292033,-62.5,4,2,1,74,0,1
292380,-125,4,2,1,74,0,1
292726,-62.5,4,2,1,74,0,1
293073,-58.8235294117647,4,2,1,74,0,1
293420,-76.9230769230769,4,2,1,74,0,1
293767,-90.9090909090909,4,2,1,74,0,1
294114,-90.9090909090909,4,2,1,74,0,1
294461,-142.857142857143,4,2,1,50,0,0
294807,-142.857142857143,4,2,1,44,0,0
297062,-142.857142857143,4,2,1,26,0,0
297235,-142.857142857143,4,2,1,44,0,0
299489,-142.857142857143,4,2,1,36,0,0
300010,-142.857142857143,4,2,1,44,0,0
302611,-142.857142857143,4,2,1,26,0,0
302784,-142.857142857143,4,2,1,40,0,0
304172,-142.857142857143,4,2,1,36,0,0
304518,-142.857142857143,4,2,1,34,0,0
304692,-142.857142857143,4,2,1,32,0,0
304865,-142.857142857143,4,2,1,30,0,0
305039,-142.857142857143,4,2,1,32,0,0

[Colours]
Combo1 : 255,210,128
Combo2 : 150,225,128
Combo3 : 255,240,128
Combo4 : 255,176,176

[HitObjects]
256,192,357,12,0,1570,0:2:0:0:
113,358,1744,6,0,L|104:262,1,76.8,2|0,3:2|0:2,0:0:0:0:
175,199,2091,2,0,L|166:103,2,76.8,10|0|0,0:2|0:2|0:2,0:0:0:0:
256,270,2611,1,2,3:2:0:0:
337,199,2784,2,0,L|345:103,1,76.8,8|0,0:2|0:2,0:0:0:0:
501,27,3131,6,0,L|507:103,1,76.8,2|0,3:2|0:2,0:0:0:0:
448,194,3478,2,0,P|417:128|344:122,1,153.6,10|0,0:2|0:2,0:0:0:0:
256,186,3998,1,2,3:2:0:0:
169,122,4172,2,0,L|163:46,1,76.8,10|0,0:2|0:2,0:0:0:0:
11,27,4518,6,0,L|5:103,1,76.8,2|0,3:2|0:2,0:0:0:0:
8,211,4865,2,0,L|1:287,2,76.8,10|0|0,0:2|0:2|0:2,0:0:0:0:
81,131,5385,1,2,3:2:0:0:
153,211,5559,2,0,L|159:287,1,76.8,10|0,0:2|0:2,0:0:0:0:
296,368,5906,6,0,L|302:291,1,76.8,2|0,3:2|0:2,0:0:0:0:
406,219,6252,2,0,P|375:285|302:291,1,153.6,10|0,0:2|0:2,0:0:0:0:
256,192,6773,1,2,3:2:0:0:
346,99,6946,5,8,0:2:0:0:
382,107,7033,1,8,0:2:0:0:
412,131,7120,1,8,0:2:0:0:
444,152,7206,1,8,0:2:0:0:
481,160,7293,6,0,L|487:83,1,76.8,2|0,3:2|0:2,0:0:0:0:
398,21,7640,2,0,P|367:69|275:74,1,153.6,10|0,0:2|0:2,0:0:0:0:
188,14,8160,1,2,3:2:0:0:
117,94,8333,2,0,L|111:171,1,76.8,10|0,0:2|0:2,0:0:0:0:
218,261,8680,6,0,L|224:184,1,76.8,2|0,3:2|0:2,0:0:0:0:
307,116,9027,2,0,L|313:39,2,76.8,10|0|0,0:2|0:2|0:2,0:0:0:0:
394,178,9547,1,2,3:2:0:0:
415,283,9721,2,0,L|421:360,1,76.8,10|0,0:2|0:2,0:0:0:0:
243,363,10067,6,0,L|249:286,1,76.8,2|0,3:2|0:2,0:0:0:0:
166,218,10414,2,0,P|135:266|43:247,1,153.6,10|0,0:2|0:2,0:0:0:0:
5,154,10935,1,2,3:2:0:0:
95,96,11108,2,0,L|101:19,1,76.8,8|0,0:2|0:2,0:0:0:0:
306,0,11455,5,2,3:2:0:0:
291,85,11628,1,2,0:2:0:0:
385,59,11802,5,10,0:2:0:0:
287,104,11975,1,2,3:2:0:0:
403,157,12148,5,2,0:2:0:0:
280,122,12322,1,2,3:2:0:0:
356,242,12495,5,8,0:2:0:0:
339,251,12582,1,8,0:2:0:0:
271,139,12755,1,8,0:2:0:0:
280,122,12842,6,0,P|281:72|201:22,1,122.400002334595,6|0,3:2|0:2,0:0:0:0:
158,55,13189,2,0,L|149:150,1,81.6000015563965,10|0,0:2|0:2,0:0:0:0:
150,136,13449,1,2,0:2:0:0:
150,136,13536,1,2,0:2:0:0:
41,203,13709,1,2,3:2:0:0:
149,280,13883,2,0,L|241:268,1,81.6000015563965,10|0,0:2|0:2,0:0:0:0:
347,169,14229,6,0,L|307:162,2,40.8000007781983,2|2|2,3:2|0:2|0:2,0:0:0:0:
458,239,14576,2,0,P|466:280|467:336,1,81.6000015563965,10|0,0:2|0:2,0:0:0:0:
467,319,14836,1,2,0:2:0:0:
467,319,14923,1,2,0:2:0:0:
358,384,15096,1,2,3:2:0:0:
254,303,15270,2,0,P|215:289|175:281,1,81.6000015563965,10|0,0:2|0:2,0:0:0:0:
44,384,15617,6,0,L|31:269,1,81.6000015563965,2|0,3:2|0:2,0:0:0:0:
1,176,15963,1,10,0:2:0:0:
105,97,16137,1,2,0:2:0:0:
105,97,16224,1,2,0:2:0:0:
105,97,16310,1,2,0:2:0:0:
208,175,16484,1,2,3:2:0:0:
319,106,16657,2,0,P|358:95|411:94,1,81.6000015563965,10|0,0:2|0:2,0:0:0:0:
512,251,17004,6,0,L|505:309,2,40.8000007781983,2|2|2,3:2|0:2|0:2,0:0:0:0:
406,174,17351,2,0,L|397:79,1,81.6000015563965,10|0,0:2|0:2,0:0:0:0:
398,92,17611,1,2,0:2:0:0:
398,92,17698,1,2,0:2:0:0:
301,20,17871,1,2,3:2:0:0:
192,120,18044,5,8,0:2:0:0:
187,160,18131,1,8,0:2:0:0:
182,200,18218,1,8,0:2:0:0:
177,241,18304,1,8,0:2:0:0:
172,281,18391,6,0,P|126:340|60:318,1,122.400002334595,2|0,3:2|0:2,0:0:0:0:
39,272,18738,2,0,L|32:156,1,81.6000015563965,10|0,0:2|0:2,0:0:0:0:
34,190,18998,1,2,0:2:0:0:
34,190,19085,1,2,0:2:0:0:
129,101,19258,1,2,3:2:0:0:
247,156,19432,2,0,L|351:143,1,81.6000015563965,8|0,0:2|0:2,0:0:0:0:
449,70,19778,6,0,L|437:24,2,40.8000007781983,2|2|2,3:2|0:2|0:2,0:0:0:0:
496,189,20125,2,0,L|486:270,1,81.6000015563965,8|0,0:2|0:2,0:0:0:0:
486,270,20385,1,2,0:2:0:0:
486,270,20472,1,2,0:2:0:0:
410,379,20646,1,2,3:2:0:0:
314,290,20819,2,0,L|304:208,1,81.6000015563965,10|0,0:2|0:2,0:0:0:0:
209,97,21166,6,0,P|168:96|128:86,1,81.6000015563965,2|0,3:2|0:2,0:0:0:0:
21,8,21513,1,10,0:2:0:0:
8,147,21686,1,2,0:2:0:0:
8,147,21773,1,2,0:2:0:0:
8,147,21859,1,2,0:2:0:0:
129,86,22033,1,2,3:2:0:0:
137,215,22206,2,0,L|127:296,1,81.6000015563965,10|0,0:2|0:2,0:0:0:0:
314,344,22553,6,0,B|342:333|342:333|381:339,1,67.1999979492188,8|0,3:1|0:2,0:0:0:0:
448,361,22813,1,8,0:1:0:0:
453,376,22900,1,8,0:1:0:0:
512,271,23073,1,8,0:1:0:0:
507,256,23160,1,8,0:1:0:0:
502,241,23247,5,8,0:3:0:0:
484,212,23333,1,8,0:3:0:0:
456,195,23420,1,8,0:3:0:0:
423,192,23507,1,8,0:3:0:0:
392,205,23593,5,4,0:3:0:0:
350,217,23680,1,4,0:3:0:0:
309,200,23767,1,4,0:3:0:0:
290,160,23854,1,4,0:3:0:0:
310,121,23940,6,0,B|295:74|321:22|321:22|304:47|270:62,1,144,6|0,3:2|0:2,0:0:0:0:
209,63,24287,2,0,L|103:52,1,96,8|0,0:2|0:2,0:0:0:0:
4,197,24634,2,0,L|0:150,2,48,2|2|2,0:2|0:2|3:2,0:0:0:0:
110,307,24981,2,0,L|205:297,1,96,8|0,0:2|0:2,0:0:0:0:
349,218,25328,6,0,B|296:252|296:252|313:412,2,192,2|8|0,3:2|0:2|0:2,0:0:0:0:
349,218,26108,1,2,0:2:0:0:
349,218,26195,1,2,3:2:0:0:
452,313,26368,1,10,0:2:0:0:
508,191,26541,1,2,0:2:0:0:
357,129,26715,6,0,B|278:132|298:174|220:173,1,144,2|0,3:2|0:2,0:0:0:0:
142,232,27062,2,0,L|131:123,1,96,8|0,0:2|0:2,0:0:0:0:
31,58,27409,2,0,L|19:111,2,48,2|2|2,0:2|0:2|3:2,0:0:0:0:
40,35,27669,1,2,0:2:0:0:
52,14,27755,1,8,0:2:0:0:
132,136,27929,1,2,0:2:0:0:
276,85,28102,6,0,B|338:82|338:82|386:115|386:115|462:113,2,192,2|8|0,3:2|0:2|0:2,0:0:0:0:
276,85,28883,1,2,0:2:0:0:
276,85,28969,1,2,3:2:0:0:
64,216,29143,5,10,0:2:0:0:
107,201,29229,1,8,0:2:0:0:
152,216,29316,1,8,0:2:0:0:
178,256,29403,1,8,0:2:0:0:
173,302,29489,6,0,P|221:377|309:356,1,192,2|8,3:2|0:2,0:0:0:0:
344,213,30010,1,2,0:2:0:0:
344,213,30096,1,2,0:2:0:0:
344,213,30183,2,0,L|333:264,2,48,2|2|2,0:2|0:2|3:2,0:0:0:0:
152,216,30530,2,0,L|144:120,1,96,10|0,0:2|0:2,0:0:0:0:
300,15,30877,5,2,3:2:0:0:
262,148,31050,1,2,0:2:0:0:
403,77,31224,5,10,0:2:0:0:
276,167,31397,1,2,0:2:0:0:
455,176,31570,5,2,0:2:0:0:
290,186,31744,1,2,3:2:0:0:
439,285,31917,5,10,0:2:0:0:
304,205,32091,1,2,0:2:0:0:
290,186,32177,1,2,0:2:0:0:
276,167,32264,6,0,B|215:149|215:149|146:177|146:177|70:155,2,192,2|8|0,3:2|0:2|0:2,0:0:0:0:
276,167,33044,1,2,0:2:0:0:
276,167,33131,1,2,3:2:0:0:
387,342,33304,2,0,L|391:244,1,96,8|0,0:2|0:2,0:0:0:0:
470,59,33651,6,0,L|477:154,1,96,0|0,3:2|0:2,0:0:0:0:
390,246,33998,1,8,0:2:0:0:
291,144,34172,1,2,3:2:0:0:
291,144,34258,1,2,0:2:0:0:
291,144,34345,1,2,0:2:0:0:
238,334,34518,1,0,3:2:0:0:
130,136,34692,5,10,0:2:0:0:
152,129,34778,1,8,0:2:0:0:
214,340,34952,1,8,0:2:0:0:
192,349,35039,6,0,B|145:337|145:337|99:355|99:355|48:344,1,144,2|0,3:2|0:2,0:0:0:0:
5,268,35385,2,0,L|-2:152,1,96,8|0,0:2|0:2,0:0:0:0:
63,25,35732,2,0,L|71:91,2,48,2|2|2,0:2|0:2|3:2,0:0:0:0:
182,122,36079,2,0,L|277:112,1,96,8|0,0:2|0:2,0:0:0:0:
418,0,36426,6,0,B|365:34|365:34|378:192,2,192,2|8|0,3:2|0:2|0:2,0:0:0:0:
418,0,37206,1,2,0:2:0:0:
418,0,37293,1,2,3:2:0:0:
512,118,37466,1,10,0:2:0:0:
375,162,37640,1,2,0:2:0:0:
286,33,37813,6,0,B|223:31|223:31|172:59|172:59|89:55,1,192,2|8,3:2|0:2,0:0:0:0:
10,163,38333,1,2,0:2:0:0:
10,163,38420,1,2,0:2:0:0:
10,163,38507,2,0,L|2:111,2,48,2|2|2,0:2|0:2|3:2,0:0:0:0:
21,184,38767,1,2,0:2:0:0:
31,211,38854,2,0,L|39:322,1,96,10|0,2:2|0:2,0:0:0:0:
197,229,39200,6,0,B|200:167|200:167|238:123|238:123|244:46,2,192,2|8|0,3:2|0:2|0:2,0:0:0:0:
197,229,39981,1,2,0:2:0:0:
197,229,40067,1,2,3:2:0:0:
322,370,40241,5,10,0:2:0:0:
369,372,40328,1,8,0:2:0:0:
409,347,40414,1,8,0:2:0:0:
428,303,40501,1,8,0:2:0:0:
418,256,40588,6,0,B|363:237|363:237|374:84,1,192,2|8,3:2|0:2,0:0:0:0:
510,49,41108,1,2,0:2:0:0:
510,49,41195,1,2,0:2:0:0:
510,49,41281,2,0,L|514:132,2,48,2|2|2,0:2|0:2|3:2,0:0:0:0:
363,1,41628,1,10,0:2:0:0:
290,137,41802,1,2,0:2:0:0:
177,23,41975,6,0,B|103:17|119:74|39:65,1,144,2|0,3:2|0:2,0:0:0:0:
0,141,42322,2,0,L|11:241,1,96,10|0,0:2|0:2,0:0:0:0:
164,269,42669,2,0,L|176:210,2,48,2|2|2,0:2|0:2|3:2,0:0:0:0:
168,292,42929,1,2,0:2:0:0:
174,314,43015,1,10,0:2:0:0:
301,381,43189,1,2,0:2:0:0:
408,263,43362,6,0,B|417:221|417:221|404:183|404:183|415:123,1,144,2|0,3:2|0:2,0:0:0:0:
424,100,43709,1,8,0:2:0:0:
403,286,43883,1,2,0:2:0:0:
312,128,44056,6,0,L|308:66,2,48,2|2|2,0:2|0:2|3:2,0:0:0:0:
403,286,44403,1,10,0:2:0:0:
424,100,44576,1,2,0:2:0:0:
512,252,44750,6,0,L|501:347,1,96,2|0,3:2|0:2,0:0:0:0:
349,373,45096,1,8,0:2:0:0:
384,189,45270,1,2,3:2:0:0:
384,189,45357,1,2,0:2:0:0:
384,189,45443,1,2,0:2:0:0:
500,347,45617,1,2,3:2:0:0:
333,272,45790,5,8,0:2:0:0:
309,265,45877,1,8,0:2:0:0:
493,184,46050,1,8,0:2:0:0:
481,162,46137,6,0,B|471:119|471:119|487:69|487:69|476:18,1,144,6|0,3:2|0:2,0:0:0:0:
392,35,46484,2,0,L|293:22,1,96,8|0,0:2|0:2,0:0:0:0:
163,135,46830,2,0,L|262:148,1,96,2|0,0:2|3:2,0:0:0:0:
343,128,47091,1,2,0:2:0:0:
356,108,47177,1,8,0:2:0:0:
255,229,47351,1,2,0:2:0:0:
163,135,47524,6,0,B|120:95|120:95|16:111,1,144,2|0,3:2|0:2,0:0:0:0:
5,189,47871,2,0,L|13:294,1,96,10|0,0:2|0:2,0:0:0:0:
144,360,48218,2,0,L|154:304,1,48,2|2,0:2|0:2,0:0:0:0:
200,240,48391,1,0,3:2:0:0:
294,369,48565,2,0,L|415:358,1,96,8|0,0:2|0:2,0:0:0:0:
495,117,48911,6,0,B|452:154|452:154|478:274,1,144,2|0,3:2|0:2,0:0:0:0:
392,277,49258,2,0,L|297:272,1,96,8|0,0:2|0:2,0:0:0:0:
217,113,49605,2,0,L|312:108,1,96,2|0,0:2|3:2,0:0:0:0:
381,55,49865,1,2,0:2:0:0:
385,31,49952,1,8,0:2:0:0:
316,185,50125,1,2,0:2:0:0:
148,39,50299,6,0,B|183:72|183:72|156:207,1,144,2|0,3:2|0:2,0:0:0:0:
114,236,50646,2,0,L|118:341,1,96,10|0,0:2|0:2,0:0:0:0:
333,380,50992,2,0,L|343:275,1,96,2|0,0:2|3:2,0:0:0:0:
512,197,51339,5,10,0:2:0:0:
467,212,51426,1,8,0:2:0:0:
422,198,51513,1,8,0:2:0:0:
394,161,51599,1,8,0:2:0:0:
393,113,51686,6,0,P|365:43|247:62,1,192,2|8,3:2|0:2,0:0:0:0:
221,194,52206,1,2,0:2:0:0:
221,194,52293,1,2,0:2:0:0:
221,194,52380,2,0,L|228:249,1,48,2|0,0:2|0:2,0:0:0:0:
176,312,52553,1,0,3:2:0:0:
34,216,52726,2,0,L|51:78,1,96,8|0,0:2|0:2,0:0:0:0:
195,41,53073,6,0,B|238:33|238:33|287:53|287:53|339:43,1,144,0|0,3:2|0:2,0:0:0:0:
398,100,53420,2,0,L|391:197,1,96,8|0,0:2|0:2,0:0:0:0:
233,295,53767,2,0,L|226:199,1,96,2|0,0:2|3:2,0:0:0:0:
170,132,54027,1,2,0:2:0:0:
149,120,54114,1,8,0:2:0:0:
8,182,54287,1,2,0:2:0:0:
98,42,54461,6,0,B|110:200,1,144,0|0,3:2|0:2,0:0:0:0:
159,256,54807,2,0,B|189:236|189:236|260:248,1,96,8|0,0:2|0:2,0:0:0:0:
360,355,55154,2,0,L|368:298,1,48,2|2,0:2|0:2,0:0:0:0:
440,261,55328,1,0,3:2:0:0:
312,174,55501,2,0,L|302:61,1,96,8|0,0:2|0:2,0:0:0:0:
483,68,55848,6,0,B|434:102|434:102|303:78,1,192,2|8,3:2|0:2,0:0:0:0:
159,8,56368,1,2,3:2:0:0:
159,8,56455,1,2,0:2:0:0:
159,8,56541,2,0,B|184:31|184:31|192:109,1,96,2|0,0:2|3:2,0:0:0:0:
56,195,56888,5,10,0:2:0:0:
67,173,56975,1,8,0:2:0:0:
231,162,57148,1,8,0:2:0:0:
250,176,57235,6,0,B|298:182|298:182|334:165|334:165|395:173,1,144,2|0,3:2|0:2,0:0:0:0:
465,217,57582,2,0,L|469:322,1,96,8|0,0:2|0:2,0:0:0:0:
314,371,57929,2,0,B|284:347|284:347|207:357,1,96,2|0,0:2|3:2,0:0:0:0:
141,373,58189,1,2,0:2:0:0:
117,376,58276,1,8,0:2:0:0:
0,289,58449,1,2,0:2:0:0:
128,178,58622,6,0,B|176:172|176:172|212:189|212:189|273:181,1,144,2|0,3:2|0:2,0:0:0:0:
342,236,58969,2,0,L|350:121,1,96,10|0,0:2|0:2,0:0:0:0:
478,35,59316,2,0,L|486:97,1,48,2|2,0:2|0:2,0:0:0:0:
498,168,59489,1,0,3:2:0:0:
348,140,59663,2,0,L|227:119,1,96,8|0,0:2|0:2,0:0:0:0:
119,5,60010,6,0,B|167:27|167:27|164:120,1,144,2|0,3:2|0:2,0:0:0:0:
115,190,60357,2,0,B|92:225|92:225|101:287,1,96,8|0,0:2|0:2,0:0:0:0:
228,366,60703,2,0,B|259:338|259:338|266:275,1,96,2|0,0:2|3:2,0:0:0:0:
225,207,60963,1,2,0:2:0:0:
221,183,61050,1,8,0:2:0:0:
322,66,61224,1,2,0:2:0:0:
468,161,61397,6,0,B|497:202|497:202|470:308,1,144,2|0,3:2|0:2,0:0:0:0:
407,348,61744,2,0,L|281:327,1,96,10|0,0:2|0:2,0:0:0:0:
221,183,62091,2,0,L|315:167,1,96,2|0,0:2|3:2,0:0:0:0:
495,27,62437,5,8,0:2:0:0:
453,3,62524,1,8,0:2:0:0:
408,12,62611,1,8,0:2:0:0:
380,50,62698,1,8,0:2:0:0:
388,97,62784,6,0,B|441:140|441:140|402:257,1,192,2|8,3:2|0:2,0:0:0:0:
276,336,63304,1,2,0:2:0:0:
276,336,63391,1,2,0:2:0:0:
276,336,63478,2,0,L|214:325,1,48,2|0,0:2|0:2,0:0:0:0:
153,370,63651,1,0,3:2:0:0:
28,280,63825,2,0,L|24:180,1,96,8|0,0:2|0:2,0:0:0:0:
122,45,64172,6,0,B|176:58|176:58|193:168,1,144,0|0,3:2|0:2,0:0:0:0:
233,218,64518,2,0,L|330:225,1,96,8|0,0:2|0:2,0:0:0:0:
421,84,64865,2,0,L|324:77,1,96,2|0,0:2|3:2,0:0:0:0:
247,38,65125,1,2,0:2:0:0:
239,15,65212,1,8,0:2:0:0:
189,145,65385,1,2,0:2:0:0:
61,4,65559,6,0,B|106:34|106:34|92:157,1,144,2|0,3:2|0:2,0:0:0:0:
38,187,65906,2,0,B|11:215|11:215|33:293,1,96,10|0,0:2|0:2,0:0:0:0:
141,362,66252,2,0,L|150:305,1,48,2|2,0:2|0:2,0:0:0:0:
200,245,66426,1,0,3:2:0:0:
323,336,66599,2,0,L|444:325,1,96,8|0,0:2|0:2,0:0:0:0:
496,101,66946,6,0,B|464:119|464:119|456:187,1,105.600003222656,0|0,3:2|0:2,0:0:0:0:
390,247,67206,1,8,2:1:0:0:
361,243,67293,1,8,2:1:0:0:
285,102,67466,1,8,2:1:0:0:
313,97,67553,1,8,2:1:0:0:
341,92,67640,5,8,0:3:0:0:
349,80,67726,1,8,0:3:0:0:
353,66,67813,1,8,0:3:0:0:
353,52,67900,1,8,0:3:0:0:
348,38,67987,1,4,0:3:0:0:
339,27,68073,1,4,0:3:0:0:
327,19,68160,1,4,0:3:0:0:
313,16,68247,1,4,0:3:0:0:
299,16,68333,6,0,L|290:112,1,76.8,6|0,0:2|0:2,0:0:0:0:
246,175,68680,6,0,P|172:182|136:132,1,134.399995898438,2|0,0:2|0:2,0:0:0:0:
115,29,69200,2,0,P|158:89|132:145,1,134.399995898438,2|0,0:2|0:2,0:0:0:0:
54,216,69721,2,0,P|84:148|146:142,1,134.399995898438,2|0,0:2|0:2,0:0:0:0:
246,175,70241,6,0,L|256:252,1,67.1999979492188,2|0,0:2|0:2,0:0:0:0:
309,318,70588,1,2,0:2:0:0:
369,246,70761,1,2,0:2:0:0:
437,311,70935,2,0,L|445:377,2,67.1999979492188,2|0|0,0:2|0:2|0:2,0:0:0:0:
369,246,71455,6,0,B|338:223|338:223|319:174|359:135,1,134.399995898438,2|0,0:2|0:2,0:0:0:0:
459,182,71975,2,0,B|423:197|423:197|371:189|358:135,1,134.399995898438,2|0,0:2|0:2,0:0:0:0:
449,72,72495,2,0,B|444:110|444:110|411:151|358:135,1,134.399995898438,2|0,0:2|0:2,0:0:0:0:
278,55,73015,6,0,P|239:36|188:32,1,67.1999979492188,2|0,0:2|0:2,0:0:0:0:
152,101,73362,1,2,0:2:0:0:
73,48,73536,1,2,0:2:0:0:
6,114,73709,2,0,L|-3:199,2,67.1999979492188,2|0|0,0:2|0:2|0:2,0:0:0:0:
74,48,74229,6,0,B|120:39|120:39|157:68|202:54,1,134.399995898438,2|0,0:2|0:2,0:0:0:0:
321,19,74750,2,0,B|305:63|305:63|262:80|251:126,1,134.399995898438,2|0,0:2|0:2,0:0:0:0:
221,246,75270,2,0,B|190:210|190:210|196:164|162:132,1,134.399995898438,2|0,0:2|0:2,0:0:0:0:
24,170,75790,6,0,L|15:255,1,67.1999979492188,2|0,0:2|0:2,0:0:0:0:
49,324,76137,1,2,0:2:0:0:
123,266,76310,1,2,0:2:0:0:
172,346,76484,2,0,B|200:361|200:361|244:354,2,67.1999979492188,2|0|0,0:2|0:2|0:2,0:0:0:0:
123,266,77004,6,0,L|124:177,1,67.1999979492188,2|0,0:2|0:2,0:0:0:0:
190,132,77351,1,2,0:2:0:0:
273,174,77524,2,0,L|352:164,1,67.1999979492188,2|0,0:2|0:2,0:0:0:0:
415,74,77871,6,0,L|348:65,1,67.1999979492188,2|0,0:2|0:2,0:0:0:0:
267,16,78218,1,2,0:2:0:0:
194,76,78391,2,0,L|182:225,1,134.399995898438,2|0,0:2|0:2,0:0:0:0:
183,209,79085,5,2,0:2:0:0:
97,169,79258,2,0,L|85:89,2,67.1999979492188,2|0|0,0:2|0:2|0:2,0:0:0:0:
183,209,79778,6,0,P|243:200|289:259,1,134.399995898438,2|0,0:2|0:2,0:0:0:0:
304,363,80299,2,0,P|266:315|294:246,1,134.399995898438,2|0,0:2|0:2,0:0:0:0:
377,182,80819,2,0,P|354:238|280:248,1,134.399995898438,2|0,0:2|0:2,0:0:0:0:
183,209,81339,6,0,L|173:132,1,67.1999979492188,2|0,0:2|0:2,0:0:0:0:
227,64,81686,1,2,0:2:0:0:
313,99,81859,1,2,0:2:0:0:
385,38,82033,2,0,B|414:24|414:24|448:32,2,67.1999979492188,2|0|0,0:2|0:2|0:2,0:0:0:0:
408,129,82553,6,0,B|437:172|437:172|406:273,1,134.399995898438,2|0,0:2|0:2,0:0:0:0:
305,194,83073,2,0,B|356:190|356:190|412:250,1,134.399995898438,2|0,0:2|0:2,0:0:0:0:
310,316,83593,2,0,B|332:269|332:269|413:250,1,134.399995898438,2|0,0:2|0:2,0:0:0:0:
512,216,84114,6,0,L|507:283,1,67.1999979492188,2|0,0:2|0:2,0:0:0:0:
433,342,84461,1,2,0:2:0:0:
412,250,84634,1,2,0:2:0:0:
342,313,84807,2,0,B|309:318|309:318|271:306,2,67.1999979492188,2|0|0,0:2|0:2|0:2,0:0:0:0:
412,250,85328,6,0,L|404:126,1,115.199996484375,2|0,0:2|0:2,0:0:0:0:
359,67,85848,2,0,B|323:95|323:95|234:74,1,115.199996484375,2|0,0:2|0:2,0:0:0:0:
180,49,86368,2,0,B|112:33|112:33|76:61,1,115.199996484375,2|0,0:2|0:2,0:0:0:0:
0,138,86888,6,0,L|14:215,1,57.5999982421876,2|0,0:2|0:2,0:0:0:0:
30,284,87235,1,2,0:2:0:0:
97,221,87409,1,2,0:2:0:0:
169,276,87582,2,0,L|240:267,1,57.5999982421876,2|0,0:2|0:2,0:0:0:0:
256,192,87842,12,0,90010,0:2:0:0:
190,90,90183,6,0,L|186:52,2,38.4,10|8|0,0:2|0:2|3:2,0:0:0:0:
94,298,90530,5,6,3:2:0:0:
46,214,90703,1,2,0:2:0:0:
177,250,90877,1,10,0:2:0:0:
129,166,91050,1,2,0:2:0:0:
74,297,91224,5,2,3:2:0:0:
46,195,91397,1,2,0:2:0:0:
176,269,91570,1,10,0:2:0:0:
148,167,91744,1,2,0:2:0:0:
53,290,91917,5,2,3:2:0:0:
53,174,92091,1,2,0:2:0:0:
169,290,92264,1,10,0:2:0:0:
169,174,92437,1,2,0:2:0:0:
29,279,92611,5,2,3:2:0:0:
64,150,92784,1,2,0:2:0:0:
159,314,92958,1,10,0:2:0:0:
193,184,93131,1,2,3:2:0:0:
13,258,93304,5,2,3:2:0:0:
85,134,93478,1,2,0:2:0:0:
137,330,93651,1,10,0:2:0:0:
209,206,93825,1,2,0:2:0:0:
2,232,93998,5,2,3:2:0:0:
111,123,94172,1,2,0:2:0:0:
111,341,94345,1,10,0:2:0:0:
220,232,94518,1,2,0:2:0:0:
0,202,94692,5,2,3:2:0:0:
141,120,94865,1,2,0:2:0:0:
81,343,95039,1,10,0:2:0:0:
223,262,95212,1,2,0:2:0:0:
6,171,95385,5,2,3:2:0:0:
222,293,95559,1,2,0:2:0:0:
278,114,95732,5,10,0:2:0:0:
327,116,95819,1,8,0:2:0:0:
367,144,95906,1,8,0:2:0:0:
407,173,95992,1,8,0:2:0:0:
456,177,96079,5,6,3:2:0:0:
291,213,96252,1,2,3:2:0:0:
454,86,96426,1,10,0:2:0:0:
245,121,96599,1,2,3:2:0:0:
479,183,96773,5,2,3:2:0:0:
273,229,96946,1,2,3:2:0:0:
472,71,97120,1,10,0:2:0:0:
221,114,97293,1,2,3:2:0:0:
415,279,97466,5,6,3:2:0:0:
296,33,97640,1,2,3:2:0:0:
324,308,97813,1,10,0:2:0:0:
388,45,97987,1,2,3:2:0:0:
426,305,98160,5,2,3:2:0:0:
283,6,98333,1,2,3:2:0:0:
317,336,98507,1,10,0:2:0:0:
395,17,98680,1,2,3:2:0:0:
508,259,98854,5,6,3:2:0:0:
446,213,98940,1,2,3:2:0:0:
369,218,99027,1,10,0:2:0:0:
210,373,99200,5,2,3:2:0:0:
280,343,99287,1,2,3:2:0:0:
315,274,99374,1,10,0:2:0:0:
260,60,99547,5,6,3:2:0:0:
251,136,99634,1,2,3:2:0:0:
293,200,99721,1,10,0:2:0:0:
508,259,99894,5,2,3:2:0:0:
446,213,99981,1,2,3:2:0:0:
369,218,100067,2,0,L|359:243,3,24,10|8|8|8,2:2|2:2|2:2|2:2,0:0:0:0:
256,192,100241,12,0,102842,0:2:0:0:
1,56,103015,6,0,B|20:64|48:53|48:53|66:68|70:86|70:86|89:80|110:79|110:79|120:127|158:146,1,216.000008239746,6|0,3:2|0:2,0:0:0:0:
250,104,103362,1,10,0:2:0:0:
340,310,103536,6,0,B|300:259|332:176|332:176|307:209|270:214,1,216.000008239746,2|0,0:2|0:2,0:0:0:0:
270,214,103883,1,2,3:2:0:0:
453,206,104056,1,8,0:2:0:0:
390,54,104229,5,2,0:2:0:0:
390,54,104316,1,2,0:2:0:0:
390,54,104403,2,0,L|383:142,1,57.5999982421876,2|0,3:2|0:2,0:0:0:0:
453,206,104576,2,0,L|460:294,1,57.5999982421876,2|0,0:2|0:2,0:0:0:0:
338,337,104750,6,0,B|299:338|264:326|264:326|234:347|234:347|192:332|135:335,1,192,10|0,0:2|0:2,0:0:0:0:
77,370,105183,1,2,0:2:0:0:
77,370,105270,2,0,L|69:311,1,48,0|0,3:2|0:2,0:0:0:0:
0,227,105443,2,0,B|57:243|57:243|91:101,1,172.799994726563,10|0,0:2|0:2,0:0:0:0:
289,75,105790,6,0,B|236:78|191:117|191:117|172:60|128:32,1,216.000008239746,2|0,3:2|0:2,0:0:0:0:
31,44,106137,1,10,0:2:0:0:
155,203,106310,6,0,B|277:215|206:295|344:313,1,216.000008239746,2|0,0:2|0:2,0:0:0:0:
331,311,106657,1,2,3:2:0:0:
149,316,106830,1,8,0:2:0:0:
338,198,107004,5,2,0:2:0:0:
338,198,107091,1,2,0:2:0:0:
338,198,107177,2,0,L|343:119,1,57.5999982421876,2|0,3:2|0:2,0:0:0:0:
138,113,107351,2,0,L|133:34,1,57.5999982421876,2|0,0:2|0:2,0:0:0:0:
289,10,107524,6,0,B|356:5|356:5|401:40|401:40|470:34,1,192,10|0,0:2|0:2,0:0:0:0:
510,111,107958,1,2,0:2:0:0:
510,111,108044,2,0,L|501:173,1,48,0|0,3:2|0:2,0:0:0:0:
425,279,108218,5,8,0:2:0:0:
371,277,108304,1,8,0:2:0:0:
325,305,108391,1,8,0:2:0:0:
279,332,108478,1,8,0:2:0:0:
225,334,108565,6,0,L|215:262,1,72,2|0,3:2|0:2,0:0:0:0:
246,184,108911,6,0,B|304:222|304:222|379:165|344:72,1,230.4,10|0,2:2|0:2,0:0:0:0:
281,21,109258,6,0,L|223:15,1,48,2|0,0:2|0:2,0:0:0:0:
98,136,109432,2,0,B|141:153|141:153|205:117,1,96,2|8,3:2|0:2,0:0:0:0:
28,31,109778,2,0,L|24:76,1,28.7999991210938,2|0,0:2|0:2,0:0:0:0:
21,135,109952,6,0,B|65:138|65:138|98:233|98:233|60:273,1,187.199991430664,2|0,3:2|0:2,0:0:0:0:
0,320,110299,1,8,0:2:0:0:
147,366,110472,2,0,L|206:356,1,48,2|0,0:2|0:2,0:0:0:0:
247,193,110646,6,0,B|237:229|237:229|247:256,1,67.1999979492188,2|0,0:2|0:2,0:0:0:0:
378,374,110819,2,0,B|388:338|388:338|377:310,1,67.1999979492188,2|0,3:2|0:2,0:0:0:0:
322,224,110992,2,0,B|277:226|246:216|246:216|205:246|205:246|169:232|96:232,1,201.599993847656,10|0,0:2|0:2,0:0:0:0:
0,163,111339,6,0,B|60:190|60:190|94:88,1,172.799994726563,2|0,3:2|0:2,0:0:0:0:
219,51,111686,2,0,B|179:21|179:21|165:154|165:154|214:134,1,230.4,10|0,0:2|0:2,0:0:0:0:
293,101,112033,6,0,L|344:96,2,38.4,2|2|2,0:2|0:2|3:2,0:0:0:0:
155,240,112380,2,0,B|194:269|194:269|209:137|209:137|164:154,1,230.4,10|0,0:2|0:2,0:0:0:0:
79,182,112726,6,0,B|156:198|156:198|194:268|194:268|279:287,1,244.80000466919,2|0,3:2|0:2,0:0:0:0:
307,188,113073,6,0,L|245:188,1,62.3999971435548,10|0,0:2|0:2,0:0:0:0:
348,341,113247,2,0,L|410:341,1,62.3999971435548,2|0,3:2|0:2,0:0:0:0:
303,202,113420,6,0,L|251:202,1,52.8000016113282,2|0,0:2|0:2,0:0:0:0:
352,327,113593,2,0,L|404:327,1,52.8000016113282,0|0,3:2|0:2,0:0:0:0:
437,110,113767,5,8,0:2:0:0:
429,135,113854,1,8,0:2:0:0:
278,286,114027,1,8,0:2:0:0:
255,215,114114,6,0,B|200:198|200:198|163:241|109:226|109:226|73:270,1,216.000008239746,6|0,3:2|0:2,0:0:0:0:
45,354,114461,1,10,0:2:0:0:
232,363,114634,6,0,B|289:341|289:341|367:389|433:323,1,216.000008239746,2|0,0:2|0:2,0:0:0:0:
430,325,114981,1,2,3:2:0:0:
255,215,115154,1,8,0:2:0:0:
458,180,115328,5,2,0:2:0:0:
458,180,115414,1,2,0:2:0:0:
458,180,115501,2,0,B|467:155|467:155|458:125,1,57.5999982421876,2|0,3:2|0:2,0:0:0:0:
389,25,115674,2,0,L|310:15,1,57.5999982421876,2|0,0:2|0:2,0:0:0:0:
223,125,115848,2,0,L|280:120,1,48,10|0,0:2|0:2,0:0:0:0:
144,15,116021,5,2,0:2:0:0:
144,15,116108,1,2,0:2:0:0:
144,15,116195,2,0,B|130:35|130:35|133:59,1,48,2|0,0:2|0:2,0:0:0:0:
223,125,116368,2,0,B|226:149|226:149|212:169,1,48,0|0,3:2|0:2,0:0:0:0:
62,202,116541,2,0,B|152:195|126:261|229:260,1,172.799994726563,10|0,0:2|0:2,0:0:0:0:
389,294,116888,6,0,B|322:259|322:259|313:341|228:363,1,216.000008239746,2|0,3:2|0:2,0:0:0:0:
135,343,117235,1,10,0:2:0:0:
266,170,117409,6,0,B|326:149|326:149|360:65|276:13,1,216.000008239746,2|0,2:2|0:2,0:0:0:0:
282,17,117755,1,2,3:2:0:0:
171,189,117929,1,8,0:2:0:0:
391,210,118102,5,2,0:2:0:0:
391,210,118189,1,2,0:2:0:0:
391,210,118276,2,0,L|447:200,1,57.5999982421876,2|0,3:2|0:2,0:0:0:0:
512,134,118449,2,0,L|506:68,1,57.5999982421876,2|0,0:0|0:0,0:0:0:0:
512,270,118622,2,0,L|502:344,1,48,8|0,0:2|0:2,0:0:0:0:
377,364,118796,5,0,0:2:0:0:
377,364,118883,1,2,0:2:0:0:
377,364,118969,2,0,L|368:297,1,48,2|0,0:2|0:2,0:0:0:0:
253,233,119143,2,0,L|246:280,1,48,2|0,3:2|0:2,0:0:0:0:
164,374,119316,5,8,0:2:0:0:
110,364,119403,1,8,0:2:0:0:
69,329,119489,1,8,0:2:0:0:
50,279,119576,1,8,0:2:0:0:
58,225,119663,6,0,L|49:153,1,72,2|0,3:2|0:2,0:0:0:0:
33,61,120010,6,0,B|161:61|94:155|231:153,1,230.4,10|0,0:2|0:2,0:0:0:0:
273,72,120357,6,0,B|249:63|249:63|226:63,1,48,2|0,0:2|0:2,0:0:0:0:
274,233,120530,2,0,B|309:206|309:206|320:155,1,96,2|8,3:2|0:2,0:0:0:0:
377,33,120877,2,0,B|370:22|370:22|366:7,1,28.7999991210938,2|0,0:2|0:2,0:0:0:0:
414,154,121050,6,0,B|357:143|357:143|291:163|291:163|230:153,1,187.199991430664,2|0,3:2|0:2,0:0:0:0:
142,106,121397,1,8,0:2:0:0:
85,234,121570,2,0,L|102:288,1,48,2|0,0:2|0:2,0:0:0:0:
220,312,121744,6,0,B|250:296|250:296|305:305,1,67.1999979492188,2|0,0:2|0:2,0:0:0:0:
431,346,121917,2,0,B|401:362|401:362|346:353,1,67.1999979492188,2|0,3:2|0:2,0:0:0:0:
303,204,122091,2,0,B|292:164|299:136|299:136|278:102|278:102|291:48|257:1,1,201.599993847656,10|0,0:2|0:2,0:0:0:0:
197,75,122437,6,0,B|249:69|249:69|312:95|312:95|371:91,1,172.799994726563,2|0,3:2|0:2,0:0:0:0:
512,68,122784,2,0,B|451:18|451:18|422:192,1,230.4,10|0,0:2|0:2,0:0:0:0:
479,247,123131,6,0,L|484:302,2,38.4,2|2|2,0:2|0:2|3:2,0:0:0:0:
337,90,123478,2,0,B|312:239|312:239|251:189,1,230.4,10|0,0:2|0:2,0:0:0:0:
206,58,123825,6,0,B|248:64|286:54|286:54|336:90|336:90|383:78|439:88,1,244.80000466919,2|0,3:2|0:2,0:0:0:0:
487,185,124172,6,0,L|478:246,1,62.3999971435548,10|0,0:2|0:2,0:0:0:0:
323,240,124345,2,0,L|331:178,1,62.3999971435548,2|0,3:2|0:2,0:0:0:0:
476,187,124518,6,0,L|468:240,1,52.8000016113282,2|0,0:2|0:2,0:0:0:0:
334,238,124692,2,0,L|341:184,1,52.8000016113282,2|0,3:2|0:2,0:0:0:0:
399,57,124865,5,8,0:2:0:0:
403,83,124952,1,8,0:2:0:0:
235,202,125125,1,8,0:2:0:0:
225,174,125212,6,0,B|177:163|177:163|131:183|131:183|79:173,1,144,6|0,3:2|0:2,0:0:0:0:
13,228,125559,2,0,L|4:130,1,96,8|0,0:2|0:2,0:0:0:0:
115,70,125906,2,0,L|111:23,2,48,2|2|2,0:2|0:2|3:2,0:0:0:0:
225,174,126252,2,0,L|244:50,1,96,8|0,0:2|0:2,0:0:0:0:
389,11,126599,6,0,L|405:233,2,192,2|8|0,3:2|0:2|0:2,0:0:0:0:
389,11,127380,1,2,0:2:0:0:
389,11,127466,1,2,3:2:0:0:
502,107,127640,1,10,0:2:0:0:
402,202,127813,1,2,0:2:0:0:
285,109,127987,6,0,B|206:108|226:147|146:146,1,144,2|0,3:2|0:2,0:0:0:0:
68,107,128333,2,0,L|77:212,1,96,8|0,0:2|0:2,0:0:0:0:
214,271,128680,2,0,L|222:223,2,48,2|2|2,0:2|0:2|3:2,0:0:0:0:
221,293,128940,1,2,0:2:0:0:
231,314,129027,1,8,0:2:0:0:
361,345,129200,1,2,0:2:0:0:
337,181,129374,6,0,B|276:166|276:166|216:199|216:199|156:184,2,192,2|8|0,3:2|0:2|0:2,0:0:0:0:
337,181,130154,1,2,0:2:0:0:
337,181,130241,1,2,3:2:0:0:
512,45,130414,5,10,0:2:0:0:
464,45,130501,1,8,0:2:0:0:
428,74,130588,1,8,0:2:0:0:
417,120,130674,1,8,0:2:0:0:
438,162,130761,6,0,B|489:209|489:209|439:341,1,192,2|8,3:2|0:2,0:0:0:0:
308,266,131281,1,2,0:2:0:0:
308,266,131368,1,2,0:2:0:0:
308,266,131455,2,0,L|301:211,2,48,2|2|2,0:2|0:2|3:2,0:0:0:0:
182,363,131802,2,0,B|134:375|134:375|69:343,1,96,10|0,0:2|0:2,0:0:0:0:
17,123,132148,5,2,3:2:0:0:
71,261,132322,1,2,0:2:0:0:
136,106,132495,5,10,0:2:0:0:
94,267,132669,1,2,0:2:0:0:
238,150,132842,5,2,0:2:0:0:
116,273,133015,1,2,3:2:0:0:
294,245,133189,5,10,0:2:0:0:
139,279,133362,1,2,0:2:0:0:
116,273,133449,1,2,0:2:0:0:
94,267,133536,6,0,B|54:221|54:221|93:64,2,192,2|8|0,3:2|0:2|0:2,0:0:0:0:
94,267,134316,1,2,0:2:0:0:
94,267,134403,1,2,3:2:0:0:
222,183,134576,2,0,L|231:80,1,96,8|0,0:2|0:2,0:0:0:0:
409,18,134923,6,0,L|417:113,1,96,0|0,3:2|0:2,0:0:0:0:
483,247,135270,1,8,0:2:0:0:
309,168,135443,1,2,3:2:0:0:
309,168,135530,1,2,0:2:0:0:
309,168,135617,1,2,0:2:0:0:
362,355,135790,1,0,3:2:0:0:
196,228,135963,5,10,0:2:0:0:
218,220,136050,1,8,0:2:0:0:
340,366,136224,1,8,0:2:0:0:
318,377,136310,6,0,B|283:344|283:344|313:233,1,144,2|0,3:2|0:2,0:0:0:0:
356,175,136657,2,0,B|384:152|384:152|382:73,1,96,8|0,0:2|0:2,0:0:0:0:
234,49,137004,2,0,L|229:-9,2,48,2|2|2,0:2|0:2|3:2,0:0:0:0:
356,175,137351,2,0,L|457:165,1,96,8|0,0:2|0:2,0:0:0:0:
234,49,137698,6,0,B|167:75|167:75|155:224,2,192,2|8|0,3:2|0:2|0:2,0:0:0:0:
234,49,138478,1,2,0:2:0:0:
234,49,138565,1,2,3:2:0:0:
353,161,138738,2,0,L|361:269,1,96,10|0,0:2|0:2,0:0:0:0:
218,345,139085,6,0,B|157:335|157:335|106:371|106:371|30:357,1,192,2|8,3:2|0:2,0:0:0:0:
39,184,139605,1,2,0:2:0:0:
39,184,139692,1,2,0:2:0:0:
39,184,139778,2,0,L|39:245,2,48,2|2|2,0:2|0:2|3:2,0:0:0:0:
46,155,140039,1,2,0:2:0:0:
63,132,140125,2,0,B|97:122|97:122|119:128|119:128|159:121,1,96,10|0,2:2|0:2,0:0:0:0:
295,15,140472,6,0,B|231:42|231:42|249:200,2,192,2|8|0,3:2|0:2|0:2,0:0:0:0:
295,15,141252,1,2,0:2:0:0:
295,15,141339,1,2,3:2:0:0:
480,167,141513,5,10,0:2:0:0:
469,121,141599,1,8,0:2:0:0:
435,88,141686,1,8,0:2:0:0:
387,81,141773,1,8,0:2:0:0:
345,103,141859,6,0,B|278:100|278:100|231:135|231:135|154:132,1,192,2|8,3:2|0:2,0:0:0:0:
33,70,142380,1,2,0:2:0:0:
33,70,142466,1,2,0:2:0:0:
33,70,142553,2,0,L|29:22,2,48,2|2|2,0:2|0:2|3:2,0:0:0:0:
42,223,142900,1,10,0:2:0:0:
164,132,143073,1,2,0:2:0:0:
238,295,143247,6,0,B|289:300|289:300|321:325|321:325|374:330,1,144,2|0,3:2|0:2,0:0:0:0:
445,384,143593,2,0,L|456:284,1,96,10|0,0:2|0:2,0:0:0:0:
492,139,143940,2,0,L|480:79,2,48,2|2|2,0:2|0:2|3:2,0:0:0:0:
488,162,144200,1,2,0:2:0:0:
483,185,144287,1,10,0:2:0:0:
317,228,144461,1,2,0:2:0:0:
388,49,144634,6,0,B|397:94|397:94|383:147|383:147|393:189,1,144,2|0,3:2|0:2,0:0:0:0:
402,212,144981,1,8,0:2:0:0:
381,26,145154,1,2,0:2:0:0:
249,132,145328,6,0,L|192:125,2,48,2|2|2,0:2|0:2|3:2,0:0:0:0:
402,212,145674,1,10,0:2:0:0:
381,26,145848,1,2,0:2:0:0:
249,132,146021,6,0,L|153:120,1,96,2|0,3:2|0:2,0:0:0:0:
9,197,146368,1,8,0:2:0:0:
11,41,146541,1,2,3:2:0:0:
11,41,146628,1,2,0:2:0:0:
11,41,146715,1,2,0:2:0:0:
153,120,146888,1,2,3:2:0:0:
283,6,147062,5,8,0:2:0:0:
259,3,147148,1,8,0:2:0:0:
222,173,147322,1,8,0:2:0:0:
240,188,147409,6,0,B|306:196|270:229|337:241,1,115.199996484375,6|0,0:2|0:2,0:0:0:0:
337,241,148102,2,0,L|348:144,2,86.3999973632813,2|2|2,0:2|0:2|0:2,0:0:0:0:
370,327,148796,5,2,0:2:0:0:
442,157,149143,1,2,0:2:0:0:
299,41,149489,2,0,L|182:28,1,115.199996484375,2|0,0:2|0:2,0:0:0:0:
0,278,150183,6,0,L|114:265,1,115.199996484375,2|0,0:2|0:2,0:0:0:0:
114,265,150877,1,2,0:2:0:0:
187,168,151137,1,2,0:2:0:0:
234,279,151397,1,2,0:2:0:0:
274,196,151570,5,2,0:2:0:0:
94,174,151917,1,2,0:2:0:0:
166,340,152264,1,2,0:2:0:0:
187,168,152611,1,2,0:2:0:0:
296,346,152958,6,0,L|418:361,1,115.199996484375,2|0,0:2|0:2,0:0:0:0:
512,168,153478,1,2,0:2:0:0:
512,168,153651,2,0,L|397:182,1,115.199996484375,2|0,0:2|0:2,0:0:0:0:
319,131,154172,1,2,0:2:0:0:
244,205,154345,6,0,L|235:266,2,57.5999982421876,2|0|0,0:2|0:2|0:2,0:0:0:0:
244,206,155039,2,0,L|236:87,1,115.199996484375,2|0,0:2|0:2,0:0:0:0:
67,61,155559,5,2,0:2:0:0:
67,61,155732,2,0,L|47:193,2,115.199996484375,2|0|0,0:2|0:2|0:2,0:0:0:0:
161,18,156599,1,2,0:2:0:0:
236,91,156773,1,2,0:2:0:0:
236,91,157120,6,0,L|332:83,1,67.1999979492188,2|0,0:2|0:2,0:0:0:0:
302,85,157380,1,2,0:2:0:0:
302,85,157466,1,2,0:2:0:0:
466,27,157640,1,2,0:2:0:0:
466,27,157813,2,0,L|370:19,1,67.1999979492188,2|0,0:2|0:2,0:0:0:0:
266,183,158160,6,0,L|258:238,2,40.8000007781983,10|8|0,0:2|0:2|3:2,0:0:0:0:
466,27,158507,6,0,B|411:39|411:39|393:157,1,158.400004833985,6|0,3:2|0:2,0:0:0:0:
450,216,158854,2,0,B|474:248|474:248|454:321,1,105.600003222656,8|0,0:2|0:2,0:0:0:0:
266,318,159200,2,0,B|242:286|242:286|259:222,1,105.600003222656,2|0,3:2|0:2,0:0:0:0:
242,127,159461,1,2,0:2:0:0:
220,111,159547,1,8,0:2:0:0:
89,223,159721,1,2,0:2:0:0:
93,15,159894,6,0,B|145:41|145:41|134:150,1,158.400004833985,2|0,3:2|0:2,0:0:0:0:
89,223,160241,2,0,B|74:258|74:258|97:338,1,105.600003222656,10|0,0:2|0:2,0:0:0:0:
281,364,160588,2,0,L|396:351,1,105.600003222656,2|0,3:2|0:2,0:0:0:0:
258,148,160935,1,8,0:2:0:0:
179,369,161108,1,0,3:2:0:0:
106,146,161281,6,0,B|159:138|159:138|198:158|198:158|260:148,1,158.400004833985,2|0,3:2|0:2,0:0:0:0:
333,206,161628,2,0,B|351:90,1,105.600003222656,8|0,0:2|0:2,0:0:0:0:
122,41,161975,2,0,B|104:157,1,105.600003222656,2|0,3:2|0:2,0:0:0:0:
68,232,162235,1,2,0:2:0:0:
42,239,162322,1,8,0:2:0:0:
158,370,162495,1,2,0:2:0:0:
312,260,162669,6,0,B|317:206|317:206|295:168|295:168|301:106,1,158.400004833985,2|0,3:2|0:2,0:0:0:0:
377,49,163015,2,0,L|501:38,1,105.600003222656,10|0,0:2|0:2,0:0:0:0:
263,24,163362,2,0,L|139:13,1,105.600003222656,2|0,3:2|0:2,0:0:0:0:
0,178,163709,5,10,0:2:0:0:
46,155,163796,1,8,0:2:0:0:
97,165,163883,1,8,0:2:0:0:
132,204,163969,1,8,0:2:0:0:
138,255,164056,5,6,3:2:0:0:
26,80,164229,1,2,3:2:0:0:
38,304,164403,1,10,0:2:0:0:
129,89,164576,1,2,3:2:0:0:
153,276,164750,5,2,3:2:0:0:
14,56,164923,1,2,3:2:0:0:
29,328,165096,1,10,0:2:0:0:
140,65,165270,1,2,3:2:0:0:
368,253,165443,5,6,3:2:0:0:
82,198,165617,1,2,3:2:0:0:
355,144,165790,1,10,0:2:0:0:
135,305,165963,1,2,3:2:0:0:
399,259,166137,5,2,3:2:0:0:
50,193,166310,1,2,3:2:0:0:
381,126,166484,1,10,0:2:0:0:
110,324,166657,1,2,3:2:0:0:
300,18,166830,5,6,3:2:0:0:
243,70,166917,1,2,3:2:0:0:
235,147,167004,1,10,0:2:0:0:
359,331,167177,5,2,3:2:0:0:
343,257,167264,1,2,3:2:0:0:
280,211,167351,1,10,0:2:0:0:
60,228,167524,5,6,3:2:0:0:
133,250,167611,1,2,3:2:0:0:
204,219,167698,1,10,0:2:0:0:
300,18,167871,5,2,3:2:0:0:
243,70,167958,1,2,3:2:0:0:
235,147,168044,2,0,L|257:161,2,26.4000008056641,10|8|8,2:2|2:2|2:2,0:0:0:0:
167,46,168218,6,0,B|48:32,1,105.600003222656,8|0,2:1|0:2,0:0:0:0:
4,95,168478,1,8,0:1:0:0:
4,126,168565,1,8,0:1:0:0:
78,294,168738,1,8,0:1:0:0:
109,291,168825,1,8,0:1:0:0:
140,289,168911,5,8,0:3:0:0:
131,278,168998,1,8,0:3:0:0:
125,265,169085,1,8,0:3:0:0:
123,251,169172,1,8,0:3:0:0:
126,238,169258,1,4,0:3:0:0:
133,225,169345,1,4,0:3:0:0:
144,215,169432,1,4,0:3:0:0:
157,211,169518,1,4,0:3:0:0:
171,208,169605,6,0,B|261:202|233:270|345:263,1,187.199991430664,4|0,3:2|0:2,0:0:0:0:
365,104,169952,2,0,P|333:126|320:161,1,76.8,10|0,0:2|0:2,0:0:0:0:
343,263,170125,2,0,P|407:239|456:178,1,144,2|0,0:2|0:2,0:0:0:0:
459,51,170472,6,0,L|381:25,1,62.3999971435548,2|0,3:2|0:2,0:0:0:0:
247,26,170646,2,0,B|201:51|147:32|147:32|201:51|216:96|214:135,1,230.4,10|0,0:2|0:2,0:0:0:0:
148,226,170992,6,0,P|209:159|197:69,1,187.199991430664,2|0,3:2|0:2,0:0:0:0:
55,67,171339,2,0,L|28:183,1,76.8,10|0,0:2|0:2,0:0:0:0:
8,241,171513,2,0,B|59:235|59:235|67:287|112:303,1,144,2|0,0:2|0:2,0:0:0:0:
207,208,171859,6,0,P|182:211|146:227,1,62.3999971435548,2|0,3:2|0:2,0:0:0:0:
298,164,172033,2,0,P|273:134|240:115,1,76.8,10|0,0:2|0:2,0:0:0:0:
382,215,172206,2,0,P|391:193|396:169,1,48,2|0,0:2|0:2,0:0:0:0:
350,17,172380,6,0,B|292:39|292:39|299:186,1,187.199991430664,0|0,3:2|0:2,0:0:0:0:
451,240,172726,2,0,B|419:217|419:217|365:213,1,76.8,10|0,0:2|0:2,0:0:0:0:
252,302,172900,2,0,B|313:334|313:334|383:307,1,144,2|0,0:2|0:2,0:0:0:0:
297,164,173247,6,0,B|296:131|296:131|312:95,1,62.3999971435548,2|0,3:2|0:2,0:0:0:0:
501,77,173420,2,0,B|472:122|472:122|412:118|412:118|354:136|354:136|296:96,1,230.4,10|0,0:2|0:2,0:0:0:0:
155,59,173767,6,0,B|196:41|196:41|237:69|237:69|286:66|286:66|308:104,1,187.199991430664,2|0,3:2|0:2,0:0:0:0:
277,241,174114,2,0,L|197:233,1,76.8,10|0,0:2|0:2,0:0:0:0:
128,244,174287,2,0,B|232:257|232:257|199:232,1,144,2|0,0:2|0:2,0:0:0:0:
89,128,174634,6,0,B|70:148|70:148|59:219,1,62.3999971435548,2|0,0:2|0:2,0:0:0:0:
140,326,174807,1,8,0:2:0:0:
192,333,174894,1,8,0:2:0:0:
244,340,174981,1,8,0:2:0:0:
296,347,175067,1,8,0:2:0:0:
349,354,175154,6,0,B|405:332|405:332|389:192,1,187.199991430664,0|0,3:2|0:2,0:0:0:0:
351,63,175501,2,0,B|328:94|328:94|333:133,1,76.8,10|0,0:2|0:2,0:0:0:0:
390,205,175674,2,0,B|458:236|458:236|506:178,1,144,2|0,0:2|0:2,0:0:0:0:
502,56,176021,6,0,B|475:38|475:38|437:39,1,62.3999971435548,2|0,3:2|0:2,0:0:0:0:
333,131,176195,2,0,B|289:142|289:142|152:101|152:101|102:115,1,230.4,10|0,0:2|0:2,0:0:0:0:
0,258,176541,6,0,B|23:140|23:140|36:173|69:194,1,187.199991430664,2|0,3:2|0:2,0:0:0:0:
188,112,176888,2,0,L|112:113,1,76.8,10|0,0:2|0:2,0:0:0:0:
23,140,177062,2,0,B|28:192|28:192|14:227|14:227|21:304,1,144,2|0,0:2|0:2,0:0:0:0:
112,321,177409,6,0,P|134:301|163:290,1,62.3999971435548,2|0,3:2|0:2,0:0:0:0:
299,370,177582,2,0,P|262:360|234:336,1,76.8,10|0,0:2|0:2,0:0:0:0:
244,206,177755,2,0,P|244:230|239:254,1,48,2|0,0:2|0:2,0:0:0:0:
112,322,177929,6,0,B|71:294|71:294|102:159,1,187.199991430664,0|0,3:2|0:2,0:0:0:0:
298,93,178276,2,0,B|275:162|200:145|200:145|189:85|137:65,1,230.4,10|0,0:2|0:2,0:0:0:0:
44,75,178622,2,0,P|20:99|5:130,1,48,2|0,0:2|0:2,0:0:0:0:
89,228,178796,6,0,L|172:222,1,62.3999971435548,2|0,3:2|0:2,0:0:0:0:
288,317,178969,2,0,L|197:307,1,76.8,10|0,0:2|0:2,0:0:0:0:
348,188,179143,5,2,0:2:0:0:
348,188,179229,1,2,0:2:0:0:
348,188,179316,2,0,L|356:249,1,62.3999971435548,2|0,3:2|0:2,0:0:0:0:
207,155,179489,2,0,L|215:93,1,48,2|0,0:2|0:2,0:0:0:0:
397,17,179663,2,0,L|386:93,1,76.8,10|0,0:2|0:2,0:0:0:0:
348,188,179836,6,0,B|302:167|289:119|289:119|254:161|203:155,1,187.199991430664,2|0,3:2|0:2,0:0:0:0:
120,91,180183,2,0,L|112:26,1,62.3999971435548,2|0,3:2|0:2,0:0:0:0:
2,184,180357,5,8,0:2:0:0:
6,214,180443,1,8,0:0:0:0:
162,309,180617,1,8,0:2:0:0:
191,295,180703,6,0,B|258:288|258:288|299:317|299:317|378:312,1,187.199991430664,4|0,3:2|0:2,0:0:0:0:
432,167,181050,2,0,L|422:266,1,76.8,10|0,0:2|0:2,0:0:0:0:
489,301,181224,2,0,B|425:269|425:269|368:312,1,144,2|0,0:2|0:2,0:0:0:0:
238,366,181570,6,0,L|227:291,1,62.3999971435548,2|0,3:2|0:2,0:0:0:0:
357,216,181744,2,0,B|308:252|308:252|208:222|242:94,1,230.4,10|0,0:2|0:2,0:0:0:0:
362,42,182091,6,0,P|283:133|211:87,1,187.199991430664,2|0,3:2|0:2,0:0:0:0:
133,35,182437,2,0,P|106:20|45:24,1,76.8,10|0,0:2|0:2,0:0:0:0:
0,88,182611,2,0,B|22:123|20:161|8:154|6:195|30:225,1,144,2|0,0:2|0:2,0:0:0:0:
169,198,182958,6,0,P|146:186|108:178,1,62.3999971435548,2|0,3:2|0:2,0:0:0:0:
268,214,183131,2,0,P|264:175|248:140,1,76.8,10|0,0:2|0:2,0:0:0:0:
308,304,183304,2,0,P|327:291|345:274,1,48,2|0,0:2|0:2,0:0:0:0:
413,113,183478,6,0,B|401:61|401:61|350:199,1,187.199991430664,2|0,3:2|0:2,0:0:0:0:
454,294,183825,2,0,B|422:271|422:271|368:267,1,76.8,10|0,0:2|0:2,0:0:0:0:
308,304,183998,2,0,B|266:296|266:296|211:321|211:321|154:308,1,144,2|0,0:2|0:2,0:0:0:0:
77,229,184345,6,0,B|91:169,1,62.3999971435548,2|0,3:2|0:2,0:0:0:0:
207,96,184518,2,0,B|145:231|145:231|91:169,1,230.4,10|0,0:2|0:2,0:0:0:0:
59,40,184865,6,0,B|81:37|95:29|95:29|112:41|122:56|122:56|138:48|155:44|155:44|170:84|217:100,1,187.199991430664,2|0,3:2|0:2,0:0:0:0:
355,62,185212,2,0,P|321:43|283:36,1,76.8,10|0,0:2|0:2,0:0:0:0:
207,96,185385,2,0,B|183:135|190:189|190:189|155:153,1,144,2|0,0:2|0:2,0:0:0:0:
59,40,185732,6,0,B|119:23,1,62.3999971435548,2|0,3:2|0:2,0:0:0:0:
283,36,185906,1,8,0:2:0:0:
299,85,185992,1,8,0:2:0:0:
315,134,186079,1,8,0:2:0:0:
331,183,186166,1,8,0:2:0:0:
347,232,186252,6,0,B|412:300|412:300|450:185,1,187.199991430664,0|0,3:2|0:2,0:0:0:0:
375,90,186599,2,0,L|287:83,1,76.8,10|0,0:2|0:2,0:0:0:0:
211,94,186773,2,0,B|324:102|324:102|300:85,1,144,2|0,0:2|0:2,0:0:0:0:
146,3,187120,6,0,B|129:31|129:31|125:77,1,62.3999971435548,2|0,3:2|0:2,0:0:0:0:
201,173,187293,2,0,B|258:179|258:179|273:292|273:292|206:324,1,230.4,10|0,0:2|0:2,0:0:0:0:
54,318,187640,6,0,B|54:270|110:240|162:252|162:252|138:273|139:303,1,187.199991430664,2|0,3:2|0:2,0:0:0:0:
269,384,187987,2,0,L|344:350,1,76.8,10|0,0:2|0:2,0:0:0:0:
397,277,188160,2,0,P|373:203|397:135,1,144,2|0,0:2|0:2,0:0:0:0:
509,62,188507,6,0,P|486:82|458:94,1,62.3999971435548,2|0,3:2|0:2,0:0:0:0:
343,68,188680,2,0,P|338:30|316:-1,1,76.8,10|0,0:2|0:2,0:0:0:0:
210,38,188854,2,0,P|199:69|173:102,1,48,2|0,0:2|0:2,0:0:0:0:
256,192,189027,12,0,191281,0:2:0:0:
132,71,191455,6,0,L|125:4,2,57.5999982421876,10|8|0,0:2|0:2|3:2,0:0:0:0:
441,120,191802,6,0,B|410:127|381:116|381:116|378:133|354:157|354:157|333:146|304:148|304:148|291:209|243:233,1,259.199992089844,6|0,3:2|0:2,0:0:0:0:
159,242,192148,1,10,0:2:0:0:
347,306,192322,5,2,0:2:0:0:
347,306,192409,1,2,0:2:0:0:
347,306,192495,2,0,L|359:225,1,67.1999979492188,2|0,0:2|0:2,0:0:0:0:
223,82,192669,2,0,L|213:148,1,67.1999979492188,2|0,3:2|0:2,0:0:0:0:
359,318,192842,6,0,L|371:237,1,67.1999979492188,10|0,0:2|0:2,0:0:0:0:
235,94,193015,2,0,L|225:160,1,67.1999979492188,2|0,0:2|0:2,0:0:0:0:
371,330,193189,6,0,L|383:249,1,67.1999979492188,2|0,3:2|0:2,0:0:0:0:
247,106,193362,2,0,L|237:172,1,67.1999979492188,2|0,0:2|0:2,0:0:0:0:
383,342,193536,6,0,L|395:261,1,67.1999979492188,10|0,2:2|0:2,0:0:0:0:
259,118,193709,2,0,L|249:184,1,67.1999979492188,2|0,0:2|0:2,0:0:0:0:
169,355,193883,5,2,0:2:0:0:
145,351,193969,1,2,0:2:0:0:
121,347,194056,1,2,3:2:0:0:
97,343,194143,1,2,3:2:0:0:
73,340,194229,6,0,B|28:311|28:311|75:201,1,144,10|0,0:2|0:2,0:0:0:0:
177,120,194576,6,0,B|220:126|260:117|260:117|285:133|305:158|305:158|357:131|428:150,1,259.199992089844,2|0,3:2|0:2,0:0:0:0:
486,229,194923,6,2,L|499:275,1,48,10|0,0:2|0:2,0:1:0:0:
362,61,195096,2,2,L|348:16,1,48,2|0,0:2|0:2,0:1:0:0:
366,222,195270,6,2,L|351:268,1,48,2|0,0:2|0:2,0:1:0:0:
484,61,195443,2,2,L|497:14,1,48,2|0,3:2|0:2,0:1:0:0:
500,275,195617,6,0,B|486:229|486:229|428:196|428:196|366:222|366:222|349:275,1,230.4,10|0,0:2|0:2,0:0:0:0:
323,384,195963,6,0,L|307:113,1,244.80000466919,2|0,3:2|0:2,0:0:0:0:
210,82,196310,6,2,L|162:84,1,48,10|0,0:2|0:2,0:1:0:0:
402,184,196484,2,2,L|449:186,1,48,2|0,0:2|0:2,0:1:0:0:
217,197,196657,6,2,L|170:207,1,48,2|0,0:2|0:2,0:1:0:0:
392,67,196830,2,2,L|439:61,1,48,2|0,3:2|0:2,0:1:0:0:
207,25,197004,5,8,0:2:0:0:
210,82,197091,1,8,0:2:0:0:
213,139,197177,1,8,0:2:0:0:
217,197,197264,1,8,0:2:0:0:
220,254,197351,6,0,L|225:339,1,72,2|0,3:2|0:2,0:0:0:0:
131,367,197698,6,0,B|102:368|82:338|82:338|131:254|80:163,1,230.4,10|0,0:2|0:2,0:0:0:0:
17,68,198044,6,0,P|8:96|4:122,1,48,2|0,0:2|0:2,0:0:0:0:
86,174,198218,2,0,P|127:153|182:154,1,96,2|8,3:2|0:2,0:0:0:0:
233,298,198565,2,0,L|219:341,1,28.7999991210938,2|0,0:2|0:2,0:0:0:0:
336,353,198738,6,0,B|372:332|372:332|453:372|506:313,1,187.199991430664,2|0,3:2|0:2,0:0:0:0:
512,213,199085,1,8,0:2:0:0:
362,158,199258,2,0,P|355:128|357:97,1,48,2|0,0:2|0:2,0:0:0:0:
512,65,199432,6,0,B|481:78|481:78|448:71,1,67.1999979492188,2|0,0:2|0:2,0:0:0:0:
303,29,199605,2,0,B|270:22|270:22|239:35,1,67.1999979492188,2|0,3:2|0:2,0:0:0:0:
193,147,199778,2,0,B|224:186|224:186|240:15,1,201.599993847656,8|0,0:2|0:2,0:0:0:0:
73,0,200125,6,0,B|11:24|11:24|25:142,1,172.799994726563,2|0,3:2|0:2,0:0:0:0:
173,239,200472,2,0,B|191:220|222:221|222:221|151:190|110:121|110:121|112:153|100:176,1,259.199992089844,10|0,0:2|0:2,0:0:0:0:
76,266,200819,6,0,L|41:291,2,38.4,2|2|2,0:2|0:2|3:2,0:0:0:0:
304,250,201166,2,0,B|321:269|351:271|351:271|278:296|231:361|231:361|235:330|227:309,1,259.199992089844,10|0,0:2|0:2,0:0:0:0:
223,221,201513,6,0,B|264:218|298:250|298:250|403:243|395:135,1,244.80000466919,2|0,3:2|0:2,0:0:0:0:
338,40,201859,6,0,L|278:23,1,62.3999971435548,10|0,0:2|0:2,0:0:0:0:
363,232,202033,2,0,L|422:248,1,62.3999971435548,2|0,3:2|0:2,0:0:0:0:
330,52,202206,6,0,L|279:38,1,52.8000016113282,2|0,0:2|0:2,0:0:0:0:
370,219,202380,2,0,L|420:232,1,52.8000016113282,2|0,3:2|0:2,0:0:0:0:
497,30,202553,5,8,0:2:0:0:
485,53,202640,1,8,0:2:0:0:
290,133,202813,1,8,0:2:0:0:
280,52,202900,6,0,B|245:45|215:67|215:67|215:39|193:6|193:6|176:32|145:31|145:31|103:3|46:21,1,288,6|0,3:2|0:2,0:0:0:0:
0,121,203247,1,10,0:2:0:0:
195,247,203420,5,2,0:2:0:0:
195,247,203507,1,2,0:2:0:0:
195,247,203593,2,0,L|202:181,1,67.1999979492188,2|0,0:2|0:2,0:0:0:0:
0,121,203767,2,0,L|-6:186,1,67.1999979492188,2|0,3:2|0:2,0:0:0:0:
78,326,203940,6,0,B|233:300|158:394|339:361,1,244.80000466919,10|0,0:2|0:2,0:0:0:0:
418,299,204287,6,0,L|425:217,1,67.1999979492188,2|0,3:2|0:2,0:0:0:0:
202,181,204461,2,0,L|195:247,1,67.1999979492188,2|0,0:2|0:2,0:0:0:0:
430,310,204634,6,0,L|437:228,1,67.1999979492188,10|0,0:2|0:2,0:0:0:0:
215,193,204807,2,0,L|208:259,1,67.1999979492188,2|0,0:2|0:2,0:0:0:0:
429,141,204981,5,2,0:2:0:0:
422,117,205067,1,2,0:2:0:0:
416,94,205154,1,2,3:2:0:0:
409,70,205241,1,2,3:2:0:0:
404,48,205328,6,0,B|355:33|355:33|319:54|319:54|264:40,1,144,10|0,0:2|0:2,0:0:0:0:
139,11,205674,6,0,B|157:103|157:103|130:174|130:174|148:262,1,259.199992089844,2|0,3:2|0:2,0:0:0:0:
231,319,206021,6,2,L|278:327,1,48,10|0,0:2|0:2,0:1:0:0:
55,229,206195,2,2,L|8:222,1,48,2|0,0:2|0:2,0:1:0:0:
221,199,206368,6,2,L|264:178,1,48,2|0,0:2|0:2,0:1:0:0:
72,350,206541,2,2,L|29:370,1,48,2|0,3:2|0:2,0:1:0:0:
278,327,206715,6,0,B|321:306|321:306|346:244|346:244|311:186|311:186|256:177,1,230.4,10|0,0:2|0:2,0:0:0:0:
134,173,207062,6,0,L|377:152,1,244.80000466919,2|0,3:2|0:2,0:0:0:0:
430,55,207409,6,2,L|426:8,1,48,10|0,0:2|0:2,0:1:0:0:
335,249,207582,2,2,L|334:296,1,48,2|0,0:2|0:2,0:1:0:0:
315,66,207755,6,2,L|303:19,1,48,2|0,0:2|0:2,0:1:0:0:
452,235,207929,2,2,L|459:281,1,48,2|0,3:2|0:2,0:1:0:0:
487,51,208102,5,8,0:2:0:0:
430,55,208189,1,8,0:2:0:0:
373,60,208276,1,8,0:2:0:0:
315,66,208362,1,8,0:2:0:0:
258,71,208449,6,0,L|173:78,1,72,2|0,3:2|0:2,0:0:0:0:
23,25,208796,6,0,B|76:1|111:48|111:48|72:111|109:178,1,230.4,10|0,0:2|0:2,0:0:0:0:
198,280,209143,6,0,L|212:234,1,48,2|0,0:2|0:2,0:0:0:0:
316,164,209316,2,0,P|357:185|413:168,1,96,2|8,3:2|0:2,0:0:0:0:
268,14,209663,5,2,0:2:0:0:
268,14,209750,1,2,0:2:0:0:
268,14,209836,2,0,L|256:95,1,67.1999979492188,2|0,3:2|0:2,0:0:0:0:
393,241,210010,2,0,L|403:175,1,67.1999979492188,2|0,0:2|0:2,0:0:0:0:
256,2,210183,6,0,L|244:83,1,67.1999979492188,10|0,0:2|0:2,0:0:0:0:
381,229,210357,2,0,L|391:163,1,67.1999979492188,2|0,0:2|0:2,0:0:0:0:
199,155,210530,6,0,B|230:167|230:167|264:163,1,67.1999979492188,2|0,0:2|0:2,0:0:0:0:
434,82,210703,2,0,B|403:70|403:70|369:74,1,67.1999979492188,2|0,3:2|0:2,0:0:0:0:
264,163,210877,2,0,B|328:241|328:241|391:163,1,201.599993847656,10|0,0:2|0:2,0:0:0:0:
512,121,211224,6,0,B|476:91|476:91|401:117|401:117|391:162,1,172.799994726563,2|0,3:2|0:2,0:0:0:0:
305,269,211570,6,0,B|286:283|269:279|261:252|267:235|293:227|314:237|330:260|328:278|373:296|416:286|446:261,1,230.4,10|0,0:2|0:2,0:0:0:0:
512,121,211917,6,0,L|497:196,1,76.8,2|0,0:2|0:2,0:0:0:0:
442,263,212091,2,0,L|427:338,1,76.8,2|0,3:2|0:2,0:0:0:0:
319,344,212264,6,0,L|304:268,1,76.8,10|0,0:2|0:2,0:0:0:0:
249,202,212437,2,0,L|234:126,1,76.8,2|0,0:2|0:2,0:0:0:0:
143,61,212611,5,2,3:2:0:0:
129,84,212698,2,0,P|101:90|54:62,1,67.1999979492188,8|0,0:2|0:2,0:0:0:0:
290,28,212871,5,0,3:2:0:0:
304,5,212958,2,0,P|332:-1|379:27,1,67.1999979492188,10|0,0:2|0:2,0:0:0:0:
469,173,213131,5,8,0:3:0:0:
413,126,213218,5,8,0:3:0:0:
380,176,213304,5,8,0:3:0:0:
332,147,213391,5,8,0:3:0:0:
309,192,213478,5,4,0:3:0:0:
269,163,213565,5,4,0:3:0:0:
247,201,213651,5,4,0:3:0:0:
220,183,213738,5,4,0:3:0:0:
210,205,213825,5,12,0:3:0:0:
190,200,213911,5,12,0:3:0:0:
182,208,213998,6,0,P|403:32|297:294,1,768,6|2,3:2|0:2,0:0:0:0:
275,209,217120,6,0,P|82:52|165:287,1,672,2|2,0:2|0:2,0:0:0:0:
192,214,219894,6,0,P|434:121|309:348,1,672,2|2,0:2|0:2,0:0:0:0:
271,266,222669,6,0,P|79:95|123:348,1,672,2|2,0:2|0:2,0:0:0:0:
190,254,225443,6,0,P|282:39|407:237,1,575.999982421876,2|0,0:2|0:2,0:0:0:0:
337,286,227351,6,0,L|324:209,2,57.5999982421876,2|2|2,0:2|0:2|0:2,0:0:0:0:
296,355,227871,2,0,P|238:366|176:330,1,115.199996484375,2|2,0:2|0:2,0:0:0:0:
173,265,228391,2,0,P|190:208|161:139,1,115.199996484375,2|2,0:2|0:2,0:0:0:0:
47,64,229085,5,2,0:2:0:0:
47,64,229258,2,0,P|105:234|181:71,1,460.7999859375,2|2,0:2|0:2,0:0:0:0:
181,71,230992,5,2,0:2:0:0:
112,142,231339,1,2,0:2:0:0:
112,142,231513,2,0,L|126:267,1,115.199996484375,2|2,0:2|0:2,0:0:0:0:
255,325,232206,5,2,0:2:0:0:
255,325,232380,2,0,P|279:172|432:196,1,345.599989453125,2|2,0:2|0:2,0:0:0:0:
416,358,233767,6,0,P|342:320|238:331,1,172.799994726563,2|2,0:2|0:2,0:0:0:0:
254,324,234634,2,0,P|183:331|126:294,1,115.199996484375,2|2,0:2|0:2,0:0:0:0:
102,180,235154,6,2,P|191:225|209:127,1,230.4,2|2,0:2|0:2,0:2:0:0:
256,192,236281,12,0,238276,0:2:0:0:
89,55,238622,5,8,0:2:0:0:
92,95,238709,1,8,0:2:0:0:
97,138,238796,1,8,0:2:0:0:
103,180,238883,1,8,0:2:0:0:
106,223,238969,5,6,3:2:0:0:
260,300,239143,1,2,0:2:0:0:
170,376,239316,2,0,L|186:227,1,144,2|0,3:2|0:2,0:0:0:0:
196,137,239663,2,0,L|185:232,1,96,0|0,3:2|0:2,0:0:0:0:
174,380,240010,1,10,0:2:0:0:
174,380,240183,1,2,0:2:0:0:
96,290,240357,5,2,3:2:0:0:
250,319,240530,1,2,0:2:0:0:
257,219,240703,1,10,0:2:0:0:
452,289,240877,1,2,0:2:0:0:
400,214,241050,5,2,3:2:0:0:
387,347,241224,1,2,0:2:0:0:
511,199,241397,1,10,0:2:0:0:
501,384,241570,1,2,3:2:0:0:
400,214,241744,5,2,3:2:0:0:
387,347,241917,1,2,0:2:0:0:
257,219,242091,2,0,L|100:192,1,144,10|0,0:2|0:2,0:0:0:0:
20,178,242437,2,0,L|136:198,1,96,2|0,3:2|0:2,0:0:0:0:
261,223,242784,1,10,0:2:0:0:
261,223,242958,1,2,0:2:0:0:
199,139,243131,5,2,3:2:0:0:
219,320,243304,1,2,0:2:0:0:
323,307,243478,1,10,0:2:0:0:
303,125,243651,1,2,0:2:0:0:
365,210,243825,1,2,3:2:0:0:
157,236,243998,1,2,0:2:0:0:
303,125,244172,5,10,0:2:0:0:
346,107,244258,1,8,0:2:0:0:
394,110,244345,1,8,0:2:0:0:
435,133,244432,1,8,0:2:0:0:
462,173,244518,5,6,3:2:0:0:
238,86,244692,1,2,3:2:0:0:
476,66,244865,1,10,0:2:0:0:
266,196,245039,1,2,3:2:0:0:
485,179,245212,5,2,3:2:0:0:
215,78,245385,1,2,3:2:0:0:
497,55,245559,1,10,0:2:0:0:
247,211,245732,1,2,3:2:0:0:
456,290,245906,5,6,3:2:0:0:
302,28,246079,1,2,3:2:0:0:
343,307,246252,1,10,0:2:0:0:
412,32,246426,1,2,3:2:0:0:
470,314,246599,5,2,3:2:0:0:
292,0,246773,1,2,3:2:0:0:
337,335,246946,1,10,0:2:0:0:
425,5,247120,1,2,3:2:0:0:
484,339,247293,5,6,3:2:0:0:
441,273,247380,1,2,3:2:0:0:
366,254,247466,1,10,0:2:0:0:
165,347,247640,5,2,3:2:0:0:
240,342,247726,1,2,3:2:0:0:
296,288,247813,1,10,0:2:0:0:
314,68,247987,5,6,3:2:0:0:
280,136,248073,1,2,3:2:0:0:
300,211,248160,1,10,0:2:0:0:
484,339,248333,5,2,3:2:0:0:
441,273,248420,1,2,3:2:0:0:
366,254,248507,2,0,L|348:273,2,24,10|8|8,2:2|2:2|2:2,0:0:0:0:
472,201,248680,6,0,L|484:72,1,96,8|0,0:1|0:2,0:0:0:0:
415,8,248940,1,8,0:1:0:0:
384,21,249027,1,8,0:1:0:0:
242,124,249200,1,8,0:1:0:0:
273,112,249287,1,8,0:1:0:0:
305,103,249374,5,8,0:3:0:0:
317,111,249461,1,8,0:3:0:0:
326,122,249547,1,8,0:3:0:0:
332,135,249634,1,8,0:3:0:0:
332,148,249721,1,4,0:3:0:0:
329,163,249807,1,4,0:3:0:0:
321,175,249894,1,4,0:3:0:0:
309,182,249981,1,4,0:3:0:0:
298,187,250067,6,0,P|277:221|275:270,1,67.1999979492188,12|8,0:2|0:2,0:0:0:0:
341,365,250241,6,0,L|367:395,1,24,0|0,3:2|3:2,0:0:0:0:
354,329,250328,2,0,L|327:308,1,24,0|0,3:2|3:2,0:0:0:0:
380,299,250414,6,0,P|395:264|395:225,1,76.8,10|0,0:2|0:2,0:0:0:0:
298,187,250588,2,0,P|239:169|230:79,1,144,2|0,0:2|0:2,0:0:0:0:
326,34,250935,6,0,L|412:31,1,62.3999971435548,2|0,3:2|0:2,0:0:0:0:
495,201,251108,2,0,B|445:143|445:143|290:188,1,230.4,10|0,0:2|0:2,0:0:0:0:
203,289,251455,6,0,P|288:273|297:186,1,187.199991430664,2|0,3:2|0:2,0:0:0:0:
177,141,251802,2,0,L|150:257,1,76.8,10|0,0:2|0:2,0:0:0:0:
70,308,251975,2,0,B|104:281|104:281|104:347|158:371,1,144,2|0,0:2|0:2,0:0:0:0:
265,287,252322,6,0,P|240:283|201:289,1,62.3999971435548,2|0,3:2|0:2,0:0:0:0:
365,268,252495,2,0,P|348:232|321:205,1,76.8,10|0,0:2|0:2,0:0:0:0:
433,339,252669,2,0,P|447:320|458:298,1,48,2|0,0:2|0:2,0:0:0:0:
492,103,252842,6,0,B|442:78|442:78|482:151|422:215,1,187.199991430664,0|0,3:2|0:2,0:0:0:0:
290,138,253189,2,0,P|298:106|318:67,1,76.8,10|0,0:2|0:2,0:0:0:0:
442,79,253362,2,0,P|384:104|312:56,1,144,2|0,0:2|0:2,0:0:0:0:
186,14,253709,6,0,P|215:29|236:58,1,62.3999971435548,2|0,3:2|0:2,0:0:0:0:
167,231,253883,2,0,B|140:200|156:162|156:162|200:131|182:79|182:79|205:43|237:53,1,230.4,10|0,0:2|0:2,0:0:0:0:
333,159,254229,6,0,B|290:180|260:150|260:150|269:76|233:51,1,187.199991430664,2|0,3:2|0:2,0:0:0:0:
100,14,254576,2,0,L|79:91,1,76.8,10|0,0:2|0:2,0:0:0:0:
79,162,254750,2,0,B|108:61|108:61|78:89,1,144,2|0,0:2|0:2,0:0:0:0:
0,206,255096,6,0,B|15:297,1,62.3999971435548,2|0,0:2|0:2,0:0:0:0:
119,364,255270,1,8,0:2:0:0:
171,357,255357,1,8,0:2:0:0:
223,350,255443,1,8,0:2:0:0:
275,343,255530,1,8,0:2:0:0:
327,336,255617,6,0,B|349:323|358:287|358:287|296:252|311:178,1,187.199991430664,0|0,3:2|0:2,0:0:0:0:
455,118,255963,2,0,P|420:132|382:133,1,76.8,10|0,0:2|0:2,0:0:0:0:
256,115,256137,2,0,P|232:73|128:49,1,144,2|0,0:2|0:2,0:0:0:0:
42,126,256484,6,0,B|56:206,1,62.3999971435548,2|0,3:2|0:2,0:0:0:0:
176,267,256657,2,0,B|310:272|240:342|386:342,1,230.4,10|0,0:2|0:2,0:0:0:0:
504,190,257004,6,0,B|535:248|481:308|481:308|468:275|435:254,1,187.199991430664,2|0,3:2|0:2,0:0:0:0:
317,162,257351,2,0,P|308:128|309:72,1,76.8,10|0,0:2|0:2,0:0:0:0:
421,46,257524,2,0,P|424:117|402:186,1,144,2|0,0:2|0:2,0:0:0:0:
267,242,257871,6,0,P|246:220|218:206,1,62.3999971435548,2|0,3:2|0:2,0:0:0:0:
76,274,258044,2,0,P|113:267|143:245,1,76.8,10|0,0:2|0:2,0:0:0:0:
145,115,258218,2,0,P|142:138|145:163,1,48,2|0,0:2|0:2,0:0:0:0:
267,242,258391,6,0,B|308:214|308:214|258:159|292:86,1,187.199991430664,0|0,3:2|0:2,0:0:0:0:
471,43,258738,2,0,B|453:6|415:1|375:28|375:28|406:86|376:140,1,230.4,10|0,0:2|0:2,0:0:0:0:
307,214,259085,2,0,L|267:241,1,48,2|0,0:2|0:2,0:0:0:0:
98,228,259258,6,0,L|92:147,1,62.3999971435548,2|0,3:2|0:2,0:0:0:0:
254,103,259432,2,0,L|259:26,1,76.8,10|0,0:2|0:2,0:0:0:0:
196,191,259605,5,2,0:2:0:0:
196,191,259692,1,2,0:2:0:0:
196,191,259778,2,0,L|186:258,1,62.3999971435548,2|0,3:2|0:2,0:0:0:0:
6,172,259952,2,0,L|14:110,1,48,2|0,0:2|0:2,0:0:0:0:
155,27,260125,2,0,L|160:104,1,76.8,10|0,0:2|0:2,0:0:0:0:
196,191,260299,6,0,B|239:169|251:121|251:121|277:165|332:171,1,187.199991430664,2|0,3:2|0:2,0:0:0:0:
429,113,260646,2,0,L|440:45,1,62.3999971435548,2|0,3:2|0:2,0:0:0:0:
512,305,260819,5,8,0:2:0:0:
508,275,260906,1,8,0:0:0:0:
297,361,261079,1,8,0:2:0:0:
268,347,261166,6,0,B|203:338|203:338|154:368|154:368|90:361,1,187.199991430664,4|0,3:2|0:2,0:0:0:0:
13,268,261513,2,0,L|7:169,1,76.8,10|0,0:2|0:2,0:0:0:0:
63,126,261686,2,0,B|106:159|106:159|199:146,1,144,2|0,0:2|0:2,0:0:0:0:
299,9,262033,6,0,L|298:87,1,62.3999971435548,2|0,3:2|0:2,0:0:0:0:
376,164,262206,2,0,B|427:186|491:176|491:176|432:198|408:249,1,230.4,10|0,0:2|0:2,0:0:0:0:
488,375,262553,6,0,P|489:286|409:249,1,187.199991430664,2|0,3:2|0:2,0:0:0:0:
269,373,262900,2,0,P|230:373|196:356,1,76.8,10|0,0:2|0:2,0:0:0:0:
153,264,263073,2,0,B|175:229|173:191|161:198|159:157|183:127,1,144,2|0,0:2|0:2,0:0:0:0:
320,154,263420,6,0,P|298:167|260:179,1,62.3999971435548,2|0,3:2|0:2,0:0:0:0:
417,129,263593,2,0,P|416:168|403:204,1,76.8,10|0,0:2|0:2,0:0:0:0:
449,36,263767,2,0,P|469:47|488:62,1,48,2|0,0:2|0:2,0:0:0:0:
461,266,263940,6,0,B|433:323|433:323|398:180,1,187.199991430664,2|0,3:2|0:2,0:0:0:0:
333,77,264287,2,0,B|295:61|295:61|247:73,1,76.8,10|0,0:2|0:2,0:0:0:0:
183,126,264461,2,0,B|213:169|213:169|165:279,1,144,2|0,0:2|0:2,0:0:0:0:
24,314,264807,6,0,B|17:249,1,62.3999971435548,2|0,3:2|0:2,0:0:0:0:
90,87,264981,2,0,B|147:76|147:76|213:170|213:170|189:223,1,230.4,10|0,0:2|0:2,0:0:0:0:
121,329,265328,6,0,B|95:288|104:231|139:207|139:207|198:225,1,187.199991430664,2|0,3:2|0:2,0:0:0:0:
368,371,265674,2,0,P|330:368|299:348,1,76.8,10|0,0:2|0:2,0:0:0:0:
274,260,265848,2,0,B|289:211|263:168|263:168|286:188|305:190,1,144,2|0,0:2|0:2,0:0:0:0:
403,139,266195,6,0,B|412:65,1,62.3999971435548,2|0,3:2|0:2,0:0:0:0:
257,20,266368,1,8,0:2:0:0:
204,23,266455,1,8,0:2:0:0:
153,27,266541,1,8,0:2:0:0:
102,32,266628,1,8,0:2:0:0:
50,36,266715,6,0,B|-2:73|-2:73|39:206,1,187.199991430664,0|0,3:2|0:2,0:0:0:0:
168,249,267062,2,0,L|256:242,1,76.8,10|0,0:2|0:2,0:0:0:0:
332,253,267235,2,0,B|219:261|219:261|243:244,1,144,2|0,0:2|0:2,0:0:0:0:
368,117,267582,6,0,B|391:135|391:135|401:166,1,62.3999971435548,2|0,3:2|0:2,0:0:0:0:
422,311,267755,2,0,B|365:305|365:305|340:254|350:192|350:192|417:160,1,230.4,10|0,0:2|0:2,0:0:0:0:
504,70,268102,6,0,P|486:159|399:166,1,187.199991430664,2|0,3:2|0:2,0:0:0:0:
321,48,268449,2,0,P|290:32|237:34,1,76.8,10|0,0:2|0:2,0:0:0:0:
189,96,268622,2,0,P|213:170|189:238,1,144,2|0,0:2|0:2,0:0:0:0:
72,308,268969,6,0,P|95:288|128:275,1,62.3999971435548,2|0,3:2|0:2,0:0:0:0:
238,302,269143,2,0,P|243:340|265:371,1,76.8,10|0,0:2|0:2,0:0:0:0:
373,319,269316,2,0,P|383:287|409:254,1,48,2|0,0:2|0:2,0:0:0:0:
256,192,269489,12,0,271744,0:2:0:0:
434,70,271917,6,0,L|441:3,2,57.5999982421876,10|8|0,2:2|0:2|3:2,0:0:0:0:
352,182,272264,6,0,B|316:190|282:176|282:176|255:207|255:207|214:198|214:198|200:244|151:269,1,244.80000466919,6|0,3:2|0:2,0:0:0:0:
24,199,272611,2,0,P|20:168|37:123,1,62.3999971435548,10|0,0:2|0:2,0:0:0:0:
87,70,272784,2,0,B|179:70|135:112|223:116,1,144,2|0,0:2|0:2,0:0:0:0:
334,67,273131,6,0,L|339:4,1,62.3999971435548,2|0,3:2|0:2,0:0:0:0:
471,87,273304,2,0,L|461:163,1,76.8,10|0,0:2|0:2,0:0:0:0:
362,228,273478,2,0,L|352:182,1,48,2|0,0:2|0:2,0:0:0:0:
222,54,273651,6,0,L|220:117,1,62.3999971435548,2|0,3:2|0:2,0:0:0:0:
246,239,273825,2,0,L|259:289,1,48,2|0,0:2|0:2,0:0:0:0:
121,230,273998,70,0,B|194:195|220:117|220:117|281:185|355:182,1,307.2,10|0,0:2|0:2,0:0:0:0:
430,188,274432,1,2,0:2:0:0:
449,172,274518,6,0,L|441:101,1,62.3999971435548,0|0,3:2|0:2,0:0:0:0:
277,44,274692,2,0,B|219:85|219:85|245:242,1,230.4,10|0,0:2|0:2,0:0:0:0:
416,291,275039,6,0,B|393:261|345:256|345:256|336:317|281:336,1,187.199991430664,2|0,3:2|0:2,0:0:0:0:
155,286,275385,2,0,L|136:196,1,76.8,10|0,0:2|0:2,0:0:0:0:
46,160,275559,2,0,P|84:226|150:194,1,144,2|0,0:2|0:2,0:0:0:0:
233,77,275906,6,0,B|251:49|251:49|298:33,1,62.3999971435548,2|0,3:2|0:2,0:0:0:0:
430,124,276079,2,0,B|367:154|367:154|279:143|279:40,1,230.4,10|0,0:2|0:2,0:0:0:0:
437,30,276426,6,0,L|424:232,1,187.199991430664,2|0,3:2|0:2,0:0:0:0:
512,315,276773,2,0,B|354:265|377:410|223:361,1,307.2,10|0,0:2|0:2,0:0:0:0:
154,322,277206,1,2,0:2:0:0:
137,303,277293,6,0,L|151:243,1,62.3999971435548,0|0,3:2|0:2,0:0:0:0:
274,162,277466,1,8,0:2:0:0:
329,159,277553,1,8,0:2:0:0:
377,188,277640,1,8,0:2:0:0:
424,216,277726,1,8,0:2:0:0:
480,217,277813,6,0,L|489:142,1,72,2|0,3:2|0:2,0:0:0:0:
434,27,278160,6,0,B|314:-1|338:104|220:75,1,230.4,10|0,0:2|0:2,0:0:0:0:
97,17,278507,6,0,L|39:11,1,48,2|0,0:2|0:2,0:0:0:0:
0,96,278680,2,0,L|13:227,1,96,2|8,3:2|0:2,0:0:0:0:
103,326,279027,2,0,L|96:367,1,28.7999991210938,2|0,0:2|0:2,0:0:0:0:
194,263,279200,6,0,B|248:255|248:255|311:289|311:289|374:280,1,187.199991430664,2|0,3:2|0:2,0:0:0:0:
454,239,279547,1,8,0:2:0:0:
386,79,279721,2,0,L|381:126,1,48,2|0,0:2|0:2,0:0:0:0:
268,13,279894,6,0,B|297:-3|297:-3|329:4,1,67.1999979492188,2|0,0:2|0:2,0:0:0:0:
357,205,280067,2,0,B|323:210|323:210|295:191,1,67.1999979492188,2|0,3:2|0:2,0:0:0:0:
210,69,280241,2,0,B|275:45|275:45|380:126,1,201.599993847656,10|0,0:2|0:2,0:0:0:0:
512,185,280588,6,0,B|446:176|446:176|419:278,1,172.799994726563,2|0,3:2|0:2,0:0:0:0:
496,366,280935,2,0,B|475:315|475:315|356:292|356:292|318:331,1,230.4,10|0,0:2|0:2,0:0:0:0:
238,359,281281,6,0,L|181:350,2,38.4,2|2|2,0:2|0:2|3:2,0:0:0:0:
419,278,281628,2,0,B|398:227|398:227|279:204|279:204|241:243,1,230.4,10|0,0:2|0:2,0:0:0:0:
200,353,281975,6,0,B|256:362|256:362|313:346|341:269|341:269|328:214,1,244.80000466919,2|0,3:2|0:2,0:0:0:0:
221,146,282322,6,0,L|161:129,1,62.3999971435548,10|0,0:2|0:2,0:0:0:0:
77,279,282495,2,0,L|136:295,1,62.3999971435548,2|0,3:2|0:2,0:0:0:0:
220,131,282669,6,0,L|169:117,1,52.8000016113282,2|0,0:2|0:2,0:0:0:0:
84,266,282842,2,0,L|134:279,1,52.8000016113282,2|0,3:2|0:2,0:0:0:0:
328,214,283015,5,8,0:2:0:0:
302,232,283102,1,8,0:2:0:0:
425,384,283276,1,8,0:2:0:0:
487,334,283362,6,0,B|496:292|469:265|469:265|480:247|500:238|500:238|472:216|480:176|480:176|511:130|479:79,1,288,6|0,3:2|0:2,0:0:0:0:
357,30,283709,2,0,L|296:46,1,62.3999971435548,10|0,0:2|0:2,0:0:0:0:
164,50,283883,2,0,B|252:73|199:102|279:128,1,144,2|0,0:2|0:2,0:0:0:0:
418,93,284229,6,0,L|479:78,1,62.3999971435548,2|0,3:2|0:2,0:0:0:0:
499,229,284403,2,0,L|416:210,1,76.8,10|0,0:2|0:2,0:0:0:0:
279,128,284576,2,0,L|340:117,1,48,2|0,0:2|0:2,0:0:0:0:
424,211,284750,6,0,L|411:283,1,62.3999971435548,2|0,3:2|0:2,0:0:0:0:
256,289,284923,2,0,L|234:236,1,48,2|0,0:2|0:2,0:0:0:0:
196,109,285096,6,0,B|282:75|282:75|255:288,1,307.2,10|0,0:2|0:2,0:0:0:0:
197,338,285530,1,2,0:2:0:0:
178,354,285617,6,0,L|113:334,1,62.3999971435548,0|0,3:2|0:2,0:0:0:0:
60,162,285790,2,0,B|118:134|188:185|135:204|208:245|265:214,1,230.4,10|0,0:2|0:2,0:0:0:0:
366,84,286137,6,0,P|278:69|226:141,1,187.199991430664,2|0,3:2|0:2,0:0:0:0:
333,269,286484,2,0,L|429:250,1,76.8,10|0,0:2|0:2,0:0:0:0:
501,305,286657,2,0,P|463:239|397:271,1,144,2|0,0:2|0:2,0:0:0:0:
327,355,287004,6,0,B|240:338,1,62.3999971435548,2|0,3:2|0:2,0:0:0:0:
121,368,287177,2,0,B|77:346|77:346|40:284|52:225|106:184,1,230.4,10|0,0:2|0:2,0:0:0:0:
225,141,287524,6,0,B|270:196|270:196|422:161,1,187.199991430664,2|0,3:2|0:2,0:0:0:0:
506,60,287871,2,0,B|493:-18|413:-9|386:38|401:100|448:111|451:78|510:149|459:223,1,307.2,10|0,0:2|0:2,0:0:0:0:
418,263,288304,1,2,0:2:0:0:
400,281,288391,6,0,L|323:268,1,62.3999971435548,0|0,3:2|0:2,0:0:0:0:
225,141,288565,1,8,0:2:0:0:
213,86,288651,1,8,0:2:0:0:
171,49,288738,1,8,0:2:0:0:
118,41,288825,1,8,0:2:0:0:
68,65,288911,6,0,L|54:140,1,72,2|0,3:2|0:2,0:0:0:0:
2,202,289258,6,0,B|55:135|55:135|80:279,1,230.4,10|0,0:2|0:2,0:0:0:0:
140,341,289605,6,0,B|163:341|163:341|187:332,1,48,2|0,0:2|0:2,0:0:0:0:
233,216,289778,2,0,B|214:174|214:174|229:119,1,96,2|8,3:2|0:2,0:0:0:0:
409,52,290125,2,0,B|418:15,1,28.7999991210938,2|0,0:2|0:2,0:0:0:0:
472,166,290299,6,0,B|406:149|406:149|355:181|355:181|288:165,1,187.199991430664,2|0,3:2|0:2,0:0:0:0:
227,125,290646,1,8,0:2:0:0:
179,342,290819,2,0,L|232:330,1,48,2|0,0:2|0:2,0:0:0:0:
316,262,290992,6,0,B|286:246|286:246|231:255,1,67.1999979492188,2|0,0:2|0:2,0:0:0:0:
382,374,291166,2,0,B|414:379|414:379|444:363,1,67.1999979492188,2|0,3:2|0:2,0:0:0:0:
503,253,291339,2,0,B|481:206|505:159|505:159|518:88|466:61,1,201.599993847656,10|0,0:2|0:2,0:0:0:0:
380,49,291686,6,0,B|326:45|326:45|277:84|277:84|207:74,1,172.799994726563,2|0,3:2|0:2,0:0:0:0:
27,84,292033,2,0,B|28:24|89:-2|151:4|151:4|128:29|126:62,1,230.4,10|0,0:2|0:2,0:0:0:0:
156,151,292380,6,0,L|141:210,2,38.4,2|2|2,0:2|0:2|3:2,0:0:0:0:
346,155,292726,2,0,B|345:95|283:68|221:75|221:75|245:100|247:133,1,230.4,10|0,0:2|0:2,0:0:0:0:
279,218,293073,6,0,B|315:293|403:268|403:268|415:214|474:193,1,244.80000466919,2|0,3:2|0:2,0:0:0:0:
512,273,293420,6,0,L|503:334,1,62.3999971435548,10|0,0:2|0:2,0:0:0:0:
346,155,293593,2,0,L|354:93,1,62.3999971435548,2|0,3:2|0:2,0:0:0:0:
501,275,293767,6,0,L|493:328,1,52.8000016113282,2|0,0:2|0:2,0:0:0:0:
357,153,293940,2,0,L|364:99,1,52.8000016113282,2|0,3:2|0:2,0:0:0:0:
512,50,294114,5,8,0:2:0:0:
508,75,294200,1,8,0:2:0:0:
380,233,294374,1,8,0:2:0:0:
353,237,294461,6,0,B|305:228|305:228|269:243|269:243|218:234,1,134.399995898438,6|0,3:2|0:2,0:0:0:0:
131,120,294981,2,0,P|222:141|222:235,1,201.599993847656,2|2,3:2|0:2,0:0:0:0:
222,235,295848,6,0,B|206:332|206:332|178:292,1,134.399995898438,2|0,3:2|0:2,0:0:0:0:
94,187,296368,2,0,B|110:90|110:90|138:130,1,134.399995898438,2|0,3:2|0:2,0:0:0:0:
222,235,296888,2,0,L|309:229,1,67.1999979492188,2|0,3:2|3:2,0:0:0:0:
401,144,297235,6,0,B|353:135|353:135|317:150|317:150|266:141,1,134.399995898438,2|0,3:2|0:2,0:0:0:0:
179,27,297755,2,0,P|270:48|270:142,1,201.599993847656,2|2,3:2|0:2,0:0:0:0:
270,142,298622,6,0,L|128:128,1,134.399995898438,2|0,3:2|0:2,0:0:0:0:
47,25,299143,2,0,B|64:44|64:44|68:104,1,67.1999979492188,2|0,3:2|0:2,0:0:0:0:
9,203,299489,1,0,3:2:0:0:
9,203,299663,1,0,3:2:0:0:
9,203,299836,1,0,3:2:0:0:
90,235,300010,6,0,B|138:226|138:226|174:241|174:241|225:232,1,134.399995898438,2|0,3:2|0:2,0:0:0:0:
312,118,300530,2,0,P|221:139|221:233,1,201.599993847656,2|2,3:2|0:2,0:0:0:0:
220,232,301397,6,0,P|285:255|280:337,1,134.399995898438,2|0,3:2|0:2,0:0:0:0:
212,373,301917,2,0,L|68:362,1,134.399995898438,2|0,3:2|0:2,0:0:0:0:
27,275,302437,2,0,P|42:255|53:208,1,67.1999979492188,2|0,3:2|3:2,0:0:0:0:
7,112,302784,6,0,P|2:177|54:215,1,134.399995898438,2|0,3:2|0:2,0:0:0:0:
153,204,303304,2,0,L|369:189,1,201.599993847656,2|2,3:2|0:2,0:0:0:0:
354,190,304172,6,0,B|403:236|403:236|448:186,1,134.399995898438,2|0,3:2|0:2,0:0:0:0:
495,96,304692,2,0,L|466:29,1,67.1999979492188,2|0,3:2|0:2,0:0:0:0:
327,0,305039,5,2,3:2:0:0:
278,134,305212,5,2,3:2:0:0:
131,7,305385,5,2,3:2:0:0:
