osu file format v14

[General]
AudioFilename: audio.mp3
AudioLeadIn: 0
PreviewTime: 169731
Countdown: 1
SampleSet: Normal
StackLeniency: 0.7
Mode: 1
LetterboxInBreaks: 0
WidescreenStoryboard: 0

[Editor]
Bookmarks: 24066,46263,57361,68459,90656,100367,103141,108690,125338,147534,169731,191927,214124,239095,250193,272390,294586,305685
DistanceSpacing: 1.5
BeatDivisor: 4
GridSize: 32
TimelineZoom: 1.9

[Metadata]
Title:Loreleied (RUON Remix)
TitleUnicode:Loreleied (RUON Remix)
Artist:ESQUARIA
ArtistUnicode:ESQUARIA
Creator:salchow
Version:Final Opus
Source:東方地霊殿 ~ Subterranean Animism.
Tags:CHICACO CleanTears ヤヤネヒロコ EXFLORA ETERNITY WISH ラストリモート Last Remote Touhou Project Koishi Komeiji ZUN dnb drum and bass drumstep
BeatmapID:1928686
BeatmapSetID:923544

[Difficulty]
HPDrainRate:4
CircleSize:2
OverallDifficulty:7
ApproachRate:10
SliderMultiplier:1.4
SliderTickRate:1

[Events]
//Background and Video events
0,0,"cropped-1920-1080-835118.png",0,0
//Break Periods
2,215711,216448
2,218486,219223
2,221260,221998
2,224035,224772
2,226809,227547
2,229584,230321
2,232359,233096
2,235133,235870
//Storyboard Layer 0 (Background)
//Storyboard Layer 1 (Fail)
//Storyboard Layer 2 (Pass)
//Storyboard Layer 3 (Foreground)
//Storyboard Sound Samples

[TimingPoints]
1870,346.820809248555,4,1,1,100,1,0
169731,-100,4,1,1,100,0,1
189153,-100,4,1,1,100,0,0
190540,-55.5555555555556,4,1,1,100,0,0
191580,-100,4,1,1,100,0,0
191927,-100,4,1,1,100,0,1
214124,-100,4,1,1,100,0,0
250540,-100,4,1,1,100,0,1
269615,-100,4,1,1,100,0,0
272390,-100,4,1,1,100,0,1
294586,-100,4,1,1,100,0,0

[HitObjects]
256,192,1870,5,0,0:0:0:0:
256,192,2043,1,0,0:0:0:0:
256,192,2216,1,8,0:0:0:0:
256,192,2390,1,8,0:0:0:0:
256,192,2737,1,0,0:0:0:0:
256,192,2910,1,8,0:0:0:0:
256,192,3257,1,0,0:0:0:0:
256,192,3430,1,8,0:0:0:0:
256,192,3604,1,0,0:0:0:0:
256,192,3950,1,8,0:0:0:0:
256,192,4124,1,0,0:0:0:0:
256,192,4297,1,8,0:0:0:0:
256,192,4644,1,0,0:0:0:0:
256,192,4817,1,8,0:0:0:0:
256,192,4991,1,8,0:0:0:0:
256,192,5164,1,0,0:0:0:0:
256,192,5511,1,0,0:0:0:0:
256,192,5685,1,8,0:0:0:0:
256,192,6031,1,0,0:0:0:0:
256,192,6205,1,8,0:0:0:0:
256,192,6378,1,8,0:0:0:0:
256,192,6725,1,8,0:0:0:0:
256,192,6898,1,0,0:0:0:0:
256,192,7072,1,8,0:0:0:0:
256,192,7159,1,8,0:0:0:0:
256,192,7245,1,8,0:0:0:0:
256,192,7332,1,8,0:0:0:0:
256,192,7419,1,0,0:0:0:0:
256,192,7592,1,0,0:0:0:0:
256,192,7765,1,8,0:0:0:0:
256,192,7939,1,8,0:0:0:0:
256,192,8286,1,0,0:0:0:0:
256,192,8459,1,8,0:0:0:0:
256,192,8806,1,0,0:0:0:0:
256,192,8979,1,8,0:0:0:0:
256,192,9153,1,0,0:0:0:0:
256,192,9499,1,8,0:0:0:0:
256,192,9673,1,0,0:0:0:0:
256,192,9846,1,8,0:0:0:0:
256,192,10193,1,0,0:0:0:0:
256,192,10366,1,8,0:0:0:0:
256,192,10540,1,8,0:0:0:0:
256,192,10713,1,0,0:0:0:0:
256,192,11060,1,0,0:0:0:0:
256,192,11234,1,8,0:0:0:0:
256,192,11580,1,0,0:0:0:0:
256,192,11754,1,8,0:0:0:0:
256,192,11927,1,8,0:0:0:0:
256,192,12101,1,0,0:0:0:0:
256,192,12274,1,8,0:0:0:0:
256,192,12447,1,0,0:0:0:0:
256,192,12621,1,8,0:0:0:0:
256,192,12708,1,8,0:0:0:0:
256,192,12794,1,8,0:0:0:0:
256,192,12881,1,8,0:0:0:0:
256,192,12968,1,0,0:0:0:0:
256,192,13141,1,0,0:0:0:0:
256,192,13315,1,8,0:0:0:0:
256,192,13401,1,8,0:0:0:0:
256,192,13488,1,0,0:0:0:0:
256,192,13661,1,8,0:0:0:0:
256,192,13748,1,8,0:0:0:0:
256,192,13835,1,0,0:0:0:0:
256,192,13922,1,8,0:0:0:0:
256,192,14008,1,8,0:0:0:0:
256,192,14182,1,8,0:0:0:0:
256,192,14355,1,0,0:0:0:0:
256,192,14442,1,0,0:0:0:0:
256,192,14528,1,0,0:0:0:0:
256,192,14702,1,8,0:0:0:0:
256,192,15049,1,0,0:0:0:0:
256,192,15222,1,0,0:0:0:0:
256,192,15396,1,8,0:0:0:0:
256,192,15569,1,8,0:0:0:0:
256,192,15656,1,8,0:0:0:0:
256,192,15742,1,0,0:0:0:0:
256,192,15916,1,0,0:0:0:0:
256,192,16089,1,8,0:0:0:0:
256,192,16176,1,0,0:0:0:0:
256,192,16263,1,8,0:0:0:0:
256,192,16436,1,8,0:0:0:0:
256,192,16523,1,8,0:0:0:0:
256,192,16609,1,0,0:0:0:0:
256,192,16696,1,0,0:0:0:0:
256,192,16783,1,8,0:0:0:0:
256,192,16956,1,8,0:0:0:0:
256,192,17130,1,0,0:0:0:0:
256,192,17216,1,0,0:0:0:0:
256,192,17390,1,0,0:0:0:0:
256,192,17476,1,8,0:0:0:0:
256,192,17823,1,8,0:0:0:0:
256,192,17910,1,8,0:0:0:0:
256,192,17997,1,0,0:0:0:0:
256,192,18170,1,8,0:0:0:0:
256,192,18257,1,8,0:0:0:0:
256,192,18343,1,8,0:0:0:0:
256,192,18430,1,8,0:0:0:0:
256,192,18517,1,0,0:0:0:0:
256,192,18690,1,0,0:0:0:0:
256,192,18864,1,8,0:0:0:0:
256,192,18950,1,8,0:0:0:0:
256,192,19037,1,0,0:0:0:0:
256,192,19210,1,8,0:0:0:0:
256,192,19297,1,8,0:0:0:0:
256,192,19384,1,0,0:0:0:0:
256,192,19471,1,8,0:0:0:0:
256,192,19557,1,8,0:0:0:0:
256,192,19731,1,8,0:0:0:0:
256,192,19904,1,0,0:0:0:0:
256,192,19991,1,0,0:0:0:0:
256,192,20077,1,0,0:0:0:0:
256,192,20251,1,8,0:0:0:0:
256,192,20598,1,0,0:0:0:0:
256,192,20771,1,0,0:0:0:0:
256,192,20945,1,8,0:0:0:0:
256,192,21118,1,8,0:0:0:0:
256,192,21205,1,8,0:0:0:0:
256,192,21291,1,0,0:0:0:0:
256,192,21465,1,0,0:0:0:0:
256,192,21638,1,8,0:0:0:0:
256,192,21725,1,0,0:0:0:0:
256,192,21812,1,8,0:0:0:0:
256,192,21985,1,8,0:0:0:0:
256,192,22072,1,8,0:0:0:0:
256,192,22158,1,0,0:0:0:0:
256,192,22245,1,0,0:0:0:0:
256,192,22332,1,8,0:0:0:0:
256,192,22505,1,8,0:0:0:0:
256,192,22679,1,8,0:0:0:0:
256,192,22765,1,0,0:0:0:0:
256,192,22939,1,0,0:0:0:0:
256,192,23026,1,8,0:0:0:0:
256,192,23199,1,0,0:0:0:0:
256,192,23286,1,0,0:0:0:0:
256,192,23372,1,8,0:0:0:0:
256,192,23459,1,8,0:0:0:0:
256,192,23546,1,0,0:0:0:0:
256,192,23633,1,0,0:0:0:0:
256,192,23719,1,8,0:0:0:0:
256,192,23806,1,8,0:0:0:0:
256,192,23892,1,0,0:0:0:0:
256,192,23979,1,8,0:0:0:0:
256,192,24066,5,4,0:0:0:0:
256,192,24239,1,8,0:0:0:0:
256,192,24326,1,8,0:0:0:0:
256,192,24413,1,0,0:0:0:0:
256,192,24586,1,0,0:0:0:0:
256,192,24760,1,8,0:0:0:0:
256,192,24846,1,8,0:0:0:0:
256,192,25020,1,8,0:0:0:0:
256,192,25106,1,8,0:0:0:0:
256,192,25280,1,0,0:0:0:0:
256,192,25453,1,8,0:0:0:0:
256,192,25540,1,8,0:0:0:0:
256,192,25627,1,0,0:0:0:0:
256,192,25800,1,8,0:0:0:0:
256,192,26147,1,0,0:0:0:0:
256,192,26320,1,0,0:0:0:0:
256,192,26494,1,8,0:0:0:0:
256,192,26841,1,0,0:0:0:0:
256,192,27014,1,8,0:0:0:0:
256,192,27101,1,0,0:0:0:0:
256,192,27187,1,8,0:0:0:0:
256,192,27361,1,0,0:0:0:0:
256,192,27534,1,8,0:0:0:0:
256,192,27621,1,0,0:0:0:0:
256,192,27794,1,8,0:0:0:0:
256,192,27881,1,0,0:0:0:0:
256,192,28054,1,8,0:0:0:0:
256,192,28228,1,0,0:0:0:0:
256,192,28315,1,0,0:0:0:0:
256,192,28401,1,0,0:0:0:0:
256,192,28575,1,8,0:0:0:0:
256,192,28922,1,0,0:0:0:0:
256,192,29095,1,0,0:0:0:0:
256,192,29268,1,8,0:0:0:0:
256,192,29355,1,8,0:0:0:0:
256,192,29442,1,0,0:0:0:0:
256,192,29528,1,0,0:0:0:0:
256,192,29615,1,8,0:0:0:0:
256,192,29789,1,0,0:0:0:0:
256,192,29962,1,8,0:0:0:0:
256,192,30049,1,0,0:0:0:0:
256,192,30135,1,8,0:0:0:0:
256,192,30309,1,8,0:0:0:0:
256,192,30482,1,0,0:0:0:0:
256,192,30569,1,8,0:0:0:0:
256,192,30656,1,8,0:0:0:0:
256,192,31002,1,0,0:0:0:0:
256,192,31089,1,0,0:0:0:0:
256,192,31176,1,8,0:0:0:0:
256,192,31349,1,8,0:0:0:0:
256,192,31436,1,0,0:0:0:0:
256,192,31609,1,0,0:0:0:0:
256,192,31696,1,8,0:0:0:0:
256,192,31783,1,8,0:0:0:0:
256,192,31870,1,0,0:0:0:0:
256,192,32043,1,8,0:0:0:0:
256,192,32216,1,0,0:0:0:0:
256,192,32390,1,8,0:0:0:0:
256,192,32737,1,8,0:0:0:0:
256,192,33083,1,0,0:0:0:0:
256,192,33257,1,0,0:0:0:0:
256,192,33430,1,8,0:0:0:0:
256,192,33604,1,8,0:0:0:0:
256,192,33777,1,0,0:0:0:0:
256,192,34124,1,8,0:0:0:0:
256,192,34297,1,0,0:0:0:0:
256,192,34644,1,0,0:0:0:0:
256,192,34817,1,8,0:0:0:0:
256,192,34904,1,8,0:0:0:0:
256,192,34991,1,8,0:0:0:0:
256,192,35078,1,8,0:0:0:0:
256,192,35164,1,0,0:0:0:0:
256,192,35511,1,8,0:0:0:0:
256,192,35685,1,0,0:0:0:0:
256,192,35771,1,0,0:0:0:0:
256,192,35858,1,8,0:0:0:0:
256,192,36031,1,0,0:0:0:0:
256,192,36205,1,8,0:0:0:0:
256,192,36291,1,8,0:0:0:0:
256,192,36465,1,0,0:0:0:0:
256,192,36552,1,8,0:0:0:0:
256,192,36725,1,0,0:0:0:0:
256,192,36898,1,8,0:0:0:0:
256,192,36985,1,8,0:0:0:0:
256,192,37072,1,0,0:0:0:0:
256,192,37159,1,0,0:0:0:0:
256,192,37245,1,8,0:0:0:0:
256,192,37419,1,0,0:0:0:0:
256,192,37592,1,8,0:0:0:0:
256,192,37939,1,8,0:0:0:0:
256,192,38112,1,0,0:0:0:0:
256,192,38199,1,8,0:0:0:0:
256,192,38286,1,8,0:0:0:0:
256,192,38459,1,8,0:0:0:0:
256,192,38633,1,0,0:0:0:0:
256,192,38719,1,8,0:0:0:0:
256,192,38806,1,0,0:0:0:0:
256,192,38979,1,8,0:0:0:0:
256,192,39066,1,8,0:0:0:0:
256,192,39239,1,8,0:0:0:0:
256,192,39326,1,0,0:0:0:0:
256,192,39500,1,0,0:0:0:0:
256,192,39586,1,0,0:0:0:0:
256,192,39673,1,8,0:0:0:0:
256,192,39846,1,8,0:0:0:0:
256,192,39933,1,0,0:0:0:0:
256,192,40020,1,8,0:0:0:0:
256,192,40193,1,0,0:0:0:0:
256,192,40367,1,8,0:0:0:0:
256,192,40453,1,8,0:0:0:0:
256,192,40540,1,8,0:0:0:0:
256,192,40627,1,8,0:0:0:0:
256,192,40713,1,0,0:0:0:0:
256,192,40887,1,0,0:0:0:0:
256,192,41060,1,8,0:0:0:0:
256,192,41407,1,0,0:0:0:0:
256,192,41580,1,0,0:0:0:0:
256,192,41754,1,8,0:0:0:0:
256,192,41841,1,8,0:0:0:0:
256,192,41927,1,0,0:0:0:0:
256,192,42101,1,8,0:0:0:0:
256,192,42187,1,0,0:0:0:0:
256,192,42361,1,8,0:0:0:0:
256,192,42448,1,8,0:0:0:0:
256,192,42621,1,0,0:0:0:0:
256,192,42794,1,8,0:0:0:0:
256,192,42881,1,8,0:0:0:0:
256,192,42968,1,0,0:0:0:0:
256,192,43054,1,0,0:0:0:0:
256,192,43141,1,8,0:0:0:0:
256,192,43315,1,8,0:0:0:0:
256,192,43488,1,0,0:0:0:0:
256,192,43835,1,8,0:0:0:0:
256,192,44008,1,0,0:0:0:0:
256,192,44355,1,0,0:0:0:0:
256,192,44528,1,8,0:0:0:0:
256,192,44702,1,8,0:0:0:0:
256,192,44875,1,0,0:0:0:0:
256,192,45222,1,8,0:0:0:0:
256,192,45396,1,0,0:0:0:0:
256,192,45742,1,0,0:0:0:0:
256,192,45916,1,8,0:0:0:0:
256,192,46002,1,0,0:0:0:0:
256,192,46089,1,8,0:0:0:0:
256,192,46176,1,0,0:0:0:0:
256,192,46263,1,12,0:0:0:0:
256,192,46436,1,0,0:0:0:0:
256,192,46523,1,0,0:0:0:0:
256,192,46609,1,8,0:0:0:0:
256,192,46783,1,0,0:0:0:0:
256,192,46956,1,8,0:0:0:0:
256,192,47043,1,0,0:0:0:0:
256,192,47216,1,8,0:0:0:0:
256,192,47303,1,8,0:0:0:0:
256,192,47476,1,0,0:0:0:0:
256,192,47563,1,0,0:0:0:0:
256,192,47650,1,8,0:0:0:0:
256,192,47737,1,8,0:0:0:0:
256,192,47910,1,0,0:0:0:0:
256,192,47997,1,8,0:0:0:0:
256,192,48083,1,8,0:0:0:0:
256,192,48170,1,0,0:0:0:0:
256,192,48343,1,8,0:0:0:0:
256,192,48430,1,8,0:0:0:0:
256,192,48517,1,0,0:0:0:0:
256,192,48604,1,0,0:0:0:0:
256,192,48690,1,8,0:0:0:0:
256,192,48864,1,0,0:0:0:0:
256,192,49037,1,8,0:0:0:0:
256,192,49124,1,8,0:0:0:0:
256,192,49211,1,0,0:0:0:0:
256,192,49384,1,8,0:0:0:0:
256,192,49731,1,8,0:0:0:0:
256,192,49817,1,0,0:0:0:0:
256,192,49991,1,0,0:0:0:0:
256,192,50078,1,8,0:0:0:0:
256,192,50251,1,8,0:0:0:0:
256,192,50338,1,8,0:0:0:0:
256,192,50424,1,0,0:0:0:0:
256,192,50511,1,0,0:0:0:0:
256,192,50685,1,0,0:0:0:0:
256,192,50771,1,8,0:0:0:0:
256,192,50858,1,8,0:0:0:0:
256,192,50945,1,0,0:0:0:0:
256,192,51118,1,0,0:0:0:0:
256,192,51205,1,0,0:0:0:0:
256,192,51291,1,8,0:0:0:0:
256,192,51378,1,0,0:0:0:0:
256,192,51465,1,8,0:0:0:0:
256,192,51552,1,8,0:0:0:0:
256,192,51638,1,8,0:0:0:0:
256,192,51725,1,8,0:0:0:0:
256,192,51812,1,0,0:0:0:0:
256,192,52159,1,8,0:0:0:0:
256,192,52332,1,8,0:0:0:0:
256,192,52679,1,0,0:0:0:0:
256,192,52852,1,8,0:0:0:0:
256,192,53026,1,8,0:0:0:0:
256,192,53112,1,8,0:0:0:0:
256,192,53199,1,0,0:0:0:0:
256,192,53372,1,0,0:0:0:0:
256,192,53546,1,8,0:0:0:0:
256,192,53633,1,0,0:0:0:0:
256,192,53719,1,8,0:0:0:0:
256,192,53893,1,8,0:0:0:0:
256,192,53979,1,0,0:0:0:0:
256,192,54066,1,0,0:0:0:0:
256,192,54153,1,0,0:0:0:0:
256,192,54239,1,8,0:0:0:0:
256,192,54413,1,8,0:0:0:0:
256,192,54500,1,0,0:0:0:0:
256,192,54586,1,8,0:0:0:0:
256,192,54760,1,0,0:0:0:0:
256,192,54933,1,8,0:0:0:0:
256,192,55280,1,8,0:0:0:0:
256,192,55453,1,0,0:0:0:0:
256,192,55627,1,8,0:0:0:0:
256,192,55974,1,8,0:0:0:0:
256,192,56060,1,8,0:0:0:0:
256,192,56147,1,0,0:0:0:0:
256,192,56320,1,8,0:0:0:0:
256,192,56494,1,0,0:0:0:0:
256,192,56841,1,0,0:0:0:0:
256,192,57014,1,8,0:0:0:0:
256,192,57101,1,0,0:0:0:0:
256,192,57187,1,8,0:0:0:0:
256,192,57274,1,0,0:0:0:0:
256,192,57361,1,12,0:0:0:0:
256,192,57534,1,0,0:0:0:0:
256,192,57621,1,0,0:0:0:0:
256,192,57707,1,8,0:0:0:0:
256,192,57881,1,0,0:0:0:0:
256,192,58054,1,8,0:0:0:0:
256,192,58141,1,0,0:0:0:0:
256,192,58314,1,8,0:0:0:0:
256,192,58401,1,8,0:0:0:0:
256,192,58574,1,0,0:0:0:0:
256,192,58661,1,0,0:0:0:0:
256,192,58748,1,8,0:0:0:0:
256,192,58835,1,8,0:0:0:0:
256,192,59008,1,0,0:0:0:0:
256,192,59095,1,8,0:0:0:0:
256,192,59181,1,8,0:0:0:0:
256,192,59268,1,0,0:0:0:0:
256,192,59441,1,8,0:0:0:0:
256,192,59528,1,8,0:0:0:0:
256,192,59615,1,0,0:0:0:0:
256,192,59702,1,0,0:0:0:0:
256,192,59789,1,8,0:0:0:0:
256,192,59962,1,0,0:0:0:0:
256,192,60135,1,8,0:0:0:0:
256,192,60222,1,8,0:0:0:0:
256,192,60309,1,0,0:0:0:0:
256,192,60482,1,8,0:0:0:0:
256,192,60829,1,8,0:0:0:0:
256,192,60915,1,0,0:0:0:0:
256,192,61089,1,0,0:0:0:0:
256,192,61176,1,8,0:0:0:0:
256,192,61349,1,8,0:0:0:0:
256,192,61436,1,8,0:0:0:0:
256,192,61522,1,0,0:0:0:0:
256,192,61609,1,0,0:0:0:0:
256,192,61783,1,0,0:0:0:0:
256,192,61869,1,8,0:0:0:0:
256,192,61956,1,8,0:0:0:0:
256,192,62043,1,0,0:0:0:0:
256,192,62216,1,0,0:0:0:0:
256,192,62303,1,0,0:0:0:0:
256,192,62389,1,8,0:0:0:0:
256,192,62476,1,0,0:0:0:0:
256,192,62563,1,8,0:0:0:0:
256,192,62650,1,8,0:0:0:0:
256,192,62736,1,8,0:0:0:0:
256,192,62823,1,8,0:0:0:0:
256,192,62910,1,4,0:0:0:0:
256,192,63257,1,8,0:0:0:0:
256,192,63430,1,8,0:0:0:0:
256,192,63777,1,0,0:0:0:0:
256,192,63950,1,8,0:0:0:0:
256,192,64124,1,8,0:0:0:0:
256,192,64210,1,8,0:0:0:0:
256,192,64297,1,0,0:0:0:0:
256,192,64470,1,0,0:0:0:0:
256,192,64644,1,8,0:0:0:0:
256,192,64731,1,0,0:0:0:0:
256,192,64817,1,8,0:0:0:0:
256,192,64991,1,8,0:0:0:0:
256,192,65077,1,0,0:0:0:0:
256,192,65164,1,0,0:0:0:0:
256,192,65251,1,0,0:0:0:0:
256,192,65337,1,8,0:0:0:0:
256,192,65511,1,8,0:0:0:0:
256,192,65598,1,0,0:0:0:0:
256,192,65684,1,8,0:0:0:0:
256,192,65858,1,0,0:0:0:0:
256,192,66031,1,8,0:0:0:0:
256,192,66378,1,8,0:0:0:0:
256,192,66551,1,0,0:0:0:0:
256,192,66725,1,8,0:0:0:0:
256,192,67072,1,8,0:0:0:0:
256,192,67158,1,8,0:0:0:0:
256,192,67245,1,0,0:0:0:0:
256,192,67418,1,8,0:0:0:0:
256,192,67592,1,0,0:0:0:0:
256,192,67765,1,0,0:0:0:0:
256,192,67852,1,0,0:0:0:0:
256,192,67939,1,0,0:0:0:0:
256,192,68112,1,8,0:0:0:0:
256,192,68199,1,0,0:0:0:0:
256,192,68285,1,0,0:0:0:0:
256,192,68372,1,0,0:0:0:0:
256,192,68459,1,12,0:0:0:0:
256,192,68806,1,8,0:0:0:0:
256,192,69326,1,8,0:0:0:0:
256,192,69846,1,8,0:0:0:0:
256,192,70367,1,0,0:0:0:0:
256,192,70713,1,0,0:0:0:0:
256,192,70887,1,0,0:0:0:0:
256,192,71060,1,0,0:0:0:0:
256,192,71234,1,8,0:0:0:0:
256,192,71580,1,8,0:0:0:0:
256,192,72101,1,8,0:0:0:0:
256,192,72621,1,8,0:0:0:0:
256,192,73141,1,0,0:0:0:0:
256,192,73488,1,0,0:0:0:0:
256,192,73661,1,0,0:0:0:0:
256,192,73835,1,0,0:0:0:0:
256,192,74008,1,8,0:0:0:0:
256,192,74355,1,8,0:0:0:0:
256,192,74875,1,8,0:0:0:0:
256,192,75396,1,8,0:0:0:0:
256,192,75916,1,0,0:0:0:0:
256,192,76263,1,0,0:0:0:0:
256,192,76436,1,0,0:0:0:0:
256,192,76609,1,0,0:0:0:0:
256,192,76783,1,8,0:0:0:0:
256,192,77130,1,0,0:0:0:0:
256,192,77476,1,8,0:0:0:0:
256,192,77650,1,0,0:0:0:0:
256,192,77997,1,0,0:0:0:0:
256,192,78170,1,8,0:0:0:0:
256,192,78343,1,0,0:0:0:0:
256,192,78517,1,8,0:0:0:0:
256,192,78864,1,8,0:0:0:0:
256,192,79211,1,0,0:0:0:0:
256,192,79384,1,8,0:0:0:0:
256,192,79557,1,0,0:0:0:0:
256,192,79904,1,8,0:0:0:0:
256,192,80424,1,8,0:0:0:0:
256,192,80944,1,8,0:0:0:0:
256,192,81465,1,0,0:0:0:0:
256,192,81811,1,0,0:0:0:0:
256,192,81985,1,0,0:0:0:0:
256,192,82158,1,0,0:0:0:0:
256,192,82332,1,8,0:0:0:0:
256,192,82678,1,8,0:0:0:0:
256,192,83199,1,8,0:0:0:0:
256,192,83719,1,8,0:0:0:0:
256,192,84239,1,0,0:0:0:0:
256,192,84586,1,0,0:0:0:0:
256,192,84759,1,0,0:0:0:0:
256,192,84933,1,0,0:0:0:0:
256,192,85106,1,8,0:0:0:0:
256,192,85453,1,8,0:0:0:0:
256,192,85973,1,8,0:0:0:0:
256,192,86494,1,8,0:0:0:0:
256,192,87014,1,0,0:0:0:0:
256,192,87361,1,0,0:0:0:0:
256,192,87534,1,0,0:0:0:0:
256,192,87707,1,0,0:0:0:0:
256,192,87881,1,8,0:0:0:0:
256,192,88228,1,8,0:0:0:0:
256,192,88748,1,8,0:0:0:0:
256,192,89268,1,0,0:0:0:0:
256,192,90135,1,0,0:0:0:0:
256,192,90309,1,8,0:0:0:0:
256,192,90396,1,8,0:0:0:0:
256,192,90482,1,0,0:0:0:0:
256,192,90656,1,12,0:0:0:0:
256,192,91002,1,8,0:0:0:0:
256,192,91349,1,8,0:0:0:0:
256,192,91696,1,8,0:0:0:0:
256,192,91870,1,0,0:0:0:0:
256,192,92043,1,12,0:0:0:0:
256,192,92389,1,8,0:0:0:0:
256,192,92736,1,8,0:0:0:0:
256,192,93083,1,8,0:0:0:0:
256,192,93257,1,0,0:0:0:0:
256,192,93430,1,12,0:0:0:0:
256,192,93776,1,8,0:0:0:0:
256,192,94123,1,8,0:0:0:0:
256,192,94470,1,8,0:0:0:0:
256,192,94644,1,0,0:0:0:0:
256,192,94817,1,12,0:0:0:0:
256,192,95163,1,8,0:0:0:0:
256,192,95510,1,8,0:0:0:0:
256,192,95858,1,8,0:0:0:0:
256,192,95945,1,0,0:0:0:0:
256,192,96031,1,0,0:0:0:0:
256,192,96118,1,0,0:0:0:0:
256,192,96205,1,12,0:0:0:0:
256,192,96378,1,0,0:0:0:0:
256,192,96552,1,8,0:0:0:0:
256,192,96725,1,0,0:0:0:0:
256,192,96898,1,8,0:0:0:0:
256,192,97072,1,0,0:0:0:0:
256,192,97245,1,8,0:0:0:0:
256,192,97419,1,0,0:0:0:0:
256,192,97505,1,0,0:0:0:0:
256,192,97592,1,12,0:0:0:0:
256,192,97765,1,8,0:0:0:0:
256,192,97939,1,0,0:0:0:0:
256,192,98112,1,0,0:0:0:0:
256,192,98286,1,8,0:0:0:0:
256,192,98459,1,8,0:0:0:0:
256,192,98633,1,0,0:0:0:0:
256,192,98806,1,0,0:0:0:0:
256,192,98893,1,0,0:0:0:0:
256,192,98979,1,12,0:0:0:0:
256,192,99153,1,0,0:0:0:0:
256,192,99326,1,0,0:0:0:0:
256,192,99413,1,0,0:0:0:0:
256,192,99500,1,8,0:0:0:0:
256,192,99673,1,8,0:0:0:0:
256,192,99760,1,8,0:0:0:0:
256,192,99846,1,8,0:0:0:0:
256,192,100020,1,0,0:0:0:0:
256,192,100106,1,0,0:0:0:0:
256,192,100193,1,8,0:0:0:0:
256,192,100251,1,8,0:0:0:0:
256,192,100309,1,8,0:0:0:0:
256,192,100367,1,0,0:0:0:0:
256,192,100453,12,0,103054,0:0:0:0:
256,192,103141,5,12,0:0:0:0:
256,192,103315,1,0,0:0:0:0:
256,192,103401,1,0,0:0:0:0:
256,192,103488,1,0,0:0:0:0:
256,192,103661,1,12,0:0:0:0:
256,192,103835,1,0,0:0:0:0:
256,192,103922,1,0,0:0:0:0:
256,192,104008,1,0,0:0:0:0:
256,192,104182,1,8,0:0:0:0:
256,192,104355,1,8,0:0:0:0:
256,192,104442,1,8,0:0:0:0:
256,192,104528,1,0,0:0:0:0:
256,192,104702,1,0,0:0:0:0:
256,192,104875,1,8,0:0:0:0:
256,192,104962,1,8,0:0:0:0:
256,192,105049,1,8,0:0:0:0:
256,192,105222,1,0,0:0:0:0:
256,192,105396,1,0,0:0:0:0:
256,192,105482,1,0,0:0:0:0:
256,192,105569,1,8,0:0:0:0:
256,192,105656,1,8,0:0:0:0:
256,192,105742,1,0,0:0:0:0:
256,192,105916,5,12,0:0:0:0:
256,192,106090,1,0,0:0:0:0:
256,192,106176,1,0,0:0:0:0:
256,192,106263,1,0,0:0:0:0:
256,192,106436,1,12,0:0:0:0:
256,192,106610,1,0,0:0:0:0:
256,192,106697,1,0,0:0:0:0:
256,192,106783,1,0,0:0:0:0:
256,192,106957,1,8,0:0:0:0:
256,192,107130,1,8,0:0:0:0:
256,192,107217,1,8,0:0:0:0:
256,192,107303,1,0,0:0:0:0:
256,192,107477,1,0,0:0:0:0:
256,192,107650,1,8,0:0:0:0:
256,192,107737,1,8,0:0:0:0:
256,192,107824,1,8,0:0:0:0:
256,192,107997,1,0,0:0:0:0:
256,192,108171,1,0,0:0:0:0:
256,192,108257,5,0,0:0:0:0:
256,192,108344,1,8,0:0:0:0:
256,192,108431,1,0,0:0:0:0:
256,192,108517,1,8,0:0:0:0:
256,192,108690,5,4,0:0:0:0:
256,192,109037,1,12,0:0:0:0:
256,192,109211,1,0,0:0:0:0:
256,192,109297,1,0,0:0:0:0:
256,192,109384,1,8,0:0:0:0:
256,192,109557,1,0,0:0:0:0:
256,192,109731,1,8,0:0:0:0:
256,192,109817,1,8,0:0:0:0:
256,192,109991,1,8,0:0:0:0:
256,192,110078,1,0,0:0:0:0:
256,192,110251,1,0,0:0:0:0:
256,192,110424,1,8,0:0:0:0:
256,192,110598,1,0,0:0:0:0:
256,192,110685,1,0,0:0:0:0:
256,192,110771,1,8,0:0:0:0:
256,192,110945,1,0,0:0:0:0:
256,192,111118,1,8,0:0:0:0:
256,192,111205,1,8,0:0:0:0:
256,192,111378,1,8,0:0:0:0:
256,192,111465,1,0,0:0:0:0:
256,192,111638,1,0,0:0:0:0:
256,192,111811,1,8,0:0:0:0:
256,192,111898,1,8,0:0:0:0:
256,192,111985,1,8,0:0:0:0:
256,192,112071,1,8,0:0:0:0:
256,192,112158,1,0,0:0:0:0:
256,192,112331,1,0,0:0:0:0:
256,192,112505,1,8,0:0:0:0:
256,192,112591,1,0,0:0:0:0:
256,192,112678,1,8,0:0:0:0:
256,192,112852,1,0,0:0:0:0:
256,192,112938,1,0,0:0:0:0:
256,192,113112,1,0,0:0:0:0:
256,192,113198,1,8,0:0:0:0:
256,192,113372,1,0,0:0:0:0:
256,192,113546,1,8,0:0:0:0:
256,192,113719,1,0,0:0:0:0:
256,192,113805,1,0,0:0:0:0:
256,192,113892,1,8,0:0:0:0:
256,192,113979,1,8,0:0:0:0:
256,192,114065,1,8,0:0:0:0:
256,192,114152,1,8,0:0:0:0:
256,192,114239,1,0,0:0:0:0:
256,192,114586,1,12,0:0:0:0:
256,192,114760,1,0,0:0:0:0:
256,192,114846,1,0,0:0:0:0:
256,192,114933,1,8,0:0:0:0:
256,192,115106,1,8,0:0:0:0:
256,192,115193,1,0,0:0:0:0:
256,192,115280,1,8,0:0:0:0:
256,192,115453,1,8,0:0:0:0:
256,192,115627,1,0,0:0:0:0:
256,192,115887,1,0,0:0:0:0:
256,192,115974,1,8,0:0:0:0:
256,192,116147,1,0,0:0:0:0:
256,192,116320,1,8,0:0:0:0:
256,192,116407,1,0,0:0:0:0:
256,192,116494,1,8,0:0:0:0:
256,192,116667,1,8,0:0:0:0:
256,192,117014,1,8,0:0:0:0:
256,192,117187,1,0,0:0:0:0:
256,192,117274,1,0,0:0:0:0:
256,192,117361,1,8,0:0:0:0:
256,192,117534,1,8,0:0:0:0:
256,192,117708,1,0,0:0:0:0:
256,192,117881,1,8,0:0:0:0:
256,192,117968,1,0,0:0:0:0:
256,192,118054,1,8,0:0:0:0:
256,192,118401,1,8,0:0:0:0:
256,192,118488,1,0,0:0:0:0:
256,192,118575,1,0,0:0:0:0:
256,192,118748,1,8,0:0:0:0:
256,192,118835,1,0,0:0:0:0:
256,192,118922,1,8,0:0:0:0:
256,192,119095,1,8,0:0:0:0:
256,192,119268,1,0,0:0:0:0:
256,192,119442,1,8,0:0:0:0:
256,192,119528,1,8,0:0:0:0:
256,192,119615,1,8,0:0:0:0:
256,192,119702,1,0,0:0:0:0:
256,192,119789,1,8,0:0:0:0:
256,192,120136,1,4,0:0:0:0:
256,192,120309,1,0,0:0:0:0:
256,192,120395,1,0,0:0:0:0:
256,192,120482,1,8,0:0:0:0:
256,192,120655,1,0,0:0:0:0:
256,192,120829,1,8,0:0:0:0:
256,192,120915,1,8,0:0:0:0:
256,192,121089,1,8,0:0:0:0:
256,192,121176,1,0,0:0:0:0:
256,192,121349,1,0,0:0:0:0:
256,192,121522,1,8,0:0:0:0:
256,192,121696,1,0,0:0:0:0:
256,192,121783,1,0,0:0:0:0:
256,192,121869,1,8,0:0:0:0:
256,192,122043,1,0,0:0:0:0:
256,192,122216,1,8,0:0:0:0:
256,192,122303,1,8,0:0:0:0:
256,192,122476,1,8,0:0:0:0:
256,192,122563,1,0,0:0:0:0:
256,192,122736,1,0,0:0:0:0:
256,192,122909,1,8,0:0:0:0:
256,192,122996,1,8,0:0:0:0:
256,192,123083,1,8,0:0:0:0:
256,192,123169,1,8,0:0:0:0:
256,192,123256,1,0,0:0:0:0:
256,192,123429,1,0,0:0:0:0:
256,192,123603,1,8,0:0:0:0:
256,192,123689,1,0,0:0:0:0:
256,192,123776,1,8,0:0:0:0:
256,192,123950,1,0,0:0:0:0:
256,192,124036,1,0,0:0:0:0:
256,192,124210,1,0,0:0:0:0:
256,192,124296,1,8,0:0:0:0:
256,192,124470,1,0,0:0:0:0:
256,192,124644,1,8,0:0:0:0:
256,192,124817,1,0,0:0:0:0:
256,192,124903,1,0,0:0:0:0:
256,192,124990,1,8,0:0:0:0:
256,192,125077,1,8,0:0:0:0:
256,192,125163,1,8,0:0:0:0:
256,192,125250,1,8,0:0:0:0:
256,192,125338,1,4,0:0:0:0:
256,192,125511,1,8,0:0:0:0:
256,192,125598,1,8,0:0:0:0:
256,192,125685,1,0,0:0:0:0:
256,192,125858,1,0,0:0:0:0:
256,192,126032,1,8,0:0:0:0:
256,192,126118,1,8,0:0:0:0:
256,192,126292,1,8,0:0:0:0:
256,192,126378,1,8,0:0:0:0:
256,192,126552,1,0,0:0:0:0:
256,192,126725,1,8,0:0:0:0:
256,192,126812,1,8,0:0:0:0:
256,192,126899,1,0,0:0:0:0:
256,192,127072,1,8,0:0:0:0:
256,192,127419,1,0,0:0:0:0:
256,192,127592,1,0,0:0:0:0:
256,192,127766,1,8,0:0:0:0:
256,192,128113,1,0,0:0:0:0:
256,192,128286,1,8,0:0:0:0:
256,192,128373,1,0,0:0:0:0:
256,192,128459,1,8,0:0:0:0:
256,192,128633,1,0,0:0:0:0:
256,192,128806,1,8,0:0:0:0:
256,192,128893,1,0,0:0:0:0:
256,192,129066,1,8,0:0:0:0:
256,192,129153,1,0,0:0:0:0:
256,192,129326,1,8,0:0:0:0:
256,192,129500,1,0,0:0:0:0:
256,192,129587,1,0,0:0:0:0:
256,192,129673,1,0,0:0:0:0:
256,192,129847,1,8,0:0:0:0:
256,192,130194,1,0,0:0:0:0:
256,192,130367,1,0,0:0:0:0:
256,192,130540,1,8,0:0:0:0:
256,192,130627,1,8,0:0:0:0:
256,192,130714,1,0,0:0:0:0:
256,192,130800,1,0,0:0:0:0:
256,192,130887,1,8,0:0:0:0:
256,192,131061,1,0,0:0:0:0:
256,192,131234,1,8,0:0:0:0:
256,192,131321,1,0,0:0:0:0:
256,192,131407,1,8,0:0:0:0:
256,192,131581,1,8,0:0:0:0:
256,192,131754,1,0,0:0:0:0:
256,192,131841,1,8,0:0:0:0:
256,192,131928,1,8,0:0:0:0:
256,192,132274,1,0,0:0:0:0:
256,192,132361,1,0,0:0:0:0:
256,192,132448,1,8,0:0:0:0:
256,192,132621,1,8,0:0:0:0:
256,192,132708,1,0,0:0:0:0:
256,192,132881,1,0,0:0:0:0:
256,192,132968,1,8,0:0:0:0:
256,192,133055,1,8,0:0:0:0:
256,192,133142,1,0,0:0:0:0:
256,192,133315,1,8,0:0:0:0:
256,192,133488,1,0,0:0:0:0:
256,192,133662,1,8,0:0:0:0:
256,192,134009,1,8,0:0:0:0:
256,192,134355,1,0,0:0:0:0:
256,192,134529,1,0,0:0:0:0:
256,192,134702,1,8,0:0:0:0:
256,192,134876,1,8,0:0:0:0:
256,192,135049,1,0,0:0:0:0:
256,192,135396,1,8,0:0:0:0:
256,192,135569,1,0,0:0:0:0:
256,192,135916,1,0,0:0:0:0:
256,192,136089,1,8,0:0:0:0:
256,192,136176,1,8,0:0:0:0:
256,192,136263,1,8,0:0:0:0:
256,192,136350,1,8,0:0:0:0:
256,192,136436,1,0,0:0:0:0:
256,192,136783,1,8,0:0:0:0:
256,192,136957,1,0,0:0:0:0:
256,192,137043,1,0,0:0:0:0:
256,192,137130,1,8,0:0:0:0:
256,192,137303,1,0,0:0:0:0:
256,192,137477,1,8,0:0:0:0:
256,192,137563,1,8,0:0:0:0:
256,192,137737,1,0,0:0:0:0:
256,192,137824,1,8,0:0:0:0:
256,192,137997,1,0,0:0:0:0:
256,192,138170,1,8,0:0:0:0:
256,192,138257,1,8,0:0:0:0:
256,192,138344,1,0,0:0:0:0:
256,192,138431,1,0,0:0:0:0:
256,192,138517,1,8,0:0:0:0:
256,192,138691,1,0,0:0:0:0:
256,192,138864,1,8,0:0:0:0:
256,192,139211,1,8,0:0:0:0:
256,192,139384,1,0,0:0:0:0:
256,192,139471,1,8,0:0:0:0:
256,192,139558,1,8,0:0:0:0:
256,192,139731,1,8,0:0:0:0:
256,192,139905,1,0,0:0:0:0:
256,192,139991,1,8,0:0:0:0:
256,192,140078,1,0,0:0:0:0:
256,192,140251,1,8,0:0:0:0:
256,192,140338,1,8,0:0:0:0:
256,192,140511,1,8,0:0:0:0:
256,192,140598,1,0,0:0:0:0:
256,192,140772,1,0,0:0:0:0:
256,192,140858,1,0,0:0:0:0:
256,192,140945,1,8,0:0:0:0:
256,192,141118,1,8,0:0:0:0:
256,192,141205,1,0,0:0:0:0:
256,192,141292,1,8,0:0:0:0:
256,192,141465,1,0,0:0:0:0:
256,192,141639,1,8,0:0:0:0:
256,192,141725,1,8,0:0:0:0:
256,192,141812,1,8,0:0:0:0:
256,192,141899,1,8,0:0:0:0:
256,192,141985,1,0,0:0:0:0:
256,192,142159,1,0,0:0:0:0:
256,192,142332,1,8,0:0:0:0:
256,192,142679,1,0,0:0:0:0:
256,192,142852,1,0,0:0:0:0:
256,192,143026,1,8,0:0:0:0:
256,192,143113,1,8,0:0:0:0:
256,192,143199,1,0,0:0:0:0:
256,192,143373,1,8,0:0:0:0:
256,192,143459,1,0,0:0:0:0:
256,192,143633,1,8,0:0:0:0:
256,192,143720,1,8,0:0:0:0:
256,192,143893,1,0,0:0:0:0:
256,192,144066,1,8,0:0:0:0:
256,192,144153,1,8,0:0:0:0:
256,192,144240,1,0,0:0:0:0:
256,192,144326,1,0,0:0:0:0:
256,192,144413,1,8,0:0:0:0:
256,192,144587,1,8,0:0:0:0:
256,192,144760,1,0,0:0:0:0:
256,192,145107,1,8,0:0:0:0:
256,192,145280,1,0,0:0:0:0:
256,192,145627,1,0,0:0:0:0:
256,192,145800,1,8,0:0:0:0:
256,192,145974,1,8,0:0:0:0:
256,192,146147,1,0,0:0:0:0:
256,192,146494,1,8,0:0:0:0:
256,192,146668,1,0,0:0:0:0:
256,192,147014,1,0,0:0:0:0:
256,192,147188,1,8,0:0:0:0:
256,192,147274,1,0,0:0:0:0:
256,192,147361,1,8,0:0:0:0:
256,192,147448,1,0,0:0:0:0:
256,192,147535,1,12,0:0:0:0:
256,192,148228,1,8,0:0:0:0:
256,192,148488,1,8,0:0:0:0:
256,192,148748,1,8,0:0:0:0:
256,192,148922,1,0,0:0:0:0:
256,192,149268,1,0,0:0:0:0:
256,192,149615,1,0,0:0:0:0:
256,192,150309,1,8,0:0:0:0:
256,192,151002,1,0,0:0:0:0:
256,192,151263,1,0,0:0:0:0:
256,192,151523,1,0,0:0:0:0:
256,192,151696,1,8,0:0:0:0:
256,192,152043,1,8,0:0:0:0:
256,192,152390,1,8,0:0:0:0:
256,192,152737,1,0,0:0:0:0:
256,192,153083,1,8,0:0:0:0:
256,192,153604,1,8,0:0:0:0:
256,192,154471,1,0,0:0:0:0:
256,192,155164,1,8,0:0:0:0:
256,192,155511,1,0,0:0:0:0:
256,192,155685,1,8,0:0:0:0:
256,192,156205,1,8,0:0:0:0:
256,192,156552,1,8,0:0:0:0:
256,192,157245,1,0,0:0:0:0:
256,192,157765,1,8,0:0:0:0:
256,192,158286,1,8,0:0:0:0:
256,192,158372,1,8,0:0:0:0:
256,192,158459,1,0,0:0:0:0:
256,192,158633,1,12,0:0:0:0:
256,192,158979,1,8,0:0:0:0:
256,192,159326,1,0,0:0:0:0:
256,192,159586,1,0,0:0:0:0:
256,192,159673,1,8,0:0:0:0:
256,192,159846,1,0,0:0:0:0:
256,192,160020,1,8,0:0:0:0:
256,192,160367,1,8,0:0:0:0:
256,192,160713,1,8,0:0:0:0:
256,192,161060,1,0,0:0:0:0:
256,192,161234,1,0,0:0:0:0:
256,192,161407,1,8,0:0:0:0:
256,192,161754,1,8,0:0:0:0:
256,192,162014,1,0,0:0:0:0:
256,192,162101,1,8,0:0:0:0:
256,192,162274,1,8,0:0:0:0:
256,192,162448,1,0,0:0:0:0:
256,192,162621,1,8,0:0:0:0:
256,192,162794,1,0,0:0:0:0:
256,192,163141,1,0,0:0:0:0:
256,192,163488,1,0,0:0:0:0:
256,192,163835,1,0,0:0:0:0:
256,192,163922,1,8,0:0:0:0:
256,192,164008,1,8,0:0:0:0:
256,192,164095,1,8,0:0:0:0:
256,192,164182,1,4,0:0:0:0:
256,192,164355,1,0,0:0:0:0:
256,192,164528,1,0,0:0:0:0:
256,192,164702,1,8,0:0:0:0:
256,192,164875,1,8,0:0:0:0:
256,192,165049,1,8,0:0:0:0:
256,192,165222,1,0,0:0:0:0:
256,192,165396,1,0,0:0:0:0:
256,192,165569,1,12,0:0:0:0:
256,192,165742,1,0,0:0:0:0:
256,192,165916,1,0,0:0:0:0:
256,192,166089,1,0,0:0:0:0:
256,192,166263,1,8,0:0:0:0:
256,192,166436,1,0,0:0:0:0:
256,192,166609,1,0,0:0:0:0:
256,192,166783,1,0,0:0:0:0:
256,192,166956,1,8,0:0:0:0:
256,192,167043,1,0,0:0:0:0:
256,192,167130,1,8,0:0:0:0:
256,192,167303,1,8,0:0:0:0:
256,192,167390,1,8,0:0:0:0:
256,192,167476,1,0,0:0:0:0:
256,192,167650,1,8,0:0:0:0:
256,192,167737,1,8,0:0:0:0:
256,192,167823,1,0,0:0:0:0:
256,192,167910,1,0,0:0:0:0:
256,192,167997,1,8,0:0:0:0:
256,192,168083,1,8,0:0:0:0:
256,192,168170,1,0,0:0:0:0:
256,192,168228,1,0,0:0:0:0:
256,192,168286,1,0,0:0:0:0:
256,192,168343,1,8,0:0:0:0:
256,192,168517,1,0,0:0:0:0:
256,192,168604,1,8,0:0:0:0:
256,192,168690,1,8,0:0:0:0:
256,192,168864,1,8,0:0:0:0:
256,192,169037,1,0,0:0:0:0:
256,192,169124,1,0,0:0:0:0:
256,192,169211,1,8,0:0:0:0:
256,192,169384,1,0,0:0:0:0:
256,192,169731,5,12,0:0:0:0:
256,192,169904,1,0,0:0:0:0:
256,192,169991,1,0,0:0:0:0:
256,192,170078,1,8,0:0:0:0:
256,192,170251,1,8,0:0:0:0:
256,192,170424,1,0,0:0:0:0:
256,192,170511,1,0,0:0:0:0:
256,192,170598,1,8,0:0:0:0:
256,192,170685,1,0,0:0:0:0:
256,192,170771,1,8,0:0:0:0:
256,192,170945,1,0,0:0:0:0:
256,192,171118,1,8,0:0:0:0:
256,192,171205,1,0,0:0:0:0:
256,192,171378,1,0,0:0:0:0:
256,192,171465,1,8,0:0:0:0:
256,192,171638,1,0,0:0:0:0:
256,192,171725,1,8,0:0:0:0:
256,192,171812,1,8,0:0:0:0:
256,192,171985,1,0,0:0:0:0:
256,192,172159,1,8,0:0:0:0:
256,192,172245,1,0,0:0:0:0:
256,192,172332,1,8,0:0:0:0:
256,192,172419,1,8,0:0:0:0:
256,192,172505,1,0,0:0:0:0:
256,192,172765,1,0,0:0:0:0:
256,192,172852,1,8,0:0:0:0:
256,192,173026,1,8,0:0:0:0:
256,192,173112,1,0,0:0:0:0:
256,192,173199,1,8,0:0:0:0:
256,192,173372,1,0,0:0:0:0:
256,192,173546,1,8,0:0:0:0:
256,192,173633,1,8,0:0:0:0:
256,192,173719,1,0,0:0:0:0:
256,192,173806,1,8,0:0:0:0:
256,192,173893,1,0,0:0:0:0:
256,192,174153,1,0,0:0:0:0:
256,192,174239,1,8,0:0:0:0:
256,192,174413,1,8,0:0:0:0:
256,192,174586,1,0,0:0:0:0:
256,192,174673,1,0,0:0:0:0:
256,192,174760,1,8,0:0:0:0:
256,192,174933,1,8,0:0:0:0:
256,192,175020,1,0,0:0:0:0:
256,192,175106,1,8,0:0:0:0:
256,192,175193,1,0,0:0:0:0:
256,192,175280,1,8,0:0:0:0:
256,192,175540,1,0,0:0:0:0:
256,192,175627,1,8,0:0:0:0:
256,192,175800,1,8,0:0:0:0:
256,192,175887,1,8,0:0:0:0:
256,192,175974,1,0,0:0:0:0:
256,192,176147,1,0,0:0:0:0:
256,192,176320,1,8,0:0:0:0:
256,192,176407,1,0,0:0:0:0:
256,192,176494,1,0,0:0:0:0:
256,192,176580,1,0,0:0:0:0:
256,192,176667,1,8,0:0:0:0:
256,192,176841,1,0,0:0:0:0:
256,192,177014,1,8,0:0:0:0:
256,192,177101,1,0,0:0:0:0:
256,192,177187,1,8,0:0:0:0:
256,192,177361,1,0,0:0:0:0:
256,192,177534,1,8,0:0:0:0:
256,192,177708,1,8,0:0:0:0:
256,192,177794,1,0,0:0:0:0:
256,192,177881,1,8,0:0:0:0:
256,192,177968,1,8,0:0:0:0:
256,192,178054,1,0,0:0:0:0:
256,192,178401,1,8,0:0:0:0:
256,192,178488,1,8,0:0:0:0:
256,192,178575,1,0,0:0:0:0:
256,192,178748,1,8,0:0:0:0:
256,192,178835,1,0,0:0:0:0:
256,192,178922,1,8,0:0:0:0:
256,192,179095,1,8,0:0:0:0:
256,192,179268,1,0,0:0:0:0:
256,192,179355,1,0,0:0:0:0:
256,192,179442,1,8,0:0:0:0:
256,192,179615,1,0,0:0:0:0:
256,192,179789,1,8,0:0:0:0:
256,192,179875,1,8,0:0:0:0:
256,192,179962,1,0,0:0:0:0:
256,192,180049,1,8,0:0:0:0:
256,192,180135,1,8,0:0:0:0:
256,192,180309,1,0,0:0:0:0:
256,192,180482,1,8,0:0:0:0:
256,192,180569,1,0,0:0:0:0:
256,192,180656,1,0,0:0:0:0:
256,192,180742,1,0,0:0:0:0:
256,192,180829,1,12,0:0:0:0:
256,192,181002,1,0,0:0:0:0:
256,192,181089,1,0,0:0:0:0:
256,192,181176,1,8,0:0:0:0:
256,192,181349,1,8,0:0:0:0:
256,192,181522,1,0,0:0:0:0:
256,192,181609,1,0,0:0:0:0:
256,192,181696,1,8,0:0:0:0:
256,192,181783,1,0,0:0:0:0:
256,192,181869,1,8,0:0:0:0:
256,192,182043,1,0,0:0:0:0:
256,192,182216,1,8,0:0:0:0:
256,192,182303,1,0,0:0:0:0:
256,192,182476,1,0,0:0:0:0:
256,192,182563,1,8,0:0:0:0:
256,192,182736,1,0,0:0:0:0:
256,192,182823,1,8,0:0:0:0:
256,192,182910,1,8,0:0:0:0:
256,192,183083,1,0,0:0:0:0:
256,192,183257,1,8,0:0:0:0:
256,192,183343,1,0,0:0:0:0:
256,192,183430,1,8,0:0:0:0:
256,192,183517,1,8,0:0:0:0:
256,192,183603,1,0,0:0:0:0:
256,192,183863,1,0,0:0:0:0:
256,192,183950,1,8,0:0:0:0:
256,192,184124,1,8,0:0:0:0:
256,192,184210,1,0,0:0:0:0:
256,192,184297,1,8,0:0:0:0:
256,192,184470,1,0,0:0:0:0:
256,192,184644,1,8,0:0:0:0:
256,192,184731,1,8,0:0:0:0:
256,192,184817,1,0,0:0:0:0:
256,192,184904,1,8,0:0:0:0:
256,192,184991,1,0,0:0:0:0:
256,192,185251,1,0,0:0:0:0:
256,192,185337,1,8,0:0:0:0:
256,192,185511,1,8,0:0:0:0:
256,192,185684,1,0,0:0:0:0:
256,192,185771,1,0,0:0:0:0:
256,192,185858,1,8,0:0:0:0:
256,192,186031,1,8,0:0:0:0:
256,192,186118,1,0,0:0:0:0:
256,192,186204,1,8,0:0:0:0:
256,192,186291,1,0,0:0:0:0:
256,192,186378,1,8,0:0:0:0:
256,192,186638,1,0,0:0:0:0:
256,192,186725,1,8,0:0:0:0:
256,192,186898,1,8,0:0:0:0:
256,192,186985,1,8,0:0:0:0:
256,192,187072,1,0,0:0:0:0:
256,192,187245,1,0,0:0:0:0:
256,192,187418,1,8,0:0:0:0:
256,192,187505,1,0,0:0:0:0:
256,192,187592,1,0,0:0:0:0:
256,192,187678,1,0,0:0:0:0:
256,192,187765,1,8,0:0:0:0:
256,192,187939,1,0,0:0:0:0:
256,192,188112,1,8,0:0:0:0:
256,192,188199,1,0,0:0:0:0:
256,192,188285,1,8,0:0:0:0:
256,192,188459,1,0,0:0:0:0:
256,192,188632,1,8,0:0:0:0:
256,192,188806,1,8,0:0:0:0:
256,192,188892,1,0,0:0:0:0:
256,192,188979,1,8,0:0:0:0:
256,192,189066,1,8,0:0:0:0:
256,192,189152,1,0,0:0:0:0:
256,192,189500,8,0,191407,0:0:0:0:
256,192,191580,5,8,0:0:0:0:
256,192,191667,1,8,0:0:0:0:
256,192,191754,1,0,0:0:0:0:
256,192,191927,1,4,0:0:0:0:
256,192,192274,1,12,0:0:0:0:
256,192,192448,1,0,0:0:0:0:
256,192,192534,1,0,0:0:0:0:
256,192,192621,1,8,0:0:0:0:
256,192,192794,1,0,0:0:0:0:
256,192,192968,1,8,0:0:0:0:
256,192,193054,1,8,0:0:0:0:
256,192,193228,1,8,0:0:0:0:
256,192,193315,1,0,0:0:0:0:
256,192,193488,1,0,0:0:0:0:
256,192,193661,1,8,0:0:0:0:
256,192,193835,1,0,0:0:0:0:
256,192,193922,1,0,0:0:0:0:
256,192,194008,1,8,0:0:0:0:
256,192,194182,1,0,0:0:0:0:
256,192,194355,1,8,0:0:0:0:
256,192,194442,1,8,0:0:0:0:
256,192,194615,1,8,0:0:0:0:
256,192,194702,1,0,0:0:0:0:
256,192,194875,1,0,0:0:0:0:
256,192,195049,1,8,0:0:0:0:
256,192,195092,1,8,0:0:0:0:
256,192,195222,1,0,0:0:0:0:
256,192,195265,1,0,0:0:0:0:
256,192,195396,1,8,0:0:0:0:
256,192,195439,1,8,0:0:0:0:
256,192,195569,1,0,0:0:0:0:
256,192,195612,1,0,0:0:0:0:
256,192,195742,1,8,0:0:0:0:
256,192,195785,1,8,0:0:0:0:
256,192,195916,1,0,0:0:0:0:
256,192,196089,1,12,0:0:0:0:
256,192,196436,1,8,0:0:0:0:
256,192,196479,1,8,0:0:0:0:
256,192,196609,1,0,0:0:0:0:
256,192,196653,1,0,0:0:0:0:
256,192,196783,1,8,0:0:0:0:
256,192,196826,1,8,0:0:0:0:
256,192,196956,1,0,0:0:0:0:
256,192,197000,1,0,0:0:0:0:
256,192,197130,1,8,0:0:0:0:
256,192,197216,1,8,0:0:0:0:
256,192,197303,1,8,0:0:0:0:
256,192,197390,1,8,0:0:0:0:
256,192,197476,1,0,0:0:0:0:
256,192,197823,1,12,0:0:0:0:
256,192,197997,1,0,0:0:0:0:
256,192,198083,1,0,0:0:0:0:
256,192,198170,1,8,0:0:0:0:
256,192,198343,1,8,0:0:0:0:
256,192,198430,1,0,0:0:0:0:
256,192,198517,1,8,0:0:0:0:
256,192,198690,1,8,0:0:0:0:
256,192,198864,1,0,0:0:0:0:
256,192,199124,1,0,0:0:0:0:
256,192,199211,1,8,0:0:0:0:
256,192,199384,1,0,0:0:0:0:
256,192,199557,1,8,0:0:0:0:
256,192,199644,1,0,0:0:0:0:
256,192,199731,1,8,0:0:0:0:
256,192,199904,1,8,0:0:0:0:
256,192,200251,1,8,0:0:0:0:
256,192,200424,1,0,0:0:0:0:
256,192,200511,1,0,0:0:0:0:
256,192,200598,1,8,0:0:0:0:
256,192,200771,1,8,0:0:0:0:
256,192,200945,1,0,0:0:0:0:
256,192,201118,1,8,0:0:0:0:
256,192,201205,1,0,0:0:0:0:
256,192,201291,1,8,0:0:0:0:
256,192,201638,1,8,0:0:0:0:
256,192,201725,1,0,0:0:0:0:
256,192,201812,1,0,0:0:0:0:
256,192,201985,1,8,0:0:0:0:
256,192,202072,1,0,0:0:0:0:
256,192,202159,1,8,0:0:0:0:
256,192,202332,1,8,0:0:0:0:
256,192,202505,1,0,0:0:0:0:
256,192,202679,1,8,0:0:0:0:
256,192,202765,1,8,0:0:0:0:
256,192,202939,1,0,0:0:0:0:
256,192,203026,1,8,0:0:0:0:
256,192,203373,1,4,0:0:0:0:
256,192,203546,1,0,0:0:0:0:
256,192,203632,1,0,0:0:0:0:
256,192,203719,1,8,0:0:0:0:
256,192,203892,1,0,0:0:0:0:
256,192,204066,1,8,0:0:0:0:
256,192,204152,1,8,0:0:0:0:
256,192,204326,1,8,0:0:0:0:
256,192,204413,1,0,0:0:0:0:
256,192,204586,1,0,0:0:0:0:
256,192,204759,1,8,0:0:0:0:
256,192,204933,1,0,0:0:0:0:
256,192,205020,1,0,0:0:0:0:
256,192,205106,1,8,0:0:0:0:
256,192,205280,1,0,0:0:0:0:
256,192,205453,1,8,0:0:0:0:
256,192,205540,1,8,0:0:0:0:
256,192,205713,1,8,0:0:0:0:
256,192,205800,1,0,0:0:0:0:
256,192,205973,1,0,0:0:0:0:
256,192,206147,1,8,0:0:0:0:
256,192,206190,1,8,0:0:0:0:
256,192,206320,1,0,0:0:0:0:
256,192,206363,1,0,0:0:0:0:
256,192,206494,1,8,0:0:0:0:
256,192,206537,1,8,0:0:0:0:
256,192,206667,1,0,0:0:0:0:
256,192,206710,1,0,0:0:0:0:
256,192,206840,1,8,0:0:0:0:
256,192,206883,1,8,0:0:0:0:
256,192,207014,1,0,0:0:0:0:
256,192,207187,1,12,0:0:0:0:
256,192,207534,1,8,0:0:0:0:
256,192,207577,1,8,0:0:0:0:
256,192,207707,1,0,0:0:0:0:
256,192,207751,1,0,0:0:0:0:
256,192,207881,1,8,0:0:0:0:
256,192,207924,1,8,0:0:0:0:
256,192,208054,1,0,0:0:0:0:
256,192,208098,1,0,0:0:0:0:
256,192,208228,1,8,0:0:0:0:
256,192,208314,1,8,0:0:0:0:
256,192,208401,1,8,0:0:0:0:
256,192,208488,1,8,0:0:0:0:
256,192,208574,1,0,0:0:0:0:
256,192,208922,1,12,0:0:0:0:
256,192,209096,1,0,0:0:0:0:
256,192,209182,1,0,0:0:0:0:
256,192,209269,1,8,0:0:0:0:
256,192,209442,1,8,0:0:0:0:
256,192,209529,1,0,0:0:0:0:
256,192,209616,1,8,0:0:0:0:
256,192,209789,1,8,0:0:0:0:
256,192,209963,1,0,0:0:0:0:
256,192,210223,1,0,0:0:0:0:
256,192,210310,1,8,0:0:0:0:
256,192,210483,1,0,0:0:0:0:
256,192,210656,1,8,0:0:0:0:
256,192,210743,1,0,0:0:0:0:
256,192,210830,1,8,0:0:0:0:
256,192,211003,1,8,0:0:0:0:
256,192,211350,1,8,0:0:0:0:
256,192,211523,1,0,0:0:0:0:
256,192,211610,1,0,0:0:0:0:
256,192,211697,1,8,0:0:0:0:
256,192,211870,1,8,0:0:0:0:
256,192,212044,1,0,0:0:0:0:
256,192,212217,1,8,0:0:0:0:
256,192,212304,1,0,0:0:0:0:
256,192,212390,1,8,0:0:0:0:
256,192,212737,1,0,0:0:0:0:
256,192,212910,1,8,0:0:0:0:
256,192,212997,1,8,0:0:0:0:
256,192,213083,1,0,0:0:0:0:
256,192,213257,1,8,0:0:0:0:
256,192,213343,1,0,0:0:0:0:
256,192,213430,1,8,0:0:0:0:
256,192,213517,1,0,0:0:0:0:
256,192,213604,1,8,0:0:0:0:
256,192,213690,1,8,0:0:0:0:
256,192,213777,1,0,0:0:0:0:
256,192,213864,1,0,0:0:0:0:
256,192,213950,1,8,0:0:0:0:
256,192,214124,1,12,0:0:0:0:
256,192,214817,1,8,0:0:0:0:
256,192,215511,1,8,0:0:0:0:
256,192,216898,5,8,0:0:0:0:
256,192,217592,1,8,0:0:0:0:
256,192,218286,1,8,0:0:0:0:
256,192,219673,5,8,0:0:0:0:
256,192,220367,1,8,0:0:0:0:
256,192,221060,1,8,0:0:0:0:
256,192,222448,5,8,0:0:0:0:
256,192,223141,1,8,0:0:0:0:
288,192,223835,1,8,0:0:0:0:
256,192,225222,5,8,0:0:0:0:
256,192,225916,1,8,0:0:0:0:
256,192,226609,1,8,0:0:0:0:
256,192,227997,5,8,0:0:0:0:
256,192,228690,1,8,0:0:0:0:
256,192,229384,1,8,0:0:0:0:
256,192,230771,5,8,0:0:0:0:
256,192,231465,1,8,0:0:0:0:
256,192,232159,1,8,0:0:0:0:
256,192,233546,5,8,0:0:0:0:
256,192,234239,1,8,0:0:0:0:
256,192,234933,1,8,0:0:0:0:
256,192,236320,5,0,0:0:0:0:
256,192,236494,8,0,238575,0:0:0:0:
256,192,238748,5,8,0:0:0:0:
256,192,238835,1,8,0:0:0:0:
256,192,238922,1,8,0:0:0:0:
256,192,239008,1,8,0:0:0:0:
256,192,239095,1,4,0:0:0:0:
256,192,239268,1,0,0:0:0:0:
256,192,239355,1,8,0:0:0:0:
256,192,239442,1,8,0:0:0:0:
256,192,239615,1,0,0:0:0:0:
256,192,239789,1,8,0:0:0:0:
256,192,239875,1,8,0:0:0:0:
256,192,239962,1,0,0:0:0:0:
256,192,240049,1,8,0:0:0:0:
256,192,240135,1,8,0:0:0:0:
256,192,240309,1,8,0:0:0:0:
256,192,240482,1,8,0:0:0:0:
256,192,240569,1,0,0:0:0:0:
256,192,240742,1,0,0:0:0:0:
256,192,240829,1,8,0:0:0:0:
256,192,241002,1,0,0:0:0:0:
256,192,241176,1,8,0:0:0:0:
256,192,241263,1,0,0:0:0:0:
256,192,241349,1,0,0:0:0:0:
256,192,241436,1,8,0:0:0:0:
256,192,241523,1,8,0:0:0:0:
256,192,241696,1,0,0:0:0:0:
256,192,241870,1,8,0:0:0:0:
256,192,242043,1,0,0:0:0:0:
256,192,242130,1,8,0:0:0:0:
256,192,242217,1,8,0:0:0:0:
256,192,242390,1,0,0:0:0:0:
256,192,242564,1,8,0:0:0:0:
256,192,242650,1,8,0:0:0:0:
256,192,242737,1,0,0:0:0:0:
256,192,242824,1,8,0:0:0:0:
256,192,242910,1,8,0:0:0:0:
256,192,243084,1,8,0:0:0:0:
256,192,243257,1,8,0:0:0:0:
256,192,243344,1,0,0:0:0:0:
256,192,243517,1,0,0:0:0:0:
256,192,243604,1,8,0:0:0:0:
256,192,243777,1,0,0:0:0:0:
256,192,243951,1,8,0:0:0:0:
256,192,244038,1,0,0:0:0:0:
256,192,244124,1,8,0:0:0:0:
256,192,244211,1,0,0:0:0:0:
256,192,244298,1,8,0:0:0:0:
256,192,244384,1,8,0:0:0:0:
256,192,244471,1,8,0:0:0:0:
256,192,244557,1,8,0:0:0:0:
256,192,244644,1,4,0:0:0:0:
256,192,244817,1,0,0:0:0:0:
256,192,244991,1,8,0:0:0:0:
256,192,245078,1,8,0:0:0:0:
256,192,245164,1,0,0:0:0:0:
256,192,245338,1,0,0:0:0:0:
256,192,245424,1,0,0:0:0:0:
256,192,245511,1,0,0:0:0:0:
256,192,245685,1,8,0:0:0:0:
256,192,245858,1,8,0:0:0:0:
256,192,246031,1,4,0:0:0:0:
256,192,246204,1,0,0:0:0:0:
256,192,246378,1,8,0:0:0:0:
256,192,246465,1,8,0:0:0:0:
256,192,246551,1,0,0:0:0:0:
256,192,246725,1,0,0:0:0:0:
256,192,246811,1,0,0:0:0:0:
256,192,246898,1,0,0:0:0:0:
256,192,247072,1,8,0:0:0:0:
256,192,247245,1,8,0:0:0:0:
256,192,247419,1,8,0:0:0:0:
256,192,247505,1,0,0:0:0:0:
256,192,247592,1,8,0:0:0:0:
256,192,247679,1,8,0:0:0:0:
256,192,247765,1,0,0:0:0:0:
256,192,247852,1,0,0:0:0:0:
256,192,247939,1,8,0:0:0:0:
256,192,248026,1,0,0:0:0:0:
256,192,248112,1,8,0:0:0:0:
256,192,248199,1,0,0:0:0:0:
256,192,248286,1,8,0:0:0:0:
256,192,248372,1,8,0:0:0:0:
256,192,248459,1,0,0:0:0:0:
256,192,248546,1,0,0:0:0:0:
256,192,248633,1,8,0:0:0:0:
256,192,248690,1,8,0:0:0:0:
256,192,248748,1,8,0:0:0:0:
256,192,248806,1,8,0:0:0:0:
256,192,249066,1,8,0:0:0:0:
256,192,249153,1,0,0:0:0:0:
256,192,249326,1,8,0:0:0:0:
256,192,249413,1,8,0:0:0:0:
256,192,249500,1,0,0:0:0:0:
256,192,249586,1,0,0:0:0:0:
256,192,249673,1,0,0:0:0:0:
256,192,249846,1,8,0:0:0:0:
256,192,250193,1,8,0:0:0:0:
256,192,250367,1,0,0:0:0:0:
256,192,250424,1,0,0:0:0:0:
256,192,250482,1,0,0:0:0:0:
256,192,250540,1,8,0:0:0:0:
256,192,250713,1,0,0:0:0:0:
256,192,250886,1,0,0:0:0:0:
256,192,250973,1,0,0:0:0:0:
256,192,251060,1,8,0:0:0:0:
256,192,251147,1,0,0:0:0:0:
256,192,251233,1,8,0:0:0:0:
256,192,251407,1,0,0:0:0:0:
256,192,251580,1,8,0:0:0:0:
256,192,251667,1,0,0:0:0:0:
256,192,251840,1,0,0:0:0:0:
256,192,251927,1,8,0:0:0:0:
256,192,252100,1,0,0:0:0:0:
256,192,252187,1,8,0:0:0:0:
256,192,252274,1,8,0:0:0:0:
256,192,252447,1,0,0:0:0:0:
256,192,252621,1,8,0:0:0:0:
256,192,252707,1,0,0:0:0:0:
256,192,252794,1,8,0:0:0:0:
256,192,252881,1,8,0:0:0:0:
256,192,252967,1,0,0:0:0:0:
256,192,253227,1,0,0:0:0:0:
256,192,253314,1,8,0:0:0:0:
256,192,253488,1,8,0:0:0:0:
256,192,253574,1,0,0:0:0:0:
256,192,253661,1,8,0:0:0:0:
256,192,253834,1,0,0:0:0:0:
256,192,254008,1,8,0:0:0:0:
256,192,254095,1,8,0:0:0:0:
256,192,254181,1,0,0:0:0:0:
256,192,254268,1,8,0:0:0:0:
256,192,254355,1,0,0:0:0:0:
256,192,254615,1,0,0:0:0:0:
256,192,254701,1,8,0:0:0:0:
256,192,254875,1,8,0:0:0:0:
256,192,255048,1,0,0:0:0:0:
256,192,255135,1,0,0:0:0:0:
256,192,255222,1,8,0:0:0:0:
256,192,255395,1,8,0:0:0:0:
256,192,255482,1,0,0:0:0:0:
256,192,255568,1,8,0:0:0:0:
256,192,255655,1,0,0:0:0:0:
256,192,255742,1,8,0:0:0:0:
256,192,256002,1,0,0:0:0:0:
256,192,256089,1,8,0:0:0:0:
256,192,256262,1,8,0:0:0:0:
256,192,256349,1,8,0:0:0:0:
256,192,256436,1,0,0:0:0:0:
256,192,256609,1,0,0:0:0:0:
256,192,256782,1,8,0:0:0:0:
256,192,256869,1,0,0:0:0:0:
256,192,256956,1,0,0:0:0:0:
256,192,257042,1,0,0:0:0:0:
256,192,257129,1,8,0:0:0:0:
256,192,257303,1,0,0:0:0:0:
256,192,257476,1,8,0:0:0:0:
256,192,257563,1,0,0:0:0:0:
256,192,257649,1,8,0:0:0:0:
256,192,257823,1,0,0:0:0:0:
256,192,257996,1,8,0:0:0:0:
256,192,258170,1,8,0:0:0:0:
256,192,258256,1,0,0:0:0:0:
256,192,258343,1,8,0:0:0:0:
256,192,258430,1,8,0:0:0:0:
256,192,258516,1,0,0:0:0:0:
256,192,258863,1,8,0:0:0:0:
256,192,258950,1,8,0:0:0:0:
256,192,259037,1,0,0:0:0:0:
256,192,259210,1,8,0:0:0:0:
256,192,259297,1,0,0:0:0:0:
256,192,259384,1,8,0:0:0:0:
256,192,259557,1,8,0:0:0:0:
256,192,259730,1,0,0:0:0:0:
256,192,259817,1,0,0:0:0:0:
256,192,259904,1,8,0:0:0:0:
256,192,260077,1,0,0:0:0:0:
256,192,260251,1,8,0:0:0:0:
256,192,260337,1,8,0:0:0:0:
256,192,260424,1,0,0:0:0:0:
256,192,260511,1,8,0:0:0:0:
256,192,260597,1,8,0:0:0:0:
256,192,260771,1,0,0:0:0:0:
256,192,260944,1,8,0:0:0:0:
256,192,261031,1,0,0:0:0:0:
256,192,261118,1,0,0:0:0:0:
256,192,261204,1,0,0:0:0:0:
256,192,261291,1,12,0:0:0:0:
256,192,261464,1,0,0:0:0:0:
256,192,261551,1,0,0:0:0:0:
256,192,261638,1,8,0:0:0:0:
256,192,261811,1,8,0:0:0:0:
256,192,261984,1,0,0:0:0:0:
256,192,262071,1,0,0:0:0:0:
256,192,262158,1,8,0:0:0:0:
256,192,262245,1,0,0:0:0:0:
256,192,262331,1,8,0:0:0:0:
256,192,262505,1,0,0:0:0:0:
256,192,262678,1,8,0:0:0:0:
256,192,262765,1,0,0:0:0:0:
256,192,262938,1,0,0:0:0:0:
256,192,263025,1,8,0:0:0:0:
256,192,263198,1,0,0:0:0:0:
256,192,263285,1,8,0:0:0:0:
256,192,263372,1,8,0:0:0:0:
256,192,263545,1,0,0:0:0:0:
256,192,263719,1,8,0:0:0:0:
256,192,263805,1,0,0:0:0:0:
256,192,263892,1,8,0:0:0:0:
256,192,263979,1,8,0:0:0:0:
256,192,264065,1,0,0:0:0:0:
256,192,264325,1,0,0:0:0:0:
256,192,264412,1,8,0:0:0:0:
256,192,264586,1,8,0:0:0:0:
256,192,264672,1,0,0:0:0:0:
256,192,264759,1,8,0:0:0:0:
256,192,264932,1,0,0:0:0:0:
256,192,265106,1,8,0:0:0:0:
256,192,265193,1,8,0:0:0:0:
256,192,265279,1,0,0:0:0:0:
256,192,265366,1,8,0:0:0:0:
256,192,265453,1,0,0:0:0:0:
256,192,265713,1,0,0:0:0:0:
256,192,265799,1,8,0:0:0:0:
256,192,265973,1,8,0:0:0:0:
256,192,266146,1,0,0:0:0:0:
256,192,266233,1,0,0:0:0:0:
256,192,266320,1,8,0:0:0:0:
256,192,266493,1,8,0:0:0:0:
256,192,266580,1,0,0:0:0:0:
256,192,266666,1,8,0:0:0:0:
256,192,266753,1,0,0:0:0:0:
256,192,266840,1,8,0:0:0:0:
256,192,267100,1,0,0:0:0:0:
256,192,267187,1,8,0:0:0:0:
256,192,267360,1,8,0:0:0:0:
256,192,267447,1,8,0:0:0:0:
256,192,267534,1,0,0:0:0:0:
256,192,267707,1,0,0:0:0:0:
256,192,267880,1,8,0:0:0:0:
256,192,267967,1,0,0:0:0:0:
256,192,268054,1,0,0:0:0:0:
256,192,268140,1,0,0:0:0:0:
256,192,268227,1,8,0:0:0:0:
256,192,268401,1,0,0:0:0:0:
256,192,268574,1,8,0:0:0:0:
256,192,268661,1,0,0:0:0:0:
256,192,268747,1,8,0:0:0:0:
256,192,268921,1,0,0:0:0:0:
256,192,269094,1,8,0:0:0:0:
256,192,269268,1,8,0:0:0:0:
256,192,269354,1,0,0:0:0:0:
256,192,269441,1,8,0:0:0:0:
256,192,269528,1,8,0:0:0:0:
256,192,269614,1,0,0:0:0:0:
256,192,269789,8,0,271870,0:0:0:0:
256,192,272043,5,8,0:0:0:0:
256,192,272130,1,8,0:0:0:0:
256,192,272216,1,0,0:0:0:0:
256,192,272390,1,4,0:0:0:0:
256,192,272737,1,12,0:0:0:0:
256,192,272911,1,0,0:0:0:0:
256,192,272997,1,0,0:0:0:0:
256,192,273084,1,8,0:0:0:0:
256,192,273257,1,0,0:0:0:0:
256,192,273431,1,8,0:0:0:0:
256,192,273517,1,8,0:0:0:0:
256,192,273691,1,8,0:0:0:0:
256,192,273778,1,0,0:0:0:0:
256,192,273951,1,0,0:0:0:0:
256,192,274124,1,8,0:0:0:0:
256,192,274298,1,0,0:0:0:0:
256,192,274385,1,0,0:0:0:0:
256,192,274471,1,8,0:0:0:0:
256,192,274645,1,0,0:0:0:0:
256,192,274818,1,8,0:0:0:0:
256,192,274905,1,8,0:0:0:0:
256,192,275078,1,8,0:0:0:0:
256,192,275165,1,0,0:0:0:0:
256,192,275338,1,0,0:0:0:0:
256,192,275511,1,8,0:0:0:0:
256,192,275598,1,8,0:0:0:0:
256,192,275685,1,8,0:0:0:0:
256,192,275771,1,8,0:0:0:0:
256,192,275858,1,0,0:0:0:0:
256,192,276031,1,0,0:0:0:0:
256,192,276205,1,8,0:0:0:0:
256,192,276291,1,0,0:0:0:0:
256,192,276378,1,8,0:0:0:0:
256,192,276552,1,0,0:0:0:0:
256,192,276638,1,0,0:0:0:0:
256,192,276812,1,0,0:0:0:0:
256,192,276898,1,8,0:0:0:0:
256,192,277072,1,8,0:0:0:0:
256,192,277419,1,0,0:0:0:0:
256,192,277505,1,0,0:0:0:0:
256,192,277592,1,8,0:0:0:0:
256,192,277679,1,8,0:0:0:0:
256,192,277765,1,8,0:0:0:0:
256,192,277852,1,8,0:0:0:0:
256,192,277939,1,0,0:0:0:0:
256,192,278286,1,12,0:0:0:0:
256,192,278460,1,0,0:0:0:0:
256,192,278546,1,0,0:0:0:0:
256,192,278633,1,8,0:0:0:0:
256,192,278806,1,8,0:0:0:0:
256,192,278893,1,0,0:0:0:0:
256,192,278980,1,8,0:0:0:0:
256,192,279153,1,8,0:0:0:0:
256,192,279327,1,0,0:0:0:0:
256,192,279587,1,0,0:0:0:0:
256,192,279674,1,8,0:0:0:0:
256,192,279847,1,0,0:0:0:0:
256,192,280020,1,8,0:0:0:0:
256,192,280107,1,0,0:0:0:0:
256,192,280194,1,8,0:0:0:0:
256,192,280367,1,8,0:0:0:0:
256,192,280714,1,8,0:0:0:0:
256,192,280887,1,0,0:0:0:0:
256,192,280974,1,0,0:0:0:0:
256,192,281061,1,8,0:0:0:0:
256,192,281234,1,8,0:0:0:0:
256,192,281408,1,0,0:0:0:0:
256,192,281581,1,8,0:0:0:0:
256,192,281668,1,0,0:0:0:0:
256,192,281754,1,8,0:0:0:0:
256,192,282101,1,8,0:0:0:0:
256,192,282188,1,0,0:0:0:0:
256,192,282275,1,0,0:0:0:0:
256,192,282448,1,8,0:0:0:0:
256,192,282535,1,0,0:0:0:0:
256,192,282622,1,8,0:0:0:0:
256,192,282795,1,8,0:0:0:0:
256,192,282968,1,0,0:0:0:0:
256,192,283142,1,8,0:0:0:0:
256,192,283228,1,8,0:0:0:0:
256,192,283402,1,0,0:0:0:0:
256,192,283489,1,8,0:0:0:0:
256,192,283836,1,4,0:0:0:0:
256,192,284009,1,0,0:0:0:0:
256,192,284095,1,0,0:0:0:0:
256,192,284182,1,8,0:0:0:0:
256,192,284355,1,0,0:0:0:0:
256,192,284529,1,8,0:0:0:0:
256,192,284615,1,8,0:0:0:0:
256,192,284789,1,8,0:0:0:0:
256,192,284876,1,0,0:0:0:0:
256,192,285049,1,0,0:0:0:0:
256,192,285222,1,8,0:0:0:0:
256,192,285396,1,0,0:0:0:0:
256,192,285483,1,0,0:0:0:0:
256,192,285569,1,8,0:0:0:0:
256,192,285743,1,0,0:0:0:0:
256,192,285916,1,8,0:0:0:0:
256,192,286003,1,8,0:0:0:0:
256,192,286176,1,8,0:0:0:0:
256,192,286263,1,0,0:0:0:0:
256,192,286436,1,0,0:0:0:0:
256,192,286609,1,8,0:0:0:0:
256,192,286696,1,8,0:0:0:0:
256,192,286783,1,8,0:0:0:0:
256,192,286869,1,8,0:0:0:0:
256,192,286956,1,0,0:0:0:0:
256,192,287129,1,0,0:0:0:0:
256,192,287303,1,8,0:0:0:0:
256,192,287389,1,0,0:0:0:0:
256,192,287476,1,8,0:0:0:0:
256,192,287650,1,0,0:0:0:0:
256,192,287736,1,0,0:0:0:0:
256,192,287910,1,0,0:0:0:0:
256,192,287996,1,8,0:0:0:0:
256,192,288170,1,8,0:0:0:0:
256,192,288517,1,0,0:0:0:0:
256,192,288603,1,0,0:0:0:0:
256,192,288690,1,8,0:0:0:0:
256,192,288777,1,8,0:0:0:0:
256,192,288863,1,8,0:0:0:0:
256,192,288950,1,8,0:0:0:0:
256,192,289037,1,0,0:0:0:0:
256,192,289385,1,12,0:0:0:0:
256,192,289557,1,0,0:0:0:0:
256,192,289645,1,0,0:0:0:0:
256,192,289732,1,8,0:0:0:0:
256,192,289905,1,8,0:0:0:0:
256,192,289992,1,0,0:0:0:0:
256,192,290079,1,8,0:0:0:0:
256,192,290252,1,8,0:0:0:0:
256,192,290424,1,0,0:0:0:0:
256,192,290686,1,0,0:0:0:0:
256,192,290771,1,8,0:0:0:0:
256,192,290946,1,0,0:0:0:0:
256,192,291119,1,8,0:0:0:0:
256,192,291206,1,0,0:0:0:0:
256,192,291291,1,8,0:0:0:0:
256,192,291466,1,8,0:0:0:0:
256,192,291813,1,8,0:0:0:0:
256,192,291986,1,0,0:0:0:0:
256,192,292073,1,0,0:0:0:0:
256,192,292160,1,8,0:0:0:0:
256,192,292333,1,8,0:0:0:0:
256,192,292505,1,0,0:0:0:0:
256,192,292680,1,8,0:0:0:0:
256,192,292765,1,0,0:0:0:0:
256,192,292853,1,8,0:0:0:0:
256,192,293200,1,8,0:0:0:0:
256,192,293373,1,0,0:0:0:0:
256,192,293460,1,0,0:0:0:0:
256,192,293546,1,8,0:0:0:0:
256,192,293719,1,0,0:0:0:0:
256,192,294066,1,0,0:0:0:0:
256,192,294239,1,8,0:0:0:0:
256,192,294326,1,8,0:0:0:0:
256,192,294413,1,8,0:0:0:0:
256,192,294500,1,8,0:0:0:0:
256,192,294587,1,4,0:0:0:0:
256,192,295106,1,0,0:0:0:0:
256,192,295974,1,0,0:0:0:0:
256,192,296494,1,0,0:0:0:0:
256,192,297014,1,0,0:0:0:0:
256,192,297361,1,0,0:0:0:0:
256,192,297881,1,0,0:0:0:0:
256,192,298748,1,0,0:0:0:0:
256,192,299268,1,0,0:0:0:0:
256,192,299615,1,0,0:0:0:0:
256,192,299789,1,0,0:0:0:0:
256,192,299962,1,0,0:0:0:0:
256,192,300656,1,0,0:0:0:0:
256,192,301523,1,0,0:0:0:0:
256,192,302043,1,0,0:0:0:0:
256,192,302563,1,0,0:0:0:0:
256,192,302737,1,0,0:0:0:0:
256,192,302910,1,0,0:0:0:0:
256,192,303430,1,0,0:0:0:0:
256,192,304297,1,0,0:0:0:0:
256,192,304817,1,0,0:0:0:0:
256,192,305164,1,0,0:0:0:0:
256,192,305338,1,0,0:0:0:0:
256,192,305511,1,0,0:0:0:0:
