osu file format v14

[General]
AudioFilename: newspaper.mp3
AudioLeadIn: 0
PreviewTime: 82514
Countdown: 0
SampleSet: Soft
StackLeniency: 0.7
Mode: 0
LetterboxInBreaks: 1
WidescreenStoryboard: 0

[Editor]
Bookmarks: 1086,151086,305371
DistanceSpacing: 1.7
BeatDivisor: 4
GridSize: 16
TimelineZoom: 1.8

[Metadata]
Title:Kantsubaki
TitleUnicode:寒椿
Artist:ESQUARIA
ArtistUnicode:ESQUARIA
Creator:Regou
Version:Sakimashita
Source:東方輝針城 ~ Double Dealing Character.
Tags:Newspaper Cup #3 3rd third fish39 报纸杯 Mei Ayakura, ミストレイク, Mist lake, 沖林仁之介, 綾倉 盟, Dubstep, 東方Project, Touhou, th, c85, comiket, Reproduction
BeatmapID:1310626
BeatmapSetID:621584

[Difficulty]
HPDrainRate:5
CircleSize:4.5
OverallDifficulty:8
ApproachRate:8.5
SliderMultiplier:1.4
SliderTickRate:1

[Events]
//Background and Video events
0,0,"Background.jpg",0,0
//Break Periods
//Storyboard Layer 0 (Background)
//Storyboard Layer 1 (Fail)
//Storyboard Layer 2 (Pass)
//Storyboard Layer 3 (Foreground)
//Storyboard Sound Samples

[TimingPoints]
1086,535.714285714286,4,1,1,80,1,0
1086,-66.6666666666667,4,1,1,80,0,0
2827,-200,4,1,1,80,0,0
3228,-66.6666666666667,4,1,1,80,0,0
7112,-200,4,1,1,80,0,0
7514,-66.6666666666667,4,1,1,80,0,0
11398,-200,4,1,1,80,0,0
11800,-66.6666666666667,4,1,1,80,0,0
15684,-200,4,1,1,80,0,0
17961,-50,4,1,1,80,0,0
18228,-66.6666666666667,4,1,1,80,0,0
19836,-100,4,1,1,80,0,0
20505,-200,4,1,1,80,0,0
24121,-100,4,1,1,80,0,0
26800,-200,4,1,1,50,0,0
43943,-200,4,1,2,70,0,0
45550,-200,4,1,2,40,0,0
47961,-200,4,1,2,70,0,0
57603,-200,4,1,2,60,0,0
58407,-1000,4,1,1,50,0,0
65371,-100,4,1,1,70,0,0
67514,-50,4,1,1,70,0,0
70193,-100,4,1,1,70,0,0
71398,-50,4,1,1,70,0,0
73943,-50,4,1,1,80,0,0
74121,-50,4,1,1,80,0,0
74478,-66.6666666666667,4,1,1,80,0,0
75014,-50,4,1,1,80,0,0
75684,-200,4,1,1,80,0,0
76086,-66.6666666666667,4,1,1,80,0,0
78764,-50,4,1,1,80,0,0
80371,-66.6666666666667,4,1,1,70,0,0
81978,-25,4,1,1,90,0,0
82514,-200,4,1,1,85,0,1
83050,-46.5116279,4,1,1,85,0,1
84121,-33.33333333333,4,1,1,85,0,1
85193,-200,4,1,1,85,0,1
85996,-46.5116279,4,1,1,85,0,1
86532,-33.33333333333,4,1,1,85,0,1
86800,-40.8163265306122,4,1,1,85,0,1
88943,-46.5116279,4,1,1,85,0,1
90014,-100,4,1,1,85,0,1
90550,-50,4,1,1,85,0,1
91086,-200,4,1,1,85,0,1
91621,-46.5116279,4,1,1,85,0,1
92827,-33.33333333333,4,1,1,85,0,1
93362,-100,4,1,1,85,0,1
93764,-46.5116279,4,1,1,85,0,1
95103,-33.33333333333,4,1,1,85,0,1
95371,-66.6666666666667,4,1,1,85,0,1
96443,-200,4,1,1,85,0,1
98318,-50,4,1,1,85,0,1
100728,-66.6666666666667,4,1,1,85,0,1
103943,-200,4,1,1,85,0,1
104344,-46.5116279,4,1,1,85,0,1
106086,-200,4,1,1,85,0,1
109300,-66.6666666666667,4,1,1,85,0,1
111978,-50,4,1,1,85,0,1
112246,-33.33333333333,4,1,1,85,0,1
112514,-200,4,1,1,85,0,1
113586,-50,4,1,1,85,0,1
115193,-100,4,1,1,85,0,1
115728,-33.33333333333,4,1,1,85,0,1
117871,-66.6666666666667,4,1,1,85,0,1
121086,-200,4,1,1,85,0,1
121621,-46.5116279,4,1,1,85,0,1
122693,-133.333333333333,4,1,1,85,0,1
123228,-50,4,1,1,85,0,1
124836,-33.33333333333,4,1,1,85,0,1
125103,-33.33333333333,4,1,1,85,0,1
125639,-40.8163265306122,4,1,1,85,0,1
127514,-50,4,1,1,85,0,1
128586,-50,4,1,1,85,0,1
129121,-33.3333333333333,4,1,1,85,0,1
129925,-40.8163265306122,4,1,1,85,0,1
131800,-100,4,1,1,85,0,1
133407,-50,4,1,1,85,0,1
133943,-50,4,1,1,50,0,0
138228,-200,4,1,1,50,0,0
151086,-200,4,2,1,70,0,0
167961,-66.6666666666667,4,2,1,80,0,0
168228,-50,4,2,1,80,0,0
169032,-100,4,2,1,80,0,0
169836,-200,4,2,1,80,0,0
176800,-200,4,2,1,50,0,0
191532,-1000,4,2,1,50,0,0
193675,-100,4,2,1,50,0,0
193943,-133.333333333333,4,2,1,70,0,0
195550,-200,4,2,2,70,0,0
198228,-133.333333333333,4,2,2,70,0,0
207603,-133.333333333333,4,2,1,60,0,0
208407,-1000,4,2,1,50,0,0
211086,-200,4,2,1,80,0,0
215371,-100,4,2,1,70,0,0
223943,-80,4,2,1,80,0,0
228228,-50,4,2,1,80,0,0
230371,-100,4,2,1,70,0,0
231978,-25,4,2,1,90,0,0
232514,-200,4,2,1,85,0,1
233050,-44.4444444444445,4,2,1,85,0,1
234657,-100,4,2,1,85,0,1
236264,-44.4444444444445,4,2,1,85,0,1
236532,-44.4444444444445,4,2,1,85,0,1
238943,-50,4,2,1,85,0,1
240014,-33.3333333333333,4,2,1,85,0,1
241086,-200,4,2,1,85,0,1
241621,-44.4444444444445,4,2,1,85,0,1
245371,-100,4,2,1,85,0,1
246443,-100,4,2,1,85,0,1
249590,-100,4,2,1,85,0,1
249657,-66.6666666666667,4,2,1,85,0,1
251800,-50,4,2,1,85,0,1
253943,-200,4,2,1,85,0,1
254344,-44.4444444444445,4,2,1,85,0,1
256086,-133.333333333333,4,2,1,85,0,1
258228,-66.6666666666667,4,2,1,85,0,1
260371,-50,4,2,1,85,0,1
262514,-200,4,2,1,85,0,1
263050,-100,4,2,1,85,0,1
265728,-50,4,2,1,85,0,1
266800,-66.6666666666667,4,2,1,85,0,1
268943,-50,4,2,1,85,0,1
271086,-200,4,2,1,85,0,1
271621,-44.4444444444445,4,2,1,85,0,1
272693,-50,4,2,1,85,0,1
273496,-44.4444444444445,4,2,1,85,0,1
274434,-133.333333333333,4,2,1,85,0,1
274836,-44.4444444444445,4,2,1,85,0,1
281800,-100,4,2,1,85,0,1
283407,-50,4,2,1,85,0,1
283943,-200,4,2,1,50,0,0
301086,-1000,4,2,1,30,0,0

[Colours]
Combo1 : 165,189,254
Combo2 : 17,254,176
Combo3 : 173,255,95

[HitObjects]
118,57,1086,5,4,0:0:0:0:
42,47,1353,1,0,2:0:0:0:
33,124,1621,1,8,0:0:0:0:
110,134,1889,1,0,2:0:0:0:
127,132,2023,2,0,P|190:130|253:123,1,105.000004005432,2|0,2:0|2:0,0:0:0:0:
372,199,2425,2,0,P|309:201|246:208,1,105.000004005432,2|8,2:0|0:0,0:0:0:0:
191,216,2827,6,0,L|185:267,1,35,0|0,2:0|2:0,0:0:0:0:
359,376,3228,6,0,L|364:305,1,52.5000020027161,0|0,0:0|2:0,0:0:0:0:
291,298,3496,1,2,2:0:0:0:
284,334,3630,1,0,2:0:0:0:
443,347,3764,1,8,0:0:0:0:
441,314,3898,1,0,2:0:0:0:
385,5,4300,5,0,0:0:0:0:
384,21,4434,2,0,L|377:157,1,105.000004005432,0|0,2:0|2:0,0:0:0:0:
484,180,4836,2,0,P|471:157|461:132,1,52.5000020027161,2|2,2:0|2:0,0:0:0:0:
296,120,5103,2,0,P|287:144|275:168,1,52.5000020027161,2|2,2:0|2:0,0:0:0:0:
378,341,5371,5,0,0:0:0:0:
457,348,5639,1,0,2:0:0:0:
463,268,5907,1,8,0:0:0:0:
384,260,6175,1,0,2:0:0:0:
368,266,6309,2,0,P|305:275|228:290,1,105.000004005432,2|0,2:0|2:0,0:0:0:0:
107,232,6711,2,0,P|170:223|247:208,1,105.000004005432,2|8,2:0|0:0,0:0:0:0:
290,198,7112,6,0,L|293:160,1,35,0|0,2:0|2:0,0:0:0:0:
153,8,7514,6,0,L|148:79,1,52.5000020027161,0|0,0:0|2:0,0:0:0:0:
221,86,7782,1,2,2:0:0:0:
252,72,7916,1,0,2:0:0:0:
76,36,8050,1,8,1:0:0:0:
41,46,8184,1,0,2:0:0:0:
132,364,8586,5,0,0:0:0:0:
134,348,8719,2,0,L|142:216,1,105.000004005432,0|0,2:0|2:0,2:0:0:0:
71,212,9121,2,0,P|47:217|15:229,1,52.5000020027161,10|2,1:2|2:0,0:0:0:0:
221,253,9389,2,0,P|245:248|277:236,1,52.5000020027161,2|2,2:0|2:0,0:0:0:0:
294,18,9657,5,4,0:0:0:0:
219,39,9925,1,0,2:0:0:0:
268,98,10193,1,8,1:0:0:0:
345,82,10461,1,0,2:0:0:0:
345,82,10594,2,0,P|404:77|458:68,1,105.000004005432,2|0,2:0|2:0,0:0:0:0:
512,171,10996,2,0,P|453:176|399:185,1,105.000004005432,2|8,2:0|0:0,0:0:0:0:
331,192,11398,6,0,L|325:238,1,35,0|0,2:0|2:0,0:0:0:0:
181,362,11800,6,0,L|187:300,1,52.5000020027161,0|0,1:0|2:0,0:0:0:0:
262,292,12068,1,2,2:0:0:0:
268,329,12202,1,0,2:0:0:0:
103,313,12336,1,8,1:0:0:0:
114,279,12470,1,0,2:0:0:0:
207,0,12871,5,0,1:0:0:0:
206,16,13005,2,0,L|199:134,1,105.000004005432,2|0,2:0|2:0,2:0:0:0:
130,174,13407,2,2,P|123:147|108:107,1,52.5000020027161,8|2,1:2|2:0,2:0:0:0:
282,152,13675,2,2,P|261:180|244:215,1,52.5000020027161,2|2,2:0|2:0,2:0:0:0:
225,361,13943,5,0,1:0:0:0:
302,372,14211,1,0,2:0:0:0:
338,303,14478,1,8,1:0:0:0:
262,292,14746,1,0,2:0:0:0:
253,278,14880,1,0,2:0:0:0:
144,355,15148,1,0,2:0:0:0:
135,341,15282,1,0,2:0:0:0:
14,322,15550,1,8,0:0:0:0:
3,306,15684,6,0,L|47:313,1,35,0|0,2:0|2:0,2:0:0:0:
45,241,16086,5,0,0:0:0:0:
179,224,16353,1,0,0:0:0:0:
157,75,16621,1,0,0:0:0:0:
19,97,16889,1,0,0:0:0:0:
97,167,17157,5,0,0:0:0:0:
167,152,17291,1,0,0:0:0:0:
258,201,17425,5,0,0:0:0:0:
330,187,17559,1,0,0:0:0:0:
403,244,17693,5,0,0:0:0:0:
419,241,17760,1,0,0:0:0:0:
434,237,17827,1,0,0:0:0:0:
447,234,17894,1,0,0:0:0:0:
461,231,17961,2,0,L|465:168,1,35
494,318,18094,2,0,L|490:381,1,35
368,343,18228,6,0,P|319:350|199:366,1,157.500006008148,6|0,1:0|2:0,0:0:0:0:
178,373,18764,1,0,2:0:0:0:
286,66,19032,2,0,P|335:59|455:43,1,157.500006008148,6|0,1:0|2:0,0:0:0:0:
477,36,19568,1,0,2:0:0:0:
314,252,19836,6,0,P|241:263|182:233,1,140,6|0,0:0|2:0,0:0:0:0:
256,192,22514,12,0,26532,2:0:0:0:
32,244,26800,6,0,P|80:248|132:268,1,105,4|0,1:0|2:0,0:0:0:0:
186,218,27871,1,2,2:0:0:0:
332,200,28273,1,0,2:0:0:0:
276,353,28675,1,0,2:0:0:0:
263,223,28943,5,2,2:0:0:0:
305,285,29344,1,0,2:0:0:0:
233,295,29746,1,0,2:0:0:0:
432,212,31086,6,0,L|460:216|488:220,2,52.5,2|0|0,2:0|2:0|2:0,2:0:0:0:
364,248,32157,2,0,L|336:244|308:240,2,52.5,0|0|0,2:0|2:0|2:0,2:0:0:0:
432,288,33228,1,2,2:0:0:0:
436,80,34836,5,0,2:0:0:0:
436,80,35371,2,0,P|376:88|328:96,1,105,2|0,2:0|2:0,2:0:0:0:
295,162,36443,1,0,2:0:0:0:
148,180,36845,1,0,2:0:0:0:
198,23,37247,1,0,2:0:0:0:
218,157,37515,5,2,2:0:0:0:
172,95,37916,1,0,2:0:0:0:
244,85,38318,1,0,2:0:0:0:
196,204,39657,6,0,P|192:268|188:316,1,105,2|0,2:0|2:0,2:0:0:0:
116,328,40996,1,0,2:0:0:0:
44,344,41532,1,0,2:0:0:0:
256,192,41800,12,0,43407,2:0:0:0:
244,348,43675,5,2,2:0:0:0:
232,344,43742,1,2,2:0:0:0:
220,340,43809,1,2,2:0:0:0:
208,336,43876,1,2,2:0:0:0:
196,332,43943,6,2,P|160:336|125:323,1,70,6|2,0:0|2:0,0:0:0:0:
14,244,44746,2,2,P|50:240|85:253,1,70,6|2,0:0|2:0,0:0:0:0:
195,281,45550,6,2,B|202:334|252:368|305:368|339:339|331:314|308:304|287:307|288:325,1,210,0|0,0:0|2:0,2:1:0:0:
255,7,47961,5,8,0:0:0:0:
256,156,48094,1,8,0:0:0:0:
256,83,48228,6,2,P|290:86|323:88,1,52.5,6|2,0:0|2:0,0:0:0:0:
469,152,49032,2,2,P|435:149|402:147,1,52.5,6|2,0:0|2:0,0:0:0:0:
256,242,49836,5,6,0:0:0:0:
256,242,49969,1,2,2:0:0:0:
256,242,50103,1,2,2:0:0:0:
175,326,50237,6,0,L|172:361,1,35,0|0,2:0|2:0,2:0:0:0:
99,333,50639,2,0,L|96:368,1,35,0|0,2:0|2:0,2:0:0:0:
23,339,51041,2,0,L|20:374,2,35,0|0|0,2:0|2:0|2:0,2:0:0:0:
166,67,51978,6,0,L|130:71,1,35,0|0,2:0|2:0,2:0:0:0:
12,90,52514,5,4,0:0:0:0:
12,90,52648,2,0,L|52:84,1,35,0|0,2:0|2:0,2:0:0:0:
145,161,53318,6,0,L|150:216,1,52.5,6|0,0:0|2:0,0:0:0:0:
212,103,53853,5,8,0:0:0:0:
145,161,53987,1,8,0:0:0:0:
131,70,54121,1,4,0:0:0:0:
205,318,54389,5,0,2:0:0:0:
187,324,54523,1,0,2:0:0:0:
167,330,54657,2,0,L|159:330|151:330,2,52.5,0|0|0,2:0|2:0|2:0,2:0:0:0:
335,381,55996,5,0,2:0:0:0:
335,381,56264,2,0,L|365:379|395:377,1,52.5,0|0,2:0|2:0,2:0:0:0:
347,304,56800,6,0,L|342:230,1,70,4|0,0:0|2:0,2:0:0:0:
446,41,57603,2,0,L|451:115,1,70,4|0,0:0|2:0,2:0:0:0:
244,352,58407,6,0,L|237:291,1,59.5,4|0,0:0|2:0,2:0:0:0:
216,220,61086,5,0,2:0:0:0:
160,152,61487,1,0,2:0:0:0:
84,120,61889,1,0,2:0:0:0:
238,292,62157,5,0,2:0:0:0:
304,232,62559,1,0,2:0:0:0:
388,212,62961,1,0,2:0:0:0:
256,192,63094,12,0,65237,2:0:0:0:
176,304,65371,6,0,L|92:296,1,70,0|0,0:0|2:0,0:0:0:0:
88,296,65773,1,0,2:0:0:0:
120,368,65907,2,0,L|36:360,1,70,8|0,0:0|2:0,0:0:0:0:
32,360,66309,1,0,2:0:0:0:
16,224,66443,6,0,L|8:140,1,70,0|0,0:0|2:0,0:0:0:0:
8,136,66845,1,0,2:0:0:0:
80,168,66979,2,0,L|72:84,1,70,8|0,0:0|2:0,0:0:0:0:
72,80,67380,1,0,2:0:0:0:
208,8,67514,6,0,B|252:52|252:52|236:152,1,140,0|2,0:0|2:1,0:0:0:0:
172,100,67916,1,0,2:0:0:0:
212,292,68050,2,0,B|168:248|168:248|184:148,1,140,8|0,0:0|2:1,0:0:0:0:
240,128,68452,1,0,2:0:0:0:
376,84,68586,6,0,B|420:128|420:128|404:228,1,140,0|2,0:0|2:1,0:0:0:0:
340,176,68988,1,0,2:0:0:0:
380,368,69122,2,0,B|336:324|336:324|352:224,1,140,8|0,0:0|2:1,0:0:0:0:
408,204,69523,1,0,2:0:0:0:
504,276,69657,5,0,0:0:0:0:
432,288,69791,1,0,2:0:0:0:
504,276,69925,1,2,2:0:0:0:
432,288,70059,1,0,2:0:0:0:
504,276,70193,2,0,L|496:348,1,70,8|0,0:0|2:0,0:0:0:0:
496,345,70594,1,0,2:0:0:0:
352,248,70728,5,0,0:0:0:0:
280,236,70862,1,0,2:0:0:0:
352,248,70996,1,2,2:0:0:0:
280,236,71130,1,0,2:0:0:0:
352,248,71264,1,8,0:0:0:0:
280,236,71398,2,0,L|272:72,1,140,2|0,2:1|2:0,0:0:0:0:
152,20,71800,6,0,B|108:64|108:64|124:164,1,140,0|2,0:0|2:1,0:0:0:0:
188,112,72202,1,0,2:0:0:0:
148,304,72336,2,0,B|192:260|192:260|176:160,1,140,8|0,0:0|2:1,0:0:0:0:
120,140,72737,1,0,2:0:0:0:
32,100,72871,6,0,B|-12:144|-12:144|4:244,1,140,0|2,0:0|2:1,0:0:0:0:
68,192,73273,1,0,2:0:0:0:
28,384,73407,2,0,B|72:340|72:340|56:240,1,140,8|0,0:0|2:1,0:0:0:0:
0,220,73809,1,0,2:0:0:0:
164,296,73943,5,0,0:0:0:0:
228,260,74121,1,2,2:0:0:0:
228,260,74211,2,0,P|188:224|144:224,1,93.3333333333333,8|0,0:0|2:0,0:0:0:0:
188,368,74478,2,0,P|232:324|232:280,1,105.000004005432,0|8,0:0|0:0,0:0:0:0:
268,12,74925,5,2,2:0:0:0:
268,12,75014,2,0,P|232:52|232:96,1,93.3333333333333,0|2,0:0|2:0,0:0:0:0:
332,144,75282,2,0,P|368:104|368:60,1,93.3333333333333,8|2,0:0|2:0,0:0:0:0:
236,120,75550,2,0,P|276:156|320:156,1,93.3333333333333,0|2,0:0|2:0,0:0:0:0:
304,64,75818,6,0,L|298:87,1,23.3333333333333,8|0,0:0|2:0,0:0:0:0:
472,280,76086,5,0,0:0:0:0:
472,280,76353,2,0,P|436:276|408:264,1,52.5000020027161,10|0,2:0|2:0,2:0:0:0:
368,344,76621,1,0,0:0:0:0:
368,344,76889,2,0,P|332:348|295:362,1,52.5000020027161,10|0,2:0|2:0,2:0:0:0:
40,280,77157,5,0,0:0:0:0:
40,280,77425,2,0,P|76:276|112:260,1,52.5000020027161,10|0,2:0|2:0,2:0:0:0:
140,340,77692,1,0,0:0:0:0:
144,344,77961,2,0,P|180:348|205:360,1,52.5000020027161,10|0,2:0|2:0,2:0:0:0:
234,53,78228,5,0,0:0:0:0:
284,148,78362,1,0,2:0:0:0:
308,80,78496,1,8,0:0:0:0:
215,125,78630,1,0,2:0:0:0:
308,80,78764,2,0,P|372:76|432:128,1,140,0|8,0:0|0:0,0:0:0:0:
428,140,79166,1,0,2:0:0:0:
484,248,79300,5,0,0:0:0:0:
360,344,79434,1,0,0:0:0:0:
372,232,79568,1,8,0:0:0:0:
464,360,79702,1,0,0:0:0:0:
192,156,79836,5,0,0:0:0:0:
56,340,79969,1,0,2:0:0:0:
32,176,80103,1,8,2:0:0:0:
208,324,80237,1,0,0:0:0:0:
133,296,80371,6,0,L|127:383,2,52.5000020027161,0|0|0,0:0|2:0|2:0,0:0:0:0:
70,257,80773,1,0,0:0:0:0:
57,260,80907,1,0,2:0:0:0:
43,264,81041,1,0,2:0:0:0:
288,262,81175,6,0,L|282:349,2,52.5000020027161,0|0|0,0:0|2:0|2:0,0:0:0:0:
225,223,81577,1,0,0:0:0:0:
212,226,81711,1,0,2:0:0:0:
199,230,81845,1,0,2:0:0:0:
354,195,81978,6,2,B|390:221|452:212|488:143|488:143|438:110|367:143|383:210|383:210|398:231|398:231|389:251|389:251|401:267|401:267|389:292,1,420,2|0,2:1|2:1,2:1:0:0:
215,86,82514,6,0,P|212:50|210:29,1,52.5,4|0,0:0|2:0,0:0:0:0:
208,16,83050,6,2,L|303:39,1,75.2500011482239,10|2,0:1|2:1,0:0:0:0:
255,178,83318,2,2,L|19:123,1,225.750003444672,2|0,2:1|2:1,0:0:0:0:
0,43,83853,2,0,L|82:60,1,75.2500011482239,2|0,2:0|2:0,0:0:0:0:
255,178,84121,2,0,B|267:250|267:250|229:315|229:315|237:384,1,210.000008010865,8|0,0:0|2:0,0:0:0:0:
248,384,84523,1,0,2:0:0:0:
317,358,84657,1,2,0:0:0:0:
140,294,84925,5,2,2:0:0:0:
151,291,85059,1,0,2:0:0:0:
123,363,85193,6,0,P|84:357|70:354,1,52.5,8|0,0:0|2:0,0:0:0:0:
0,384,85728,5,0,0:0:0:0:
104,199,85929,1,0,0:0:0:0:
248,348,86130,1,0,0:0:0:0:
0,120,86264,6,0,P|52:128|111:86,1,112.875001722336,8|0,0:0|2:0,0:0:0:0:
148,32,86532,2,2,P|204:-6|274:14,1,140,2|0,2:1|2:0,0:0:0:0:
462,159,86800,6,0,L|408:144,3,42.8750004088879,2|2|2|2,2:0|2:0|2:0|2:0,0:0:0:0:
480,168,87068,2,0,L|485:261,1,85.7500008177757,2|0,2:0|2:0,0:0:0:0:
330,384,87336,5,10,2:0:0:0:
329,371,87402,1,2,2:0:0:0:
327,357,87469,1,2,2:0:0:0:
326,342,87536,1,2,2:0:0:0:
324,325,87603,2,0,L|316:222,1,85.7500008177757,2|0,2:0|2:0,0:0:0:0:
259,155,87871,5,0,0:0:0:0:
259,155,88139,2,0,P|223:234|274:334,1,171.500001635551,2|8,2:1|0:0,0:0:0:0:
469,323,88541,2,0,P|505:244|454:144,1,171.500001635551,2|0,2:1|0:0,0:0:0:0:
366,7,88943,5,0,0:0:0:0:
346,83,89077,1,0,2:0:0:0:
289,30,89211,2,0,P|249:21|200:17,1,75.2500011482239,0|0,2:0|2:0,2:0:0:0:
1,71,89478,1,8,0:0:0:0:
21,148,89612,1,0,2:0:0:0:
78,95,89746,2,0,P|118:86|167:82,1,75.2500011482239,0|0,2:0|2:0,2:0:0:0:
188,342,90014,6,0,P|191:309|191:309,7,17.5,2|2|2|2|2|2|2|2,2:0|2:0|2:0|2:0|2:0|2:0|2:0|2:0,0:0:0:0:
144,263,90550,6,0,P|92:273|34:287,1,105,10|2,0:0|2:0,0:0:0:0:
182,187,90818,1,0,2:0:0:0:
318,384,90952,1,0,2:0:0:0:
404,305,91086,6,0,L|399:365,1,52.5,4|0,0:0|2:0,0:0:0:0:
400,375,91621,6,0,P|440:313|427:225,1,150.500002296448,8|0,1:0|2:0,0:0:0:0:
240,135,92023,2,0,P|234:62|275:0,1,150.500002296448,2|0,2:1|2:0,0:0:0:0:
319,106,92425,5,2,2:0:0:0:
322,122,92492,1,2,2:0:0:0:
326,136,92559,1,2,2:0:0:0:
330,153,92626,1,2,2:0:0:0:
333,167,92693,1,10,1:0:0:0:
414,381,92827,2,0,P|474:353|469:224,1,210,2|0,2:1|2:0,0:0:0:0:
458,154,93228,1,0,0:0:0:0:
287,306,93362,6,0,L|281:278,4,17.5,0|0|0|0|0,2:0|2:0|2:0|2:0|2:0,0:0:0:0:
252,374,93764,6,0,P|177:358|106:347,1,112.875001722336,10|0,1:1|2:0,0:0:0:0:
338,235,94032,2,0,P|413:251|512:270,1,150.500002296448,2|0,2:1|3:0,0:0:0:0:
484,341,94434,5,0,2:0:0:0:
484,341,94568,2,0,L|402:324,1,75.2500011482239,2|0,2:1|2:0,0:0:0:0:
397,0,94836,5,8,0:0:0:0:
357,159,94969,1,0,2:0:0:0:
503,137,95103,2,2,P|520:106|427:80,1,157.500006008148,2|0,2:1|2:0,0:1:0:0:
423,87,95371,6,0,P|346:90|258:94,1,157.500006008148,0|0,0:0|2:0,0:0:0:0:
196,88,95907,1,2,1:0:0:0:
197,77,95974,1,2,2:0:0:0:
200,66,96041,1,2,2:0:0:0:
205,57,96108,1,2,2:0:0:0:
212,49,96175,1,2,2:0:0:0:
285,222,96309,5,0,2:0:0:0:
285,222,96376,1,0,2:0:0:0:
285,222,96443,2,0,L|228:227,1,52.5,0|0,0:0|2:0,0:0:0:0:
157,211,96978,2,0,L|121:214,1,35,0|0,0:0|2:0,0:0:0:0:
20,314,97514,5,0,0:0:0:0:
20,314,97782,1,0,0:0:0:0:
89,303,97916,1,0,0:0:0:0:
152,340,98050,1,0,0:0:0:0:
152,340,98318,2,0,L|228:333,1,70
512,210,98586,5,0,0:0:0:0:
414,359,98719,1,0,0:0:0:0:
320,187,98853,1,0,0:0:0:0:
221,333,98987,1,0,0:0:0:0:
482,316,99121,5,0,0:0:0:0:
469,302,99188,1,0,0:0:0:0:
453,291,99255,1,0,0:0:0:0:
435,284,99322,1,0,0:0:0:0:
416,281,99389,1,0,0:0:0:0:
399,281,99456,1,0,0:0:0:0:
381,287,99523,1,0,0:0:0:0:
367,297,99590,1,0,0:0:0:0:
352,312,99657,5,4,0:0:0:0:
277,295,99925,1,0,2:0:0:0:
252,220,100193,1,8,0:0:0:0:
323,236,100461,1,0,2:0:0:0:
295,377,100728,6,0,L|215:357|119:333,1,140,0|0,0:0|2:0,0:0:0:0:
157,310,101264,2,0,P|153:242|149:162,1,105.000004005432,8|0,0:0|2:0,0:0:0:0:
140,16,101800,5,0,0:0:0:0:
140,16,102068,1,0,2:0:0:0:
200,56,102202,1,0,2:0:0:0:
268,76,102336,1,8,0:0:0:0:
136,84,102603,5,0,2:0:0:0:
76,124,102737,1,0,2:0:0:0:
4,124,102871,5,0,0:0:0:0:
248,184,103072,1,0,0:0:0:0:
80,376,103273,1,0,0:0:0:0:
59,272,103407,5,8,0:0:0:0:
131,283,103541,1,0,2:0:0:0:
105,212,103675,2,0,L|107:198,4,13.125000500679,0|0|0|0|0,2:0|2:0|2:0|2:0|2:0,0:0:0:0:
219,371,103943,6,0,P|222:359|226:332,1,35,4|0,0:0|2:0,0:0:0:0:
227,325,104344,6,0,P|293:343|371:314,1,150.500002296448,2|0,2:1|2:0,0:0:0:0:
509,230,104746,2,0,P|433:212|363:249,1,150.500002296448,2|0,2:1|0:0,0:0:0:0:
310,187,105282,5,2,2:0:0:0:
308,172,105349,1,2,2:0:0:0:
307,157,105416,1,2,2:0:0:0:
306,142,105483,1,2,2:0:0:0:
305,126,105550,1,10,2:0:0:0:
150,49,105684,2,0,P|220:70|301:37,1,150.500002296448,2|0,2:1|2:0,0:0:0:0:
489,90,106086,6,0,L|433:82,1,52.5,0|0,0:0|2:0,0:0:0:0:
431,151,106621,2,0,L|393:145,1,35,8|0,0:0|2:0,0:0:0:0:
292,222,107157,6,0,L|236:214,1,52.5,0|0,0:0|2:0,0:0:0:0:
224,283,107693,2,0,L|188:279,1,35,8|0,0:0|2:0,0:0:0:0:
30,366,108228,5,4,0:0:0:0:
99,339,108496,1,0,2:0:0:0:
105,261,108764,1,8,0:0:0:0:
29,287,109032,1,0,2:0:0:0:
213,354,109300,6,0,P|287:361|372:368,1,157.500006008148,0|0,0:0|2:0,0:0:0:0:
375,339,109836,2,0,P|384:284|391:227,1,105.000004005432,8|0,0:0|2:0,0:0:0:0:
384,14,110371,5,0,0:0:0:0:
384,14,110639,1,0,2:0:0:0:
441,66,110773,1,0,2:0:0:0:
512,88,110907,1,8,0:0:0:0:
367,82,111175,5,0,2:0:0:0:
304,125,111309,1,0,2:0:0:0:
231,132,111443,5,0,0:0:0:0:
498,191,111644,1,0,0:0:0:0:
314,384,111844,1,0,0:0:0:0:
385,281,111978,6,0,P|332:283|269:288,1,105,8|0,0:0|2:0,0:0:0:0:
65,365,112246,2,0,P|131:357|233:348,1,157.500006008148,2|0,2:1|2:0,0:0:0:0:
198,266,112514,6,0,L|141:273,1,52.5,4|0,0:0|2:0,0:0:0:0:
266,200,113050,5,10,2:0:0:0:
271,177,113117,1,2,2:0:0:0:
275,156,113184,1,2,2:0:0:0:
280,137,113251,1,2,2:0:0:0:
285,113,113318,1,2,2:0:0:0:
289,91,113385,1,2,2:0:0:0:
293,70,113452,1,2,2:0:0:0:
304,0,113586,1,0,0:0:0:0:
200,147,113853,5,2,2:0:0:0:
195,123,113920,1,2,2:0:0:0:
186,100,113987,1,2,2:0:0:0:
176,79,114054,1,2,2:0:0:0:
162,58,114121,1,8,0:0:0:0:
350,177,114389,5,2,2:0:0:0:
361,156,114456,1,2,2:0:0:0:
377,134,114523,1,2,2:0:0:0:
394,118,114590,1,2,2:0:0:0:
414,103,114657,2,0,L|451:97,2,35,0|2|2,0:0|2:0|2:0,0:0:0:0:
241,362,114925,5,0,2:0:0:0:
241,362,115059,1,0,2:0:0:0:
241,362,115193,2,0,L|181:355,1,52.5,8|0,0:0|2:1,0:0:0:0:
125,326,115461,2,0,L|83:322,1,35,2|0,2:1|2:1,2:1:0:0:
25,208,115728,5,0,0:0:0:0:
206,188,115929,1,2,2:0:0:0:
186,0,116130,1,2,2:0:0:0:
0,16,116264,5,8,0:0:0:0:
11,27,116331,1,2,2:0:0:0:
23,37,116398,1,2,2:0:0:0:
35,46,116465,1,2,2:0:0:0:
45,56,116532,1,2,2:0:0:0:
56,65,116599,1,2,2:0:0:0:
66,73,116666,1,2,2:0:0:0:
75,82,116733,1,0,2:0:0:0:
86,91,116800,5,4,0:0:0:0:
159,81,117068,1,0,2:0:0:0:
128,156,117336,1,8,0:0:0:0:
55,166,117604,1,0,2:0:0:0:
248,136,117871,6,0,P|323:146|412:154,1,157.500006008148,0|0,0:0|2:0,0:0:0:0:
410,138,118407,1,8,0:0:0:0:
426,63,118675,1,0,2:0:0:0:
380,366,118943,5,0,0:0:0:0:
380,366,119211,1,0,2:0:0:0:
437,319,119344,1,0,2:0:0:0:
510,311,119478,1,8,0:0:0:0:
369,292,119746,5,0,2:0:0:0:
307,253,119880,1,0,2:0:0:0:
236,250,120014,5,0,0:0:0:0:
325,8,120215,1,0,0:0:0:0:
489,208,120416,1,0,0:0:0:0:
370,145,120550,6,0,L|301:157,1,52.5000020027161,10|0,2:0|2:0,0:0:0:0:
248,135,120818,2,0,L|177:146,1,52.5000020027161,2|0,2:0|2:0,0:0:0:0:
12,375,121086,6,0,L|7:316,1,52.5,4|0,0:0|2:0,0:0:0:0:
4,297,121621,6,0,P|72:310|112:320,1,75.2500011482239,10|0,2:1|2:0,0:0:0:0:
377,349,121889,2,0,P|258:340|159:292,1,225.750003444672,2|0,2:1|2:0,0:0:0:0:
164,295,122358,1,0,2:0:0:0:
164,295,122425,1,0,2:0:0:0:
134,363,122559,1,0,2:0:0:0:
30,222,122693,2,0,P|62:230|112:242,1,78.7500030040742,8|0,0:0|2:0,0:0:0:0:
106,240,123228,1,0,0:0:0:0:
128,49,123362,5,0,2:0:0:0:
190,95,123496,1,2,2:0:0:0:
208,89,123563,1,2,2:0:0:0:
225,83,123630,1,2,2:0:0:0:
244,78,123697,1,2,2:0:0:0:
262,72,123764,2,0,P|358:100|469:129,1,210,8|0,0:0|2:0,0:0:0:0:
403,358,124300,5,0,0:0:0:0:
435,284,124434,1,0,2:0:0:0:
364,248,124568,1,0,2:0:0:0:
332,319,124702,1,0,2:0:0:0:
403,358,124836,6,0,P|455:365|508:311,1,105,8|0,0:0|2:0,0:0:0:0:
364,248,125103,2,0,P|281:219|199:192,1,157.500006008148,2|0,2:1|2:0,0:0:0:0:
12,136,125371,5,4,0:0:0:0:
12,136,125639,2,0,L|7:36,1,85.7500008177757,0|0,2:0|2:0,0:0:0:0:
19,208,125907,5,8,0:0:0:0:
165,70,126041,1,2,2:0:0:0:
198,290,126175,1,2,2:0:0:0:
333,146,126309,1,2,2:0:0:0:
77,279,126443,5,0,0:0:0:0:
77,279,126711,2,0,L|71:365,1,85.7500008177757,0|0,2:0|2:0,0:0:0:0:
99,205,126978,5,8,0:0:0:0:
248,28,127112,1,2,2:0:0:0:
282,281,127246,1,2,2:0:0:0:
447,100,127380,1,2,2:0:0:0:
390,198,127514,6,0,L|386:153,2,35,0|0|2,0:0|2:0|2:0,0:0:0:0:
451,245,127782,1,2,2:0:0:0:
465,248,127849,1,2,2:0:0:0:
479,251,127916,1,2,2:0:0:0:
404,341,128050,2,0,L|400:296,1,35,8|0,0:0|2:0,0:0:0:0:
281,11,128318,5,2,2:0:0:0:
291,89,128452,1,2,2:0:0:0:
214,58,128586,2,0,L|169:47,7,35,2|2|2|2|2|2|2|2,2:0|2:0|2:0|2:0|2:0|2:0|2:0|2:0,0:0:0:0:
224,138,129121,6,0,B|236:216|236:216|214:259|214:259|228:351,1,210.000008010865,8|0,0:0|2:0,0:0:0:0:
299,371,129523,1,0,2:0:0:0:
470,140,129657,5,4,0:0:0:0:
470,140,129925,2,0,L|476:47,1,85.7500008177757,2|0,2:0|2:0,0:0:0:0:
460,217,130193,5,8,0:0:0:0:
333,21,130327,1,2,2:0:0:0:
266,256,130461,1,2,2:0:0:0:
123,59,130595,1,2,2:0:0:0:
363,275,130728,5,0,0:0:0:0:
363,275,130996,2,0,L|368:181,1,85.7500008177757,2|0,2:0|2:0,0:0:0:0:
444,300,131264,5,8,0:0:0:0:
312,99,131398,1,2,2:0:0:0:
250,339,131532,1,2,2:0:0:0:
106,142,131666,1,2,2:0:0:0:
54,313,131800,6,0,P|41:346|27:378,1,70,0|0,0:0|2:0,0:0:0:0:
65,238,132336,2,0,P|43:211|21:182,1,70,0|0,0:0|2:0,0:0:0:0:
122,280,132871,2,0,P|156:273|191:269,1,70,0|0,0:0|2:0,0:0:0:0:
174,200,133273,5,0,2:0:0:0:
195,195,133407,2,2,B|313:173|280:255|427:222,1,210,2|0,0:0|2:0,0:0:0:0:
465,215,133943,1,4,0:0:0:0:
464,24,134211,5,0,2:0:0:0:
456,40,134344,1,2,2:0:0:0:
448,56,134746,1,2,2:0:0:0:
84,96,135282,5,0,2:0:0:0:
76,112,135415,1,2,2:0:0:0:
68,128,135817,1,2,2:0:0:0:
424,216,136353,5,0,2:0:0:0:
416,232,136486,1,2,2:0:0:0:
408,248,136888,1,2,2:0:0:0:
20,320,137425,5,0,2:0:0:0:
12,336,137558,1,2,2:0:0:0:
4,352,137960,1,2,2:0:0:0:
180,344,138228,6,0,P|148:352|128:356,2,52.5,0|0|2,2:0|2:0|2:0,2:0:0:0:
336,276,139702,2,0,P|368:284|388:288,1,52.5,0|2,2:0|2:0,2:0:0:0:
180,188,140773,2,0,P|148:196|128:200,1,52.5,0|2,2:0|2:0,2:0:0:0:
332,104,141844,2,0,P|364:112|384:116,1,52.5,0|2,2:0|2:0,2:0:0:0:
279,180,142514,5,4,0:0:0:0:
48,24,142782,5,0,2:0:0:0:
56,40,142915,1,2,2:0:0:0:
64,56,143317,1,2,2:0:0:0:
428,96,143853,5,0,2:0:0:0:
436,112,143986,1,2,2:0:0:0:
444,128,144388,1,2,2:0:0:0:
88,216,144924,5,0,2:0:0:0:
96,232,145059,1,2,2:0:0:0:
104,248,145461,1,2,2:0:0:0:
492,320,145996,5,0,2:0:0:0:
500,336,146129,1,2,2:0:0:0:
508,352,146531,1,2,2:0:0:0:
332,344,146799,6,0,P|364:352|384:356,2,52.5,0|0|2,2:0|2:0|2:0,2:0:0:0:
176,276,148273,2,0,P|144:284|124:288,1,52.5,0|2,2:0|2:0,2:0:0:0:
332,188,149344,2,0,P|364:196|384:200,1,52.5,0|2,2:0|2:0,2:0:0:0:
180,104,150416,2,0,P|148:112|128:116,1,52.5,0|2,2:0|2:0,2:0:0:0:
54,14,151086,5,4,1:0:0:0:
41,100,151353,1,2,2:0:0:0:
41,100,151487,1,0,2:0:0:0:
41,100,151621,2,0,P|45:132|47:150,1,35,8|2,1:0|0:0,0:0:0:0:
141,29,152157,1,0,1:0:0:0:
128,115,152425,1,2,2:0:0:0:
128,115,152558,1,0,2:0:0:0:
128,115,152693,2,0,P|132:147|134:165,1,35,8|2,1:0|0:0,0:0:0:0:
460,62,153228,5,0,1:0:0:0:
473,148,153495,1,2,2:0:0:0:
473,148,153629,1,0,2:0:0:0:
473,148,153764,2,0,P|469:180|468:187,1,35,8|2,1:0|0:0,0:0:0:0:
373,77,154299,1,0,1:0:0:0:
386,163,154568,1,2,2:0:0:0:
386,163,154702,1,0,2:0:0:0:
386,163,154836,2,0,P|382:195|380:213,1,35,8|2,1:0|0:0,0:0:0:0:
260,376,155371,6,0,P|278:371|306:369,1,35,0|2,1:0|0:0,0:0:0:0:
396,312,155773,1,0,0:0:0:0:
396,312,155907,2,0,P|378:310|361:305,1,35,8|0,1:0|0:0,0:0:0:0:
277,273,156309,2,0,P|273:251|271:214,1,52.5,2|2,0:0|0:0,0:0:0:0:
318,62,156978,1,8,1:0:0:0:
330,13,157112,2,0,P|327:43|326:63,1,35,2|0,0:0|0:0,0:0:0:0:
296,138,157514,5,0,1:0:0:0:
296,138,157648,1,2,0:0:0:0:
407,61,157782,1,2,0:0:0:0:
425,73,157916,2,0,P|433:91|439:124,1,52.5,2|0,0:0|0:0,0:0:0:0:
425,221,158586,1,0,1:0:0:0:
356,216,158719,2,0,P|387:212|417:209,1,52.5,2|8,0:0|1:0,0:0:0:0:
490,187,159255,1,2,0:0:0:0:
512,262,159389,1,2,0:0:0:0:
463,323,159524,1,2,0:0:0:0:
449,313,159657,6,0,P|426:310|404:307,1,35,4|2,1:0|0:0,0:0:0:0:
321,374,160059,1,0,0:0:0:0:
321,374,160193,2,0,P|338:372|356:370,1,35,8|0,1:0|0:0,0:0:0:0:
284,287,160594,2,0,P|252:281|218:279,1,52.5,2|2,0:0|0:0,0:0:0:0:
57,310,161264,1,8,1:0:0:0:
48,363,161398,2,0,P|47:342|44:317,1,35,2|2,0:0|0:0,0:0:0:0:
8,252,161800,5,0,1:0:0:0:
8,252,161934,1,2,0:0:0:0:
125,226,162068,1,2,0:0:0:0:
134,245,162202,2,0,P|129:278|126:302,1,52.5,2|0,0:0|0:0,0:0:0:0:
94,120,162871,1,0,1:0:0:0:
29,138,163005,2,0,P|56:137|96:129,1,52.5,2|8,0:0|1:0,0:0:0:0:
171,148,163541,1,2,0:0:0:0:
204,77,163675,1,2,0:0:0:0:
154,17,163809,1,2,0:0:0:0:
139,32,163943,6,0,P|107:37|91:38,1,35,0|2,1:0|0:0,0:0:0:0:
217,68,164344,1,0,0:0:0:0:
217,68,164478,2,0,P|234:70|251:73,1,35,8|0,1:0|0:0,0:0:0:0:
334,97,164880,2,0,P|331:68|328:30,1,52.5,2|2,0:0|0:0,0:0:0:0:
315,200,165550,1,8,1:0:0:0:
369,218,165684,2,0,P|341:215|319:213,1,35,2|2,0:0|0:0,0:0:0:0:
283,278,166086,5,0,1:0:0:0:
450,259,166353,1,0,1:0:0:0:
256,368,166621,1,0,1:0:0:0:
497,349,166889,1,0,1:0:0:0:
476,343,167157,5,0,1:0:0:0:
396,372,167291,1,0,1:0:0:0:
331,315,167425,1,0,1:0:0:0:
266,258,167559,1,0,1:0:0:0:
186,287,167693,5,0,1:0:0:0:
168,288,167760,1,0,1:0:0:0:
151,290,167827,1,0,1:0:0:0:
133,293,167894,1,0,1:0:0:0:
116,296,167961,2,0,L|73:293,1,26.2500010013581,0|0,1:0|3:0,1:0:0:0:
58,371,168094,2,0,L|92:373,1,26.2500010013581,0|0,3:0|3:0,1:0:0:0:
200,202,168228,6,2,P|132:174|21:255,1,210,6|0,1:0|0:0,0:0:0:0:
26,243,168764,1,0,0:0:0:0:
174,383,169032,6,0,P|180:328|186:276,1,105,6|0,1:0|0:0,0:0:0:0:
185,278,169568,1,0,0:0:0:0:
7,52,169836,6,0,P|43:45|84:27,1,70,6|0,1:0|0:0,0:0:0:0:
256,192,172514,12,0,176666,0:0:0:0:
490,73,176800,6,0,P|461:92|377:99,1,105,4|0,1:0|0:0,0:0:0:0:
319,66,177871,2,0,P|324:26|326:4,2,52.5
277,215,178943,5,0,0:0:0:0:
340,168,179344,1,0,0:0:0:0:
419,181,179746,1,0,0:0:0:0:
418,180,181086,6,0,P|421:206|425:233,2,52.5
319,66,182157,2,0,P|324:26|326:4,2,52.5
189,143,183228,6,0,P|126:143|62:100,1,140
38,17,184836,1,0,0:0:0:0:
38,17,185371,6,0,P|41:67|44:127,1,105
58,220,186443,2,0,P|26:214|-6:210,2,52.5
186,356,187514,5,0,0:0:0:0:
122,285,187916,1,0,0:0:0:0:
30,309,188318,1,0,0:0:0:0:
30,309,189657,6,0,P|72:305|108:303,1,70
186,250,190461,2,0,L|221:253|256:256,1,70
479,327,191532,6,0,P|444:335|430:340,1,49
338,366,193675,2,0,P|336:351|334:342,3,17.5,2|2|2|2,0:0|0:0|0:0|0:0,0:0:0:0:
352,383,193943,6,0,P|356:341|361:295,1,78.7500030040742,4|0,1:0|0:0,0:0:0:0:
376,283,194478,1,2,0:0:0:0:
160,1,194746,6,0,P|156:43|151:89,1,78.7500030040742,4|0,1:0|0:0,0:0:0:0:
136,101,195281,1,2,0:0:0:0:
256,192,195550,6,0,B|268:208|269:234|269:234|209:220|171:268|171:268|126:262|114:223|114:223|72:209|33:243,1,315,4|8,1:0|1:0,0:0:0:0:
97,377,198094,1,8,1:0:0:0:
170,358,198228,6,0,P|171:331|175:296,1,52.5000020027161,4|0,1:0|0:0,0:0:0:0:
164,279,198630,1,2,0:0:0:0:
342,26,199032,6,0,P|340:52|336:87,1,52.5000020027161,4|0,1:0|0:0,0:0:0:0:
348,105,199434,1,2,0:0:0:0:
256,192,199836,1,0,1:0:0:0:
256,192,199969,1,2,0:0:0:0:
256,192,200103,1,0,0:0:0:0:
186,148,200237,6,0,L|122:156,1,52.5000020027161,2|0,0:0|0:0,0:0:0:0:
152,79,200639,2,0,L|88:87,1,52.5000020027161,2|0,0:0|0:0,0:0:0:0:
118,10,201041,2,0,L|54:18,1,52.5000020027161,2|0,0:0|0:0,0:0:0:0:
0,209,201577,2,0,P|39:214|91:232,1,78.7500030040742,2|2,0:0|0:0,0:0:0:0:
256,192,202246,1,0,0:0:0:0:
185,365,202514,5,4,1:0:0:0:
198,347,202648,2,0,P|196:314|194:272,1,52.5000020027161,2|0,0:0|0:0,0:0:0:0:
327,19,203318,5,4,1:0:0:0:
314,37,203452,2,0,P|316:70|318:112,1,52.5000020027161,2|0,0:0|0:0,0:0:0:0:
441,185,203853,5,8,1:0:0:0:
510,131,203987,1,8,1:0:0:0:
358,169,204121,2,0,P|360:202|362:244,1,52.5000020027161,4|2,1:0|0:0,0:0:0:0:
416,352,204523,1,2,0:0:0:0:
416,352,204657,6,0,P|420:313|427:275,1,78.7500030040742,0|2,0:0|0:0,0:0:0:0:
510,131,205461,2,0,P|456:135|412:114,1,105.000004005432,2|0,0:0|0:0,0:0:0:0:
256,32,206264,2,0,P|209:36|161:40,1,78.7500030040742,2|0,0:0|0:0,0:0:0:0:
163,25,206800,6,0,L|166:64|169:103,1,78.7500030040742,4|0,1:0|0:0,0:0:0:0:
160,123,207336,1,0,0:0:0:0:
349,359,207603,6,0,P|345:319|342:280,1,78.7500030040742,4|0,1:0|0:0,0:0:0:0:
352,261,208139,1,0,0:0:0:0:
512,0,208407,6,0,P|482:7|454:13,1,59.5,4|0,1:0|0:0,0:0:0:0:
359,1,211086,6,0,P|363:29|365:54,2,52.5
315,193,212157,1,0,0:0:0:0:
370,133,212559,1,0,0:0:0:0:
448,153,212961,1,0,0:0:0:0:
256,192,213094,12,0,215237,0:0:0:0:
288,352,215371,6,0,P|289:317|291:282,1,70,0|0,1:0|0:0,0:0:0:0:
338,218,215773,1,0,0:0:0:0:
338,218,215907,1,8,1:0:0:0:
418,238,216175,1,0,0:0:0:0:
224,32,216443,6,0,P|223:67|221:102,1,70,0|0,1:0|0:0,0:0:0:0:
174,166,216845,1,0,0:0:0:0:
174,166,216978,1,8,1:0:0:0:
94,146,217247,1,0,0:0:0:0:
17,291,217514,6,0,P|53:286|114:281,1,70,0|2,1:0|0:1,0:0:0:0:
166,257,217916,1,0,0:0:0:0:
166,257,218050,1,8,1:0:0:0:
146,343,218318,1,0,0:0:0:0:
412,203,218586,6,0,P|376:208|315:213,1,70,0|2,1:0|0:1,0:0:0:0:
263,237,218988,1,0,0:0:0:0:
263,237,219122,1,8,1:0:0:0:
283,151,219390,1,0,0:0:0:0:
186,16,219657,5,0,1:0:0:0:
186,16,219791,1,2,0:0:0:0:
186,16,219925,1,2,0:0:0:0:
186,16,220059,1,2,0:0:0:0:
186,16,220193,2,0,P|182:62|178:101,1,70,8|2,1:0|0:0,0:0:0:0:
138,151,220594,1,2,0:0:0:0:
73,192,220728,5,0,1:0:0:0:
0,181,220862,1,2,0:0:0:0:
138,151,220996,1,2,0:0:0:0:
210,159,221130,1,2,0:0:0:0:
110,48,221264,5,8,1:0:0:0:
73,192,221398,2,0,P|76:238|78:273,1,70,2|0,0:0|0:0,0:0:0:0:
158,375,221800,6,0,L|160:340|162:305,1,70,0|2,1:0|0:1,0:0:0:0:
242,279,222202,1,0,0:0:0:0:
242,279,222336,1,8,1:0:0:0:
176,222,222603,1,0,0:0:0:0:
353,74,222871,6,0,L|351:109|349:144,1,70,0|2,1:0|0:1,0:0:0:0:
270,171,223273,1,0,0:0:0:0:
270,171,223407,1,8,1:0:0:0:
336,228,223674,1,0,0:0:0:0:
511,260,223943,6,0,P|479:270|433:266,1,58.3333333333333,0|0,1:0|0:0,0:0:0:0:
428,252,224211,1,10,0:1:0:0:
478,187,224389,1,0,0:0:0:0:
478,187,224478,1,0,1:0:0:0:
510,356,224657,1,0,0:0:0:0:
510,356,224746,1,10,0:1:0:0:
348,292,224925,1,0,0:0:0:0:
348,292,225014,5,0,1:0:0:0:
501,114,225193,1,0,0:0:0:0:
501,114,225282,1,10,0:1:0:0:
429,331,225461,1,0,0:0:0:0:
429,331,225550,1,0,1:0:0:0:
275,255,225728,1,0,0:0:0:0:
275,255,225818,1,10,0:1:0:0:
431,21,225996,1,0,0:0:0:0:
431,21,226086,6,0,P|434:55|436:93,1,43.75,0|0,1:0|0:0,0:0:0:0:
364,74,226353,1,10,0:1:0:0:
364,74,226621,2,0,P|367:108|369:146,1,43.75,0|0,1:0|0:0,0:0:0:0:
151,80,226888,1,10,0:1:0:0:
151,80,227157,6,0,P|148:114|146:152,1,43.75,0|0,1:0|0:0,0:0:0:0:
81,21,227425,1,10,0:1:0:0:
81,21,227693,2,0,P|78:55|76:93,1,43.75,0|0,1:0|0:0,0:0:0:0:
32,352,227961,1,10,0:1:0:0:
32,352,228228,5,0,1:0:0:0:
26,279,228362,1,0,1:0:0:0:
93,312,228496,1,8,1:0:0:0:
87,239,228630,1,0,1:0:0:0:
48,176,228764,2,0,P|112:168|153:278,1,140,0|8,1:0|1:2,0:0:0:0:
104,12,229166,1,0,1:0:0:0:
13,73,229300,5,0,1:0:0:0:
150,65,229434,1,0,1:0:0:0:
82,80,229568,1,8,1:0:0:0:
209,29,229701,1,0,1:0:0:0:
407,163,229836,5,0,1:0:0:0:
234,173,229969,1,0,1:0:0:0:
319,155,230103,1,8,1:0:0:0:
160,218,230237,1,0,1:0:0:0:
297,382,230371,6,0,P|298:358|301:326,2,35,0|0|0,1:0|0:0|0:0,0:0:0:0:
373,328,230773,1,0,1:0:0:0:
371,342,230907,1,0,0:0:0:0:
370,355,231041,1,0,0:0:0:0:
436,253,231175,2,0,P|437:277|440:309,2,35,0|0|0,1:0|0:0|0:0,0:0:0:0:
509,260,231577,1,0,1:0:0:0:
511,274,231711,1,0,0:0:0:0:
512,287,231845,1,0,0:0:0:0:
297,278,231978,6,0,B|348:269|376:224|381:164|321:64|321:64|366:156|335:232,1,420,2|0,0:1|0:0,0:0:0:0:
192,326,232514,6,0,P|164:323|136:321,1,52.5,4|0,1:0|0:0,0:0:0:0:
0,365,233050,6,0,P|53:363|94:345,1,78.7500030040742,10|0,1:0|0:0,0:0:0:0:
222,226,233318,2,0,P|121:213|-8:269,1,236.250009012223,2|0,0:1|0:0,0:0:0:0:
0,263,233853,2,0,P|7:230|13:177,1,78.7500030040742
23,27,234121,1,8,1:0:0:0:
36,372,234389,1,2,0:0:0:0:
256,191,234657,6,0,P|292:196|344:211,1,70,2|0,1:0|0:0,0:0:0:0:
309,286,235059,2,0,P|342:277|377:272,1,70,2|0,0:0|0:0,0:0:0:0:
452,236,235461,1,0,0:0:0:0:
358,367,235594,1,0,3:0:0:0:
358,367,235661,1,0,3:0:0:0:
358,367,235728,5,0,1:0:0:0:
309,111,235929,1,2,0:0:0:0:
512,154,236130,1,2,0:0:0:0:
512,154,236197,1,0,0:0:0:0:
512,154,236264,2,0,L|461:160,3,39.3750015020371,8|0|0|0,1:0|3:0|3:0|3:0,0:0:0:0:
436,216,236532,6,0,P|439:153|442:95,1,118.125004506111,2|0,0:1|0:0,0:0:0:0:
290,19,236800,5,4,1:0:0:0:
304,31,236866,1,2,0:0:0:0:
322,40,236933,1,2,0:0:0:0:
341,45,237000,1,2,0:0:0:0:
361,46,237068,2,0,P|357:105|355:164,1,78.7500030040742,2|0,0:0|0:0,0:0:0:0:
436,216,237336,5,10,1:2:0:0:
407,209,237402,1,2,0:0:0:0:
378,213,237469,1,2,0:0:0:0:
352,227,237536,1,2,0:0:0:0:
332,249,237603,2,0,P|335:307|338:366,1,78.7500030040742,2|2,0:0|0:0,0:0:0:0:
437,374,237871,1,0,1:0:0:0:
437,374,238139,6,0,P|466:329|434:199,1,157.500006008148,2|8,0:1|0:0,0:0:0:0:
249,190,238541,2,0,P|220:235|252:365,1,157.500006008148,2|0,0:1|0:0,0:0:0:0:
329,363,238943,5,0,1:0:0:0:
304,276,239077,1,0,0:0:0:0:
239,346,239211,1,2,0:0:0:0:
239,346,239277,1,0,0:0:0:0:
239,346,239344,2,0,P|198:339|146:335,1,70,0|8,0:0|1:0,0:0:0:0:
64,191,239612,1,0,0:0:0:0:
8,374,239746,1,2,0:0:0:0:
8,374,239813,1,0,0:0:0:0:
8,374,239880,1,0,0:0:0:0:
84,346,240014,6,0,P|86:316|95:253,7,52.5000020027161,0|2|2|2|2|2|2|2,1:0|0:0|0:0|0:0|0:0|0:0|0:0|0:0,0:0:0:0:
157,249,240550,1,10,0:1:0:0:
4,127,240751,1,2,0:1:0:0:
212,22,240952,1,0,3:0:0:0:
212,22,241086,6,0,P|209:48|206:78,1,52.5,4|0,1:0|0:0,0:0:0:0:
4,127,241621,6,0,P|83:112|164:182,1,157.500006008148,10|0,1:0|0:0,0:0:0:0:
157,249,242023,2,0,P|78:264|-3:194,1,157.500006008148,2|0,0:1|0:0,0:0:0:0:
256,192,242426,5,2,0:0:0:0:
256,211,242492,1,2,0:0:0:0:
257,231,242559,1,2,0:0:0:0:
258,250,242626,1,2,0:0:0:0:
260,270,242693,1,8,1:0:0:0:
498,347,242827,2,0,P|419:332|338:402,1,157.500006008148,2|0,0:1|0:0,0:0:0:0:
157,249,243228,5,0,1:0:0:0:
32,320,243362,1,0,0:0:0:0:
32,320,243429,1,0,0:0:0:0:
32,320,243496,2,0,P|59:324|98:336,3,39.3750015020371,2|2|2|2,0:0|0:0|0:0|0:0,0:0:0:0:
154,371,243764,6,0,L|147:269,1,78.7500030040742,10|0,1:0|0:0,0:0:0:0:
45,0,244032,2,0,P|37:124|31:243,1,236.250009012223,2|0,2:1|0:0,0:0:0:0:
133,177,244568,2,0,P|133:138|135:99,1,78.7500030040742,2|0,0:1|0:0,0:0:0:0:
227,98,244836,5,8,1:0:0:0:
34,165,244969,1,0,3:0:0:0:
177,291,245103,2,0,P|216:290|256:288,1,78.7500030040742,2|0,0:1|0:0,0:0:0:0:
512,362,245371,6,0,L|482:358,7,17.5,0|0|0|0|0|0|0|0,1:0|0:0|0:0|0:0|0:0|0:0|0:0|0:0,0:0:0:0:
428,313,245907,6,0,L|398:317,4,17.5,0|2|2|2|0,1:0|0:0|0:0|0:0|0:0,0:0:0:0:
328,359,246309,1,0,3:0:0:0:
328,359,246376,1,0,3:0:0:0:
328,359,246443,6,0,P|319:308|337:256,1,105,0|0,1:0|0:0,0:0:0:0:
409,220,246978,2,0,L|405:148,1,70,0|0,1:0|1:0,1:0:0:0:
349,17,247514,5,0,1:0:0:0:
349,17,247782,1,0,1:0:0:0:
409,71,247916,1,2,0:0:0:0:
487,45,248050,2,0,L|483:117,1,70,0|0,1:0|1:0,1:0:0:0:
488,129,248586,5,0,1:0:0:0:
310,150,248719,1,0,1:0:0:0:
510,309,248853,1,0,1:0:0:0:
331,321,248987,1,0,1:0:0:0:
425,222,249122,5,0,1:0:0:0:
424,239,249188,1,0,1:0:0:0:
423,256,249255,1,0,1:0:0:0:
422,274,249322,1,0,1:0:0:0:
421,291,249389,1,0,1:0:0:0:
420,309,249456,1,0,1:0:0:0:
419,326,249523,1,0,1:0:0:0:
418,344,249590,1,0,1:0:0:0:
417,361,249657,5,4,1:0:0:0:
331,321,249925,1,0,0:0:0:0:
181,321,250193,1,8,1:0:0:0:
94,361,250461,1,0,0:0:0:0:
105,254,250728,6,0,P|172:217|244:243,1,157.500006008148,0|0,1:0|0:0,0:0:0:0:
256,272,251264,2,0,P|254:212|253:157,1,105.000004005432,8|0,1:0|0:0,0:0:0:0:
99,17,251800,5,0,1:0:0:0:
99,17,252068,1,2,0:0:0:0:
81,84,252201,1,0,0:0:0:0:
41,141,252336,2,0,P|42:175|43:210,1,70,8|0,1:0|0:0,0:0:0:0:
184,56,252603,5,2,0:0:0:0:
166,123,252736,1,0,0:0:0:0:
126,180,252871,6,0,P|128:240|129:295,1,70,0|0,1:0|0:0,0:0:0:0:
256,352,253072,2,0,P|203:323|154:297,1,70,2|0,1:2|0:0,0:0:0:0:
42,378,253273,2,0,P|70:360|97:344,1,35,2|0,1:2|0:0,0:0:0:0:
101,341,253407,6,0,P|68:337|-4:329,1,105,8|0,1:0|0:0,1:0:0:0:
23,237,253675,2,0,P|75:242|128:249,1,105,2|0,0:1|0:0,0:0:0:0:
256,352,253943,6,0,L|302:345,1,35,4|0,1:0|0:0,0:0:0:0:
396,379,254344,6,0,P|371:322|402:208,1,157.500006008148,2|0,0:1|0:0,0:0:0:0:
492,8,254746,2,0,P|517:65|486:179,1,157.500006008148,2|0,0:1|1:0,0:0:0:0:
256,192,255282,5,2,0:1:0:0:
258,172,255348,1,2,0:0:0:0:
261,152,255415,1,2,0:0:0:0:
263,133,255482,1,2,0:0:0:0:
265,112,255549,1,8,1:0:0:0:
328,36,255684,2,0,P|267:74|161:58,1,157.500006008148,2|0,0:1|0:0,0:0:0:0:
25,10,256086,6,0,P|27:53|28:92,1,78.7500030040742,4|0,1:0|0:0,0:0:0:0:
15,167,256621,1,8,1:0:0:0:
92,138,256889,1,2,0:0:0:0:
84,378,257157,6,0,P|86:335|87:296,1,78.7500030040742,4|0,1:0|0:0,0:0:0:0:
74,221,257692,1,8,1:0:0:0:
151,250,257960,1,0,1:0:0:0:
256,32,258228,5,4,1:0:0:0:
331,57,258496,1,0,0:0:0:0:
411,48,258764,1,8,1:0:0:0:
478,6,259032,1,0,0:0:0:0:
455,183,259300,6,0,P|407:143|306:157,1,157.500006008148,0|0,1:0|0:0,0:0:0:0:
296,122,259836,2,0,P|293:174|290:231,1,105.000004005432,8|0,1:0|0:0,0:0:0:0:
482,346,260371,5,0,1:0:0:0:
482,346,260639,1,2,0:0:0:0:
412,356,260773,1,0,0:0:0:0:
354,314,260907,2,0,P|317:317|282:320,1,70,8|0,1:0|0:0,0:0:0:0:
512,265,261175,5,2,0:0:0:0:
442,275,261309,1,0,0:0:0:0:
385,235,261443,6,0,P|348:238|313:241,1,70,0|0,1:0|0:0,0:0:0:0:
223,156,261644,2,0,P|260:159|295:162,1,70,2|0,1:2|0:0,0:0:0:0:
198,328,261844,2,0,P|171:330|146:332,1,35,2|0,1:2|0:0,0:0:0:0:
128,333,261978,6,0,P|132:284|136:217,1,105,8|0,1:0|0:0,0:0:0:0:
50,257,262246,2,0,P|46:309|43:362,1,105,2|0,0:1|0:0,0:0:0:0:
73,175,262514,6,0,P|71:147|68:120,1,52.5,4|0,1:0|0:0,0:0:0:0:
20,17,263050,5,8,1:0:0:0:
45,41,263116,1,2,0:0:0:0:
76,55,263183,1,2,0:0:0:0:
111,56,263250,1,2,0:0:0:0:
144,46,263318,1,2,0:0:0:0:
177,35,263385,1,2,0:0:0:0:
211,37,263452,1,0,0:0:0:0:
277,86,263586,1,0,1:0:0:0:
488,49,263853,5,2,0:0:0:0:
466,47,263919,1,2,0:0:0:0:
444,42,263986,1,2,0:0:0:0:
424,33,264053,1,2,0:0:0:0:
404,21,264120,1,10,0:0:0:0:
317,266,264389,5,2,0:0:0:0:
343,266,264455,1,2,0:0:0:0:
368,261,264522,1,2,0:0:0:0:
393,251,264589,1,2,0:0:0:0:
415,236,264657,6,0,P|409:283|407:319,1,70,0|2,1:0|0:0,0:0:0:0:
358,164,265059,1,0,0:0:0:0:
487,365,265193,2,0,P|460:369|440:375,1,35,8|0,1:0|0:0,0:0:0:0:
313,278,265461,2,0,P|314:269|316:261,1,17.5,2|0,0:0|0:0,0:0:0:0:
496,16,265728,5,2,1:1:0:0:
464,223,265929,1,2,0:1:0:0:
256,192,266130,1,2,0:1:0:0:
394,1,266264,5,8,1:0:0:0:
415,2,266330,1,2,0:0:0:0:
436,8,266397,1,2,0:0:0:0:
455,19,266464,1,2,0:0:0:0:
471,34,266531,1,2,0:0:0:0:
483,52,266598,1,2,0:0:0:0:
490,73,266665,1,2,0:0:0:0:
492,94,266732,1,2,0:0:0:0:
488,116,266799,5,4,1:0:0:0:
464,223,267068,1,0,0:0:0:0:
408,147,267336,1,8,1:0:0:0:
382,253,267603,1,0,0:0:0:0:
245,89,267871,6,0,P|322:76|400:62,1,157.500006008148,0|0,1:0|0:0,0:0:0:0:
417,42,268407,2,0,P|411:101|407:149,1,105.000004005432,8|0,1:0|0:0,0:0:0:0:
378,371,268943,5,0,1:0:0:0:
378,371,269211,1,2,0:0:0:0:
356,302,269344,1,0,0:0:0:0:
307,249,269478,2,0,P|311:207|313:174,1,70,8|0,1:0|0:0,0:0:0:0:
471,338,269746,5,2,0:0:0:0:
449,269,269879,1,0,0:0:0:0:
400,216,270014,6,0,P|404:174|406:141,1,70,0|0,1:0|0:0,0:0:0:0:
256,112,270215,2,0,P|259:77|261:42,1,70,2|0,1:2|0:0,0:0:0:0:
356,1,270416,1,2,1:2:0:0:
356,1,270483,1,0,1:0:0:0:
355,0,270550,6,0,P|353:35|350:70,1,70,8|0,1:0|0:0,0:0:0:0:
476,189,270818,2,0,P|473:223|470:258,1,70,0|0,1:0|0:0,0:0:0:0:
394,366,271086,6,0,P|362:358|337:355,1,52.5,4|0,1:0|0:0,0:0:0:0:
255,336,271621,6,0,P|199:358|163:374,1,78.7500030040742,10|0,1:0|0:0,0:0:0:0:
235,252,271889,2,0,P|127:261|12:205,1,236.250009012223,2|2,0:1|0:0,0:0:0:0:
15,207,272358,1,2,0:0:0:0:
15,207,272425,1,0,0:0:0:0:
4,118,272559,1,0,0:0:0:0:
111,0,272693,6,0,P|107:34|103:69,1,70,8|0,1:0|0:0,0:0:0:0:
156,174,272961,2,0,P|152:208|148:243,1,70,2|0,0:0|0:0,0:0:0:0:
19,373,273228,5,0,1:0:0:0:
128,320,273362,1,0,0:0:0:0:
128,320,273429,1,2,0:0:0:0:
128,320,273496,2,0,P|165:315|197:311,3,39.3750015020371,2|2|2|2,0:0|0:0|0:0|0:0,0:0:0:0:
239,347,273764,6,0,P|246:285|254:223,1,118.125004506111,10|0,1:0|0:0,0:0:0:0:
71,168,274032,2,0,P|64:227|58:286,1,118.125004506111,2|0,0:1|0:0,0:0:0:0:
166,65,274300,1,0,0:0:0:0:
33,90,274434,6,0,P|61:85|86:82,1,52.5000020027161,2|0,1:0|0:0,0:0:0:0:
224,13,274836,6,0,P|176:23|91:-26,1,118.125004506111,10|0,1:0|0:0,0:0:0:0:
71,168,275103,2,0,P|119:158|204:207,1,118.125004506111,2|0,0:1|0:0,0:0:0:0:
180,361,275371,5,4,0:0:0:0:
113,324,275505,1,0,3:0:0:0:
113,324,275572,1,0,3:0:0:0:
113,324,275639,2,0,P|116:277|118:235,1,78.7500030040742
34,336,275907,5,8,1:0:0:0:
197,266,276041,1,2,0:1:0:0:
57,124,276175,1,2,0:1:0:0:
194,66,276309,1,2,0:1:0:0:
332,23,276443,5,0,1:0:0:0:
399,60,276577,1,0,3:0:0:0:
399,60,276644,1,0,3:0:0:0:
399,60,276711,2,0,P|396:107|394:149,1,78.7500030040742
478,48,276979,5,8,1:0:0:0:
315,118,277113,1,2,0:1:0:0:
455,260,277247,1,2,0:1:0:0:
318,318,277381,1,2,0:1:0:0:
180,361,277514,6,0,P|181:340|182:321,2,39.3750015020371,0|0|0,1:0|0:0|0:0,0:0:0:0:
124,224,277782,2,0,P|126:244|127:264,2,39.3750015020371,2|0|0,0:0|0:0|0:0,0:0:0:0:
54,300,278050,5,8,1:0:0:0:
16,43,278318,1,2,0:0:0:0:
16,43,278452,1,2,0:0:0:0:
16,43,278586,2,0,P|47:37|86:26,6,39.3750015020371,0|2|2|2|2|2|2,1:0|0:0|0:0|0:0|0:0|0:0|0:0,0:0:0:0:
130,0,279120,1,8,1:0:0:0:
178,72,279256,1,2,0:0:0:0:
197,74,279322,1,2,0:0:0:0:
217,76,279389,1,2,0:0:0:0:
236,78,279456,1,2,0:0:0:0:
256,80,279523,1,2,0:0:0:0:
332,23,279657,5,4,0:0:0:0:
399,60,279791,1,0,3:0:0:0:
399,60,279858,1,0,3:0:0:0:
399,60,279925,2,0,P|396:107|394:149,1,78.7500030040742
478,48,280193,5,8,1:0:0:0:
315,118,280327,1,2,0:1:0:0:
455,260,280461,1,2,0:1:0:0:
318,318,280595,1,2,0:1:0:0:
180,361,280729,5,0,1:0:0:0:
113,324,280863,1,0,3:0:0:0:
113,324,280930,1,0,3:0:0:0:
113,324,280997,2,0,P|116:277|118:235,1,78.7500030040742
34,336,281265,5,8,1:0:0:0:
197,266,281399,1,2,0:1:0:0:
57,124,281533,1,2,0:1:0:0:
194,66,281667,1,2,0:1:0:0:
332,23,281800,6,0,P|367:35|428:39,1,70,0|2,1:0|0:0,0:0:0:0:
426,72,282202,1,2,0:0:0:0:
426,72,282336,2,0,L|521:67,1,70,0|2,1:0|0:0,0:0:0:0:
506,167,282871,2,0,P|488:163|471:160,1,35,0|0,1:0|0:0,0:0:0:0:
404,198,283139,2,0,P|386:201|369:204,1,35
342,127,283407,6,0,B|350:203|350:203|324:252|324:252|335:352,1,210,2|0,1:0|0:0,0:0:0:0:
406,374,283943,5,4,0:0:0:0:
452,311,284211,5,0,0:0:0:0:
452,311,284344,1,2,0:0:0:0:
461,237,284746,1,2,0:0:0:0:
180,289,285282,5,0,0:0:0:0:
180,289,285415,1,2,0:0:0:0:
254,298,285817,1,2,0:0:0:0:
215,24,286353,5,0,0:0:0:0:
215,24,286486,1,2,0:0:0:0:
206,98,286888,1,2,0:0:0:0:
487,46,287424,5,0,0:0:0:0:
487,46,287559,1,2,0:0:0:0:
413,37,287961,1,2,0:0:0:0:
411,325,288228,6,0,P|447:334|475:337,2,52.5,0|2|2,0:0|0:0|0:0,0:0:0:0:
144,347,289702,2,0,P|108:338|80:335,1,52.5,0|2,0:0|0:0,0:0:0:0:
340,206,290773,2,0,P|359:174|376:152,1,52.5,0|2,0:0|0:0,0:0:0:0:
181,80,291844,2,0,P|161:48|144:26,1,52.5,0|2,0:0|0:0,0:0:0:0:
66,8,292514,5,4,0:0:0:0:
56,82,292782,5,0,0:0:0:0:
56,82,292915,1,2,0:0:0:0:
47,156,293317,1,2,0:0:0:0:
328,104,293853,5,0,0:0:0:0:
328,104,293986,1,2,0:0:0:0:
254,95,294388,1,2,0:0:0:0:
293,369,294924,5,0,0:0:0:0:
293,369,295059,1,2,0:0:0:0:
302,295,295461,1,2,0:0:0:0:
21,347,295995,5,0,0:0:0:0:
21,347,296130,1,2,0:0:0:0:
95,356,296532,1,2,0:0:0:0:
133,165,296800,6,0,P|98:157|71:152,2,52.5,0|2|2,0:0|0:0|0:0,0:0:0:0:
352,55,298273,2,0,P|387:47|414:42,1,52.5,0|2,0:0|0:0,0:0:0:0:
267,300,299344,2,0,P|261:326|256:352,1,52.5,0|2,0:0|0:0,0:0:0:0:
244,28,300416,2,0,P|249:54|256:80,1,52.5,0|2,0:0|0:0,0:0:0:0:
399,243,301086,6,0,P|444:219|504:213,1,112,4|0,0:0|0:0,2:0:0:0:
