osu file format v14

[General]
AudioFilename: audio.ogg
AudioLeadIn: 0
PreviewTime: 6395
Countdown: 0
SampleSet: Normal
StackLeniency: 1
Mode: 1
LetterboxInBreaks: 0
WidescreenStoryboard: 0

[Editor]
DistanceSpacing: 1.7
BeatDivisor: 4
GridSize: 16
TimelineZoom: 1.6

[Metadata]
Title:Fuwari (feat. MIMI, KAFU, Hatsune Miku)
TitleUnicode:ふわり (feat. MIMI, 可不, 初音ミク)
Artist:ESHIKARA
ArtistUnicode:ESHIKARA
Creator:Iyouka
Version:Oni
Source:
Tags:japanese jpop pop vocaloid taiko_maniac1811 critical_star
BeatmapID:4055004
BeatmapSetID:1957349

[Difficulty]
HPDrainRate:6.3
CircleSize:5
OverallDifficulty:5.5
ApproachRate:9
SliderMultiplier:1.4
SliderTickRate:1

[Events]
//Background and Video events
0,0,"image.jpg",0,100
//Break Periods
//Storyboard Layer 0 (Background)
//Storyboard Layer 1 (Fail)
//Storyboard Layer 2 (Pass)
//Storyboard Layer 3 (Foreground)
//Storyboard Layer 4 (Overlay)
//Storyboard Sound Samples

[TimingPoints]
542,365.853658536585,4,1,0,70,1,0
6395,-90.9090909090909,4,1,0,90,0,0
6761,-100,4,1,0,90,0,0
11518,-100,4,1,0,90,0,0
12250,-100,4,1,0,90,0,0
17372,-100,4,1,0,90,0,0
18102,-100,4,1,0,60,0,0
29810,-100,4,1,0,80,0,0
47371,-90.9090909090909,4,1,0,90,0,1
59078,-100,4,1,0,90,0,0
64932,-100,4,1,0,80,0,0
88346,-90.9090909090909,4,1,0,90,0,1
100420,-83.3333333333333,4,1,0,90,0,1
111761,-83.3333333333333,4,1,0,90,0,0
112127,-100,4,1,0,90,0,0

[HitObjects]
256,192,542,5,0,0:0:0:0:
256,192,907,1,8,0:0:0:0:
256,192,1090,1,0,0:0:0:0:
256,192,1273,1,8,0:0:0:0:
256,192,1456,1,0,0:0:0:0:
256,192,1639,1,8,0:0:0:0:
256,192,1822,1,0,0:0:0:0:
256,192,2005,1,8,0:0:0:0:
256,192,2188,1,8,0:0:0:0:
256,192,2279,1,0,0:0:0:0:
256,192,2371,1,8,0:0:0:0:
256,192,2554,1,0,0:0:0:0:
256,192,2737,1,8,0:0:0:0:
256,192,3102,1,8,0:0:0:0:
256,192,3468,1,8,0:0:0:0:
256,192,3834,1,0,0:0:0:0:
256,192,4017,1,8,0:0:0:0:
256,192,4200,1,0,0:0:0:0:
256,192,4383,1,8,0:0:0:0:
256,192,4566,1,0,0:0:0:0:
256,192,4749,1,8,0:0:0:0:
256,192,4932,1,0,0:0:0:0:
256,192,5115,1,0,0:0:0:0:
256,192,5206,1,8,0:0:0:0:
256,192,5298,1,0,0:0:0:0:
256,192,5481,1,8,0:0:0:0:
256,192,5663,1,0,0:0:0:0:
256,192,6029,1,8,0:0:0:0:
256,192,6395,1,12,0:0:0:0:
256,192,6761,1,0,0:0:0:0:
256,192,6944,1,8,0:0:0:0:
256,192,7127,1,0,0:0:0:0:
256,192,7310,1,8,0:0:0:0:
256,192,7493,1,0,0:0:0:0:
256,192,7676,1,0,0:0:0:0:
256,192,7859,1,0,0:0:0:0:
256,192,7950,1,0,0:0:0:0:
256,192,8041,1,8,0:0:0:0:
256,192,8133,1,8,0:0:0:0:
256,192,8224,1,0,0:0:0:0:
256,192,8407,1,8,0:0:0:0:
256,192,8590,1,0,0:0:0:0:
256,192,8773,1,8,0:0:0:0:
256,192,8865,1,8,0:0:0:0:
256,192,8956,1,0,0:0:0:0:
256,192,9139,1,8,0:0:0:0:
256,192,9322,1,0,0:0:0:0:
256,192,9688,1,0,0:0:0:0:
256,192,9871,1,8,0:0:0:0:
256,192,10054,1,0,0:0:0:0:
256,192,10237,1,8,0:0:0:0:
256,192,10420,1,0,0:0:0:0:
256,192,10602,1,8,0:0:0:0:
256,192,10785,1,0,0:0:0:0:
256,192,10877,1,0,0:0:0:0:
256,192,10968,1,8,0:0:0:0:
256,192,11060,1,8,0:0:0:0:
256,192,11151,1,0,0:0:0:0:
256,192,11334,1,8,0:0:0:0:
256,192,11517,1,0,0:0:0:0:
256,192,11700,1,8,0:0:0:0:
256,192,11791,1,8,0:0:0:0:
256,192,11883,1,8,0:0:0:0:
256,192,12066,1,8,0:0:0:0:
256,192,12157,1,8,0:0:0:0:
256,192,12249,1,0,0:0:0:0:
256,192,12615,1,0,0:0:0:0:
256,192,12798,1,8,0:0:0:0:
256,192,12981,1,0,0:0:0:0:
256,192,13163,1,8,0:0:0:0:
256,192,13346,1,0,0:0:0:0:
256,192,13529,1,0,0:0:0:0:
256,192,13712,1,0,0:0:0:0:
256,192,13804,1,0,0:0:0:0:
256,192,13895,1,8,0:0:0:0:
256,192,13987,1,8,0:0:0:0:
256,192,14078,1,0,0:0:0:0:
256,192,14261,1,8,0:0:0:0:
256,192,14444,1,0,0:0:0:0:
256,192,14627,1,8,0:0:0:0:
256,192,14718,1,8,0:0:0:0:
256,192,14810,1,0,0:0:0:0:
256,192,14993,1,8,0:0:0:0:
256,192,15176,1,0,0:0:0:0:
256,192,15541,1,0,0:0:0:0:
256,192,15724,1,8,0:0:0:0:
256,192,15907,1,0,0:0:0:0:
256,192,16090,1,8,0:0:0:0:
256,192,16273,1,0,0:0:0:0:
256,192,16456,1,8,0:0:0:0:
256,192,16639,1,0,0:0:0:0:
256,192,16731,1,0,0:0:0:0:
256,192,16822,1,8,0:0:0:0:
256,192,16913,1,8,0:0:0:0:
256,192,17005,1,0,0:0:0:0:
256,192,17188,1,8,0:0:0:0:
256,192,17371,1,0,0:0:0:0:
256,192,17554,1,12,0:0:0:0:
256,192,17737,1,12,0:0:0:0:
256,192,18102,1,8,0:0:0:0:
256,192,18285,1,0,0:0:0:0:
256,192,18468,1,8,0:0:0:0:
256,192,18834,1,0,0:0:0:0:
256,192,19017,1,8,0:0:0:0:
256,192,19200,1,8,0:0:0:0:
256,192,19566,1,8,0:0:0:0:
256,192,19749,1,8,0:0:0:0:
256,192,19932,1,0,0:0:0:0:
256,192,20115,1,0,0:0:0:0:
256,192,20298,1,8,0:0:0:0:
256,192,20481,1,0,0:0:0:0:
256,192,20663,1,8,0:0:0:0:
256,192,21029,1,8,0:0:0:0:
256,192,21212,1,0,0:0:0:0:
256,192,21395,1,8,0:0:0:0:
256,192,21761,1,0,0:0:0:0:
256,192,21944,1,8,0:0:0:0:
256,192,22127,1,0,0:0:0:0:
256,192,22493,1,8,0:0:0:0:
256,192,22676,1,0,0:0:0:0:
256,192,22859,1,8,0:0:0:0:
256,192,23041,1,0,0:0:0:0:
256,192,23224,1,0,0:0:0:0:
256,192,23407,1,8,0:0:0:0:
256,192,23590,1,0,0:0:0:0:
256,192,23956,1,8,0:0:0:0:
256,192,24139,1,0,0:0:0:0:
256,192,24322,1,8,0:0:0:0:
256,192,24688,1,0,0:0:0:0:
256,192,24871,1,8,0:0:0:0:
256,192,25054,1,8,0:0:0:0:
256,192,25420,1,8,0:0:0:0:
256,192,25602,1,0,0:0:0:0:
256,192,25785,1,8,0:0:0:0:
256,192,25968,1,8,0:0:0:0:
256,192,26151,1,8,0:0:0:0:
256,192,26334,1,0,0:0:0:0:
256,192,26517,1,8,0:0:0:0:
256,192,26700,1,0,0:0:0:0:
256,192,26883,1,0,0:0:0:0:
256,192,27066,1,8,0:0:0:0:
256,192,27249,1,0,0:0:0:0:
256,192,27615,1,0,0:0:0:0:
256,192,27798,1,8,0:0:0:0:
256,192,27981,1,8,0:0:0:0:
256,192,28346,1,0,0:0:0:0:
256,192,28529,1,8,0:0:0:0:
256,192,28712,1,0,0:0:0:0:
256,192,29078,1,8,0:0:0:0:
256,192,29261,1,0,0:0:0:0:
256,192,29444,1,8,0:0:0:0:
256,192,29810,1,4,0:0:0:0:
256,192,30176,1,8,0:0:0:0:
256,192,30359,1,8,0:0:0:0:
256,192,30541,1,0,0:0:0:0:
256,192,30724,1,0,0:0:0:0:
256,192,30907,1,8,0:0:0:0:
256,192,31273,1,8,0:0:0:0:
256,192,31456,1,0,0:0:0:0:
256,192,31639,1,8,0:0:0:0:
256,192,31822,1,8,0:0:0:0:
256,192,32005,1,0,0:0:0:0:
256,192,32188,1,8,0:0:0:0:
256,192,32371,1,0,0:0:0:0:
256,192,32737,1,0,0:0:0:0:
256,192,32920,1,0,0:0:0:0:
256,192,33102,1,8,0:0:0:0:
256,192,33285,1,8,0:0:0:0:
256,192,33468,1,8,0:0:0:0:
256,192,33651,1,0,0:0:0:0:
256,192,33834,1,8,0:0:0:0:
256,192,34200,1,8,0:0:0:0:
256,192,34383,1,8,0:0:0:0:
256,192,34566,1,8,0:0:0:0:
256,192,34749,1,0,0:0:0:0:
256,192,34932,1,0,0:0:0:0:
256,192,35115,1,8,0:0:0:0:
256,192,35298,1,0,0:0:0:0:
256,192,35663,1,8,0:0:0:0:
256,192,35846,1,8,0:0:0:0:
256,192,36029,1,0,0:0:0:0:
256,192,36212,1,0,0:0:0:0:
256,192,36395,1,0,0:0:0:0:
256,192,36578,1,8,0:0:0:0:
256,192,36761,1,0,0:0:0:0:
256,192,37127,1,8,0:0:0:0:
256,192,37310,1,0,0:0:0:0:
256,192,37493,1,8,0:0:0:0:
256,192,37676,1,8,0:0:0:0:
256,192,37859,1,0,0:0:0:0:
256,192,38041,1,8,0:0:0:0:
256,192,38224,1,0,0:0:0:0:
256,192,38407,1,0,0:0:0:0:
256,192,38590,1,12,0:0:0:0:
256,192,39139,1,0,0:0:0:0:
256,192,39231,1,0,0:0:0:0:
256,192,39322,1,12,0:0:0:0:
256,192,39871,1,4,0:0:0:0:
256,192,40237,1,4,0:0:0:0:
256,192,40602,1,4,0:0:0:0:
256,192,40785,1,4,0:0:0:0:
256,192,41151,1,8,0:0:0:0:
256,192,41517,1,0,0:0:0:0:
256,192,41883,1,8,0:0:0:0:
256,192,42066,1,0,0:0:0:0:
256,192,42249,1,0,0:0:0:0:
256,192,42432,1,8,0:0:0:0:
256,192,42615,1,8,0:0:0:0:
256,192,42981,1,0,0:0:0:0:
256,192,43346,1,8,0:0:0:0:
256,192,43529,1,0,0:0:0:0:
256,192,43712,1,0,0:0:0:0:
256,192,43895,1,8,0:0:0:0:
256,192,44078,1,8,0:0:0:0:
256,192,44261,1,0,0:0:0:0:
256,192,44444,1,0,0:0:0:0:
256,192,44810,1,8,0:0:0:0:
256,192,44993,1,0,0:0:0:0:
256,192,45176,1,0,0:0:0:0:
256,192,45359,1,8,0:0:0:0:
256,192,45541,1,8,0:0:0:0:
256,192,45907,1,0,0:0:0:0:
256,192,46090,1,8,0:0:0:0:
256,192,46273,1,0,0:0:0:0:
256,192,46456,1,8,0:0:0:0:
256,192,46548,1,8,0:0:0:0:
256,192,46639,1,0,0:0:0:0:
256,192,47371,1,12,0:0:0:0:
256,192,47554,1,8,0:0:0:0:
256,192,47646,1,8,0:0:0:0:
256,192,47737,1,0,0:0:0:0:
256,192,47920,1,0,0:0:0:0:
256,192,48102,1,8,0:0:0:0:
256,192,48285,1,8,0:0:0:0:
256,192,48468,1,0,0:0:0:0:
256,192,48651,1,0,0:0:0:0:
256,192,48743,1,0,0:0:0:0:
256,192,48834,1,8,0:0:0:0:
256,192,48926,1,0,0:0:0:0:
256,192,49017,1,8,0:0:0:0:
256,192,49200,1,8,0:0:0:0:
256,192,49383,1,0,0:0:0:0:
256,192,49566,1,8,0:0:0:0:
256,192,49749,1,8,0:0:0:0:
256,192,49932,1,0,0:0:0:0:
256,192,50115,1,0,0:0:0:0:
256,192,50206,1,8,0:0:0:0:
256,192,50298,1,8,0:0:0:0:
256,192,50663,1,0,0:0:0:0:
256,192,50755,1,0,0:0:0:0:
256,192,50846,1,0,0:0:0:0:
256,192,50937,1,0,0:0:0:0:
256,192,51029,1,8,0:0:0:0:
256,192,51212,1,8,0:0:0:0:
256,192,51395,1,0,0:0:0:0:
256,192,51578,1,8,0:0:0:0:
256,192,51761,1,0,0:0:0:0:
256,192,51944,1,8,0:0:0:0:
256,192,52035,1,8,0:0:0:0:
256,192,52127,1,0,0:0:0:0:
256,192,52310,1,8,0:0:0:0:
256,192,52493,1,8,0:0:0:0:
256,192,52676,1,4,0:0:0:0:
256,192,52859,1,4,0:0:0:0:
256,192,53224,1,12,0:0:0:0:
256,192,53407,1,8,0:0:0:0:
256,192,53499,1,8,0:0:0:0:
256,192,53590,1,0,0:0:0:0:
256,192,53773,1,8,0:0:0:0:
256,192,53956,1,0,0:0:0:0:
256,192,54139,1,0,0:0:0:0:
256,192,54322,1,8,0:0:0:0:
256,192,54505,1,0,0:0:0:0:
256,192,54596,1,0,0:0:0:0:
256,192,54688,1,8,0:0:0:0:
256,192,54779,1,0,0:0:0:0:
256,192,54871,1,8,0:0:0:0:
256,192,55054,1,0,0:0:0:0:
256,192,55237,1,8,0:0:0:0:
256,192,55420,1,0,0:0:0:0:
256,192,55602,1,0,0:0:0:0:
256,192,55785,1,8,0:0:0:0:
256,192,55968,1,0,0:0:0:0:
256,192,56060,1,0,0:0:0:0:
256,192,56151,1,8,0:0:0:0:
256,192,56517,1,0,0:0:0:0:
256,192,56609,1,0,0:0:0:0:
256,192,56700,1,8,0:0:0:0:
256,192,56791,1,0,0:0:0:0:
256,192,56883,1,8,0:0:0:0:
256,192,57066,1,0,0:0:0:0:
256,192,57249,1,8,0:0:0:0:
256,192,57432,1,0,0:0:0:0:
256,192,57615,1,0,0:0:0:0:
256,192,57798,1,8,0:0:0:0:
256,192,57890,1,8,0:0:0:0:
256,192,57981,1,0,0:0:0:0:
256,192,58163,1,8,0:0:0:0:
256,192,58346,1,8,0:0:0:0:
256,192,58529,1,0,0:0:0:0:
256,192,58621,1,0,0:0:0:0:
256,192,58712,1,0,0:0:0:0:
256,192,58895,1,8,0:0:0:0:
256,192,59078,1,4,0:0:0:0:
256,192,59444,1,8,0:0:0:0:
256,192,59627,1,0,0:0:0:0:
256,192,59810,1,8,0:0:0:0:
256,192,59993,1,0,0:0:0:0:
256,192,60084,1,0,0:0:0:0:
256,192,60176,1,8,0:0:0:0:
256,192,60359,1,8,0:0:0:0:
256,192,60541,1,8,0:0:0:0:
256,192,60724,1,0,0:0:0:0:
256,192,60816,1,0,0:0:0:0:
256,192,60907,1,8,0:0:0:0:
256,192,60999,1,8,0:0:0:0:
256,192,61090,1,0,0:0:0:0:
256,192,61273,1,8,0:0:0:0:
256,192,61456,1,0,0:0:0:0:
256,192,61548,1,0,0:0:0:0:
256,192,61639,1,8,0:0:0:0:
256,192,61822,1,0,0:0:0:0:
256,192,62005,1,8,0:0:0:0:
256,192,62371,1,8,0:0:0:0:
256,192,62554,1,0,0:0:0:0:
256,192,62737,1,8,0:0:0:0:
256,192,62920,1,0,0:0:0:0:
256,192,63011,1,0,0:0:0:0:
256,192,63102,1,8,0:0:0:0:
256,192,63285,1,8,0:0:0:0:
256,192,63468,1,8,0:0:0:0:
256,192,63651,1,0,0:0:0:0:
256,192,63743,1,0,0:0:0:0:
256,192,63834,1,8,0:0:0:0:
256,192,63926,1,8,0:0:0:0:
256,192,64017,1,0,0:0:0:0:
256,192,64200,1,8,0:0:0:0:
256,192,64383,1,0,0:0:0:0:
256,192,64474,1,0,0:0:0:0:
256,192,64566,1,8,0:0:0:0:
256,192,64749,1,0,0:0:0:0:
256,192,64932,1,12,0:0:0:0:
256,192,65298,1,0,0:0:0:0:
256,192,65481,1,0,0:0:0:0:
256,192,65663,1,0,0:0:0:0:
256,192,65846,1,8,0:0:0:0:
256,192,66029,1,0,0:0:0:0:
256,192,66212,1,8,0:0:0:0:
256,192,66395,1,0,0:0:0:0:
256,192,66761,1,8,0:0:0:0:
256,192,66944,1,0,0:0:0:0:
256,192,67127,1,0,0:0:0:0:
256,192,67310,1,8,0:0:0:0:
256,192,67493,1,8,0:0:0:0:
256,192,67676,1,0,0:0:0:0:
256,192,67859,1,8,0:0:0:0:
256,192,68224,1,0,0:0:0:0:
256,192,68407,1,8,0:0:0:0:
256,192,68590,1,8,0:0:0:0:
256,192,68773,1,0,0:0:0:0:
256,192,68956,1,8,0:0:0:0:
256,192,69139,1,0,0:0:0:0:
256,192,69322,1,0,0:0:0:0:
256,192,69688,1,8,0:0:0:0:
256,192,69871,1,0,0:0:0:0:
256,192,70054,1,0,0:0:0:0:
256,192,70237,1,8,0:0:0:0:
256,192,70420,1,0,0:0:0:0:
256,192,70602,1,8,0:0:0:0:
256,192,70785,1,0,0:0:0:0:
256,192,71151,1,8,0:0:0:0:
256,192,71334,1,0,0:0:0:0:
256,192,71517,1,8,0:0:0:0:
256,192,71700,1,8,0:0:0:0:
256,192,71883,1,0,0:0:0:0:
256,192,72066,1,8,0:0:0:0:
256,192,72249,1,0,0:0:0:0:
256,192,72615,1,8,0:0:0:0:
256,192,72798,1,0,0:0:0:0:
256,192,72981,1,8,0:0:0:0:
256,192,73163,1,0,0:0:0:0:
256,192,73346,1,0,0:0:0:0:
256,192,73529,1,8,0:0:0:0:
256,192,73712,1,4,0:0:0:0:
256,192,74261,1,4,0:0:0:0:
256,192,74444,1,12,0:0:0:0:
256,192,74993,1,4,0:0:0:0:
256,192,75359,1,4,0:0:0:0:
256,192,75724,1,4,0:0:0:0:
256,192,75907,1,12,0:0:0:0:
256,192,76273,1,8,0:0:0:0:
256,192,76456,1,8,0:0:0:0:
256,192,76639,1,4,0:0:0:0:
256,192,76822,1,8,0:0:0:0:
256,192,76913,1,8,0:0:0:0:
256,192,77005,1,0,0:0:0:0:
256,192,77188,1,8,0:0:0:0:
256,192,77371,1,8,0:0:0:0:
256,192,77554,1,0,0:0:0:0:
256,192,77737,1,8,0:0:0:0:
256,192,77920,1,0,0:0:0:0:
256,192,78102,1,8,0:0:0:0:
256,192,78285,1,0,0:0:0:0:
256,192,78377,1,8,0:0:0:0:
256,192,78468,1,0,0:0:0:0:
256,192,78651,1,8,0:0:0:0:
256,192,78834,1,8,0:0:0:0:
256,192,79017,1,0,0:0:0:0:
256,192,79200,1,8,0:0:0:0:
256,192,79383,1,0,0:0:0:0:
256,192,79566,1,0,0:0:0:0:
256,192,79749,1,8,0:0:0:0:
256,192,79840,1,8,0:0:0:0:
256,192,79932,1,0,0:0:0:0:
256,192,80115,1,8,0:0:0:0:
256,192,80298,1,8,0:0:0:0:
256,192,80481,1,0,0:0:0:0:
256,192,80663,1,8,0:0:0:0:
256,192,80846,1,0,0:0:0:0:
256,192,81029,1,0,0:0:0:0:
256,192,81212,1,8,0:0:0:0:
256,192,81304,1,8,0:0:0:0:
256,192,81395,1,0,0:0:0:0:
256,192,81487,1,0,0:0:0:0:
256,192,81578,1,8,0:0:0:0:
256,192,81670,1,8,0:0:0:0:
256,192,81761,1,0,0:0:0:0:
256,192,81944,1,8,0:0:0:0:
256,192,82127,1,8,0:0:0:0:
256,192,82493,1,0,0:0:0:0:
256,192,82676,1,8,0:0:0:0:
256,192,82767,1,8,0:0:0:0:
256,192,82859,1,0,0:0:0:0:
256,192,83041,1,8,0:0:0:0:
256,192,83224,1,8,0:0:0:0:
256,192,83407,1,0,0:0:0:0:
256,192,83590,1,8,0:0:0:0:
256,192,83773,1,0,0:0:0:0:
256,192,83956,1,0,0:0:0:0:
256,192,84139,1,8,0:0:0:0:
256,192,84200,1,0,0:0:0:0:
256,192,84261,1,0,0:0:0:0:
256,192,84322,1,8,0:0:0:0:
256,192,84505,1,0,0:0:0:0:
256,192,84688,1,0,0:0:0:0:
256,192,85054,1,8,0:0:0:0:
256,192,85237,1,0,0:0:0:0:
256,192,85420,1,8,0:0:0:0:
256,192,85602,1,0,0:0:0:0:
256,192,85694,1,0,0:0:0:0:
256,192,85785,1,8,0:0:0:0:
256,192,85968,1,0,0:0:0:0:
256,192,86151,1,0,0:0:0:0:
256,192,86334,1,8,0:0:0:0:
256,192,86517,1,0,0:0:0:0:
256,192,86700,1,8,0:0:0:0:
256,192,86883,1,8,0:0:0:0:
256,192,87066,1,0,0:0:0:0:
256,192,87157,1,0,0:0:0:0:
256,192,87249,1,8,0:0:0:0:
256,192,87340,1,8,0:0:0:0:
256,192,87432,1,0,0:0:0:0:
256,192,87523,1,8,0:0:0:0:
256,192,87615,1,0,0:0:0:0:
256,192,87798,1,8,0:0:0:0:
256,192,87981,1,8,0:0:0:0:
256,192,88346,1,4,0:0:0:0:
256,192,88529,1,8,0:0:0:0:
256,192,88621,1,8,0:0:0:0:
256,192,88712,1,0,0:0:0:0:
256,192,88895,1,0,0:0:0:0:
256,192,89078,1,8,0:0:0:0:
256,192,89261,1,0,0:0:0:0:
256,192,89444,1,8,0:0:0:0:
256,192,89627,1,8,0:0:0:0:
256,192,89810,1,0,0:0:0:0:
256,192,89901,1,0,0:0:0:0:
256,192,89993,1,8,0:0:0:0:
256,192,90176,1,0,0:0:0:0:
256,192,90359,1,8,0:0:0:0:
256,192,90541,1,0,0:0:0:0:
256,192,90724,1,0,0:0:0:0:
256,192,90907,1,8,0:0:0:0:
256,192,91090,1,0,0:0:0:0:
256,192,91273,1,8,0:0:0:0:
256,192,91639,1,0,0:0:0:0:
256,192,91731,1,0,0:0:0:0:
256,192,91822,1,0,0:0:0:0:
256,192,91914,1,0,0:0:0:0:
256,192,92005,1,8,0:0:0:0:
256,192,92188,1,0,0:0:0:0:
256,192,92371,1,8,0:0:0:0:
256,192,92554,1,8,0:0:0:0:
256,192,92737,1,0,0:0:0:0:
256,192,92920,1,8,0:0:0:0:
256,192,93011,1,0,0:0:0:0:
256,192,93102,1,8,0:0:0:0:
256,192,93285,1,0,0:0:0:0:
256,192,93468,1,0,0:0:0:0:
256,192,93651,1,8,0:0:0:0:
256,192,93743,1,8,0:0:0:0:
256,192,93834,1,8,0:0:0:0:
256,192,94200,1,4,0:0:0:0:
256,192,94383,1,0,0:0:0:0:
256,192,94474,1,0,0:0:0:0:
256,192,94566,1,8,0:0:0:0:
256,192,94749,1,0,0:0:0:0:
256,192,94932,1,8,0:0:0:0:
256,192,95115,1,0,0:0:0:0:
256,192,95298,1,8,0:0:0:0:
256,192,95480,1,8,0:0:0:0:
256,192,95663,1,0,0:0:0:0:
256,192,95755,1,8,0:0:0:0:
256,192,95846,1,8,0:0:0:0:
256,192,96029,1,0,0:0:0:0:
256,192,96212,1,8,0:0:0:0:
256,192,96395,1,0,0:0:0:0:
256,192,96578,1,0,0:0:0:0:
256,192,96761,1,8,0:0:0:0:
256,192,96944,1,0,0:0:0:0:
256,192,97127,1,8,0:0:0:0:
256,192,97493,1,0,0:0:0:0:
256,192,97584,1,0,0:0:0:0:
256,192,97676,1,8,0:0:0:0:
256,192,97767,1,0,0:0:0:0:
256,192,97859,1,8,0:0:0:0:
256,192,98041,1,0,0:0:0:0:
256,192,98224,1,0,0:0:0:0:
256,192,98407,1,8,0:0:0:0:
256,192,98590,1,0,0:0:0:0:
256,192,98773,1,0,0:0:0:0:
256,192,98865,1,0,0:0:0:0:
256,192,98956,1,8,0:0:0:0:
256,192,99139,1,0,0:0:0:0:
256,192,99322,1,0,0:0:0:0:
256,192,99505,1,8,0:0:0:0:
256,192,99596,1,8,0:0:0:0:
256,192,99688,1,0,0:0:0:0:
256,192,99871,1,8,0:0:0:0:
256,192,100054,1,4,0:0:0:0:
256,192,100420,1,8,0:0:0:0:
256,192,100602,1,0,0:0:0:0:
256,192,100693,1,0,0:0:0:0:
256,192,100785,1,8,0:0:0:0:
256,192,100968,1,0,0:0:0:0:
256,192,101151,1,8,0:0:0:0:
256,192,101334,1,0,0:0:0:0:
256,192,101517,1,8,0:0:0:0:
256,192,101700,1,0,0:0:0:0:
256,192,101791,1,0,0:0:0:0:
256,192,101883,1,8,0:0:0:0:
256,192,102066,1,0,0:0:0:0:
256,192,102249,1,8,0:0:0:0:
256,192,102615,1,8,0:0:0:0:
256,192,102798,1,0,0:0:0:0:
256,192,102981,1,8,0:0:0:0:
256,192,103163,1,0,0:0:0:0:
256,192,103255,1,0,0:0:0:0:
256,192,103346,1,8,0:0:0:0:
256,192,103529,1,0,0:0:0:0:
256,192,103712,1,8,0:0:0:0:
256,192,103895,1,0,0:0:0:0:
256,192,103987,1,0,0:0:0:0:
256,192,104078,1,8,0:0:0:0:
256,192,104261,1,0,0:0:0:0:
256,192,104444,1,8,0:0:0:0:
256,192,104535,1,8,0:0:0:0:
256,192,104627,1,0,0:0:0:0:
256,192,104719,1,8,0:0:0:0:
256,192,104810,1,0,0:0:0:0:
256,192,104993,1,8,0:0:0:0:
256,192,105176,1,0,0:0:0:0:
256,192,105359,1,8,0:0:0:0:
256,192,105450,1,8,0:0:0:0:
256,192,105541,1,8,0:0:0:0:
256,192,105907,1,12,0:0:0:0:
256,192,106090,1,0,0:0:0:0:
256,192,106182,1,0,0:0:0:0:
256,192,106273,1,8,0:0:0:0:
256,192,106456,1,0,0:0:0:0:
256,192,106639,1,8,0:0:0:0:
256,192,106822,1,8,0:0:0:0:
256,192,107005,1,0,0:0:0:0:
256,192,107188,1,8,0:0:0:0:
256,192,107279,1,0,0:0:0:0:
256,192,107371,1,8,0:0:0:0:
256,192,107554,1,8,0:0:0:0:
256,192,107737,1,0,0:0:0:0:
256,192,107920,1,0,0:0:0:0:
256,192,108102,1,8,0:0:0:0:
256,192,108285,1,0,0:0:0:0:
256,192,108468,1,8,0:0:0:0:
256,192,108834,1,0,0:0:0:0:
256,192,109017,1,8,0:0:0:0:
256,192,109200,1,0,0:0:0:0:
256,192,109383,1,8,0:0:0:0:
256,192,109474,1,8,0:0:0:0:
256,192,109566,1,0,0:0:0:0:
256,192,109749,1,8,0:0:0:0:
256,192,109932,1,8,0:0:0:0:
256,192,110115,1,0,0:0:0:0:
256,192,110298,1,8,0:0:0:0:
256,192,110389,1,8,0:0:0:0:
256,192,110481,1,0,0:0:0:0:
256,192,110572,1,0,0:0:0:0:
256,192,110663,1,8,0:0:0:0:
256,192,110846,1,0,0:0:0:0:
256,192,111029,1,8,0:0:0:0:
256,192,111212,1,0,0:0:0:0:
256,192,111304,1,0,0:0:0:0:
256,192,111395,1,0,0:0:0:0:
256,192,111578,1,8,0:0:0:0:
256,192,111761,1,4,0:0:0:0:
256,192,112127,1,0,0:0:0:0:
256,192,112310,1,8,0:0:0:0:
256,192,112493,1,0,0:0:0:0:
256,192,112676,1,8,0:0:0:0:
256,192,112767,1,8,0:0:0:0:
256,192,112859,1,0,0:0:0:0:
256,192,113041,1,0,0:0:0:0:
256,192,113224,1,0,0:0:0:0:
256,192,113316,1,0,0:0:0:0:
256,192,113407,1,8,0:0:0:0:
256,192,113499,1,8,0:0:0:0:
256,192,113590,1,0,0:0:0:0:
256,192,113773,1,8,0:0:0:0:
256,192,113956,1,0,0:0:0:0:
256,192,114139,1,8,0:0:0:0:
256,192,114231,1,8,0:0:0:0:
256,192,114322,1,0,0:0:0:0:
256,192,114505,1,8,0:0:0:0:
256,192,114688,1,0,0:0:0:0:
256,192,115054,1,0,0:0:0:0:
256,192,115237,1,8,0:0:0:0:
256,192,115420,1,0,0:0:0:0:
256,192,115602,1,8,0:0:0:0:
256,192,115694,1,8,0:0:0:0:
256,192,115785,1,0,0:0:0:0:
256,192,115968,1,8,0:0:0:0:
256,192,116151,1,0,0:0:0:0:
256,192,116243,1,0,0:0:0:0:
256,192,116334,1,8,0:0:0:0:
256,192,116426,1,8,0:0:0:0:
256,192,116517,1,0,0:0:0:0:
256,192,116700,1,8,0:0:0:0:
256,192,116883,1,0,0:0:0:0:
256,192,117066,1,8,0:0:0:0:
256,192,117157,1,8,0:0:0:0:
256,192,117249,1,8,0:0:0:0:
256,192,117432,1,0,0:0:0:0:
256,192,117615,1,12,0:0:0:0:
256,192,117981,1,0,0:0:0:0:
256,192,118163,1,8,0:0:0:0:
256,192,118346,1,0,0:0:0:0:
256,192,118529,1,8,0:0:0:0:
256,192,118621,1,8,0:0:0:0:
256,192,118712,1,0,0:0:0:0:
256,192,118895,1,0,0:0:0:0:
256,192,119078,1,0,0:0:0:0:
256,192,119170,1,0,0:0:0:0:
256,192,119261,1,8,0:0:0:0:
256,192,119352,1,8,0:0:0:0:
256,192,119444,1,0,0:0:0:0:
256,192,119627,1,8,0:0:0:0:
256,192,119810,1,0,0:0:0:0:
256,192,119993,1,8,0:0:0:0:
256,192,120084,1,8,0:0:0:0:
256,192,120176,1,0,0:0:0:0:
256,192,120359,1,8,0:0:0:0:
256,192,120541,1,0,0:0:0:0:
256,192,120907,1,0,0:0:0:0:
256,192,121090,1,8,0:0:0:0:
256,192,121273,1,0,0:0:0:0:
256,192,121456,1,8,0:0:0:0:
256,192,121548,1,8,0:0:0:0:
256,192,121639,1,0,0:0:0:0:
256,192,121822,1,8,0:0:0:0:
256,192,122005,1,0,0:0:0:0:
256,192,122096,1,0,0:0:0:0:
256,192,122188,1,8,0:0:0:0:
256,192,122279,1,8,0:0:0:0:
256,192,122371,1,0,0:0:0:0:
256,192,122554,1,8,0:0:0:0:
256,192,122737,1,0,0:0:0:0:
256,192,122920,1,8,0:0:0:0:
256,192,123102,1,0,0:0:0:0:
256,192,123285,1,0,0:0:0:0:
256,192,123377,1,0,0:0:0:0:
256,192,123468,1,8,0:0:0:0:
