osu file format v14

[General]
AudioFilename: audio.mp3
AudioLeadIn: 0
PreviewTime:70605
Countdown: 0
SampleSet: Soft
StackLeniency: 0.7
Mode: 0
LetterboxInBreaks: 0
WidescreenStoryboard: 1

[Editor]
Bookmarks:1721,6644,11568,21568,31413,41105,49875,50952,60798,65875,70644,80490,88644,90490,100182,110028,119875,124952,129721,139567,147105,149567,159413,169259,179105,189875,191259,198182,201105,208490,218336,226490,228336,238182,247875
DistanceSpacing: 0.7
BeatDivisor: 4
GridSize: 32
TimelineZoom: 2.3

[Metadata]
Title:Despair Refrain
TitleUnicode:Despair Refrain
Artist:ES-TRUS
ArtistUnicode:ES-TRUS
Creator:Lasse
Version:Special
Source:
Tags:japanese rock true or false kyoka Aito 風児 Fuji REO ゆうき Yuki
BeatmapID:4347684
BeatmapSetID:2076527

[Difficulty]
HPDrainRate:5
CircleSize:4
OverallDifficulty:9
ApproachRate:8
SliderMultiplier:1.8
SliderTickRate:1

[Events]
//Background and Video events
0,0,"5zn565.jpg",0,0
//Break Periods
2,191459,196202
//Storyboard Layer 0 (Background)
//Storyboard Layer 1 (Fail)
//Storyboard Layer 2 (Pass)
//Storyboard Layer 3 (Foreground)
//Storyboard Layer 4 (Overlay)
//Storyboard Sound Samples

[TimingPoints]
-3048,307.692307692308,4,2,1,40,1,0
1721,-200,4,2,1,40,0,0
6644,-166.666666666667,4,2,1,40,0,0
11105,-166.666666666667,4,2,1,45,0,0
11567,-125,4,2,1,50,0,0
17721,-125,4,2,1,55,0,0
18490,-125,4,2,1,50,0,0
19105,-166.666666666667,4,2,1,45,0,0
20336,-125,4,2,1,60,0,0
21567,-100,4,1,1,65,0,0
28952,-100,4,1,1,60,0,0
30182,-100,4,1,1,65,0,0
41105,-133.333333333333,4,2,1,40,0,0
41259,-133.333333333333,4,2,1,45,0,0
50336,-133.333333333333,4,2,1,50,0,0
50952,-111.111111111111,4,2,1,55,0,0
59721,-111.111111111111,4,2,1,60,0,0
60182,-111.111111111111,4,2,1,55,0,0
60798,-199.999999999999,4,2,1,55,0,0
67105,-199.999999999999,4,2,1,60,0,0
68336,-199.999999999999,4,2,1,64,0,0
68798,-199.999999999999,4,2,1,68,0,0
69028,-199.999999999999,4,2,1,30,0,0
69875,-199.999999999999,4,2,1,40,0,0
70028,-199.999999999999,4,2,1,50,0,0
70182,-199.999999999999,4,2,1,60,0,0
70336,-199.999999999999,4,2,1,70,0,0
70490,-199.999999999999,4,2,1,80,0,0
70567,-199.999999999999,4,2,1,5,0,0
70644,-83.3333333333333,4,1,1,70,0,1
70875,-83.3333333333333,4,2,1,30,0,1
70952,-83.3333333333333,4,1,1,70,0,1
73336,-83.3333333333333,4,2,1,30,0,1
73413,-83.3333333333333,4,1,1,70,0,1
78259,-83.3333333333333,4,2,1,30,0,1
78336,-133.333333333333,4,1,1,70,0,0
78644,-76.9230769230769,4,1,1,70,0,1
78875,-76.9230769230769,4,2,1,30,0,1
78952,-133.333333333333,4,1,1,70,0,0
79259,-71.4285714285714,4,1,1,70,0,1
79490,-71.4285714285714,4,2,1,30,0,1
79567,-133.333333333333,4,1,1,70,0,0
79875,-66.6666666666667,4,1,1,70,0,1
80105,-66.6666666666667,4,2,1,30,0,1
80182,-66.6666666666667,4,1,1,70,0,1
80413,-66.6666666666667,4,1,1,70,0,0
80490,-83.3333333333333,4,1,1,70,0,1
80721,-83.3333333333333,4,2,1,30,0,1
80798,-83.3333333333333,4,1,1,70,0,1
83182,-83.3333333333333,4,2,1,30,0,1
83259,-83.3333333333333,4,1,1,70,0,1
88644,-100,4,1,1,65,0,0
100182,-100,4,1,1,60,0,0
100644,-125,4,2,1,60,0,0
100952,-125,4,2,1,50,0,0
108952,-125,4,2,1,55,0,0
110028,-105.263157894737,4,2,1,60,0,0
117644,-105.263157894737,4,2,1,30,0,0
117721,-105.263157894737,4,2,1,60,0,0
119259,-105.263157894737,4,2,1,58,0,0
119413,-105.263157894737,4,2,1,56,0,0
119567,-105.263157894737,4,2,1,54,0,0
119721,-105.263157894737,4,2,1,52,0,0
119875,-200,4,2,1,55,0,0
123721,-200,4,2,1,60,0,0
124952,-200,4,2,1,55,0,0
126182,-200,4,2,1,60,0,0
127413,-200,4,2,1,62,0,0
127875,-200,4,2,1,65,0,0
128336,-200,4,2,1,68,0,0
128644,-200,4,2,1,50,0,0
128798,-200,4,2,1,55,0,0
128952,-200,4,2,1,60,0,0
129105,-200,4,2,1,65,0,0
129259,-200,4,2,1,70,0,0
129413,-200,4,2,1,75,0,0
129567,-200,4,2,1,80,0,0
129644,-199.999999999999,4,2,1,5,0,0
129721,-83.3333333333333,4,1,1,70,0,1
129952,-83.3333333333333,4,2,1,30,0,1
130028,-83.3333333333333,4,1,1,70,0,1
132413,-83.3333333333333,4,2,1,30,0,1
132490,-83.3333333333333,4,1,1,70,0,1
137336,-83.3333333333333,4,2,1,30,0,1
137413,-133.333333333333,4,1,1,70,0,0
137721,-76.9230769230769,4,1,1,70,0,1
137952,-76.9230769230769,4,2,1,30,0,1
138028,-133.333333333333,4,1,1,70,0,0
138336,-71.4285714285714,4,1,1,70,0,1
138567,-71.4285714285714,4,2,1,30,0,1
138644,-133.333333333333,4,1,1,70,0,0
138952,-66.6666666666667,4,1,1,70,0,1
139182,-66.6666666666667,4,2,1,30,0,1
139259,-66.6666666666667,4,1,1,70,0,1
139490,-66.6666666666667,4,1,1,70,0,0
139567,-83.3333333333333,4,1,1,70,0,1
139798,-83.3333333333333,4,2,1,30,0,1
139875,-83.3333333333333,4,1,1,70,0,1
142259,-83.3333333333333,4,2,1,30,0,1
142336,-83.3333333333333,4,1,1,70,0,1
145182,-83.3333333333333,4,2,1,30,0,1
145259,-83.3333333333333,4,1,1,70,0,1
147105,-133.333333333333,4,2,1,70,0,0
147182,-133.333333333333,4,2,1,50,0,0
147413,-133.333333333333,4,2,1,45,0,0
147721,-133.333333333333,4,2,1,40,0,0
148028,-133.333333333333,4,2,1,35,0,0
148336,-133.333333333333,4,2,1,30,0,0
148644,-133.333333333333,4,2,1,5,0,0
148798,-133.333333333333,4,2,1,45,0,0
149567,-133.333333333333,4,2,1,50,0,0
159413,-116.279069767442,4,2,1,55,0,0
166798,-200,4,2,1,50,0,0
167105,-200,4,2,1,30,0,0
167721,-200,4,2,1,35,0,0
168028,-200,4,2,1,40,0,0
168336,-200,4,2,1,25,0,0
168644,-200,4,2,1,30,0,0
168952,-200,4,2,1,60,0,0
169259,-90.9090909090909,4,1,1,65,0,0
176644,-90.9090909090909,4,1,1,60,0,0
177875,-90.9090909090909,4,1,1,65,0,0
179105,-83.3333333333333,4,1,1,70,0,0
183721,-71.4285714285714,4,1,1,70,0,0
183952,-71.4285714285714,4,2,1,30,0,0
184028,-83.3333333333333,4,1,1,70,0,0
186490,-76.9230769230769,4,1,1,70,0,0
188644,-133.333333333333,4,2,1,70,0,0
188721,-133.333333333333,4,2,1,60,0,0
188952,-71.4285714285714,4,1,1,70,0,0
189875,-178.571428571429,4,2,1,70,0,0
189894,-178.571428571429,4,2,2,50,0,0
190163,-178.571428571429,4,2,1,40,0,0
190182,-178.571428571429,4,2,1,5,0,0
190202,-178.571428571429,4,2,1,40,0,0
190471,-178.571428571429,4,2,2,30,0,0
190490,-178.571428571429,4,2,2,5,0,0
190509,-178.571428571429,4,2,2,30,0,0
190778,-178.571428571429,4,2,1,20,0,0
190798,-178.571428571429,4,2,1,5,0,0
190817,-178.571428571429,4,2,1,20,0,0
191086,-178.571428571429,4,2,2,10,0,0
191105,-178.571428571429,4,2,2,5,0,0
191125,-178.571428571429,4,2,2,10,0,0
191259,-178.571428571429,4,2,1,70,0,0
196952,-178.571428571429,4,2,1,25,0,0
197105,-178.571428571429,4,2,1,30,0,0
197259,-178.571428571429,4,2,1,35,0,0
197413,-178.571428571429,4,2,1,40,0,0
197566,-178.571428571429,4,2,1,50,0,0
197720,-178.571428571429,4,2,1,60,0,0
197874,-178.571428571429,4,2,1,70,0,0
198028,-178.571428571429,4,2,1,80,0,0
198105,-178.571428571429,4,2,1,5,0,0
198182,-178.571428571429,4,1,1,60,0,0
198644,-83.3333333333333,4,1,1,70,0,1
198875,-83.3333333333333,4,2,1,30,0,1
198952,-133.333333333333,4,1,1,70,0,0
199259,-76.9230769230769,4,1,1,70,0,1
199490,-76.9230769230769,4,2,1,30,0,1
199567,-133.333333333333,4,1,1,70,0,0
199875,-71.4285714285714,4,1,1,70,0,1
200105,-71.4285714285714,4,2,1,30,0,1
200182,-133.333333333333,4,1,1,70,0,0
200490,-66.6666666666667,4,1,1,70,0,1
200721,-66.6666666666667,4,2,1,30,0,1
200798,-66.6666666666667,4,1,1,70,0,1
201028,-66.6666666666667,4,1,1,70,0,0
201105,-83.3333333333333,4,1,1,70,0,1
201336,-83.3333333333333,4,2,1,30,0,1
201413,-83.3333333333333,4,1,1,70,0,1
203798,-83.3333333333333,4,2,1,30,0,1
203875,-83.3333333333333,4,1,1,70,0,1
208490,-76.9230769230769,4,1,1,70,0,1
211182,-76.9230769230769,4,2,1,30,0,1
211259,-76.9230769230769,4,1,1,70,0,1
216105,-76.9230769230769,4,2,1,30,0,1
216182,-133.333333333333,4,1,1,70,0,0
216490,-71.4285714285714,4,1,1,70,0,1
216721,-71.4285714285714,4,2,1,30,0,1
216798,-133.333333333333,4,1,1,70,0,0
217105,-66.6666666666667,4,1,1,70,0,1
217336,-66.6666666666667,4,2,1,30,0,1
217413,-133.333333333333,4,1,1,70,0,0
217721,-62.5,4,1,1,70,0,1
217952,-62.5,4,2,1,30,0,1
218028,-62.5,4,1,1,70,0,1
218259,-133.333333333333,4,1,1,70,0,0
218336,-76.9230769230769,4,1,1,70,0,1
218567,-76.9230769230769,4,2,1,30,0,1
218644,-76.9230769230769,4,1,1,70,0,1
221028,-76.9230769230769,4,2,1,30,0,1
221105,-76.9230769230769,4,1,1,70,0,1
226490,-100,4,1,1,65,0,0
235721,-100,4,1,1,60,0,0
236952,-100,4,1,1,65,0,0
247875,-200,4,2,1,65,0,0
248028,-200,4,2,2,50,0,0
248182,-200,4,2,1,30,0,0

[Colours]
Combo1 : 240,140,140
Combo2 : 200,180,220
Combo3 : 240,200,155
Combo4 : 150,185,220

[HitObjects]
82,369,1721,6,0,P|78:327|78:268,1,90,2|0,0:2|0:2,0:2:0:0:
82,203,2182,1,2,0:2:0:0:
165,321,2490,1,2,3:2:0:0:
173,324,2567,1,0,3:2:0:0:
181,326,2644,1,0,3:2:0:0:
189,328,2721,1,0,3:2:0:0:
197,330,2798,1,0,3:2:0:0:
259,381,2952,1,2,0:2:0:0:
321,229,3875,5,2,0:2:0:0:
206,257,4028,1,2,0:2:0:0:
259,381,4182,2,0,P|269:338|274:292,1,90,2|0,0:2|0:2,0:2:0:0:
321,229,4644,1,2,0:2:0:0:
206,257,4952,1,2,3:2:0:0:
197,254,5028,1,0,3:2:0:0:
188,251,5105,1,0,3:2:0:0:
179,247,5182,1,0,3:2:0:0:
170,244,5259,1,0,3:2:0:0:
102,274,5413,1,2,0:2:0:0:
21,117,6336,5,2,0:2:0:0:
157,144,6490,1,2,0:2:0:0:
101,273,6644,2,0,P|94:220|81:167,1,107.999996704102,2|0,0:2|0:2,0:2:0:0:
21,117,7105,1,2,0:2:0:0:
157,144,7413,1,2,3:2:0:0:
167,146,7490,1,0,3:2:0:0:
177,147,7567,1,0,3:2:0:0:
187,149,7644,1,0,3:2:0:0:
197,150,7721,1,0,3:2:0:0:
273,128,7875,1,2,0:2:0:0:
213,262,8798,5,2,0:2:0:0:
377,221,8952,1,2,0:2:0:0:
273,128,9105,2,0,B|253:193|316:228|294:284,1,161.999995056153,2|0,3:2|3:2,2:2:0:0:
260,354,9875,1,2,3:2:0:0:
249,350,9952,1,0,3:2:0:0:
238,346,10028,1,0,3:2:0:0:
227,342,10105,1,0,3:2:0:0:
216,341,10182,2,0,P|178:353|147:355,1,53.9999983520508,0|2,3:2|0:2,0:2:0:0:
69,372,10490,5,2,1:2:0:0:
48,304,10644,1,0,1:2:0:0:
80,241,10798,1,0,1:2:0:0:
46,179,10952,1,0,1:2:0:0:
80,118,11105,1,2,1:2:0:0:
84,245,11259,1,0,1:2:0:0:
69,372,11413,1,0,1:2:0:0:
237,372,11567,6,0,P|277:371|327:367,1,72,4|0,1:2|0:2,0:2:0:0:
389,364,11875,1,0,1:2:0:0:
380,194,12028,2,0,P|340:195|290:199,1,72,0|0,1:2|0:2,0:2:0:0:
151,205,12336,1,12,0:2:0:0:
151,205,12490,2,0,P|147:130|150:46,1,144,0|0,0:2|0:2,0:2:0:0:
213,19,12952,5,0,1:2:0:0:
287,25,13259,1,0,1:2:0:0:
361,33,13567,1,8,0:2:0:0:
353,106,13721,1,2,0:2:0:0:
345,180,13875,1,4,0:3:0:0:
189,169,14028,6,0,P|180:223|176:269,1,72,6|0,1:2|0:2,0:2:0:0:
173,319,14336,1,0,1:2:0:0:
321,346,14490,2,0,P|330:292|334:246,1,72,0|0,1:2|0:2,0:2:0:0:
512,145,14798,2,0,P|503:205|492:310,1,144,8|0,0:2|1:2,0:2:0:0:
350,184,15259,6,0,P|389:192|436:199,1,72,2|0,0:2|1:2,0:2:0:0:
482,158,15567,1,0,0:2:0:0:
471,86,15721,1,0,1:2:0:0:
459,18,15875,1,0,0:2:0:0:
424,201,16028,1,8,0:2:0:0:
459,18,16182,1,2,0:2:0:0:
424,201,16336,1,10,0:2:0:0:
198,159,16490,6,0,P|233:164|268:172,1,72,4|0,1:2|0:2,0:2:0:0:
346,187,16798,1,0,1:2:0:0:
321,331,16952,2,0,P|285:325|250:317,1,72,0|0,1:2|0:2,0:2:0:0:
127,380,17259,5,8,0:2:0:0:
110,309,17413,1,0,0:2:0:0:
94,238,17567,1,0,0:2:0:0:
171,183,17721,5,8,0:3:0:0:
132,300,17875,1,4,0:3:0:0:
234,336,18028,1,4,0:3:0:0:
285,165,18182,5,12,0:2:0:0:
108,104,18336,1,4,0:3:0:0:
243,0,18490,5,4,3:3:0:0:
232,28,18567,1,0,3:2:0:0:
223,56,18644,1,0,3:2:0:0:
213,85,18721,1,0,3:2:0:0:
204,113,18798,1,0,3:2:0:0:
195,142,18875,1,0,3:2:0:0:
186,170,18952,1,0,1:2:0:0:
163,246,19105,5,2,0:2:0:0:
235,267,19259,1,0,0:2:0:0:
309,255,19413,1,0,0:2:0:0:
366,205,19567,1,0,0:2:0:0:
312,270,19721,5,2,0:2:0:0:
332,350,19875,1,0,0:2:0:0:
418,383,20028,1,0,0:2:0:0:
501,338,20182,2,0,P|508:316|513:285,1,53.9999983520508,2|0,0:2|0:2,0:2:0:0:
496,184,20490,5,8,1:2:0:0:
188,277,20644,1,8,1:2:0:0:
271,68,20952,5,8,1:3:0:0:
418,383,21105,1,8,1:3:0:0:
496,184,21567,5,6,0:1:0:0:
393,298,21721,1,0,0:2:0:0:
471,165,21875,1,8,0:2:0:0:
415,89,22028,1,0,0:2:0:0:
457,251,22182,2,0,P|449:192|438:147,1,90,2|0,0:2|0:2,0:2:0:0:
415,89,22490,1,8,0:2:0:0:
329,170,22644,5,2,0:1:0:0:
329,170,22721,1,0,0:2:0:0:
329,170,22798,1,0,0:2:0:0:
250,71,22952,5,2,0:1:0:0:
194,162,23105,1,8,0:2:0:0:
286,279,23259,5,2,0:1:0:0:
402,286,23413,1,0,0:2:0:0:
441,132,23567,5,2,0:1:0:0:
373,44,23721,1,8,0:2:0:0:
334,128,23875,5,2,0:1:0:0:
334,128,23952,1,0,0:2:0:0:
334,128,24028,2,0,L|350:237,1,90,6|0,0:2|0:2,0:2:0:0:
20,193,24336,2,0,P|65:187|115:183,1,90,8|0,0:2|0:2,0:2:0:0:
170,130,24644,5,2,0:2:0:0:
265,215,24798,1,0,0:2:0:0:
161,293,24952,1,8,0:2:0:0:
66,208,25105,1,2,0:1:0:0:
76,178,25182,1,0,0:2:0:0:
84,147,25259,1,0,0:2:0:0:
40,13,25413,6,0,P|30:66|14:132,1,90,2|8,0:1|0:2,0:2:0:0:
0,360,25721,2,0,P|10:307|26:241,1,90,2|0,0:1|0:2,0:2:0:0:
145,37,26028,5,14,0:2:0:0:
174,365,26182,1,8,0:2:0:0:
237,224,26336,5,2,0:1:0:0:
225,258,26413,1,0,0:2:0:0:
226,294,26490,1,6,0:2:0:0:
258,384,26644,1,0,0:2:0:0:
310,274,26798,1,8,0:2:0:0:
194,158,26952,1,0,0:2:0:0:
310,274,27105,2,0,P|354:282|405:286,1,90,2|0,0:2|0:2,0:2:0:0:
479,325,27413,5,8,0:2:0:0:
512,171,27567,1,2,0:1:0:0:
512,171,27644,1,0,0:2:0:0:
512,171,27721,1,0,0:2:0:0:
432,131,27875,1,2,0:1:0:0:
399,285,28028,1,8,0:2:0:0:
220,262,28182,6,0,P|264:265|309:273,1,90,2|0,0:1|0:2,0:2:0:0:
344,28,28490,1,2,0:1:0:0:
344,28,28567,1,0,0:2:0:0:
344,28,28644,2,0,P|299:24|254:16,1,90,8|0,0:2|0:1,0:2:0:0:
165,86,28952,5,8,3:3:0:0:
138,70,29028,1,8,3:3:0:0:
106,64,29105,1,8,3:3:0:0:
75,71,29182,1,8,3:3:0:0:
49,90,29259,1,8,3:3:0:0:
32,116,29336,1,8,3:3:0:0:
27,147,29413,1,8,3:3:0:0:
33,177,29490,1,8,3:3:0:0:
53,200,29567,1,4,3:3:0:0:
81,212,29644,1,4,3:3:0:0:
112,213,29721,1,4,3:3:0:0:
142,203,29798,1,4,3:3:0:0:
161,178,29875,1,4,3:3:0:0:
162,146,29952,1,4,3:3:0:0:
147,118,30028,1,4,3:3:0:0:
118,107,30105,1,4,3:3:0:0:
89,118,30182,5,8,3:3:0:0:
120,142,30259,1,8,3:3:0:0:
159,152,30336,1,8,3:3:0:0:
197,138,30413,1,8,3:3:0:0:
220,104,30490,1,8,3:3:0:0:
220,63,30567,1,8,3:3:0:0:
245,31,30644,1,8,3:3:0:0:
283,18,30721,1,8,3:3:0:0:
321,29,30798,1,4,3:3:0:0:
345,61,30875,1,4,3:3:0:0:
341,101,30952,1,4,3:3:0:0:
361,135,31028,1,4,3:3:0:0:
399,148,31105,1,4,3:3:0:0:
437,135,31182,1,4,3:3:0:0:
460,102,31259,1,4,3:3:0:0:
453,62,31336,1,4,3:3:0:0:
420,37,31413,6,0,P|413:85|409:138,1,90,6|0,1:1|0:2,0:2:0:0:
95,209,31721,2,0,P|101:164|105:119,1,90,8|0,0:2|0:2,0:2:0:0:
40,66,32028,5,2,0:2:0:0:
14,242,32182,1,0,0:2:0:0:
40,66,32336,1,8,0:2:0:0:
212,94,32490,1,2,0:1:0:0:
212,94,32567,1,0,0:2:0:0:
212,94,32644,1,0,0:2:0:0:
293,32,32798,5,2,0:1:0:0:
257,179,32952,1,8,0:2:0:0:
379,282,33105,5,2,0:1:0:0:
327,128,33259,1,0,0:2:0:0:
484,26,33413,5,2,0:1:0:0:
392,195,33567,1,8,0:2:0:0:
512,266,33721,5,2,0:1:0:0:
502,250,33798,1,0,0:2:0:0:
492,234,33875,2,0,P|487:280|485:323,1,90,6|0,0:2|0:2,0:2:0:0:
207,383,34182,2,0,P|204:338|199:293,1,90,8|0,0:2|0:2,0:2:0:0:
109,352,34490,5,2,0:2:0:0:
296,329,34644,1,0,0:2:0:0:
118,222,34798,1,8,0:2:0:0:
242,155,34952,1,2,0:1:0:0:
211,148,35028,1,0,0:2:0:0:
185,129,35105,1,0,0:2:0:0:
4,49,35259,6,0,P|55:43|122:39,1,90,2|8,0:1|0:2,0:2:0:0:
37,317,35567,2,0,P|31:272|28:227,1,90,2|0,0:1|0:2,0:2:0:0:
239,64,35875,5,14,0:2:0:0:
305,372,36028,1,8,0:2:0:0:
467,170,36182,5,2,0:1:0:0:
434,153,36259,1,0,0:2:0:0:
398,155,36336,1,6,0:2:0:0:
423,249,36490,1,0,0:2:0:0:
452,69,36644,1,8,0:2:0:0:
301,140,36798,1,0,0:2:0:0:
423,249,36952,2,0,P|467:257|518:261,1,90,2|0,0:2|0:2,0:2:0:0:
398,155,37259,5,8,0:2:0:0:
361,319,37413,1,2,0:1:0:0:
367,349,37490,1,0,0:2:0:0:
375,379,37567,1,0,0:2:0:0:
305,225,37721,5,2,0:1:0:0:
126,264,37875,1,8,0:2:0:0:
314,127,38028,6,0,P|307:80|294:22,1,90,2|0,0:1|0:2,0:2:0:0:
122,142,38336,1,2,0:1:0:0:
122,142,38413,1,0,0:2:0:0:
122,142,38490,2,0,P|75:149|17:162,1,90,8|0,0:2|0:2,0:2:0:0:
0,231,38798,5,6,0:2:0:0:
42,63,38952,1,0,0:2:0:0:
16,248,39105,1,8,0:2:0:0:
134,295,39259,5,0,0:2:0:0:
126,264,39336,1,0,0:2:0:0:
117,233,39413,1,2,0:2:0:0:
208,121,39567,1,0,0:2:0:0:
303,229,39721,1,8,0:2:0:0:
212,341,39875,1,0,0:2:0:0:
304,381,40028,5,6,0:2:0:0:
217,241,40182,1,0,0:2:0:0:
379,166,40336,1,0,0:2:0:0:
267,48,40490,5,14,0:2:0:0:
327,263,40644,1,0,0:2:0:0:
450,94,40798,5,10,0:2:0:0:
148,189,40952,1,0,0:2:0:0:
371,75,41105,6,2,P|272:67|189:121,1,202.500007724762,6|0,1:1|1:2,0:1:0:0:
157,362,41875,6,0,L|6:344,1,135.000005149842,2|0,1:2|1:2,0:2:0:0:
22,346,42336,1,2,0:2:0:0:
157,362,42490,2,0,L|308:344,1,135.000005149842,0|0,1:2|1:2,0:2:0:0:
352,292,43105,5,0,1:2:0:0:
504,337,43259,1,2,0:2:0:0:
352,292,43413,1,2,1:2:0:0:
420,384,43567,2,0,P|430:299|458:169,1,202.500007724762,2|0,1:2|1:2,0:2:0:0:
353,2,44336,6,0,P|364:48|373:97,1,67.5000025749208,2|0,1:2|0:2,0:2:0:0:
384,139,44644,1,0,1:2:0:0:
400,210,44798,1,2,0:2:0:0:
427,277,44952,1,0,1:2:0:0:
368,68,45259,1,0,1:2:0:0:
427,277,45567,5,0,1:2:0:0:
279,218,45721,1,2,0:2:0:0:
368,68,45875,1,0,1:2:0:0:
400,210,46028,2,0,P|297:188|183:173,1,202.500007724762,2|0,1:2|1:2,0:2:0:0:
0,105,46798,6,0,P|43:110|99:113,1,67.5000025749208,2|0,1:2|0:2,0:2:0:0:
136,136,47105,1,0,1:2:0:0:
80,183,47259,1,2,0:2:0:0:
123,62,47413,1,0,1:2:0:0:
154,245,47721,1,0,1:2:0:0:
258,142,48028,5,0,1:2:0:0:
80,183,48182,1,2,0:2:0:0:
182,318,48336,1,2,1:2:0:0:
154,245,48490,2,0,P|162:154|179:29,1,202.500007724762,2|0,1:2|1:2,0:2:0:0:
154,245,49259,6,0,L|1:260,1,135.000005149842,2|0,1:2|1:2,0:2:0:0:
19,258,49721,1,2,0:2:0:0:
154,245,49875,2,0,L|307:260,1,135.000005149842,0|0,1:2|1:2,0:2:0:0:
377,309,50336,5,8,1:2:0:0:
387,274,50413,1,8,1:2:0:0:
386,237,50490,1,8,1:2:0:0:
247,363,50644,1,4,1:3:0:0:
208,150,50798,1,8,1:2:0:0:
15,319,50952,6,0,P|56:314|97:305,1,80.9999975280763,6|0,1:2|0:2,0:2:0:0:
173,289,51259,1,0,1:2:0:0:
134,102,51413,2,0,P|93:106|54:115,1,80.9999975280763,8|0,0:2|0:2,0:2:0:0:
248,214,51721,6,0,P|234:134|226:53,1,161.999995056153,2|8,1:2|0:2,0:2:0:0:
404,36,52336,2,0,P|443:31|489:27,1,80.9999975280763,0|0,1:2|0:2,0:2:0:0:
360,110,52644,2,0,P|319:113|279:118,1,80.9999975280763,8|0,0:2|0:2,0:2:0:0:
422,162,52952,1,0,1:2:0:0:
323,248,53105,1,2,0:2:0:0:
461,294,53259,1,10,0:2:0:0:
370,384,53413,6,0,P|376:344|381:303,1,80.9999975280763,2|0,1:2|0:2,0:2:0:0:
323,248,53721,1,0,1:2:0:0:
191,330,53875,2,0,P|110:326|29:316,1,161.999995056153,8|2,0:2|1:2,0:2:0:0:
51,106,54490,6,0,P|56:62|62:16,1,80.9999975280763,8|2,0:2|0:2,0:2:0:0:
231,100,54798,2,0,P|226:144|220:190,1,80.9999975280763,0|0,1:2|0:2,0:2:0:0:
116,230,55105,2,0,P|121:186|127:140,1,80.9999975280763,8|0,0:2|0:2,0:2:0:0:
352,127,55413,1,0,1:2:0:0:
278,269,55567,1,2,0:2:0:0:
231,100,55721,1,8,2:2:0:0:
454,180,55875,6,0,P|459:139|463:99,1,80.9999975280763,2|0,1:2|0:2,0:2:0:0:
502,35,56182,1,0,1:2:0:0:
473,201,56336,2,0,P|467:241|463:281,1,80.9999975280763,8|0,0:2|0:2,0:2:0:0:
312,384,56644,2,0,P|321:308|330:202,1,161.999995056153,2|8,0:2|0:2,0:2:0:0:
328,222,57105,1,2,0:2:0:0:
228,311,57259,6,0,L|126:325,1,80.9999975280763,0|0,1:2|0:2,0:2:0:0:
0,261,57567,2,0,L|102:275,1,80.9999975280763,8|0,0:2|0:2,0:2:0:0:
244,111,57875,1,0,1:2:0:0:
63,70,58028,1,2,0:2:0:0:
137,219,58182,1,10,0:2:0:0:
161,63,58336,6,0,P|152:102|145:142,1,80.9999975280763,6|0,1:2|0:2,0:2:0:0:
137,219,58644,1,0,1:2:0:0:
141,372,58798,2,0,P|149:332|156:292,1,80.9999975280763,8|0,0:2|0:2,0:2:0:0:
67,161,59105,5,2,1:2:0:0:
224,241,59259,1,8,0:2:0:0:
46,288,59413,1,8,0:2:0:0:
232,129,59567,1,2,1:2:0:0:
304,356,59721,5,14,1:2:0:0:
304,356,59875,1,0,1:2:0:0:
379,336,60182,5,0,1:2:0:0:
339,186,60336,1,8,0:2:0:0:
460,142,60490,1,8,0:3:0:0:
421,233,60644,1,4,0:3:0:0:
311,63,60798,6,2,P|344:94|404:102,1,90,6|0,1:1|0:2,0:1:0:0:
467,122,61259,1,0,1:2:0:0:
467,122,61413,1,0,0:2:0:0:
318,175,61567,2,2,P|274:185|242:216,1,90,12|0,0:2|0:2,0:1:0:0:
173,382,62028,6,2,L|163:320,1,45,2|0,1:1|0:2,0:1:0:0:
149,261,62336,1,0,3:2:0:0:
136,335,62490,1,2,1:2:0:0:
77,289,62644,1,0,0:2:0:0:
145,185,62798,1,10,0:1:0:0:
22,160,62952,1,0,0:2:0:0:
77,289,63105,1,0,0:2:0:0:
233,225,63259,6,2,P|256:265|250:316,1,90,6|8,1:2|0:2,0:1:0:0:
229,384,63721,1,2,1:2:0:0:
229,384,63875,1,0,0:2:0:0:
179,323,64028,1,10,0:1:0:0:
302,364,64182,1,0,0:2:0:0:
233,225,64336,1,0,0:2:0:0:
347,293,64490,6,2,P|379:288|400:282,1,45,2|0,1:1|0:2,0:1:0:0:
462,257,64798,1,0,3:2:0:0:
387,246,64952,1,2,1:2:0:0:
455,332,65105,1,0,0:2:0:0:
507,192,65259,1,8,0:2:0:0:
366,135,65413,1,4,0:3:0:0:
462,257,65567,1,8,1:2:0:0:
482,6,65875,5,6,1:2:0:0:
418,43,66028,1,0,0:2:0:0:
384,109,66182,1,0,1:2:0:0:
316,140,66336,1,0,0:2:0:0:
276,202,66490,1,0,1:2:0:0:
207,230,66644,1,0,0:2:0:0:
170,294,66798,1,0,1:2:0:0:
98,313,66952,1,0,0:2:0:0:
56,373,67105,5,2,1:2:0:0:
89,279,67259,1,0,0:2:0:0:
182,312,67413,1,0,1:2:0:0:
194,213,67567,1,0,0:2:0:0:
292,222,67721,1,0,1:2:0:0:
278,123,67875,1,0,0:2:0:0:
376,119,68028,1,0,1:2:0:0:
335,28,68182,1,0,0:2:0:0:
438,0,68336,5,8,1:2:0:0:
365,316,68490,1,8,1:2:0:0:
74,0,68798,5,8,1:2:0:0:
147,316,68952,1,8,1:2:0:0:
256,192,69028,12,0,70567,0:2:0:0:
265,89,70644,6,0,P|259:153|250:277,1,161.999995056152,6|0,1:0|2:2,0:0:0:0:
248,326,70952,1,2,0:2:0:0:
333,229,71105,1,8,0:0:0:0:
211,147,71259,1,0,0:0:0:0:
126,244,71413,1,2,0:2:0:0:
157,237,71567,1,0,0:0:0:0:
310,139,71721,5,8,0:0:0:0:
133,70,71875,1,0,0:0:0:0:
253,230,72028,5,2,0:2:0:0:
359,56,72182,2,0,P|413:51|472:48,1,107.999996704102,2|8,0:1|0:0,0:0:0:0:
507,115,72490,1,2,0:1:0:0:
495,156,72567,1,0,0:0:0:0:
496,199,72644,1,0,0:0:0:0:
512,272,72798,1,2,0:1:0:0:
470,159,72952,1,8,0:0:0:0:
478,366,73105,6,0,P|466:264|454:191,1,161.999995056153,6|0,0:2|2:0,0:1:0:0:
439,132,73413,1,2,0:2:0:0:
417,299,73567,1,8,0:0:0:0:
297,313,73721,1,0,0:0:0:0:
319,146,73875,1,2,0:2:0:0:
341,220,74028,1,0,0:0:0:0:
223,90,74182,5,8,0:0:0:0:
391,45,74336,1,0,0:0:0:0:
223,90,74490,1,2,0:2:0:0:
267,266,74644,2,0,P|214:273|158:284,1,107.999996704102,2|8,0:1|0:0,0:0:0:0:
86,257,74952,1,2,0:1:0:0:
45,271,75028,1,0,0:0:0:0:
1,268,75105,1,0,0:0:0:0:
36,189,75259,1,2,0:1:0:0:
57,352,75413,1,8,0:0:0:0:
315,330,75567,6,0,B|277:207|350:242|316:118,1,215.999993408203,6|0,0:1|0:0,0:1:0:0:
118,153,76028,2,0,P|169:184|233:161,1,107.999996704102,12|0,0:2|0:0,0:0:0:0:
400,31,76336,5,2,0:1:0:0:
487,73,76490,1,0,0:2:0:0:
420,144,76644,1,10,0:2:0:0:
333,102,76798,1,0,0:2:0:0:
422,11,76952,5,2,0:1:0:0:
508,172,77105,1,0,0:2:0:0:
329,206,77259,1,10,0:2:0:0:
242,45,77413,1,0,0:2:0:0:
329,2,77567,5,2,0:1:0:0:
236,242,77721,1,0,0:2:0:0:
329,2,77875,1,8,0:2:0:0:
95,13,78028,6,2,P|122:120|136:183,1,161.999995056153,6|0,0:1|2:1,0:1:0:0:
128,178,78336,2,0,P|119:140|111:103,1,67.5000025749208,2|8,0:1|0:2,0:2:0:0:
446,31,78644,6,2,P|339:58|276:72,1,175.499991966248,6|0,0:2|2:2,0:1:0:0:
269,67,78952,2,2,P|307:57|344:50,1,67.5000025749208,2|8,0:1|0:2,0:1:0:0:
421,382,79259,6,2,P|389:259|373:186,1,188.999994232178,6|0,0:2|2:2,0:1:0:0:
382,193,79567,2,2,P|391:231|399:268,1,67.5000025749208,2|8,0:1|0:2,0:1:0:0:
56,358,79875,6,2,P|183:325|258:309,1,202.500007724762,6|0,0:2|2:2,0:1:0:0:
259,317,80182,2,2,P|184:334|111:350,1,135.000005149842,6|8,0:2|0:2,0:1:0:0:
0,179,80490,6,0,P|84:163|166:142,1,161.999995056153,6|0,1:1|2:2,0:2:0:0:
235,121,80798,1,2,0:2:0:0:
131,67,80952,1,12,0:2:0:0:
228,216,81105,1,0,0:2:0:0:
344,82,81259,1,2,0:2:0:0:
235,121,81413,1,0,0:2:0:0:
322,300,81567,5,8,0:2:0:0:
398,319,81721,1,0,0:2:0:0:
512,140,81875,5,2,0:2:0:0:
436,121,82028,2,0,P|383:114|315:106,1,107.999996704102,2|8,0:1|0:2,0:2:0:0:
253,88,82336,1,2,0:1:0:0:
209,88,82413,1,0,0:2:0:0:
171,81,82490,1,0,0:2:0:0:
277,0,82644,1,2,0:1:0:0:
171,81,82798,1,8,0:2:0:0:
374,162,82952,6,0,P|297:152|210:144,1,161.999995056153,6|0,0:2|0:2,0:2:0:0:
140,165,83259,1,2,0:2:0:0:
281,111,83413,1,8,0:2:0:0:
334,252,83567,1,0,0:2:0:0:
119,153,83721,5,2,0:2:0:0:
290,91,83875,1,0,0:2:0:0:
348,262,84028,1,8,0:2:0:0:
181,322,84182,1,0,0:2:0:0:
238,206,84336,5,2,0:2:0:0:
286,384,84490,2,0,P|273:332|258:274,1,107.999996704102,2|8,0:1|0:2,0:2:0:0:
238,206,84798,1,2,0:1:0:0:
223,165,84875,1,0,0:2:0:0:
217,122,84952,1,0,0:2:0:0:
329,146,85105,1,2,0:1:0:0:
128,189,85259,1,8,0:2:0:0:
345,18,85413,6,0,P|242:43|145:-1,1,215.999993408203,6|0,0:1|0:2,0:2:0:0:
341,173,85875,2,0,P|392:157|446:151,1,107.999996704102,12|0,0:2|0:2,0:2:0:0:
512,198,86182,5,2,0:1:0:0:
420,288,86336,1,0,0:2:0:0:
297,241,86490,1,10,0:2:0:0:
424,306,86644,1,0,0:2:0:0:
263,167,86798,5,2,0:1:0:0:
151,310,86952,1,0,0:2:0:0:
68,147,87105,1,10,0:2:0:0:
148,329,87259,1,0,0:2:0:0:
311,107,87413,5,2,0:1:0:0:
428,322,87567,1,0,0:2:0:0:
507,91,87721,1,8,0:2:0:0:
270,203,87875,5,0,0:1:0:0:
308,221,87952,1,0,0:2:0:0:
349,209,88028,1,12,1:2:0:0:
270,0,88182,1,8,1:1:0:0:
512,54,88490,5,8,0:2:0:0:
110,174,88644,1,8,0:2:0:0:
25,199,90490,5,6,1:1:0:0:
146,290,90644,1,0,0:2:0:0:
32,345,90798,1,8,0:2:0:0:
123,157,90952,1,0,0:2:0:0:
117,125,91028,1,0,0:2:0:0:
109,94,91105,1,2,0:2:0:0:
38,159,91259,1,0,0:2:0:0:
204,116,91413,1,8,0:2:0:0:
226,211,91567,5,2,0:1:0:0:
226,211,91644,1,0,0:2:0:0:
226,211,91721,1,0,0:2:0:0:
188,28,91875,5,2,0:1:0:0:
345,7,92028,1,8,0:2:0:0:
419,56,92182,5,2,0:1:0:0:
440,207,92336,1,0,0:2:0:0:
495,267,92490,5,2,0:1:0:0:
321,290,92644,1,8,0:2:0:0:
236,373,92798,5,2,0:1:0:0:
236,373,92875,1,0,0:2:0:0:
236,373,92952,2,0,P|230:321|221:266,1,90,6|0,0:2|0:2,0:2:0:0:
0,312,93259,2,0,P|50:330|112:338,1,90,8|0,0:2|0:2,0:2:0:0:
196,103,93567,5,2,0:2:0:0:
94,204,93721,1,0,0:2:0:0:
225,284,93875,1,8,0:2:0:0:
327,183,94028,1,2,0:1:0:0:
315,153,94105,1,0,0:2:0:0:
302,123,94182,1,0,0:2:0:0:
427,31,94336,6,0,P|420:77|417:120,1,90,2|8,0:1|0:2,0:2:0:0:
94,204,94644,2,0,P|100:157|104:115,1,90,2|0,0:1|0:2,0:2:0:0:
165,25,94952,5,14,0:2:0:0:
103,376,95105,1,8,0:2:0:0:
98,208,95259,5,2,0:1:0:0:
129,225,95336,1,0,0:2:0:0:
165,225,95413,1,6,0:2:0:0:
269,157,95567,1,0,0:2:0:0:
255,24,95721,1,8,0:2:0:0:
269,157,95875,1,0,0:2:0:0:
376,206,96028,2,0,P|418:214|471:218,1,90,2|0,0:2|0:2,0:2:0:0:
512,284,96336,5,8,0:2:0:0:
441,135,96490,1,2,0:1:0:0:
442,103,96567,1,0,0:2:0:0:
455,74,96644,1,0,0:2:0:0:
465,218,96798,5,2,0:1:0:0:
379,33,96952,1,8,0:2:0:0:
275,264,97105,6,0,L|287:364,1,90,2|0,0:1|0:2,0:2:0:0:
21,341,97413,1,2,0:1:0:0:
21,341,97490,1,0,0:2:0:0:
21,341,97567,2,0,P|72:336|124:326,1,90,8|0,0:2|0:2,0:2:0:0:
262,180,97875,5,8,3:3:0:0:
258,157,97952,1,8,3:3:0:0:
255,135,98028,1,8,3:3:0:0:
253,113,98105,1,8,3:3:0:0:
250,90,98182,1,8,3:3:0:0:
248,68,98259,1,8,3:3:0:0:
246,45,98336,1,8,3:3:0:0:
245,23,98413,1,8,3:3:0:0:
244,0,98490,5,4,3:3:0:0:
252,44,98567,1,4,3:3:0:0:
259,88,98644,1,4,3:3:0:0:
264,133,98721,1,4,3:3:0:0:
266,178,98798,1,4,3:3:0:0:
266,223,98875,1,4,3:3:0:0:
264,268,98952,1,4,3:3:0:0:
260,312,99028,1,4,3:3:0:0:
253,357,99105,1,4,3:3:0:0:
163,380,99259,5,2,1:1:0:0:
346,350,99413,1,8,1:2:0:0:
381,275,99567,5,2,1:1:0:0:
154,235,99721,1,8,1:3:0:0:
125,159,99875,5,2,1:1:0:0:
421,85,100028,1,4,1:3:0:0:
352,39,100182,6,2,P|290:53|172:1,1,180,6|0,1:2|0:2,0:1:0:0:
0,192,100644,1,12,0:2:0:0:
48,257,100952,6,0,P|84:254|130:246,1,72,2|0,1:2|0:2,0:2:0:0:
270,264,101259,2,0,P|234:267|188:275,1,72,8|0,0:2|0:2,0:2:0:0:
210,351,101567,2,0,P|246:348|292:340,1,72,0|0,1:2|0:2,0:2:0:0:
430,366,101875,2,0,P|394:368|358:374,1,72,8|0,0:2|0:2,0:2:0:0:
320,188,102182,5,0,1:2:0:0:
478,224,102336,1,2,0:2:0:0:
405,116,102490,5,10,0:2:0:0:
387,264,102644,2,0,P|394:226|399:186,1,72,2|0,1:2|0:2,0:2:0:0:
405,116,102952,1,0,1:2:0:0:
235,85,103105,2,0,P|222:156|210:251,1,144,8|0,0:2|1:2,0:2:0:0:
193,305,103721,6,0,P|159:299|115:294,1,72,10|0,0:2|0:2,0:2:0:0:
38,320,104028,2,0,P|44:286|49:242,1,72,0|0,1:2|0:2,0:2:0:0:
276,285,104336,2,0,P|270:319|265:363,1,72,8|0,0:2|0:2,0:2:0:0:
212,227,104644,5,0,1:2:0:0:
334,212,104798,1,2,0:2:0:0:
267,152,104952,5,10,0:2:0:0:
415,233,105105,2,0,P|426:161|434:90,1,144,2|0,1:2|1:2,0:2:0:0:
188,5,105567,2,0,P|176:76|168:147,1,144,8|0,0:2|1:2,0:2:0:0:
152,227,106182,6,0,P|115:224|63:215,1,72,10|0,0:2|0:2,0:2:0:0:
0,293,106490,2,0,P|37:296|89:305,1,72,0|0,1:2|0:2,0:2:0:0:
194,312,106798,2,0,P|188:347|185:383,1,72,8|0,0:2|0:2,0:2:0:0:
328,272,107105,5,0,1:2:0:0:
452,332,107259,1,2,0:2:0:0:
416,236,107413,5,10,0:2:0:0:
305,361,107567,2,0,P|348:356|379:350,1,72,2|0,1:2|0:2,0:2:0:0:
452,332,107875,1,0,1:2:0:0:
428,157,108028,2,0,P|385:162|354:168,1,72,8|0,0:2|0:2,0:2:0:0:
220,191,108336,2,0,P|210:124|193:27,1,144,2|8,1:2|0:2,0:2:0:0:
122,60,108952,6,0,P|125:96|136:154,1,72,2|0,1:2|0:2,0:2:0:0:
146,209,109259,1,8,0:2:0:0:
158,130,109413,1,0,1:2:0:0:
74,180,109567,1,8,0:2:0:0:
191,277,109721,1,0,1:2:0:0:
122,60,109875,1,8,0:2:0:0:
358,5,110028,6,0,P|351:61|337:200,1,170.999995433807,4|0,1:2|1:2,0:2:0:0:
318,343,110490,2,0,P|360:350|402:353,1,85.4999977169037,8|0,0:2|0:2,0:2:0:0:
429,367,110721,1,8,0:2:0:0:
457,358,110798,1,0,1:2:0:0:
493,286,110952,1,0,1:2:0:0:
451,220,111105,1,8,0:2:0:0:
247,180,111336,5,8,0:2:0:0:
247,180,111413,1,0,1:2:0:0:
205,247,111567,1,0,1:2:0:0:
243,316,111721,2,0,P|285:323|327:326,1,85.4999977169037,8|0,0:2|0:2,0:2:0:0:
354,312,111952,1,8,0:2:0:0:
373,289,112028,1,0,1:2:0:0:
247,180,112182,1,2,1:2:0:0:
402,121,112336,1,10,0:2:0:0:
346,58,112490,6,0,P|262:73|184:41,1,170.999995433807,6|0,1:2|1:2,0:2:0:0:
15,116,112952,2,0,P|57:121|99:130,1,85.4999977169037,8|0,0:2|0:2,0:2:0:0:
122,148,113182,1,8,0:2:0:0:
134,179,113259,1,0,1:2:0:0:
71,220,113413,1,0,1:2:0:0:
122,278,113567,1,8,0:2:0:0:
305,261,113798,5,8,0:2:0:0:
305,261,113875,1,0,1:2:0:0:
367,306,114028,1,0,1:2:0:0:
324,372,114182,2,0,P|282:363|239:357,1,85.4999977169037,8|0,0:2|0:2,0:2:0:0:
211,345,114413,1,8,2:2:0:0:
181,351,114490,1,0,0:2:0:0:
305,261,114644,1,2,1:2:0:0:
216,136,114798,1,10,0:2:0:0:
303,23,114952,6,0,P|297:62|293:107,1,85.4999977169037,4|0,1:2|0:2,0:2:0:0:
286,186,115259,1,0,1:2:0:0:
478,204,115413,2,0,P|483:164|487:119,1,85.4999977169037,8|0,0:2|0:2,0:2:0:0:
487,87,115644,1,8,0:2:0:0:
478,57,115721,1,0,1:2:0:0:
400,65,115875,1,0,1:2:0:0:
408,143,116028,1,8,0:2:0:0:
255,242,116259,5,8,2:2:0:0:
255,242,116336,1,0,1:2:0:0:
331,227,116490,1,0,1:2:0:0:
316,151,116644,2,0,P|310:108|303:65,1,85.4999977169037,8|0,0:2|0:2,0:2:0:0:
274,57,116875,1,8,0:2:0:0:
246,68,116952,1,0,1:2:0:0:
255,242,117105,1,2,1:2:0:0:
216,62,117259,1,10,0:2:0:0:
56,147,117413,6,0,P|124:144|194:127,1,128.249996575356,6|0,1:2|0:2,0:2:0:0:
220,66,117721,1,2,1:2:0:0:
175,226,117875,1,10,0:2:0:0:
279,279,118028,1,0,1:2:0:0:
324,119,118182,1,10,0:2:0:0:
255,145,118336,1,0,0:2:0:0:
373,207,118490,5,2,1:2:0:0:
404,31,118644,1,8,0:2:0:0:
373,207,118798,1,2,1:2:0:0:
497,232,118952,5,8,0:2:0:0:
500,194,119028,1,8,0:2:0:0:
483,159,119105,1,8,0:2:0:0:
352,310,119259,1,8,0:2:0:0:
235,203,119413,1,8,0:2:0:0:
122,283,119567,1,8,0:3:0:0:
18,223,119721,1,4,0:3:0:0:
158,177,119875,6,2,P|112:175|69:143,1,90,6|0,1:1|0:2,0:1:0:0:
20,106,120336,1,0,1:2:0:0:
20,106,120490,1,0,0:2:0:0:
138,260,120644,2,2,P|183:261|227:294,1,90,14|0,0:2|0:2,0:1:0:0:
338,384,121105,6,2,L|348:319,1,45,2|0,1:1|0:2,0:1:0:0:
347,263,121413,1,0,3:2:0:0:
381,334,121567,1,2,1:2:0:0:
429,275,121721,1,0,0:2:0:0:
298,202,121875,1,10,0:1:0:0:
428,137,122028,1,0,0:2:0:0:
429,274,122182,1,0,0:2:0:0:
344,138,122336,6,2,P|350:116|358:95,1,45,6|0,1:2|0:2,0:1:0:0:
323,30,122644,1,8,0:2:0:0:
298,202,122798,2,0,P|291:223|283:244,1,45,0|0,1:2|0:2,0:2:0:0:
232,303,123105,1,10,0:1:0:0:
230,162,123259,2,0,P|240:117|256:66,1,90,0|0,0:2|0:2,0:1:0:0:
323,30,123721,5,2,1:1:0:0:
163,90,123875,1,8,0:3:0:0:
133,88,123952,1,8,0:3:0:0:
108,71,124028,1,8,0:3:0:0:
168,0,124182,1,4,0:3:0:0:
105,181,124336,1,8,0:2:0:0:
55,0,124490,1,4,2:3:0:0:
205,209,124644,1,8,1:2:0:0:
415,105,124952,5,6,1:2:0:0:
492,93,125105,1,0,0:2:0:0:
432,140,125259,1,8,0:2:0:0:
505,209,125413,1,8,0:3:0:0:
512,192,125490,1,8,0:3:0:0:
505,175,125567,1,8,0:3:0:0:
415,279,125721,1,4,0:3:0:0:
492,291,125875,1,8,0:2:0:0:
432,244,126028,1,0,0:2:0:0:
357,113,126182,5,2,1:2:0:0:
311,277,126336,1,0,1:2:0:0:
333,91,126490,1,8,0:2:0:0:
228,185,126644,1,8,0:3:0:0:
256,192,126721,1,8,0:3:0:0:
284,185,126798,1,8,0:3:0:0:
155,113,126952,1,4,0:3:0:0:
201,277,127105,1,8,0:2:0:0:
179,91,127259,1,0,0:2:0:0:
107,381,127413,5,6,1:1:0:0:
512,192,127875,5,6,1:1:0:0:
17,0,128336,5,6,1:1:0:0:
256,192,128644,12,0,129644,0:2:0:0:
174,200,129721,6,0,P|252:193|335:186,1,161.999995056153,6|0,1:0|2:2,0:0:0:0:
412,171,130028,1,2,0:2:0:0:
300,110,130182,1,8,0:0:0:0:
400,253,130336,1,0,0:0:0:0:
400,253,130413,1,0,0:0:0:0:
400,253,130490,1,2,0:2:0:0:
512,108,130644,2,0,P|498:161|492:225,1,107.999996704102,0|8,0:0|0:0,0:0:0:0:
322,298,130952,5,2,0:1:0:0:
468,363,131105,1,0,0:0:0:0:
277,220,131259,5,2,0:1:0:0:
205,380,131413,1,0,0:0:0:0:
355,175,131567,5,2,0:1:0:0:
355,175,131644,1,0,0:0:0:0:
355,175,131721,1,0,0:0:0:0:
178,95,131875,1,2,0:1:0:0:
98,272,132028,1,8,0:0:0:0:
6,81,132182,6,0,P|50:151|134:141,1,161.999995056153,6|0,0:2|2:0,0:1:0:0:
178,95,132490,1,2,0:2:0:0:
111,241,132644,1,8,0:0:0:0:
255,307,132798,1,0,0:0:0:0:
208,202,132952,5,2,0:2:0:0:
151,364,133105,1,0,0:0:0:0:
151,364,133182,1,0,0:0:0:0:
151,364,133259,1,8,0:0:0:0:
361,329,133413,6,0,P|343:323|239:307,1,107.999996704102,2|0,1:1|0:0,0:0:0:0:
494,133,133721,2,0,P|440:140|388:153,1,107.999996704102,2|8,0:1|0:0,0:0:0:0:
319,115,134028,1,2,0:1:0:0:
276,118,134105,1,0,0:0:0:0:
239,106,134182,1,0,0:0:0:0:
333,0,134336,1,2,0:1:0:0:
239,106,134490,1,8,0:0:0:0:
388,152,134644,6,0,B|267:122|308:221|181:173,1,215.999993408203,6|0,0:1|0:0,0:1:0:0:
0,263,135105,2,0,P|55:248|114:248,1,107.999996704102,12|0,0:2|0:0,0:0:0:0:
256,325,135413,5,2,0:1:0:0:
155,384,135567,1,0,0:2:0:0:
257,249,135721,1,10,0:2:0:0:
357,384,135875,1,0,0:2:0:0:
388,153,136028,5,2,0:1:0:0:
256,325,136182,1,0,0:2:0:0:
124,153,136336,1,10,0:2:0:0:
257,249,136490,1,0,0:2:0:0:
155,384,136644,5,2,0:1:0:0:
258,173,136798,1,0,0:2:0:0:
357,384,136952,1,8,0:2:0:0:
187,285,137105,6,2,P|106:286|26:274,1,161.999995056153,6|0,0:1|2:1,0:1:0:0:
26,274,137413,2,0,L|37:370,1,67.5000025749208,2|8,0:1|0:2,0:2:0:0:
332,243,137721,6,2,P|419:241|505:256,1,175.499991966248,6|0,0:2|2:2,0:1:0:0:
506,257,138028,2,2,L|495:353,1,67.5000025749208,2|8,0:1|0:2,0:1:0:0:
193,138,138336,6,2,P|113:140|2:119,1,188.999994232178,6|0,0:2|2:2,0:1:0:0:
6,120,138644,2,2,L|17:216,1,67.5000025749208,2|8,0:1|0:2,0:1:0:0:
309,18,138952,6,2,P|389:16|527:39,1,202.500007724762,6|0,0:2|2:2,0:1:0:0:
509,34,139259,2,2,L|491:190,1,135.000005149842,6|8,0:2|0:2,0:1:0:0:
250,377,139567,6,0,B|235:292|278:320|267:211,1,161.999995056153,6|0,1:1|2:2,0:2:0:0:
255,141,139875,1,2,0:2:0:0:
188,260,140028,1,12,0:2:0:0:
292,300,140182,1,0,0:2:0:0:
347,102,140336,1,2,0:2:0:0:
243,62,140490,1,0,0:2:0:0:
267,218,140644,5,8,0:2:0:0:
412,184,140798,1,0,0:2:0:0:
395,343,140952,5,2,0:2:0:0:
250,377,141105,2,0,P|197:370|129:362,1,107.999996704102,2|8,0:1|0:2,0:2:0:0:
97,300,141413,1,2,0:1:0:0:
56,284,141490,1,0,0:2:0:0:
12,285,141567,1,0,0:2:0:0:
39,384,141721,1,2,0:1:0:0:
77,197,141875,1,8,0:2:0:0:
283,297,142028,6,0,P|290:213|303:127,1,161.999995056153,6|0,0:2|0:2,0:2:0:0:
330,62,142336,1,2,0:2:0:0:
204,180,142490,1,8,0:2:0:0:
367,248,142644,1,0,0:2:0:0:
301,136,142798,5,2,0:2:0:0:
291,305,142952,1,0,0:2:0:0:
291,305,143028,1,0,0:0:0:0:
291,305,143105,1,8,0:2:0:0:
168,248,143259,5,2,0:0:0:0:
194,381,143413,1,0,0:0:0:0:
157,226,143567,5,2,0:0:0:0:
47,126,143721,1,8,0:0:0:0:
178,236,143875,5,2,0:0:0:0:
338,250,144028,1,0,0:0:0:0:
154,240,144182,5,2,0:0:0:0:
1,323,144336,1,8,0:0:0:0:
171,223,144490,6,0,P|177:115|186:-6,1,215.999993408203,6|0,0:1|0:2,0:2:0:0:
512,104,144952,2,0,P|455:90|376:178,1,161.999995056153,12|0,0:2|0:0,0:2:0:0:
348,222,145259,5,2,0:1:0:0:
284,147,145413,1,0,0:2:0:0:
195,186,145567,1,10,0:2:0:0:
258,260,145721,1,0,0:2:0:0:
208,69,145875,5,2,0:1:0:0:
24,160,146028,1,0,0:2:0:0:
163,313,146182,1,10,0:2:0:0:
348,222,146336,1,0,0:2:0:0:
338,81,146490,5,2,0:1:0:0:
441,375,146644,1,0,0:2:0:0:
478,81,146798,1,8,0:2:0:0:
334,329,146952,1,0,0:1:0:0:
334,329,147028,1,0,0:2:0:0:
334,329,147105,1,14,1:1:0:0:
256,192,147182,12,0,148644,0:2:0:0:
188,204,148798,5,8,0:2:0:0:
188,204,148875,1,8,0:2:0:0:
188,204,148952,1,8,0:2:0:0:
268,260,149105,1,8,0:3:0:0:
324,180,149259,1,4,0:3:0:0:
244,124,149413,1,4,0:3:0:0:
414,195,149567,6,0,P|414:127|409:60,1,135.000005149842,6|0,1:2|1:2,0:2:0:0:
409,60,150182,2,0,P|351:60|320:65,1,67.5000025749208,2|0,1:2|0:2,0:2:0:0:
207,93,150490,2,0,P|204:59|205:25,1,67.5000025749208,0|0,1:2|0:2,0:2:0:0:
218,199,150798,2,0,P|142:198|55:203,1,135.000005149842,2|0,1:2|1:2,0:2:0:0:
90,337,151259,1,0,0:2:0:0:
90,337,151413,2,0,P|166:338|253:333,1,135.000005149842,2|0,1:2|1:2,0:2:0:0:
361,377,152028,6,0,P|358:336|358:290,1,67.5000025749208,2|0,1:2|0:2,0:2:0:0:
435,281,152336,2,0,P|438:322|438:368,1,67.5000025749208,0|0,1:2|0:2,0:2:0:0:
314,227,152644,2,0,P|376:217|404:200,1,67.5000025749208,2|0,1:2|0:2,0:2:0:0:
363,140,152952,2,0,P|301:150|273:167,1,67.5000025749208,0|0,1:2|0:2,0:2:0:0:
259,292,153259,2,0,P|186:289|111:259,1,135.000005149842,2|0,1:2|1:2,0:2:0:0:
64,139,153721,1,2,0:2:0:0:
0,232,153875,2,0,P|40:227|74:212,1,67.5000025749208,2|0,1:2|0:2,0:2:0:0:
142,108,154182,1,2,0:2:0:0:
34,53,154336,1,2,0:2:0:0:
182,187,154490,6,0,P|190:112|209:37,1,135.000005149842,6|0,1:2|1:2,0:2:0:0:
203,54,155105,2,0,P|234:59|276:69,1,67.5000025749208,2|0,1:2|0:2,0:2:0:0:
408,95,155413,2,0,P|415:62|421:28,1,67.5000025749208,0|0,1:2|0:2,0:2:0:0:
326,139,155721,2,0,P|311:204|304:271,2,135.000005149842,2|0|0,1:2|1:2|1:2,0:2:0:0:
408,95,156490,1,2,0:2:0:0:
336,49,156644,1,2,0:2:0:0:
405,177,156798,1,2,0:2:0:0:
236,186,156952,6,0,P|177:173|83:168,1,135.000005149842,2|0,1:2|1:2,0:2:0:0:
102,167,157567,2,0,P|96:207|94:257,1,67.5000025749208,2|0,1:2|0:2,0:2:0:0:
82,349,157875,2,0,P|42:343|-8:341,1,67.5000025749208,0|0,1:2|0:2,0:2:0:0:
211,371,158182,2,0,P|217:296|232:210,1,135.000005149842,2|0,1:2|1:2,0:2:0:0:
317,207,158644,1,2,0:2:0:0:
243,151,158798,1,0,1:2:0:0:
297,287,158952,1,2,0:2:0:0:
398,188,159105,2,2,P|431:180|478:176,1,67.5000025749208,0|0,1:2|0:2,0:1:0:0:
512,114,159413,5,6,1:2:0:0:
512,114,159567,1,0,0:2:0:0:
399,32,159721,2,0,P|408:69|414:107,1,77.4000011810303,2|0,1:2|0:2,0:2:0:0:
402,192,160028,1,0,1:2:0:0:
396,346,160182,2,0,P|386:308|380:270,1,77.4000011810303,2|0,0:2|1:2,0:2:0:0:
402,192,160490,1,0,0:2:0:0:
292,134,160644,5,6,1:2:0:0:
292,134,160798,1,0,0:2:0:0:
179,211,160952,1,2,1:2:0:0:
315,214,161105,1,0,0:2:0:0:
206,132,161259,1,0,1:2:0:0:
245,262,161413,2,0,L|234:353,1,77.4000011810303,2|0,0:2|1:2,0:2:0:0:
172,384,161721,1,0,0:2:0:0:
90,218,161875,5,6,1:2:0:0:
90,218,162028,1,0,0:2:0:0:
15,309,162182,2,0,P|58:304|104:294,1,77.4000011810303,2|0,1:2|0:2,0:2:0:0:
181,214,162490,1,0,1:2:0:0:
0,219,162644,1,2,0:2:0:0:
88,134,162798,1,0,1:2:0:0:
92,298,162952,1,0,0:2:0:0:
98,225,163105,5,2,1:2:0:0:
98,225,163259,1,0,0:2:0:0:
257,225,163413,2,0,P|219:217|180:213,1,77.4000011810303,2|0,1:2|0:2,0:2:0:0:
98,225,163721,1,0,1:2:0:0:
257,225,163875,2,0,P|294:232|333:236,1,77.4000011810303,2|0,0:2|1:2,0:2:0:0:
416,232,164182,1,0,0:2:0:0:
423,66,164336,5,6,1:2:0:0:
483,146,164490,1,0,0:2:0:0:
382,154,164644,2,0,P|344:146|305:142,1,77.4000011810303,2|0,1:2|0:2,0:2:0:0:
213,156,164952,1,0,1:2:0:0:
47,152,165105,2,0,P|84:159|123:163,1,77.4000011810303,2|0,0:2|1:2,0:2:0:0:
213,156,165413,1,0,0:2:0:0:
175,231,165567,5,2,1:2:0:0:
156,89,165721,1,0,0:2:0:0:
175,231,165875,1,2,1:2:0:0:
302,213,166028,1,0,0:2:0:0:
326,330,166182,1,0,1:2:0:0:
452,313,166336,2,0,P|450:270|438:226,1,77.4000011810303,2|0,0:2|1:2,0:2:0:0:
423,158,166644,1,0,0:2:0:0:
307,21,166798,6,0,P|384:124|512:111,1,270,4|0,1:2|0:2,0:2:0:0:
396,252,168028,6,0,P|340:242|205:226,1,180,2|0,0:2|0:2,0:2:0:0:
0,37,168952,5,8,1:2:0:0:
0,37,169259,2,2,P|49:43|110:46,1,99.0000030212403,6|0,0:1|0:2,0:1:0:0:
179,46,169567,1,8,0:2:0:0:
159,275,169721,2,2,P|110:269|49:266,1,99.0000030212403,2|0,0:1|1:2,0:1:0:0:
108,371,170028,1,2,0:1:0:0:
127,178,170182,1,8,0:1:0:0:
108,371,170336,1,0,0:2:0:0:
296,201,170490,5,2,0:1:0:0:
296,201,170644,2,0,P|290:253|289:314,1,99.0000030212403,0|8,0:2|0:2,0:2:0:0:
462,384,170952,1,2,0:1:0:0:
462,384,171028,1,0,0:2:0:0:
462,384,171105,1,0,0:2:0:0:
381,253,171259,1,2,0:1:0:0:
512,174,171413,1,8,0:2:0:0:
471,287,171567,1,0,0:2:0:0:
296,201,171721,6,2,P|303:102|317:4,1,198.000006042481,4|8,1:2|0:2,0:1:0:0:
85,78,172182,2,2,P|138:97|176:150,1,99.0000030212403,2|0,0:1|0:2,0:1:0:0:
196,216,172490,1,2,0:1:0:0:
113,259,172644,1,8,0:2:0:0:
83,170,172798,1,0,0:2:0:0:
256,143,172952,5,2,0:1:0:0:
183,317,173105,1,0,0:2:0:0:
348,384,173259,1,8,0:2:0:0:
279,257,173413,1,2,0:1:0:0:
279,257,173490,1,0,0:2:0:0:
279,257,173567,1,0,0:2:0:0:
426,116,173721,5,14,0:2:0:0:
153,25,173875,1,12,0:2:0:0:
426,116,174028,1,0,0:3:0:0:
158,158,174182,6,2,P|218:148|264:142,1,99.0000030212403,6|0,1:1|0:2,0:1:0:0:
292,352,174490,2,0,P|232:362|186:368,1,99.0000030212403,8|0,0:2|0:2,0:2:0:0:
75,207,174798,1,2,0:1:0:0:
6,265,174952,1,0,0:2:0:0:
78,317,175105,1,8,0:2:0:0:
147,259,175259,1,0,0:2:0:0:
21,129,175413,6,2,P|125:115|224:107,1,198.000006042481,2|8,0:1|0:2,0:1:0:0:
399,98,175875,1,2,0:1:0:0:
399,98,175952,1,0,0:2:0:0:
399,98,176028,2,0,P|395:48|390:0,1,99.0000030212403,0|0,0:2|0:2,0:2:0:0:
414,274,176336,2,0,P|463:270|512:265,1,99.0000030212403,8|0,0:2|0:2,0:2:0:0:
342,170,176644,5,8,3:3:0:0:
320,185,176721,1,8,3:3:0:0:
302,206,176798,1,8,3:3:0:0:
290,230,176875,1,8,3:3:0:0:
283,256,176952,1,8,3:3:0:0:
283,284,177028,1,8,3:3:0:0:
289,310,177105,1,8,3:3:0:0:
300,335,177182,1,8,3:3:0:0:
317,357,177259,1,4,3:3:0:0:
338,340,177336,1,4,3:3:0:0:
356,319,177413,1,4,3:3:0:0:
368,295,177490,1,4,3:3:0:0:
375,269,177567,1,4,3:3:0:0:
375,241,177644,1,4,3:3:0:0:
369,215,177721,1,4,3:3:0:0:
358,190,177798,1,4,3:3:0:0:
340,170,177875,5,8,3:3:0:0:
315,208,177952,1,8,3:3:0:0:
282,241,178028,1,8,3:3:0:0:
243,266,178105,1,8,3:3:0:0:
199,282,178182,1,8,3:3:0:0:
154,289,178259,1,8,3:3:0:0:
107,286,178336,1,8,3:3:0:0:
63,274,178413,1,8,3:3:0:0:
22,253,178490,1,4,3:3:0:0:
47,214,178567,1,4,3:3:0:0:
80,181,178644,1,4,3:3:0:0:
119,156,178721,1,4,3:3:0:0:
163,140,178798,1,4,3:3:0:0:
208,133,178875,1,4,3:3:0:0:
255,136,178952,1,4,3:3:0:0:
299,148,179028,1,4,3:3:0:0:
340,169,179105,6,2,P|333:225|331:286,1,107.999996704102,6|0,0:1|0:2,0:1:0:0:
105,126,179413,2,2,P|111:69|114:9,1,107.999996704102,6|0,0:2|0:2,0:1:0:0:
113,18,179644,1,0,0:2:0:0:
113,18,179721,1,2,0:1:0:0:
7,69,179875,1,0,0:2:0:0:
216,85,180028,1,10,0:2:0:0:
7,69,180182,1,0,0:2:0:0:
149,226,180336,6,0,P|95:226|41:232,1,107.999996704102,2|0,0:1|0:2,0:2:0:0:
356,369,180644,2,0,P|302:363|248:362,1,107.999996704102,10|0,0:2|0:2,0:2:0:0:
346,198,180952,5,2,0:1:0:0:
512,248,181105,1,0,0:2:0:0:
346,198,181259,1,10,0:2:0:0:
404,42,181413,1,0,0:2:0:0:
177,11,181567,6,2,P|186:64|194:117,1,107.999996704102,6|0,1:2|0:2,0:1:0:0:
211,191,181875,1,8,0:2:0:0:
27,225,182028,1,2,0:1:0:0:
27,225,182105,1,0,0:2:0:0:
27,225,182182,1,0,0:2:0:0:
39,308,182336,5,2,0:2:0:0:
223,274,182490,1,8,0:2:0:0:
407,240,182644,1,0,0:2:0:0:
402,318,182798,5,2,0:1:0:0:
327,235,182952,1,0,0:2:0:0:
411,161,183105,1,8,0:2:0:0:
486,244,183259,1,2,0:1:0:0:
483,260,183336,1,0,0:2:0:0:
480,276,183413,1,0,0:2:0:0:
263,171,183567,5,14,0:2:0:0:
488,55,183721,2,0,P|413:26|289:41,1,188.999994232178,12|0,0:2|0:2,0:2:0:0:
228,62,184028,5,6,1:1:0:0:
92,21,184182,1,0,0:2:0:0:
8,139,184336,1,8,0:2:0:0:
187,198,184490,5,2,0:1:0:0:
212,190,184644,1,0,0:2:0:0:
187,346,184798,5,2,0:1:0:0:
210,359,184952,1,8,0:2:0:0:
184,113,185105,5,2,0:1:0:0:
207,99,185259,1,0,0:2:0:0:
219,273,185413,5,2,0:1:0:0:
244,282,185567,1,8,0:2:0:0:
146,44,185721,5,2,0:1:0:0:
160,21,185875,1,0,0:2:0:0:
453,127,186028,5,10,0:1:0:0:
59,257,186182,1,10,0:2:0:0:
76,333,186336,1,0,0:2:0:0:
256,192,186490,6,2,P|254:131|230:46,1,116.999994644165,6|0,1:1|0:2,0:1:0:0:
195,5,186798,1,2,0:2:0:0:
184,240,186952,2,2,P|186:301|210:386,1,116.999994644165,10|0,0:1|0:2,0:1:0:0:
272,384,187259,1,2,0:2:0:0:
493,354,187413,2,2,P|491:293|467:208,1,116.999994644165,10|0,0:1|0:2,0:1:0:0:
420,167,187721,5,2,0:1:0:0:
242,144,187875,1,12,0:2:0:0:
312,308,188028,1,2,0:2:0:0:
325,207,188182,1,4,0:3:0:0:
342,57,188336,5,8,0:2:0:0:
187,264,188490,1,8,0:2:0:0:
443,297,188644,2,2,L|479:315,2,33.7500012874604,10|0|0,2:2|2:2|2:2,0:1:0:0:
48,127,188952,6,2,P|39:252|35:378,1,251.999992309571,14|0,1:1|0:2,0:1:0:0:
473,312,189413,2,0,P|468:186|460:60,1,251.999992309571,14|0,0:2|0:2,0:2:0:0:
160,0,189875,6,2,B|144:223|367:160|351:383,1,453.600005537109,14|4,0:1|1:1,2:1:0:0:
256,192,196952,12,0,198105,0:2:0:0:
256,96,198182,5,2,0:2:0:0:
48,138,198336,1,8,0:2:0:0:
48,138,198413,1,8,0:2:0:0:
48,138,198490,1,8,0:2:0:0:
176,9,198644,6,2,P|160:88|157:170,1,161.999995056153,6|0,0:2|2:1,0:1:0:0:
151,176,198952,2,0,P|149:136|154:91,1,67.5000025749208,2|8,0:1|0:2,0:2:0:0:
344,53,199259,6,2,P|360:132|363:230,1,175.499991966248,6|0,0:2|2:2,0:1:0:0:
369,231,199567,2,2,P|371:191|366:146,1,67.5000025749208,2|8,0:1|0:2,0:1:0:0:
61,105,199875,6,2,P|45:180|38:294,1,188.999994232178,6|0,0:2|2:2,0:1:0:0:
31,295,200182,2,2,P|30:257|34:211,1,67.5000025749208,2|8,0:1|0:2,0:1:0:0:
457,163,200490,6,2,P|473:238|473:371,1,202.500007724762,6|0,0:2|2:2,0:1:0:0:
481,372,200798,2,2,P|487:302|480:232,1,135.000005149842,6|8,0:2|0:2,0:1:0:0:
134,226,201105,6,0,B|237:203|191:265|312:237,1,161.999995056153,6|0,1:1|2:2,0:2:0:0:
366,216,201413,1,2,0:2:0:0:
265,160,201567,1,12,0:2:0:0:
221,320,201721,1,0,0:2:0:0:
322,376,201875,1,2,0:2:0:0:
291,241,202028,1,0,0:2:0:0:
458,168,202182,5,8,0:2:0:0:
363,303,202336,1,0,0:2:0:0:
374,91,202490,5,2,0:2:0:0:
198,52,202644,2,0,P|145:41|91:34,1,107.999996704102,2|8,0:1|0:2,0:2:0:0:
30,79,202952,1,2,0:1:0:0:
45,119,203028,1,0,0:2:0:0:
45,162,203105,1,0,0:2:0:0:
5,238,203259,1,2,0:1:0:0:
67,118,203413,1,8,0:2:0:0:
52,313,203567,6,0,P|64:224|79:144,1,161.999995056153,6|0,0:2|0:2,0:2:0:0:
100,81,203875,1,2,0:2:0:0:
146,270,204028,1,8,0:2:0:0:
292,225,204182,1,0,0:2:0:0:
191,158,204336,5,2,0:2:0:0:
249,348,204490,1,0,0:2:0:0:
191,158,204644,1,8,0:2:0:0:
249,348,204798,1,0,0:2:0:0:
405,170,204952,5,2,0:2:0:0:
506,317,205105,2,0,P|460:289|407:281,1,107.999996704102,2|8,0:1|0:2,0:2:0:0:
348,229,205413,1,2,0:1:0:0:
305,235,205490,1,0,0:2:0:0:
270,217,205567,1,0,0:2:0:0:
405,170,205721,1,2,0:1:0:0:
270,217,205875,1,8,0:2:0:0:
407,281,206028,6,0,P|315:284|212:388,1,215.999993408203,6|0,0:1|0:2,0:2:0:0:
0,174,206490,2,0,P|54:194|116:184,1,107.999996704102,12|0,0:2|0:2,0:2:0:0:
295,24,206798,5,2,0:1:0:0:
460,0,206952,1,0,0:0:0:0:
494,214,207105,1,8,0:0:0:0:
442,123,207259,5,8,0:3:0:0:
403,100,207336,1,8,0:3:0:0:
358,97,207413,1,4,0:3:0:0:
317,115,207490,1,4,0:3:0:0:
288,148,207567,1,4,0:3:0:0:
276,191,207644,1,4,0:3:0:0:
284,235,207721,2,0,P|310:284|297:341,1,107.999996704102,8|0,0:0|0:0,0:0:0:0:
209,381,208028,5,10,0:1:0:0:
182,191,208182,1,8,0:0:0:0:
156,2,208336,1,8,0:0:0:0:
37,199,208490,6,0,P|32:140|26:82,1,116.999994644165,6|0,1:0|0:0,0:0:0:0:
105,74,208798,1,2,1:2:0:0:
127,331,208952,2,0,P|68:335|10:341,1,116.999994644165,12|0,0:2|0:0,0:0:0:0:
167,166,209259,5,2,0:2:0:0:
345,218,209413,1,0,0:0:0:0:
208,77,209567,1,12,0:2:0:0:
304,307,209721,1,0,0:0:0:0:
256,192,209875,1,2,0:2:0:0:
468,365,210028,6,0,P|468:306|466:248,1,116.999994644165,2|12,0:1|0:2,0:0:0:0:
421,183,210336,1,2,0:1:0:0:
409,137,210413,1,0,0:0:0:0:
419,91,210490,1,0,0:0:0:0:
511,144,210644,1,2,0:1:0:0:
313,127,210798,1,12,0:2:0:0:
381,302,210952,6,0,P|295:282|199:272,1,175.499991966248,6|0,0:1|2:0,0:1:0:0:
142,228,211259,1,2,1:2:0:0:
45,379,211413,1,12,0:2:0:0:
208,273,211567,1,0,0:0:0:0:
61,152,211721,1,2,0:2:0:0:
136,314,211875,1,0,0:0:0:0:
224,77,212028,5,12,0:2:0:0:
92,30,212182,1,0,0:0:0:0:
321,174,212336,5,2,0:2:0:0:
512,155,212490,2,0,P|458:162|389:177,1,116.999994644165,2|12,0:1|0:2,0:0:0:0:
321,174,212798,1,2,0:1:0:0:
275,181,212875,1,0,0:0:0:0:
235,167,212952,1,0,0:0:0:0:
316,36,213105,1,2,0:1:0:0:
235,167,213259,1,8,0:2:0:0:
444,279,213413,6,0,P|327:285|200:309,1,233.999989288331,6|0,0:1|0:0,0:1:0:0:
0,172,213875,2,0,P|56:166|117:153,1,116.999994644165,12|0,0:2|0:0,0:0:0:0:
331,30,214182,5,2,0:1:0:0:
181,30,214336,1,0,0:2:0:0:
331,30,214490,1,14,0:2:0:0:
181,30,214644,1,0,0:2:0:0:
387,139,214798,5,2,0:1:0:0:
125,139,214952,1,0,0:2:0:0:
387,139,215105,1,14,0:2:0:0:
125,139,215259,1,0,0:2:0:0:
435,246,215413,5,2,0:1:0:0:
77,246,215567,1,0,0:2:0:0:
435,246,215721,1,12,0:2:0:0:
271,383,215875,6,2,B|283:301|225:300|244:210,1,175.499991966248,6|0,0:1|2:1,0:1:0:0:
243,213,216182,2,0,L|162:208,1,67.5000025749208,2|8,0:1|0:2,0:2:0:0:
305,14,216490,6,2,B|291:103|355:104|334:202,1,188.999994232178,6|0,0:2|2:2,0:1:0:0:
335,196,216798,2,2,L|416:201,1,67.5000025749208,2|8,0:1|0:2,0:1:0:0:
119,363,217105,6,2,B|133:264|63:263|86:155,1,202.500007724762,6|0,0:2|2:2,0:1:0:0:
83,167,217413,2,2,L|2:162,1,67.5000025749208,2|8,0:1|0:2,0:1:0:0:
458,40,217721,6,2,B|435:151|524:141|492:276,1,216,6|0,0:2|2:2,0:1:0:0:
497,246,218028,2,2,B|432:233|429:291|350:274,1,144,6|8,0:2|0:2,0:1:0:0:
241,56,218336,6,0,P|151:29|64:49,1,175.499991966248,6|0,1:1|2:2,0:2:0:0:
0,75,218644,1,2,0:2:0:0:
157,135,218798,1,12,0:2:0:0:
0,212,218952,1,0,0:2:0:0:
158,273,219105,1,2,0:2:0:0:
0,212,219259,1,0,0:2:0:0:
157,135,219413,1,12,0:2:0:0:
0,75,219567,1,0,0:2:0:0:
256,0,219721,5,2,0:2:0:0:
298,184,219875,2,0,P|290:249|284:318,1,116.999994644165,2|12,0:1|0:2,0:2:0:0:
333,362,220182,1,2,0:1:0:0:
377,347,220259,1,0,0:2:0:0:
423,369,220336,1,0,0:2:0:0:
507,249,220490,1,2,0:1:0:0:
423,369,220644,1,12,0:2:0:0:
298,184,220798,6,0,P|219:173|88:158,1,175.499991966248,6|0,0:1|0:2,0:2:0:0:
57,119,221105,1,2,0:2:0:0:
222,94,221259,1,12,0:2:0:0:
238,290,221413,1,0,0:2:0:0:
73,315,221567,1,2,0:2:0:0:
124,162,221721,5,0,0:2:0:0:
181,368,221875,1,12,0:2:0:0:
351,331,222028,1,0,0:2:0:0:
390,98,222182,5,2,0:2:0:0:
512,228,222336,2,0,P|452:214|379:206,1,116.999994644165,2|12,0:1|0:2,0:2:0:0:
328,167,222644,1,2,0:1:0:0:
286,183,222721,1,0,0:2:0:0:
241,169,222798,1,0,0:2:0:0:
181,60,222952,1,2,0:1:0:0:
286,183,223105,1,8,0:2:0:0:
132,243,223259,6,0,P|74:250|17:263,1,116.999994644165,6|0,0:1|0:0,0:2:0:0:
31,342,223567,1,0,0:2:0:0:
307,298,223721,2,0,P|299:240|286:183,1,116.999994644165,12|0,0:2|0:2,0:2:0:0:
436,41,224028,5,2,0:1:0:0:
341,87,224182,1,0,0:2:0:0:
406,169,224336,1,14,0:2:0:0:
501,123,224490,1,0,0:2:0:0:
245,25,224644,5,2,0:1:0:0:
168,273,224798,1,0,0:2:0:0:
94,18,224952,1,14,0:2:0:0:
286,183,225105,1,0,0:2:0:0:
13,150,225259,5,2,0:1:0:0:
121,383,225413,1,0,0:2:0:0:
356,287,225567,1,12,0:2:0:0:
195,107,225721,5,0,0:1:0:0:
162,140,225798,1,0,0:2:0:0:
160,186,225875,1,12,1:2:0:0:
473,112,226028,1,8,1:1:0:0:
164,13,226336,5,8,0:2:0:0:
501,267,226490,1,8,0:2:0:0:
158,195,228336,5,6,0:1:0:0:
333,131,228490,1,0,0:2:0:0:
228,285,228644,1,8,0:2:0:0:
223,99,228798,1,0,0:2:0:0:
336,247,228952,2,0,P|340:285|343:355,1,90,2|0,0:2|0:2,0:2:0:0:
278,384,229259,5,8,0:2:0:0:
152,322,229413,1,2,0:1:0:0:
152,322,229490,1,0,0:2:0:0:
152,322,229567,1,0,0:2:0:0:
59,307,229721,5,2,0:1:0:0:
220,251,229875,1,8,0:2:0:0:
298,223,230028,5,2,0:1:0:0:
118,147,230182,1,0,0:2:0:0:
34,154,230336,5,2,0:1:0:0:
225,34,230490,1,8,0:2:0:0:
46,18,230644,5,2,0:1:0:0:
46,18,230721,1,0,0:2:0:0:
46,18,230798,2,0,P|90:15|135:6,1,90,6|0,0:2|0:2,0:2:0:0:
162,274,231105,2,0,P|118:277|73:286,1,90,8|0,0:2|0:2,0:2:0:0:
0,311,231413,5,2,0:2:0:0:
105,200,231567,1,0,0:2:0:0:
239,273,231721,1,8,0:2:0:0:
134,384,231875,1,2,0:1:0:0:
131,368,231952,1,0,0:2:0:0:
127,352,232028,1,0,0:2:0:0:
244,183,232182,6,0,P|239:241|239:295,1,90,2|8,0:1|0:2,0:2:0:0:
492,384,232490,2,0,P|497:326|497:272,1,90,2|0,0:1|0:2,0:2:0:0:
427,127,232798,5,14,0:2:0:0:
86,231,232952,1,8,0:2:0:0:
261,170,233105,5,2,0:1:0:0:
272,135,233182,1,0,0:2:0:0:
265,99,233259,1,6,0:2:0:0:
148,0,233413,1,0,0:2:0:0:
186,138,233567,1,8,0:2:0:0:
353,98,233721,1,0,0:2:0:0:
186,138,233875,2,0,P|142:130|91:126,1,90,2|0,0:2|0:2,0:2:0:0:
30,77,234182,5,8,0:2:0:0:
54,260,234336,1,2,0:1:0:0:
54,260,234413,1,0,0:2:0:0:
54,260,234490,1,0,0:2:0:0:
174,227,234644,1,2,0:1:0:0:
150,44,234798,1,8,0:2:0:0:
359,60,234952,6,0,P|314:50|266:45,1,90,2|0,0:1|0:2,0:2:0:0:
483,224,235259,1,2,0:1:0:0:
483,224,235336,1,0,0:2:0:0:
483,224,235413,2,0,P|493:179|498:131,1,90,8|0,0:2|0:2,0:2:0:0:
374,310,235721,5,8,3:3:0:0:
368,279,235798,1,8,3:3:0:0:
347,254,235875,1,8,3:3:0:0:
317,243,235952,1,8,3:3:0:0:
285,245,236028,1,8,3:3:0:0:
259,263,236105,1,8,3:3:0:0:
248,292,236182,1,8,3:3:0:0:
250,324,236259,1,8,3:3:0:0:
235,352,236336,1,4,3:3:0:0:
207,367,236413,1,4,3:3:0:0:
175,367,236490,1,4,3:3:0:0:
146,352,236567,1,4,3:3:0:0:
132,323,236644,1,4,3:3:0:0:
135,291,236721,1,4,3:3:0:0:
153,266,236798,1,4,3:3:0:0:
182,255,236875,1,4,3:3:0:0:
212,261,236952,5,8,3:3:0:0:
175,277,237028,1,8,3:3:0:0:
134,277,237105,1,8,3:3:0:0:
106,247,237182,1,8,3:3:0:0:
100,206,237259,1,8,3:3:0:0:
119,170,237336,1,8,3:3:0:0:
157,155,237413,1,8,3:3:0:0:
196,162,237490,1,8,3:3:0:0:
225,189,237567,1,4,3:3:0:0:
265,190,237644,1,4,3:3:0:0:
301,172,237721,1,4,3:3:0:0:
320,136,237798,1,4,3:3:0:0:
323,95,237875,1,4,3:3:0:0:
295,64,237952,1,4,3:3:0:0:
256,51,238028,1,4,3:3:0:0:
217,64,238105,1,4,3:3:0:0:
192,97,238182,6,0,P|194:142|201:195,1,90,6|0,1:1|0:2,0:2:0:0:
508,113,238490,2,0,P|463:114|418:120,1,90,12|0,0:2|0:2,0:2:0:0:
299,273,238798,5,2,0:2:0:0:
434,317,238952,1,0,0:2:0:0:
389,214,239105,1,8,0:2:0:0:
351,375,239259,1,2,0:1:0:0:
351,375,239336,1,0,0:2:0:0:
351,375,239413,1,0,0:2:0:0:
212,232,239567,5,2,0:1:0:0:
174,379,239721,1,8,0:2:0:0:
225,196,239875,5,2,0:1:0:0:
64,157,240028,1,0,0:2:0:0:
241,161,240182,5,2,0:1:0:0:
285,0,240336,1,8,0:2:0:0:
495,26,240490,5,0,0:2:0:0:
468,21,240567,1,0,0:2:0:0:
441,16,240644,2,0,P|435:62|431:108,1,90,6|0,0:2|0:2,0:2:0:0:
406,369,240952,2,0,P|412:323|416:277,1,90,12|0,0:2|0:2,0:2:0:0:
384,192,241259,5,2,0:2:0:0:
256,270,241413,1,0,0:2:0:0:
128,192,241567,1,8,0:2:0:0:
256,114,241721,1,2,0:1:0:0:
256,141,241798,1,0,0:2:0:0:
256,168,241875,1,0,0:2:0:0:
44,57,242028,6,0,P|91:64|161:70,1,90,2|8,0:1|0:2,0:2:0:0:
108,338,242336,2,0,P|63:331|18:326,1,90,2|0,0:1|0:2,0:2:0:0:
224,91,242644,5,14,0:2:0:0:
320,378,242798,1,8,0:2:0:0:
487,217,242952,5,2,0:1:0:0:
454,200,243028,1,0,0:2:0:0:
418,202,243105,1,6,0:2:0:0:
442,298,243259,1,0,0:2:0:0:
472,112,243413,1,8,0:2:0:0:
442,298,243567,1,0,0:2:0:0:
472,112,243721,2,0,P|428:104|377:100,1,90,2|0,0:2|0:2,0:2:0:0:
315,49,244028,5,8,0:2:0:0:
183,259,244182,1,2,0:1:0:0:
183,259,244259,1,0,0:2:0:0:
183,259,244336,1,0,0:2:0:0:
299,304,244490,5,2,0:1:0:0:
185,42,244644,1,8,0:2:0:0:
0,203,244798,6,0,P|44:198|89:191,1,90,2|0,0:1|0:2,0:2:0:0:
337,161,245105,1,2,0:1:0:0:
337,161,245182,1,0,0:2:0:0:
337,161,245259,2,0,P|333:116|326:71,1,90,8|0,0:2|0:2,0:2:0:0:
286,2,245567,5,6,0:2:0:0:
254,216,245721,1,0,0:2:0:0:
89,190,245875,1,8,0:2:0:0:
326,71,246028,5,0,0:2:0:0:
352,66,246105,1,0,0:2:0:0:
378,63,246182,1,2,0:2:0:0:
437,275,246336,1,0,0:2:0:0:
271,362,246490,5,8,0:2:0:0:
330,173,246644,1,0,0:2:0:0:
191,44,246798,5,6,0:2:0:0:
254,255,246952,1,0,0:2:0:0:
47,303,247105,1,0,0:2:0:0:
128,169,247259,5,14,0:2:0:0:
176,384,247413,1,0,0:2:0:0:
397,97,247567,5,10,0:2:0:0:
347,339,247721,1,0,0:2:0:0:
189,57,247875,6,2,B|255:75|255:75|309:29,1,135,6|0,1:1|2:2,2:1:0:0:
