osu file format v14

[General]
AudioFilename: audio.mp3
AudioLeadIn: 0
PreviewTime: 70605
Countdown: 0
SampleSet: Soft
StackLeniency: 0.7
Mode: 0
LetterboxInBreaks: 0
WidescreenStoryboard: 1

[Editor]
Bookmarks: 1721,6644,11568,21568,29028,31413,41105,49875,50952,60798,65875,70644,80490,88644,90490,100182,110028,119875,124952,129721,139567,147105,149567,159413,169259,174182,179105,180028,189875,191259,198182,201105,208490,208952,218336,226490,228336,233259,238182,243105,247875
DistanceSpacing: 1
BeatDivisor: 4
GridSize: 32
TimelineZoom: 2.3

[Metadata]
Title:Despair Refrain
TitleUnicode:Despair Refrain
Artist:ES-TRUS
ArtistUnicode:ES-TRUS
Creator:Lasse
Version:Normal
Source:
Tags:japanese rock true or false kyoka Aito 風児 Fuji REO ゆうき Yuki
BeatmapID:4557454
BeatmapSetID:2076527

[Difficulty]
HPDrainRate:2.6
CircleSize:3.4
OverallDifficulty:4.6
ApproachRate:6
SliderMultiplier:1
SliderTickRate:1

[Events]
//Background and Video events
0,0,"5zn565.jpg",0,0
//Break Periods
2,191459,197132
//Storyboard Layer 0 (Background)
//Storyboard Layer 1 (Fail)
//Storyboard Layer 2 (Pass)
//Storyboard Layer 3 (Foreground)
//Storyboard Layer 4 (Overlay)
//Storyboard Sound Samples

[TimingPoints]
-3048,307.692307692308,4,2,1,40,1,0
1721,-125,4,2,1,40,0,0
6644,-125,4,2,1,40,0,0
11105,-125,4,2,1,45,0,0
11567,-111.111111111111,4,2,1,50,0,0
17721,-111.111111111111,4,2,1,55,0,0
18490,-111.111111111111,4,2,1,50,0,0
19105,-111.111111111111,4,2,1,45,0,0
19413,-111.111111111111,4,2,1,45,0,0
19721,-111.111111111111,4,2,1,45,0,0
20028,-111.111111111111,4,2,1,45,0,0
20336,-111.111111111111,4,2,1,60,0,0
21567,-100,4,1,1,65,0,0
26182,-100,4,1,1,65,0,0
26413,-100,4,2,1,30,0,0
26490,-100,4,1,1,65,0,0
28952,-100,4,1,1,60,0,0
30182,-100,4,1,1,65,0,0
36028,-100,4,1,1,65,0,0
36259,-100,4,2,1,30,0,0
36336,-100,4,1,1,65,0,0
40028,-100,4,1,1,65,0,0
41105,-111.111111111111,4,2,1,40,0,0
41259,-111.111111111111,4,2,1,45,0,0
50336,-111.111111111111,4,2,1,50,0,0
50952,-100,4,2,1,55,0,0
59721,-100,4,2,1,60,0,0
60182,-100,4,2,1,55,0,0
60798,-111.111111111111,4,2,1,55,0,0
65875,-100,4,2,1,55,0,0
66490,-100,4,2,1,55,0,0
67105,-100,4,2,1,60,0,0
68336,-100,4,2,1,64,0,0
68798,-100,4,2,1,68,0,0
69028,-100,4,2,1,30,0,0
69875,-100,4,2,1,40,0,0
70028,-100,4,2,1,50,0,0
70182,-100,4,2,1,60,0,0
70336,-100,4,2,1,70,0,0
70490,-100,4,2,1,80,0,0
70567,-100,4,2,1,5,0,0
70644,-90.9090909090909,4,1,1,70,0,1
70875,-90.9090909090909,4,2,1,30,0,1
70952,-90.9090909090909,4,1,1,70,0,1
73336,-90.9090909090909,4,2,1,30,0,1
73413,-90.9090909090909,4,1,1,70,0,1
78028,-90.9090909090909,4,1,1,70,0,1
78259,-90.9090909090909,4,2,1,30,0,1
78336,-90.9090909090909,4,1,1,70,0,0
78644,-90.9090909090909,4,1,1,70,0,1
78875,-90.9090909090909,4,2,1,30,0,1
78952,-90.9090909090909,4,1,1,70,0,0
79259,-90.9090909090909,4,1,1,70,0,1
79490,-90.9090909090909,4,2,1,30,0,1
79567,-90.9090909090909,4,1,1,70,0,0
79875,-90.9090909090909,4,1,1,70,0,1
80105,-90.9090909090909,4,2,1,30,0,1
80182,-90.9090909090909,4,1,1,70,0,0
80413,-90.9090909090909,4,1,1,70,0,0
80490,-90.9090909090909,4,1,1,70,0,1
80721,-90.9090909090909,4,2,1,30,0,1
80798,-90.9090909090909,4,1,1,70,0,1
83182,-90.9090909090909,4,2,1,30,0,1
83259,-90.9090909090909,4,1,1,70,0,1
88644,-100,4,1,1,65,0,0
95105,-100,4,1,1,65,0,0
95336,-100,4,2,1,30,0,0
95413,-100,4,1,1,65,0,0
100182,-105.263157894737,4,1,1,60,0,0
100644,-105.263157894737,4,2,1,60,0,0
100952,-105.263157894737,4,2,1,50,0,0
108952,-105.263157894737,4,2,1,55,0,0
110028,-100,4,2,1,60,0,0
117644,-100,4,2,1,30,0,0
117721,-100,4,2,1,60,0,0
119259,-100,4,2,1,58,0,0
119413,-100,4,2,1,56,0,0
119567,-100,4,2,1,54,0,0
119721,-100,4,2,1,52,0,0
119875,-111.111111111111,4,2,1,55,0,0
123721,-111.111111111111,4,2,1,60,0,0
124875,-111.111111111111,4,2,1,25,0,0
124952,-100,4,2,1,55,0,0
126182,-100,4,2,1,60,0,0
127413,-100,4,2,1,62,0,0
127875,-100,4,2,1,65,0,0
128336,-100,4,2,1,68,0,0
128644,-100,4,2,1,50,0,0
128798,-100,4,2,1,55,0,0
128952,-100,4,2,1,60,0,0
129105,-100,4,2,1,65,0,0
129259,-100,4,2,1,70,0,0
129413,-100,4,2,1,75,0,0
129567,-100,4,2,1,80,0,0
129644,-100,4,2,1,5,0,0
129721,-90.9090909090909,4,1,1,70,0,1
129952,-90.9090909090909,4,2,1,30,0,1
130028,-90.9090909090909,4,1,1,70,0,1
132413,-90.9090909090909,4,2,1,30,0,1
132490,-90.9090909090909,4,1,1,70,0,1
137105,-90.9090909090909,4,1,1,70,0,1
137336,-90.9090909090909,4,2,1,30,0,1
137413,-90.9090909090909,4,1,1,70,0,0
137721,-90.9090909090909,4,1,1,70,0,1
137952,-90.9090909090909,4,2,1,30,0,1
138028,-90.9090909090909,4,1,1,70,0,0
138336,-90.9090909090909,4,1,1,70,0,1
138567,-90.9090909090909,4,2,1,30,0,1
138644,-90.9090909090909,4,1,1,70,0,0
138952,-90.9090909090909,4,1,1,70,0,1
139182,-90.9090909090909,4,2,1,30,0,1
139259,-90.9090909090909,4,1,1,70,0,0
139490,-90.9090909090909,4,1,1,70,0,0
139567,-90.9090909090909,4,1,1,70,0,1
139798,-90.9090909090909,4,2,1,30,0,1
139875,-90.9090909090909,4,1,1,70,0,1
142259,-90.9090909090909,4,2,1,30,0,1
142336,-90.9090909090909,4,1,1,70,0,1
145182,-90.9090909090909,4,2,1,30,0,1
145259,-90.9090909090909,4,1,1,70,0,1
147105,-100,4,2,1,70,0,0
147182,-100,4,2,1,50,0,0
147413,-100,4,2,1,45,0,0
147721,-100,4,2,1,40,0,0
148028,-100,4,2,1,35,0,0
148336,-100,4,2,1,30,0,0
148644,-100,4,2,1,5,0,0
148798,-100,4,2,1,45,0,0
149567,-117.647058823529,4,2,1,50,0,0
159413,-111.111111111111,4,2,1,55,0,0
166798,-111.111111111111,4,2,1,50,0,0
167105,-111.111111111111,4,2,1,30,0,0
167721,-111.111111111111,4,2,1,35,0,0
168028,-111.111111111111,4,2,1,40,0,0
168336,-111.111111111111,4,2,1,25,0,0
168644,-111.111111111111,4,2,1,30,0,0
168952,-111.111111111111,4,2,1,60,0,0
169259,-100,4,1,1,65,0,0
173875,-100,4,1,1,65,0,0
174105,-100,4,2,1,30,0,0
174182,-100,4,1,1,65,0,0
176644,-100,4,1,1,60,0,0
177875,-100,4,1,1,65,0,0
179105,-90.9090909090909,4,1,1,70,0,0
179336,-90.9090909090909,4,2,1,30,0,0
179413,-90.9090909090909,4,1,1,70,0,0
183721,-90.9090909090909,4,1,1,70,0,0
183952,-90.9090909090909,4,2,1,30,0,0
184028,-90.9090909090909,4,1,1,70,0,0
186490,-90.9090909090909,4,1,1,70,0,0
188644,-90.9090909090909,4,2,1,70,0,0
188721,-90.9090909090909,4,2,1,60,0,0
188952,-90.9090909090909,4,1,1,70,0,0
189875,-90.9090909090909,4,2,1,70,0,0
189894,-90.9090909090909,4,2,2,50,0,0
190163,-90.9090909090909,4,2,1,40,0,0
190182,-90.9090909090909,4,2,1,5,0,0
190202,-90.9090909090909,4,2,1,40,0,0
190471,-90.9090909090909,4,2,2,30,0,0
190490,-90.9090909090909,4,2,2,5,0,0
190509,-90.9090909090909,4,2,2,30,0,0
190778,-90.9090909090909,4,2,1,20,0,0
190798,-90.9090909090909,4,2,1,5,0,0
190817,-90.9090909090909,4,2,1,20,0,0
191086,-90.9090909090909,4,2,2,10,0,0
191105,-90.9090909090909,4,2,2,5,0,0
191125,-90.9090909090909,4,2,2,10,0,0
191259,-100,4,2,1,70,0,0
196952,-100,4,2,1,25,0,0
197105,-100,4,2,1,30,0,0
197259,-100,4,2,1,35,0,0
197413,-100,4,2,1,40,0,0
197566,-100,4,2,1,50,0,0
197720,-100,4,2,1,60,0,0
197874,-100,4,2,1,70,0,0
198028,-100,4,2,1,80,0,0
198105,-100,4,2,1,5,0,0
198182,-100,4,1,1,60,0,0
198644,-90.9090909090909,4,1,1,70,0,1
198875,-90.9090909090909,4,2,1,30,0,1
198952,-90.9090909090909,4,1,1,70,0,0
199259,-90.9090909090909,4,1,1,70,0,1
199490,-90.9090909090909,4,2,1,30,0,1
199567,-90.9090909090909,4,1,1,70,0,0
199875,-90.9090909090909,4,1,1,70,0,1
200105,-90.9090909090909,4,2,1,30,0,1
200182,-90.9090909090909,4,1,1,70,0,0
200490,-90.9090909090909,4,1,1,70,0,1
200721,-90.9090909090909,4,2,1,30,0,1
200798,-90.9090909090909,4,1,1,70,0,0
201028,-90.9090909090909,4,1,1,70,0,0
201105,-90.9090909090909,4,1,1,70,0,1
201336,-90.9090909090909,4,2,1,30,0,1
201413,-90.9090909090909,4,1,1,70,0,1
203798,-90.9090909090909,4,2,1,30,0,1
203875,-90.9090909090909,4,1,1,70,0,1
208490,-86.9565217391304,4,1,1,70,0,1
211182,-86.9565217391304,4,2,1,30,0,1
211259,-86.9565217391304,4,1,1,70,0,1
215875,-86.9565217391304,4,1,1,70,0,1
216105,-86.9565217391304,4,2,1,30,0,1
216182,-86.9565217391304,4,1,1,70,0,0
216490,-86.9565217391304,4,1,1,70,0,1
216721,-86.9565217391304,4,2,1,30,0,1
216798,-86.9565217391304,4,1,1,70,0,0
217105,-86.9565217391304,4,1,1,70,0,1
217336,-86.9565217391304,4,2,1,30,0,1
217413,-86.9565217391304,4,1,1,70,0,0
217721,-86.9565217391304,4,1,1,70,0,1
217952,-86.9565217391304,4,2,1,30,0,1
218028,-86.9565217391304,4,1,1,70,0,0
218336,-86.9565217391304,4,1,1,70,0,1
218567,-86.9565217391304,4,2,1,30,0,1
218644,-86.9565217391304,4,1,1,70,0,1
221028,-86.9565217391304,4,2,1,30,0,1
221105,-86.9565217391304,4,1,1,70,0,1
226490,-100,4,1,1,65,0,0
232952,-100,4,1,1,65,0,0
233182,-100,4,2,1,30,0,0
233259,-100,4,1,1,65,0,0
235721,-100,4,1,1,60,0,0
236952,-100,4,1,1,65,0,0
242798,-100,4,1,1,65,0,0
243028,-100,4,2,1,30,0,0
243105,-100,4,1,1,65,0,0
246952,-100,4,1,1,65,0,0
247259,-100,4,1,1,65,0,0
247567,-100,4,1,1,65,0,0
247875,-125,4,2,1,65,0,0
248028,-125,4,2,2,50,0,0
248182,-117.647058823529,4,2,1,30,0,0

[Colours]
Combo1 : 240,140,140
Combo2 : 200,180,220
Combo3 : 240,200,155
Combo4 : 150,185,220

[HitObjects]
81,25,1721,6,0,P|57:65|69:151,1,120,2|2,0:2|0:2,0:2:0:0:
140,149,2490,2,0,P|164:109|152:23,1,120,2|2,3:2|0:2,0:0:0:0:
354,125,3875,6,0,L|406:135,1,40,2|2,0:2|0:2,0:0:0:0:
431,122,4182,2,0,P|407:162|419:248,1,120,2|2,0:2|0:2,0:2:0:0:
490,244,4952,2,0,P|514:204|502:118,1,120,2|2,3:2|0:2,0:0:0:0:
291,149,6336,6,0,L|239:159,1,40,2|2,0:2|0:2,0:0:0:0:
214,146,6644,2,0,P|238:186|226:272,1,120,2|2,0:2|0:2,0:2:0:0:
155,268,7413,2,0,P|131:228|143:142,1,120,2|2,3:2|0:2,0:0:0:0:
293,246,8798,6,0,L|345:256,1,40,2|2,0:2|0:2,0:0:0:0:
354,287,9105,2,0,P|394:317|467:293,1,120,2|0,3:2|3:2,2:2:0:0:
490,228,9875,2,0,L|474:67,2,160,2|2|2,3:2|1:2|1:2,0:0:0:0:
413,339,11567,6,0,P|360:349|273:310,1,134.999995880127,4|0,1:2|1:2,0:2:0:0:
236,245,12336,2,0,L|250:143,1,89.9999972534181,12|0,0:2|0:0,0:0:0:0:
215,71,12952,1,0,1:2:0:0:
125,59,13259,1,0,1:2:0:0:
61,123,13567,2,0,L|47:225,1,89.9999972534181,8|4,0:2|0:3,0:0:0:0:
55,256,14028,6,0,P|138:248|191:280,1,134.999995880127,6|0,1:2|1:2,0:2:0:0:
237,342,14798,2,0,P|270:352|334:340,1,89.9999972534181,8|0,0:2|1:2,0:2:0:0:
402,300,15413,1,0,1:2:0:0:
355,222,15721,1,0,1:2:0:0:
432,177,16028,2,0,P|461:184|491:185,2,44.999998626709,8|2|10,0:2|0:2|0:2,0:0:0:0:
406,139,16490,6,0,B|329:110|345:168|264:135,1,134.999995880127,4|0,1:2|1:2,0:2:0:0:
187,118,17259,2,0,P|197:159|198:223,1,89.9999972534181,8|0,0:2|0:2,0:0:0:0:
197,251,17721,1,8,0:3:0:0:
197,251,17875,2,0,P|152:248|105:263,1,89.9999972534181,4|12,0:3|0:2,0:0:0:0:
119,350,18490,2,0,P|164:353|211:338,2,89.9999972534181,4|0|2,3:3|3:2|0:2,0:0:0:0:
0,192,20490,5,8,1:2:0:0:
0,192,20644,1,8,1:2:0:0:
89,224,20952,5,8,1:3:0:0:
89,224,21105,1,8,1:3:0:0:
216,145,21567,6,0,L|210:32,2,100,6|8|2,0:1|0:2|0:2,0:0:0:0:
280,228,22490,1,8,0:2:0:0:
280,228,22644,2,0,P|332:231|373:195,1,100,2|2,0:1|0:1,0:0:0:0:
440,133,23259,1,2,0:1:0:0:
505,208,23567,1,2,0:1:0:0:
441,285,23875,1,2,0:1:0:0:
441,285,24028,6,0,P|389:282|348:318,1,100,6|8,0:2|0:2,0:2:0:0:
268,364,24644,2,0,P|219:367|179:339,1,100,2|8,0:2|0:2,0:0:0:0:
141,306,25105,1,2,0:1:0:0:
198,223,25413,1,2,0:1:0:0:
293,252,25721,1,2,0:1:0:0:
371,190,26028,2,0,L|428:195,2,50,14|8|0,0:2|0:2|0:0,0:0:0:0:
347,145,26490,6,0,B|300:154|300:154|250:130,1,100,6|8,0:2|0:2,0:0:0:0:
175,68,27105,1,2,0:2:0:0:
88,115,27413,1,8,0:2:0:0:
88,115,27567,2,0,L|92:217,1,100,2|2,0:1|0:1,0:0:0:0:
47,304,28182,1,2,0:1:0:0:
122,369,28490,1,2,0:1:0:0:
210,322,28798,1,0,0:1:0:0:
210,322,28952,6,0,B|258:338|258:338|310:315,1,100,8|8,3:3|3:3,0:0:0:0:
379,253,29567,2,0,L|362:138,1,100,4|4,3:3|3:3,0:0:0:0:
378,106,30028,1,4,3:3:0:0:
469,146,30336,1,8,3:3:0:0:
484,244,30644,1,8,3:3:0:0:
445,336,30952,2,0,P|400:359|347:353,1,100,4|4,3:3|3:3,0:0:0:0:
311,325,31413,6,0,L|323:213,2,100,6|8|2,1:1|0:2|0:2,0:2:0:0:
226,376,32336,1,8,0:2:0:0:
226,376,32490,2,0,L|214:264,1,100,2|2,0:1|0:1,0:0:0:0:
169,187,33105,1,2,0:1:0:0:
88,246,33413,1,2,0:1:0:0:
27,173,33721,1,2,0:1:0:0:
27,173,33875,6,0,P|28:123|58:68,1,100,6|8,0:2|0:2,0:2:0:0:
140,38,34490,2,0,P|175:54|249:41,1,100,2|8,0:2|0:2,0:0:0:0:
279,24,34952,1,2,0:1:0:0:
361,80,35259,1,2,0:1:0:0:
299,158,35567,1,2,0:1:0:0:
369,229,35875,2,0,L|427:220,2,50,14|8|0,0:2|0:2|0:0,0:0:0:0:
336,267,36336,6,0,P|288:274|239:252,1,100,6|8,0:2|0:2,0:0:0:0:
176,178,36952,1,2,0:2:0:0:
224,92,37259,1,8,0:2:0:0:
224,92,37413,2,0,P|272:85|320:106,1,100,2|2,0:1|0:1,0:0:0:0:
391,173,38028,1,2,0:1:0:0:
356,267,38336,1,2,0:1:0:0:
403,361,38644,1,0,0:2:0:0:
403,361,38798,6,0,B|366:353|366:353|344:360|344:360|290:349,1,100,6|8,0:2|0:2,0:0:0:0:
208,376,39413,2,0,L|197:266,1,100,2|8,0:2|0:2,0:0:0:0:
250,192,40028,1,6,0:2:0:0:
250,192,40182,1,0,0:2:0:0:
338,237,40490,1,14,0:2:0:0:
414,172,40798,1,10,0:2:0:0:
326,127,41105,6,2,B|261:147|261:147|188:110,1,134.999995880127,6|0,1:1|1:2,0:1:0:0:
115,89,41875,2,0,L|126:188,1,89.9999972534181,2|0,1:2|1:2,0:0:0:0:
114,267,42490,2,0,L|209:256,1,89.9999972534181,0|0,1:2|1:2,0:0:0:0:
270,317,43105,2,0,L|278:369,2,44.999998626709,0|2|2,1:2|0:2|1:2,0:0:0:0:
303,286,43567,6,0,B|303:229|346:233|340:158,1,134.999995880127,2|0,1:2|1:2,0:2:0:0:
298,79,44336,1,2,1:2:0:0:
371,26,44644,2,0,P|412:20|457:45,1,89.9999972534181,0|2,1:2|1:2,0:0:0:0:
480,127,45259,1,0,1:2:0:0:
426,199,45567,2,0,L|437:254,2,44.999998626709,0|2|0,1:2|0:2|1:2,0:0:0:0:
393,167,46028,6,0,B|331:158|333:222|271:212,1,134.999995880127,2|0,1:2|1:2,0:2:0:0:
191,171,46798,1,2,1:2:0:0:
102,214,47105,2,0,P|87:256|89:308,2,89.9999972534181,0|2|0,1:2|1:2|1:2,0:0:0:0:
163,148,48028,2,0,L|155:89,2,44.999998626709,0|2|2,1:2|0:2|1:2,0:0:0:0:
195,179,48490,6,0,P|260:206|323:176,1,134.999995880127,2|0,1:2|1:2,0:2:0:0:
387,127,49259,2,0,L|482:113,1,89.9999972534181,2|0,1:2|1:2,0:2:0:0:
510,197,49875,2,0,L|415:211,1,89.9999972534181,0|0,1:2|1:2,0:2:0:0:
404,254,50336,1,8,1:2:0:0:
404,254,50490,2,0,L|309:268,1,89.9999972534181,8|8,1:2|1:2,0:0:0:0:
286,308,50952,6,0,B|243:332|243:332|182:304,1,100,6|0,1:2|1:2,0:2:0:0:
148,297,51413,1,8,0:2:0:0:
65,353,51721,2,0,L|57:250,1,100,2|8,1:2|0:2,0:2:0:0:
20,160,52336,1,0,1:2:0:0:
108,113,52644,1,8,0:2:0:0:
145,206,52952,2,0,L|150:259,2,50,0|2|10,1:2|0:2|0:2,0:0:0:0:
185,176,53413,6,0,L|196:62,1,100,2|0,1:2|1:2,0:2:0:0:
231,41,53875,2,0,B|285:41|278:68|336:63,1,100,8|2,0:2|1:2,0:2:0:0:
422,34,54490,1,8,0:2:0:0:
500,96,54798,1,0,1:2:0:0:
458,186,55105,1,8,0:2:0:0:
358,175,55413,2,0,L|353:231,2,50,0|2|8,1:2|0:2|2:2,0:0:0:0:
335,128,55875,6,0,P|288:116|241:132,1,100,2|0,1:2|1:2,0:2:0:0:
204,166,56336,1,8,0:2:0:0:
105,147,56644,2,0,L|88:48,2,100,2|8|0,0:2|0:2|1:2,0:2:0:0:
47,229,57567,1,8,0:2:0:0:
106,309,57875,2,0,L|99:371,2,50,0|2|10,1:2|0:2|0:2,0:0:0:0:
140,273,58336,6,0,B|192:268|180:302|231:305,1,100,6|0,1:2|1:2,0:2:0:0:
281,299,58798,1,8,0:2:0:0:
347,224,59105,2,0,L|334:165,1,50,2|8,1:2|0:2,0:0:0:0:
294,146,59413,2,0,L|281:87,1,50,8|2,0:2|1:2,0:0:0:0:
306,54,59721,5,14,1:2:0:0:
306,54,59875,2,0,B|346:34|346:34|402:54,1,100,0|0,1:2|1:2,0:0:0:0:
435,85,60336,2,0,L|420:188,1,100,8|4,0:2|0:3,0:0:0:0:
444,222,60798,6,2,P|417:215|350:299,1,134.999995880127,6|0,1:1|1:2,0:1:0:0:
329,369,61567,2,2,L|235:350,1,89.9999972534181,12|0,0:2|0:2,0:1:0:0:
210,318,62028,2,2,B|168:311|135:342|135:342|115:333|81:333,1,134.999995880127,2|2,1:1|1:2,0:1:0:0:
21,267,62798,2,0,L|43:163,1,89.9999972534181,10|0,0:1|0:2,0:0:0:0:
79,157,63259,6,2,B|133:169|171:145|171:145|184:160|200:171,1,134.999995880127,6|2,1:2|1:2,0:1:0:0:
290,160,64028,2,0,L|308:71,1,89.9999972534181,10|0,0:1|0:2,0:0:0:0:
338,38,64490,2,2,P|383:36|423:55,1,89.9999972534181,2|0,1:1|3:2,0:1:0:0:
454,88,64952,1,2,1:2:0:0:
413,168,65259,1,8,0:2:0:0:
457,246,65567,1,8,1:2:0:0:
411,335,65875,6,0,B|362:345|362:345|312:314,1,100,6|0,1:2|1:2,0:0:0:0:
275,337,66336,1,0,0:2:0:0:
275,337,66490,2,0,L|267:232,1,100,0|0,1:2|1:2,0:0:0:0:
187,176,67105,2,0,L|179:76,1,100,2|0,1:2|1:2,0:0:0:0:
148,43,67567,1,0,0:2:0:0:
148,43,67721,2,0,B|99:33|99:33|49:64,1,100,0|0,1:2|1:2,0:0:0:0:
5,146,68336,5,8,1:2:0:0:
5,146,68490,1,8,1:2:0:0:
101,188,68798,5,8,1:2:0:0:
101,188,68952,1,8,1:2:0:0:
256,63,70644,6,0,B|217:57|189:84|189:84|143:71,1,110.000003356934,6|2,1:0|0:2,0:0:0:0:
100,60,71105,1,8,0:0:0:0:
35,149,71413,2,0,L|51:272,1,110.000003356934,2|8,0:2|0:0,0:0:0:0:
102,360,72028,1,2,0:2:0:0:
102,360,72182,1,2,0:1:0:0:
207,328,72490,1,2,0:1:0:0:
308,370,72798,1,2,0:1:0:0:
407,324,73105,6,0,L|421:214,1,110.000003356934,6|2,0:2|0:2,0:1:0:0:
437,161,73567,1,8,0:0:0:0:
351,91,73875,1,2,0:2:0:0:
255,144,74182,1,8,0:0:0:0:
274,256,74490,1,2,0:2:0:0:
274,256,74644,2,0,L|288:365,2,110.000003356934,2|2|2,0:1|0:1|0:1,0:0:0:0:
174,208,75567,6,0,P|132:227|59:195,1,110.000003356934,6|0,0:1|0:0,0:1:0:0:
24,184,76028,1,12,0:2:0:0:
66,82,76336,2,0,P|108:63|181:95,1,110.000003356934,2|10,0:1|0:2,0:0:0:0:
215,116,76798,1,0,0:2:0:0:
215,116,76952,2,0,P|265:133|316:114,1,110.000003356934,2|10,0:1|0:2,0:0:0:0:
421,80,77567,2,0,L|426:21,2,55.0000016784668,2|0|8,0:1|0:2|0:2,0:0:0:0:
458,120,78028,6,2,B|474:174|474:174|454:229,1,110.000003356934,6|2,0:1|0:1,0:1:0:0:
397,318,78644,2,2,B|350:349|350:349|292:347,1,110.000003356934,6|2,0:2|0:1,0:1:0:0:
189,321,79259,2,2,B|144:286|144:286|128:230,1,110.000003356934,6|2,0:2|0:1,0:1:0:0:
127,124,79875,1,6,0:2:0:0:
213,56,80182,1,6,0:2:0:0:
310,107,80490,6,0,L|430:125,1,110.000003356934,6|2,1:1|0:2,0:2:0:0:
472,111,80952,2,0,P|482:163|462:223,1,110.000003356934,12|2,0:2|0:2,0:0:0:0:
400,304,81567,1,8,0:2:0:0:
309,250,81875,1,2,0:2:0:0:
309,250,82028,1,2,0:1:0:0:
255,346,82336,1,2,0:1:0:0:
162,286,82644,1,2,0:1:0:0:
76,354,82952,6,0,L|56:245,1,110.000003356934,6|2,0:2|0:2,0:2:0:0:
22,201,83413,1,8,0:2:0:0:
28,91,83721,1,2,0:2:0:0:
134,63,84028,1,8,0:2:0:0:
192,156,84336,1,2,0:2:0:0:
192,156,84490,2,0,L|172:265,2,110.000003356934,2|2|2,0:1|0:1|0:1,0:2:0:0:
277,87,85413,6,0,B|332:79|332:79|379:105,1,110.000003356934,6|0,0:1|0:2,0:2:0:0:
420,142,85875,1,12,0:2:0:0:
356,231,86182,2,0,B|301:239|301:239|253:212,1,110.000003356934,2|10,0:1|0:2,0:0:0:0:
242,162,86644,1,0,0:2:0:0:
242,162,86798,2,0,B|194:135|194:135|139:143,1,110.000003356934,2|10,0:1|0:2,0:0:0:0:
60,219,87413,2,0,L|-17:228,2,55.0000016784668,2|0|8,0:1|0:2|0:2,0:0:0:0:
162,272,88028,5,12,1:2:0:0:
162,272,88182,1,8,1:1:0:0:
238,192,88490,5,8,0:2:0:0:
238,192,88644,1,8,0:2:0:0:
114,92,90490,6,0,P|78:101|6:87,2,100,6|8|2,1:1|0:2|0:2,0:0:0:0:
209,61,91413,1,8,0:2:0:0:
209,61,91567,2,0,L|201:167,1,100,2|2,0:1|0:1,0:0:0:0:
135,236,92182,1,2,0:1:0:0:
158,333,92490,1,2,0:1:0:0:
260,355,92798,1,2,0:1:0:0:
260,355,92952,6,0,B|313:351|302:371|367:368,1,100,6|8,0:2|0:2,0:2:0:0:
447,323,93567,2,0,L|456:216,1,100,2|8,0:2|0:2,0:0:0:0:
456,172,94028,1,2,0:1:0:0:
360,141,94336,1,2,0:1:0:0:
301,222,94644,1,2,0:1:0:0:
204,197,94952,2,0,L|202:145,2,50,14|8|0,0:2|0:2|0:0,0:0:0:0:
173,237,95413,6,0,B|123:252|123:252|72:226,1,100,6|8,0:2|0:2,0:0:0:0:
6,162,96028,1,2,0:2:0:0:
66,83,96336,1,8,0:2:0:0:
66,83,96490,2,0,B|116:68|116:68|158:89,1,100,2|2,0:1|0:1,0:0:0:0:
237,150,97105,1,2,0:1:0:0:
194,240,97413,1,2,0:1:0:0:
249,329,97721,1,0,0:2:0:0:
249,329,97875,6,0,B|290:346|290:346|353:328,1,100,8|8,3:3|3:3,0:0:0:0:
430,281,98490,2,0,L|419:171,1,100,4|4,3:3|3:3,0:0:0:0:
475,99,99105,1,4,3:3:0:0:
475,99,99259,1,2,1:1:0:0:
402,29,99567,1,2,1:1:0:0:
332,100,99875,1,2,1:1:0:0:
254,45,100182,6,2,P|220:32|150:44,1,94.9999974632264,6|0,1:2|0:2,0:1:0:0:
118,56,100644,1,12,0:2:0:0:
153,144,100952,2,0,P|187:157|257:145,1,94.9999974632264,2|8,1:2|0:2,0:2:0:0:
318,210,101567,2,0,P|364:202|409:217,1,94.9999974632264,0|8,1:2|0:2,0:2:0:0:
458,298,102182,2,0,L|522:307,2,47.4999987316132,0|2|10,1:2|0:2|0:2,0:0:0:0:
436,340,102644,6,0,P|389:347|344:332,1,94.9999974632264,2|0,1:2|1:2,0:2:0:0:
299,348,103105,2,0,L|293:245,1,94.9999974632264,8|0,0:2|1:2,0:2:0:0:
244,171,103721,1,10,0:2:0:0:
287,86,104028,1,0,1:2:0:0:
216,21,104336,1,8,0:2:0:0:
132,66,104644,2,0,P|111:62|83:64,2,47.4999987316132,0|2|10,1:2|0:2|0:2,0:0:0:0:
150,109,105105,6,0,L|144:203,1,94.9999974632264,2|0,1:2|1:2,0:2:0:0:
168,245,105567,2,0,P|212:262|271:246,1,94.9999974632264,8|0,0:2|1:2,0:2:0:0:
332,195,106182,1,10,0:2:0:0:
278,116,106490,2,0,P|234:99|188:107,1,94.9999974632264,0|8,1:2|0:2,0:2:0:0:
106,156,107105,2,0,L|48:150,2,47.4999987316132,0|2|10,1:2|0:2|0:2,0:0:0:0:
127,198,107567,6,0,L|132:307,1,94.9999974632264,2|0,1:2|1:2,0:2:0:0:
134,340,108028,1,8,0:2:0:0:
221,376,108336,2,0,L|315:371,1,94.9999974632264,2|8,1:2|0:2,0:2:0:0:
403,333,108952,2,0,L|398:224,1,94.9999974632264,2|8,1:2|0:2,0:2:0:0:
427,199,109413,1,0,1:2:0:0:
427,199,109567,2,0,L|422:90,1,94.9999974632264,8|8,0:2|0:2,0:0:0:0:
403,62,110028,6,0,B|353:47|353:47|292:71,1,100,4|0,1:2|1:2,0:2:0:0:
265,91,110490,1,8,0:2:0:0:
239,187,110798,2,0,L|244:296,1,100,0|8,1:2|0:2,0:0:0:0:
182,366,111413,1,0,1:2:0:0:
97,312,111721,1,8,0:2:0:0:
158,232,112028,2,0,L|226:232,2,50,0|2|10,1:2|1:2|0:2,0:0:0:0:
113,208,112490,6,0,P|101:148|124:95,1,100,6|0,1:2|1:2,0:2:0:0:
150,79,112952,2,0,B|197:90|197:90|260:70,1,100,8|0,0:2|1:2,0:2:0:0:
338,36,113567,1,8,0:2:0:0:
436,55,113875,1,0,1:2:0:0:
472,147,114182,1,8,0:2:0:0:
442,242,114490,2,0,L|448:313,2,50,0|2|10,0:2|1:2|0:2,0:0:0:0:
414,199,114952,6,0,B|378:189|349:211|349:211|304:195,1,100,4|0,1:2|1:2,0:2:0:0:
271,185,115413,1,8,0:2:0:0:
207,107,115721,2,0,B|171:97|142:119|142:119|97:103,2,100,0|8|0,1:2|0:2|1:2,0:0:0:0:
298,65,116644,1,8,0:2:0:0:
372,131,116952,2,0,P|381:193|361:237,1,100,0|10,1:2|0:2,0:0:0:0:
346,271,117413,6,0,L|231:254,1,100,6|2,1:2|1:2,0:2:0:0:
202,279,117875,1,10,0:2:0:0:
112,323,118182,1,10,0:2:0:0:
24,274,118490,1,2,1:2:0:0:
31,174,118798,1,2,1:2:0:0:
121,132,119105,1,8,0:2:0:0:
200,192,119413,2,0,L|201:248,2,50,8|8|4,0:2|0:3|0:3,0:0:0:0:
234,162,119875,6,2,B|241:111|211:75|211:75|230:24,1,134.999995880127,6|0,1:1|1:2,0:1:0:0:
315,24,120644,2,2,P|349:40|406:45,1,89.9999972534181,14|0,0:2|0:2,0:1:0:0:
439,67,121105,2,2,B|453:106|453:106|423:142|430:193,1,134.999995880127,2|2,1:1|1:2,0:1:0:0:
438,283,121875,2,0,P|397:273|345:266,1,89.9999972534181,10|0,0:1|0:2,0:0:0:0:
306,277,122336,6,2,B|294:224|338:200|326:144,1,134.999995880127,6|0,1:2|1:2,0:1:0:0:
260,85,123105,2,0,P|223:74|168:81,1,89.9999972534181,10|0,0:1|0:0,0:0:0:0:
93,123,123721,2,0,P|74:116|36:111,2,44.999998626709,2|8|8,1:1|0:3|0:3,0:0:0:0:
125,206,124336,1,8,0:2:0:0:
66,274,124644,1,8,1:2:0:0:
119,358,124952,6,0,B|168:369|168:369|219:341,1,100,6|8,1:2|0:2,0:0:0:0:
253,316,125413,1,8,0:3:0:0:
253,316,125567,2,0,L|245:211,1,100,8|8,0:3|0:2,0:0:0:0:
284,123,126182,2,0,B|329:102|329:102|385:118,1,100,2|8,1:2|0:2,0:0:0:0:
424,136,126644,1,8,0:3:0:0:
424,136,126798,2,0,L|438:240,1,100,8|8,0:3|0:2,0:0:0:0:
392,325,127413,5,6,1:1:0:0:
256,246,127875,1,6,1:1:0:0:
392,325,128336,1,6,1:1:0:0:
224,339,129721,6,0,B|211:361|211:361|111:347,1,110.000003356934,6|2,1:0|0:2,0:0:0:0:
73,360,130182,1,8,0:0:0:0:
21,262,130490,1,2,0:2:0:0:
21,262,130644,1,0,0:0:0:0:
91,177,130952,2,0,B|104:199|104:199|187:187,1,110.000003356934,2|2,0:1|0:1,0:0:0:0:
286,137,131567,1,2,0:1:0:0:
354,223,131875,1,2,0:1:0:0:
452,174,132182,6,0,P|467:128|455:67,1,110.000003356934,6|2,0:2|0:2,0:1:0:0:
419,26,132644,1,8,0:0:0:0:
329,87,132952,1,2,0:2:0:0:
329,87,133105,1,0,0:0:0:0:
225,48,133413,2,0,B|187:40|187:40|159:50|159:50|105:39,1,110.000003356934,2|2,1:1|0:1,0:0:0:0:
19,89,134028,1,2,0:1:0:0:
3,197,134336,1,2,0:1:0:0:
73,281,134644,6,0,B|124:299|124:299|179:274,1,110.000003356934,6|0,0:1|0:0,0:1:0:0:
227,296,135105,1,12,0:2:0:0:
286,203,135413,2,0,L|269:92,1,110.000003356934,2|10,0:1|0:2,0:0:0:0:
288,42,135875,1,0,0:2:0:0:
288,42,136028,2,0,B|339:19|339:19|390:37,1,110.000003356934,2|10,0:1|0:2,0:0:0:0:
449,130,136644,2,0,L|511:137,2,55.0000016784668,2|0|8,0:1|0:2|0:2,0:0:0:0:
407,164,137105,6,2,B|391:220|428:226|417:271,1,110.000003356934,6|2,0:1|0:1,0:1:0:0:
332,341,137721,2,2,B|342:295|305:289|321:233,1,110.000003356934,6|2,0:2|0:1,0:1:0:0:
215,200,138336,2,2,B|199:256|236:262|225:307,1,110.000003356934,6|2,0:2|0:1,0:1:0:0:
135,370,138952,1,6,0:2:0:0:
32,330,139259,1,6,0:2:0:0:
17,220,139567,6,0,B|22:172|51:152|51:152|49:107,1,110.000003356934,6|2,1:1|0:2,0:2:0:0:
44,65,140028,2,0,P|84:95|142:85,1,110.000003356934,12|2,0:2|0:2,0:0:0:0:
244,48,140644,1,8,0:2:0:0:
320,134,140952,1,2,0:2:0:0:
320,134,141105,1,2,0:1:0:0:
259,225,141413,1,2,0:1:0:0:
153,193,141721,1,2,0:1:0:0:
53,240,142028,6,0,P|37:293|64:343,1,110.000003356934,6|2,0:2|0:2,0:2:0:0:
103,374,142490,1,8,0:2:0:0:
199,318,142798,1,2,0:2:0:0:
199,318,142952,1,0,0:2:0:0:
301,356,143259,2,0,B|354:369|354:369|424:350,1,110.000003356934,2|2,0:0|0:0,0:0:0:0:
505,302,143875,1,2,0:0:0:0:
436,216,144182,1,2,0:0:0:0:
476,113,144490,6,0,B|422:98|422:98|369:111,1,110.000003356934,6|0,0:1|0:2,0:2:0:0:
317,131,144952,1,12,0:2:0:0:
224,189,145259,2,0,B|230:300,1,110.000003356934,2|10,0:1|0:2,0:0:0:0:
195,343,145721,1,0,0:2:0:0:
195,343,145875,2,0,B|141:357|141:357|88:344,1,110.000003356934,2|10,0:1|0:2,0:0:0:0:
53,240,146490,2,0,L|-24:249,2,55.0000016784668,2|0|8,0:1|0:2|0:2,0:0:0:0:
133,181,147105,5,14,1:1:0:0:
256,192,147259,12,8,148798,0:2:0:0:
126,64,149567,6,0,P|74:119|87:209,1,170.000003242493,6|2,1:2|1:2,0:2:0:0:
207,325,150798,2,0,B|310:315|272:364|389:351,1,170.000003242493,2|2,1:2|1:2,0:2:0:0:
490,223,152028,1,2,1:2:0:0:
429,63,152644,1,2,1:2:0:0:
265,17,153259,1,2,1:2:0:0:
107,82,153875,1,2,1:2:0:0:
242,184,154490,6,0,L|425:165,1,170.000003242493,6|2,1:2|1:2,0:2:0:0:
509,305,155721,1,2,1:2:0:0:
357,380,156336,1,0,1:2:0:0:
238,257,156952,2,0,B|240:184|240:184|256:157|256:157|260:91,1,170.000003242493,2|2,1:2|1:2,0:2:0:0:
112,9,158182,1,2,1:2:0:0:
42,164,158798,2,0,L|-10:169,2,42.5000008106232,0|0|0,1:2|0:2|1:2,0:0:0:0:
102,230,159413,6,0,P|144:239|203:227,1,89.9999972534181,6|2,1:2|1:2,0:0:0:0:
272,194,160028,1,0,1:0:0:0:
229,114,160336,1,0,1:0:0:0:
308,68,160644,2,0,P|352:61|396:70,1,89.9999972534181,6|2,1:2|1:2,0:0:0:0:
459,141,161259,1,0,1:2:0:0:
459,141,161413,2,0,L|449:248,1,89.9999972534181,2|0,0:2|0:2,0:2:0:0:
444,275,161875,6,0,B|401:256|401:256|346:263,1,89.9999972534181,6|2,1:2|1:2,0:0:0:0:
322,343,162490,1,0,1:2:0:0:
232,348,162798,1,0,1:0:0:0:
176,278,163105,2,0,L|201:180,1,89.9999972534181,2|2,1:2|1:2,0:0:0:0:
178,102,163721,1,0,1:2:0:0:
178,102,163875,2,0,B|135:83|135:83|92:88,1,89.9999972534181,2|0,0:2|0:2,0:2:0:0:
61,121,164336,6,0,L|36:219,1,89.9999972534181,6|2,1:2|1:2,0:0:0:0:
44,298,164952,2,0,P|79:291|139:294,1,89.9999972534181,2|0,1:2|1:2,0:2:0:0:
172,315,165413,1,2,0:0:0:0:
172,315,165567,2,0,P|216:317|261:309,1,89.9999972534181,0|2,1:2|1:2,0:0:0:0:
336,257,166182,1,0,1:2:0:0:
336,257,166336,2,0,L|313:169,1,89.9999972534181,2|0,0:2|0:2,0:2:0:0:
269,158,166798,5,4,1:2:0:0:
256,192,166952,12,2,168028,0:2:0:0:
120,64,168952,5,8,1:2:0:0:
42,126,169259,6,2,P|26:190|43:234,1,100,6|8,0:1|0:2,0:1:0:0:
65,261,169721,2,2,L|173:257,1,100,2|2,0:1|0:1,0:1:0:0:
209,234,170182,1,8,0:1:0:0:
284,300,170490,2,0,L|392:296,1,100,2|8,0:1|0:2,0:0:0:0:
425,325,170952,1,2,0:1:0:0:
479,242,171259,1,2,0:1:0:0:
479,242,171413,1,8,0:2:0:0:
418,162,171721,6,2,L|318:158,1,100,4|8,1:2|0:2,0:1:0:0:
276,186,172182,2,2,B|268:226|268:226|279:250|279:250|271:303,1,100,2|2,0:1|0:1,0:1:0:0:
261,331,172644,1,8,0:2:0:0:
160,334,172952,2,0,L|165:401,2,50,2|0|8,0:1|0:2|0:2,0:0:0:0:
117,308,173413,1,2,0:1:0:0:
153,220,173721,1,14,0:2:0:0:
153,220,173875,2,0,L|89:209,1,50,12|0,0:2|0:0,0:0:0:0:
54,222,174182,6,2,B|57:185|38:152|38:152|56:112,1,100,6|8,1:1|0:2,0:1:0:0:
129,66,174798,1,2,0:1:0:0:
216,113,175105,1,8,0:2:0:0:
312,85,175413,2,2,B|356:64|356:64|405:76,1,100,2|8,0:1|0:2,0:1:0:0:
449,111,175875,1,2,0:1:0:0:
449,111,176028,2,0,L|456:215,1,100,0|8,0:2|0:2,0:2:0:0:
475,309,176644,6,0,B|437:299|437:299|414:307|414:307|368:294,1,100,8|8,3:3|3:3,0:0:0:0:
332,315,177105,1,8,3:3:0:0:
332,315,177259,2,0,L|324:197,1,100,4|4,3:3|3:3,0:0:0:0:
339,115,177875,2,0,B|301:105|301:105|278:113|278:113|232:100,1,100,8|8,3:3|3:3,0:0:0:0:
197,116,178336,1,8,3:3:0:0:
197,116,178490,1,4,3:3:0:0:
129,41,178798,1,4,3:3:0:0:
44,110,179105,6,2,P|25:148|38:218,1,110.000003356934,6|6,0:1|0:2,0:1:0:0:
63,260,179567,1,0,0:2:0:0:
63,260,179721,2,0,B|106:257|106:257|123:267|123:267|187:263,1,110.000003356934,2|10,0:1|0:2,0:0:0:0:
265,319,180336,1,2,0:1:0:0:
334,233,180644,1,10,0:2:0:0:
239,178,180952,1,2,0:1:0:0:
170,264,181259,1,10,0:2:0:0:
66,226,181567,6,2,P|54:173|75:123,1,110.000003356934,6|8,1:2|0:2,0:1:0:0:
125,101,182028,1,2,0:1:0:0:
125,101,182182,2,0,B|163:110|163:110|186:82|230:74,1,110.000003356934,0|8,0:2|0:2,0:0:0:0:
327,114,182798,2,0,B|364:119|387:147|387:147|425:138,2,110.000003356934,2|8|0,0:1|0:2|0:2,0:0:0:0:
277,104,183567,1,14,0:2:0:0:
277,104,183721,1,12,0:2:0:0:
195,177,184028,6,0,P|166:174|130:190,2,55.0000016784668,6|0|8,1:1|0:2|0:2,0:0:0:0:
244,201,184490,1,2,0:1:0:0:
281,304,184798,1,2,0:1:0:0:
386,335,185105,1,2,0:1:0:0:
478,275,185413,1,2,0:1:0:0:
480,164,185721,1,2,0:1:0:0:
398,98,186028,1,10,0:1:0:0:
398,98,186182,1,10,0:2:0:0:
294,136,186490,6,2,L|306:251,1,110.000003356934,6|2,1:1|0:2,0:1:0:0:
332,293,186952,2,2,L|226:339,1,110.000003356934,10|2,0:1|0:2,0:1:0:0:
194,377,187413,2,2,L|116:291,1,110.000003356934,10|2,0:1|0:1,0:1:0:0:
71,271,187875,2,0,L|128:170,1,110.000003356934,12|4,0:2|0:3,0:0:0:0:
142,123,188336,2,0,L|128:67,2,55.0000016784668,8|8|10,0:2|0:2|2:2,0:0:0:0:
209,210,188952,6,2,P|254:242|315:226,1,110.000003356934,14|0,1:1|0:2,0:1:0:0:
324,181,189413,2,0,P|376:189|420:157,1,110.000003356934,14|0,0:2|0:2,0:2:0:0:
433,103,189875,1,14,0:1:0:0:
256,192,190028,12,4,191259,1:1:0:0:
107,61,198182,6,0,P|82:52|49:45,2,50,2|8|8,0:2|0:2|0:2,0:0:0:0:
161,70,198644,6,2,B|155:108|155:108|179:132|171:177,1,110.000003356934,6|2,0:2|0:1,0:1:0:0:
166,284,199259,2,2,B|200:301|200:301|230:286|270:307,1,110.000003356934,6|2,0:2|0:1,0:1:0:0:
371,345,199875,2,2,B|398:317|398:317|392:284|425:252,1,110.000003356934,6|2,0:2|0:1,0:1:0:0:
504,178,200490,1,6,0:2:0:0:
485,69,200798,1,6,0:2:0:0:
382,29,201105,6,0,B|331:50|331:50|269:35,1,110.000003356934,6|2,1:1|0:2,0:2:0:0:
223,25,201567,2,0,P|193:72|201:137,1,110.000003356934,12|2,0:2|0:2,0:0:0:0:
272,203,202182,1,8,0:2:0:0:
382,180,202490,1,2,0:2:0:0:
382,180,202644,1,2,0:1:0:0:
444,270,202952,1,2,0:1:0:0:
372,354,203259,1,2,0:1:0:0:
269,314,203567,6,0,B|234:303|198:319|198:319|144:301,1,110.000003356934,6|2,0:2|0:2,0:2:0:0:
109,321,204028,1,8,0:2:0:0:
26,248,204336,1,2,0:2:0:0:
42,139,204644,1,8,0:2:0:0:
149,105,204952,1,2,0:2:0:0:
149,105,205105,2,0,L|135:217,2,110.000003356934,2|2|2,0:1|0:1|0:1,0:2:0:0:
234,35,206028,6,0,P|262:54|350:42,1,110.000003356934,6|0,0:1|0:2,0:2:0:0:
388,34,206490,1,12,0:2:0:0:
471,105,206798,2,0,L|462:224,1,110.000003356934,2|8,0:1|0:0,0:0:0:0:
454,269,207259,1,8,0:3:0:0:
454,269,207413,2,0,P|400:277|352:252,1,110.000003356934,4|8,0:3|0:0,0:0:0:0:
275,173,208028,2,0,L|271:117,2,55.0000016784668,10|8|8,0:1|0:0|0:0,0:0:0:0:
231,210,208490,6,0,B|222:256|222:256|230:275|230:275|222:336,1,115.000002193451,6|2,1:0|1:2,0:0:0:0:
182,362,208952,1,12,0:2:0:0:
69,341,209259,2,0,B|60:295|60:295|68:276|68:276|60:215,1,115.000002193451,2|12,0:2|0:2,0:0:0:0:
12,124,209875,1,2,0:2:0:0:
12,124,210028,1,2,0:1:0:0:
107,59,210336,1,2,0:1:0:0:
206,116,210644,1,2,0:1:0:0:
314,78,210952,6,0,L|299:197,1,115.000002193451,6|2,0:1|1:2,0:1:0:0:
287,248,211413,1,12,0:2:0:0:
373,324,211721,1,2,0:2:0:0:
474,270,212028,1,12,0:2:0:0:
388,194,212336,1,2,0:2:0:0:
388,194,212490,2,0,L|403:75,2,115.000002193451,2|2|2,0:1|0:1|0:1,0:0:0:0:
352,303,213413,6,0,B|332:281|332:281|247:290,1,115.000002193451,6|0,0:1|0:0,0:1:0:0:
190,300,213875,1,12,0:2:0:0:
97,368,214182,2,0,L|88:245,1,115.000002193451,2|14,0:1|0:2,0:0:0:0:
43,226,214644,1,0,0:2:0:0:
43,226,214798,2,0,L|34:103,1,115.000002193451,2|14,0:1|0:2,0:0:0:0:
142,72,215413,2,0,L|147:-2,2,57.5000010967255,2|0|12,0:1|0:2|0:2,0:0:0:0:
173,120,215875,6,2,B|207:133|251:100|251:100|299:106,1,115.000002193451,6|2,0:1|0:1,0:1:0:0:
386,56,216490,2,2,B|384:92|429:124|429:124|438:171,1,115.000002193451,6|2,0:2|0:1,0:1:0:0:
512,238,217105,2,2,B|476:247|460:300|460:300|418:323,1,115.000002193451,6|2,0:2|0:1,0:1:0:0:
319,300,217721,1,6,0:2:0:0:
235,378,218028,1,6,0:2:0:0:
135,319,218336,6,0,P|133:259|165:196,1,115.000002193451,6|2,1:1|0:2,0:2:0:0:
195,168,218798,2,0,B|246:191|246:191|313:176,1,115.000002193451,12|2,0:2|0:2,0:0:0:0:
410,136,219413,1,12,0:2:0:0:
343,48,219721,1,2,0:2:0:0:
343,48,219875,1,2,0:1:0:0:
236,90,220182,1,2,0:1:0:0:
303,178,220490,1,2,0:1:0:0:
258,284,220798,6,0,B|200:296|200:296|149:273,1,115.000002193451,6|2,0:1|0:2,0:2:0:0:
94,289,221259,1,12,0:2:0:0:
46,184,221567,1,2,0:2:0:0:
107,86,221875,1,12,0:2:0:0:
221,87,222182,1,2,0:2:0:0:
221,87,222336,2,0,L|208:209,2,115.000002193451,2|2|2,0:1|0:1|0:1,0:2:0:0:
325,38,223259,6,0,B|362:59|362:59|390:56|390:56|442:86,1,115.000002193451,6|0,0:1|0:2,0:2:0:0:
472,115,223721,1,12,0:2:0:0:
425,219,224028,2,0,B|388:198|388:198|360:201|360:201|308:171,1,115.000002193451,2|14,0:1|0:2,0:0:0:0:
273,146,224490,1,0,0:2:0:0:
273,146,224644,2,0,L|250:261,1,115.000002193451,2|14,0:1|0:2,0:0:0:0:
158,327,225259,2,0,L|165:394,2,57.5000010967255,2|0|12,0:1|0:2|0:2,0:0:0:0:
145,216,225875,5,12,1:2:0:0:
145,216,226028,1,8,1:1:0:0:
34,227,226336,5,8,0:2:0:0:
34,227,226490,1,8,0:2:0:0:
126,60,228336,6,0,B|70:46|88:80|18:60,2,100,6|8|2,0:1|0:2|0:2,0:0:0:0:
200,127,229259,1,8,0:2:0:0:
200,127,229413,2,0,P|177:179|190:242,1,100,2|2,0:1|0:1,0:0:0:0:
225,310,230028,1,2,0:1:0:0:
313,357,230336,1,2,0:1:0:0:
415,345,230644,1,2,0:1:0:0:
415,345,230798,6,0,P|438:293|425:230,1,100,6|8,0:2|0:2,0:2:0:0:
350,196,231413,2,0,L|235:209,1,100,2|8,0:2|0:2,0:0:0:0:
203,190,231875,1,2,0:1:0:0:
119,244,232182,1,2,0:1:0:0:
47,173,232490,1,2,0:1:0:0:
131,119,232798,2,0,L|125:66,2,50,14|8|0,0:2|0:2|0:0,0:0:0:0:
166,153,233259,6,0,B|212:163|212:163|263:138,1,100,6|8,0:2|0:2,0:0:0:0:
348,93,233875,1,2,0:2:0:0:
444,133,234182,1,8,0:2:0:0:
444,133,234336,2,0,B|467:180|467:180|459:240,1,100,2|2,0:1|0:1,0:0:0:0:
408,313,234952,1,2,0:1:0:0:
316,274,235259,1,2,0:1:0:0:
247,346,235567,1,0,0:2:0:0:
247,346,235721,6,0,P|196:356|147:339,1,100,8|8,3:3|3:3,0:0:0:0:
63,293,236336,2,0,L|54:177,1,100,4|4,3:3|3:3,0:0:0:0:
23,154,236798,1,4,3:3:0:0:
103,94,237105,1,8,3:3:0:0:
191,140,237413,1,8,3:3:0:0:
182,239,237721,2,0,P|227:262|279:252,1,100,4|4,3:3|3:3,0:0:0:0:
319,232,238182,6,0,L|307:118,2,100,6|12|2,1:1|0:2|0:2,0:2:0:0:
381,316,239105,1,8,0:2:0:0:
381,316,239259,2,0,P|432:325|481:298,1,100,2|2,0:1|0:1,0:0:0:0:
508,210,239875,1,2,0:1:0:0:
427,150,240182,1,2,0:1:0:0:
349,212,240490,1,0,0:2:0:0:
349,212,240644,6,0,P|298:221|249:194,1,100,6|12,0:2|0:2,0:2:0:0:
170,149,241259,2,0,L|164:38,1,100,2|8,0:2|0:2,0:0:0:0:
122,21,241721,1,2,0:1:0:0:
31,62,242028,1,2,0:1:0:0:
23,161,242336,1,2,0:1:0:0:
88,236,242644,2,0,L|82:292,2,50,14|8|0,0:2|0:2|0:0,0:0:0:0:
120,198,243105,6,0,P|168:191|217:213,1,100,6|8,0:2|0:2,0:0:0:0:
283,283,243721,1,2,0:2:0:0:
359,347,244028,1,8,0:2:0:0:
359,347,244182,2,0,P|407:353|453:334,1,100,2|2,0:1|0:1,0:0:0:0:
501,245,244798,1,2,0:1:0:0:
432,172,245105,1,2,0:1:0:0:
352,233,245413,1,0,0:2:0:0:
352,233,245567,6,0,B|298:211|307:243|239:221,1,100,6|8,0:2|0:2,0:0:0:0:
177,289,246182,2,0,B|123:267|132:299|64:277,1,100,2|8,0:2|0:2,0:0:0:0:
8,217,246798,1,6,0:2:0:0:
8,217,246952,1,0,0:2:0:0:
37,121,247259,1,14,0:2:0:0:
135,105,247567,1,10,0:2:0:0:
216,162,247875,6,2,B|250:188|250:188|289:189|312:146,1,120,6|0,1:1|2:2,2:1:0:0:
