osu file format v14

[General]
AudioFilename: audio.mp3
AudioLeadIn: 0
PreviewTime:70605
Countdown: 0
SampleSet: Soft
StackLeniency: 0.7
Mode: 0
LetterboxInBreaks: 0
WidescreenStoryboard: 1

[Editor]
Bookmarks:1721,6644,11568,21568,31413,41105,49875,50952,60798,65875,70644,80490,88644,90490,100182,110028,119875,124952,129721,139567,147105,149567,159413,169259,174028,174182,174336,179105,180028,189875,191259,198182,201105,208490,218336,226490,228336,233259,238182,243105,247875
DistanceSpacing: 0.3
BeatDivisor: 4
GridSize: 32
TimelineZoom: 2.3

[Metadata]
Title:Despair Refrain
TitleUnicode:Despair Refrain
Artist:ES-TRUS
ArtistUnicode:ES-TRUS
Creator:Lasse
Version:Insane
Source:
Tags:japanese rock true or false kyoka Aito 風児 Fuji REO ゆうき Yuki
BeatmapID:4552103
BeatmapSetID:2076527

[Difficulty]
HPDrainRate:5
CircleSize:4
OverallDifficulty:8
ApproachRate:9
SliderMultiplier:1.6
SliderTickRate:1

[Events]
//Background and Video events
0,0,"5zn565.jpg",0,0
//Break Periods
2,191459,196352
//Storyboard Layer 0 (Background)
//Storyboard Layer 1 (Fail)
//Storyboard Layer 2 (Pass)
//Storyboard Layer 3 (Foreground)
//Storyboard Layer 4 (Overlay)
//Storyboard Sound Samples

[TimingPoints]
-3048,307.692307692308,4,2,1,40,1,0
1721,-200,4,2,1,40,0,0
6644,-166.666666666667,4,2,1,40,0,0
11105,-166.666666666667,4,2,1,45,0,0
11567,-125,4,2,1,50,0,0
17721,-125,4,2,1,55,0,0
18490,-125,4,2,1,50,0,0
19105,-200,4,2,1,45,0,0
19413,-166.666666666667,4,2,1,45,0,0
19721,-142.857142857143,4,2,1,45,0,0
20028,-125,4,2,1,45,0,0
20336,-125,4,2,1,60,0,0
21567,-100,4,1,1,65,0,0
26182,-83.3333333333333,4,1,1,65,0,0
26413,-83.3333333333333,4,2,1,30,0,0
26490,-100,4,1,1,65,0,0
28952,-100,4,1,1,60,0,0
30182,-100,4,1,1,65,0,0
36028,-83.3333333333333,4,1,1,65,0,0
36259,-83.3333333333333,4,2,1,30,0,0
36336,-100,4,1,1,65,0,0
40490,-90.9090909090909,4,1,1,65,0,0
40798,-83.3333333333333,4,1,1,65,0,0
41105,-133.333333333333,4,2,1,40,0,0
41259,-133.333333333333,4,2,1,45,0,0
50336,-133.333333333333,4,2,1,50,0,0
50952,-111.111111111111,4,2,1,55,0,0
59721,-111.111111111111,4,2,1,60,0,0
60182,-111.111111111111,4,2,1,55,0,0
60798,-199.999999999999,4,2,1,55,0,0
65875,-133.333333333333,4,2,1,55,0,0
66490,-121.951219512195,4,2,1,55,0,0
67105,-111.111111111111,4,2,1,60,0,0
67721,-100,4,2,1,60,0,0
68336,-199.999999999999,4,2,1,64,0,0
68798,-199.999999999999,4,2,1,68,0,0
69028,-199.999999999999,4,2,1,30,0,0
69875,-199.999999999999,4,2,1,40,0,0
70028,-199.999999999999,4,2,1,50,0,0
70182,-199.999999999999,4,2,1,60,0,0
70336,-199.999999999999,4,2,1,70,0,0
70490,-199.999999999999,4,2,1,80,0,0
70567,-199.999999999999,4,2,1,5,0,0
70644,-90.9090909090909,4,1,1,70,0,1
70875,-90.9090909090909,4,2,1,30,0,1
70952,-90.9090909090909,4,1,1,70,0,1
73336,-90.9090909090909,4,2,1,30,0,1
73413,-90.9090909090909,4,1,1,70,0,1
78028,-76.9230769230769,4,1,1,70,0,1
78259,-90.9090909090909,4,2,1,30,0,1
78336,-133.333333333333,4,1,1,70,0,0
78644,-76.9230769230769,4,1,1,70,0,1
78875,-90.9090909090909,4,2,1,30,0,1
78952,-133.333333333333,4,1,1,70,0,0
79259,-76.9230769230769,4,1,1,70,0,1
79490,-90.9090909090909,4,2,1,30,0,1
79567,-133.333333333333,4,1,1,70,0,0
79875,-76.9230769230769,4,1,1,70,0,1
80105,-90.9090909090909,4,2,1,30,0,1
80182,-133.333333333333,4,1,1,70,0,0
80413,-90.9090909090909,4,1,1,70,0,0
80490,-90.9090909090909,4,1,1,70,0,1
80721,-90.9090909090909,4,2,1,30,0,1
80798,-90.9090909090909,4,1,1,70,0,1
83182,-90.9090909090909,4,2,1,30,0,1
83259,-90.9090909090909,4,1,1,70,0,1
88644,-100,4,1,1,65,0,0
95105,-83.3333333333333,4,1,1,65,0,0
95336,-83.3333333333333,4,2,1,30,0,0
95413,-100,4,1,1,65,0,0
100182,-100,4,1,1,60,0,0
100644,-125,4,2,1,60,0,0
100952,-125,4,2,1,50,0,0
108952,-125,4,2,1,55,0,0
110028,-105.263157894737,4,2,1,60,0,0
117644,-105.263157894737,4,2,1,30,0,0
117721,-105.263157894737,4,2,1,60,0,0
119259,-105.263157894737,4,2,1,58,0,0
119413,-105.263157894737,4,2,1,56,0,0
119567,-105.263157894737,4,2,1,54,0,0
119721,-105.263157894737,4,2,1,52,0,0
119875,-200,4,2,1,55,0,0
123721,-166.666666666667,4,2,1,60,0,0
124875,-166.666666666667,4,2,1,25,0,0
124952,-133.333333333333,4,2,1,55,0,0
126182,-111.111111111111,4,2,1,60,0,0
127413,-111.111111111111,4,2,1,62,0,0
127875,-111.111111111111,4,2,1,65,0,0
128336,-111.111111111111,4,2,1,68,0,0
128644,-111.111111111111,4,2,1,50,0,0
128798,-111.111111111111,4,2,1,55,0,0
128952,-111.111111111111,4,2,1,60,0,0
129105,-111.111111111111,4,2,1,65,0,0
129259,-111.111111111111,4,2,1,70,0,0
129413,-111.111111111111,4,2,1,75,0,0
129567,-111.111111111111,4,2,1,80,0,0
129644,-111.111111111111,4,2,1,5,0,0
129721,-90.9090909090909,4,1,1,70,0,1
129952,-90.9090909090909,4,2,1,30,0,1
130028,-90.9090909090909,4,1,1,70,0,1
132413,-90.9090909090909,4,2,1,30,0,1
132490,-90.9090909090909,4,1,1,70,0,1
137105,-76.9230769230769,4,1,1,70,0,1
137336,-90.9090909090909,4,2,1,30,0,1
137413,-133.333333333333,4,1,1,70,0,0
137721,-76.9230769230769,4,1,1,70,0,1
137952,-90.9090909090909,4,2,1,30,0,1
138028,-133.333333333333,4,1,1,70,0,0
138336,-76.9230769230769,4,1,1,70,0,1
138567,-90.9090909090909,4,2,1,30,0,1
138644,-133.333333333333,4,1,1,70,0,0
138952,-76.9230769230769,4,1,1,70,0,1
139182,-90.9090909090909,4,2,1,30,0,1
139259,-133.333333333333,4,1,1,70,0,0
139490,-90.9090909090909,4,1,1,70,0,0
139567,-90.9090909090909,4,1,1,70,0,1
139798,-90.9090909090909,4,2,1,30,0,1
139875,-90.9090909090909,4,1,1,70,0,1
142259,-90.9090909090909,4,2,1,30,0,1
142336,-90.9090909090909,4,1,1,70,0,1
145182,-90.9090909090909,4,2,1,30,0,1
145259,-90.9090909090909,4,1,1,70,0,1
147105,-133.333333333333,4,2,1,70,0,0
147182,-133.333333333333,4,2,1,50,0,0
147413,-133.333333333333,4,2,1,45,0,0
147721,-133.333333333333,4,2,1,40,0,0
148028,-133.333333333333,4,2,1,35,0,0
148336,-133.333333333333,4,2,1,30,0,0
148644,-133.333333333333,4,2,1,5,0,0
148798,-133.333333333333,4,2,1,45,0,0
149567,-133.333333333333,4,2,1,50,0,0
159413,-116.279069767442,4,2,1,55,0,0
166798,-200,4,2,1,50,0,0
167105,-200,4,2,1,30,0,0
167721,-200,4,2,1,35,0,0
168028,-200,4,2,1,40,0,0
168336,-200,4,2,1,25,0,0
168644,-200,4,2,1,30,0,0
168952,-200,4,2,1,60,0,0
169259,-90.9090909090909,4,1,1,65,0,0
173875,-76.9230769230769,4,1,1,65,0,0
174105,-76.9230769230769,4,2,1,30,0,0
174182,-90.9090909090909,4,1,1,65,0,0
176644,-90.9090909090909,4,1,1,60,0,0
177875,-90.9090909090909,4,1,1,65,0,0
179105,-83.3333333333333,4,1,1,70,0,0
179336,-83.3333333333333,4,2,1,30,0,0
179413,-83.3333333333333,4,1,1,70,0,0
183721,-71.4285714285714,4,1,1,70,0,0
183952,-71.4285714285714,4,2,1,30,0,0
184028,-83.3333333333333,4,1,1,70,0,0
186490,-76.9230769230769,4,1,1,70,0,0
188644,-200,4,2,1,70,0,0
188721,-133.333333333333,4,2,1,60,0,0
188952,-71.4285714285714,4,1,1,70,0,0
189875,-181.818181818182,4,2,1,70,0,0
189894,-181.818181818182,4,2,2,50,0,0
190163,-181.818181818182,4,2,1,40,0,0
190182,-181.818181818182,4,2,1,5,0,0
190202,-181.818181818182,4,2,1,40,0,0
190471,-181.818181818182,4,2,2,30,0,0
190490,-181.818181818182,4,2,2,5,0,0
190509,-181.818181818182,4,2,2,30,0,0
190778,-181.818181818182,4,2,1,20,0,0
190798,-181.818181818182,4,2,1,5,0,0
190817,-181.818181818182,4,2,1,20,0,0
191086,-181.818181818182,4,2,2,10,0,0
191105,-181.818181818182,4,2,2,5,0,0
191125,-181.818181818182,4,2,2,10,0,0
191259,-181.818181818182,4,2,1,70,0,0
196952,-181.818181818182,4,2,1,25,0,0
197105,-181.818181818182,4,2,1,30,0,0
197259,-181.818181818182,4,2,1,35,0,0
197413,-181.818181818182,4,2,1,40,0,0
197566,-181.818181818182,4,2,1,50,0,0
197720,-181.818181818182,4,2,1,60,0,0
197874,-181.818181818182,4,2,1,70,0,0
198028,-181.818181818182,4,2,1,80,0,0
198105,-181.818181818182,4,2,1,5,0,0
198182,-100,4,1,1,60,0,0
198644,-76.9230769230769,4,1,1,70,0,1
198875,-90.9090909090909,4,2,1,30,0,1
198952,-133.333333333333,4,1,1,70,0,0
199259,-76.9230769230769,4,1,1,70,0,1
199490,-76.9230769230769,4,2,1,30,0,1
199567,-133.333333333333,4,1,1,70,0,0
199875,-76.9230769230769,4,1,1,70,0,1
200105,-90.9090909090909,4,2,1,30,0,1
200182,-133.333333333333,4,1,1,70,0,0
200490,-76.9230769230769,4,1,1,70,0,1
200721,-90.9090909090909,4,2,1,30,0,1
200798,-133.333333333333,4,1,1,70,0,0
201028,-90.9090909090909,4,1,1,70,0,0
201105,-90.9090909090909,4,1,1,70,0,1
201336,-90.9090909090909,4,2,1,30,0,1
201413,-90.9090909090909,4,1,1,70,0,1
203798,-90.9090909090909,4,2,1,30,0,1
203875,-90.9090909090909,4,1,1,70,0,1
208490,-83.3333333333333,4,1,1,70,0,1
211182,-83.3333333333333,4,2,1,30,0,1
211259,-83.3333333333333,4,1,1,70,0,1
215875,-71.4285714285714,4,1,1,70,0,1
216105,-83.3333333333333,4,2,1,30,0,1
216182,-133.333333333333,4,1,1,70,0,0
216490,-71.4285714285714,4,1,1,70,0,1
216721,-83.3333333333333,4,2,1,30,0,1
216798,-133.333333333333,4,1,1,70,0,0
217105,-71.4285714285714,4,1,1,70,0,1
217336,-83.3333333333333,4,2,1,30,0,1
217413,-133.333333333333,4,1,1,70,0,0
217721,-71.4285714285714,4,1,1,70,0,1
217952,-83.3333333333333,4,2,1,30,0,1
218028,-133.333333333333,4,1,1,70,0,0
218336,-83.3333333333333,4,1,1,70,0,1
218567,-83.3333333333333,4,2,1,30,0,1
218644,-83.3333333333333,4,1,1,70,0,1
221028,-83.3333333333333,4,2,1,30,0,1
221105,-83.3333333333333,4,1,1,70,0,1
226490,-100,4,1,1,65,0,0
232952,-83.3333333333333,4,1,1,65,0,0
233182,-83.3333333333333,4,2,1,30,0,0
233259,-100,4,1,1,65,0,0
235721,-100,4,1,1,60,0,0
236952,-100,4,1,1,65,0,0
242798,-83.3333333333333,4,1,1,65,0,0
243028,-83.3333333333333,4,2,1,30,0,0
243105,-100,4,1,1,65,0,0
246952,-100,4,1,1,65,0,0
247259,-90.9090909090909,4,1,1,65,0,0
247567,-83.3333333333333,4,1,1,65,0,0
247875,-217.391304347826,4,2,1,65,0,0
248028,-217.391304347826,4,2,2,50,0,0
248182,-217.391304347826,4,2,1,30,0,0

[Colours]
Combo1 : 240,140,140
Combo2 : 200,180,220
Combo3 : 240,200,155
Combo4 : 150,185,220

[HitObjects]
149,87,1721,6,0,B|191:106|227:89|227:89|244:100|263:105,1,120,2|2,0:2|0:2,0:2:0:0:
363,297,2490,2,0,B|320:277|284:294|284:294|267:283|248:278,1,120,2|2,3:2|0:2,0:0:0:0:
256,192,3875,5,2,0:2:0:0:
256,192,4028,1,2,0:2:0:0:
243,277,4182,6,0,P|218:217|157:204,1,120,2|2,0:2|0:2,0:2:0:0:
269,107,4952,2,0,P|293:166|354:179,1,120,2|2,3:2|0:2,0:0:0:0:
256,192,6336,5,2,0:2:0:0:
256,192,6490,1,2,0:2:0:0:
346,84,6644,6,0,B|300:113|245:87|245:87|230:102|210:112,1,143.999995605469,2|2,0:2|0:2,0:2:0:0:
166,300,7413,2,0,B|212:271|267:297|267:297|282:282|302:272,1,143.999995605469,2|2,3:2|0:2,0:0:0:0:
256,192,8798,5,2,0:2:0:0:
256,192,8952,1,2,0:2:0:0:
353,232,9105,6,0,P|296:227|304:301,1,143.999995605469,2|0,3:2|3:2,2:2:0:0:
159,152,9875,2,0,P|216:157|208:83,1,143.999995605469,2|0,3:2|0:2,0:0:0:0:
224,255,10490,6,0,P|214:276|209:299,1,47.9999985351563,2|0,1:2|1:2,0:0:0:0:
325,188,10798,2,0,P|349:187|372:179,1,47.9999985351563,0|0,1:2|1:2,0:0:0:0:
218,133,11105,2,0,P|205:113|187:97,2,47.9999985351563,2|0|0,1:2|1:2|1:2,0:0:0:0:
351,216,11567,6,0,B|390:241|434:220|434:220|439:242|456:255,1,128,4|0,1:2|1:2,0:2:0:0:
510,318,12028,1,0,1:2:0:0:
390,148,12336,1,12,0:2:0:0:
390,148,12490,2,0,B|381:92|355:54|355:54|355:33|350:9,1,128,0|0,0:2|0:2,0:2:0:0:
271,103,12952,5,0,1:2:0:0:
271,103,13259,1,0,1:2:0:0:
271,103,13567,1,8,0:2:0:0:
196,139,13721,1,2,0:2:0:0:
115,115,13875,1,4,0:3:0:0:
198,150,14028,6,0,P|127:150|97:217,1,128,6|0,1:2|1:2,0:2:0:0:
31,237,14490,1,0,1:2:0:0:
145,350,14798,2,0,P|219:328|295:331,1,128,8|0,0:2|1:2,0:2:0:0:
365,375,15259,5,2,0:2:0:0:
365,375,15413,2,0,L|351:299,1,64,0|0,1:2|0:2,0:0:0:0:
502,289,15721,2,0,P|470:311|423:324,1,64,0|0,1:2|0:2,0:0:0:0:
329,238,16028,1,8,0:2:0:0:
361,148,16182,1,2,0:2:0:0:
424,218,16336,1,10,0:2:0:0:
290,112,16490,6,0,P|364:110|392:67,1,128,4|0,1:2|1:2,0:2:0:0:
230,56,16952,2,0,P|214:88|208:120,1,64,0|0,1:2|0:2,0:2:0:0:
339,207,17259,1,8,0:2:0:0:
339,207,17413,2,0,P|354:174|360:142,1,64,0|0,0:2|0:2,0:0:0:0:
241,214,17721,5,8,0:3:0:0:
159,199,17875,1,4,0:3:0:0:
112,267,18028,1,4,0:3:0:0:
213,343,18182,2,0,P|206:311|193:283,1,64,12|4,0:2|0:3,0:0:0:0:
75,144,18490,1,4,3:3:0:0:
64,154,18567,1,0,3:2:0:0:
51,162,18644,1,0,3:2:0:0:
37,165,18721,1,0,3:2:0:0:
22,163,18798,2,0,P|28:131|42:102,1,64,0|0,3:2|1:2,0:0:0:0:
143,22,19105,6,0,L|185:45,1,40,2|0,0:2|0:2,0:0:0:0:
160,126,19413,6,0,L|203:150,1,47.9999985351563,0|0,0:2|0:2,0:0:0:0:
221,21,19721,6,0,L|272:49,1,55.9999982910157,2|0,0:2|0:2,0:0:0:0:
209,197,20028,6,0,L|266:228,1,64,0|2,0:2|0:2,0:0:0:0:
381,163,20490,5,8,1:2:0:0:
381,163,20644,1,8,1:2:0:0:
131,221,20952,5,8,1:3:0:0:
131,221,21105,1,8,1:3:0:0:
339,353,21567,6,0,B|376:330|432:332|432:332|455:304|493:288,1,160,6|8,0:1|0:2,0:0:0:0:
512,374,22028,1,0,0:2:0:0:
395,246,22182,2,0,P|377:204|362:151,1,80,2|0,0:2|0:2,0:2:0:0:
335,61,22490,1,8,0:2:0:0:
235,175,22644,5,2,0:1:0:0:
235,175,22721,1,0,0:2:0:0:
235,175,22798,1,0,0:2:0:0:
134,78,22952,2,0,P|146:39|162:3,1,80,2|8,0:1|0:2,0:0:0:0:
73,194,23259,2,0,P|57:156|46:118,1,80,2|0,0:1|0:2,0:0:0:0:
100,322,23567,2,0,P|64:303|31:281,1,80,2|8,0:1|0:2,0:0:0:0:
31,281,23875,1,2,0:1:0:0:
194,177,24028,6,0,P|170:209|162:250,1,80,6|0,0:2|0:2,0:2:0:0:
338,214,24336,1,8,0:2:0:0:
276,136,24490,1,0,0:2:0:0:
250,242,24644,2,0,B|313:238|363:275|363:275|415:256,1,160,2|8,0:2|0:2,0:0:0:0:
399,96,25105,5,2,0:1:0:0:
399,96,25182,1,0,0:2:0:0:
399,96,25259,1,0,0:2:0:0:
512,197,25413,2,0,P|466:189|410:163,1,80,2|8,0:1|0:2,0:2:0:0:
327,27,25721,2,0,P|281:35|225:61,1,80,2|0,0:1|0:2,0:2:0:0:
146,182,26028,5,14,0:2:0:0:
21,150,26182,2,0,B|55:145|87:161|87:161|120:151|120:151|131:173|146:182,1,143.999995605469,8|0,0:2|2:2,0:0:0:0:
196,130,26490,6,0,P|147:182|208:222,1,160,6|8,0:2|0:2,0:0:0:0:
334,227,26952,1,0,0:2:0:0:
292,361,27105,2,0,P|270:326|269:286,1,80,2|0,0:2|0:2,0:2:0:0:
334,227,27413,1,8,0:2:0:0:
247,141,27567,5,2,0:1:0:0:
247,141,27644,1,0,0:2:0:0:
247,141,27721,1,0,0:2:0:0:
334,227,27875,2,0,L|447:249,1,80,2|8,0:1|0:2,0:0:0:0:
414,79,28182,2,0,L|527:101,1,80,2|0,0:1|0:2,0:2:0:0:
338,129,28490,1,2,0:1:0:0:
338,129,28567,1,0,0:2:0:0:
338,129,28644,2,0,P|324:89|327:25,1,80,8|0,0:2|0:1,0:2:0:0:
208,2,28952,5,8,3:3:0:0:
213,20,29028,1,8,3:3:0:0:
210,40,29105,1,8,3:3:0:0:
199,56,29182,1,8,3:3:0:0:
182,66,29259,2,0,P|163:52|134:44,3,40,8|8|8|8,3:3|3:3|3:3|3:3,0:0:0:0:
127,118,29567,2,0,P|103:116|74:125,3,40,4|4|4|4,3:3|3:3|3:3|3:3,0:0:0:0:
109,191,29875,2,0,P|88:202|69:225,3,40,4|4|4|4,3:3|3:3|3:3|3:3,0:0:0:0:
41,290,30182,5,8,3:3:0:0:
39,319,30259,1,8,3:3:0:0:
51,347,30336,1,8,3:3:0:0:
73,366,30413,1,8,3:3:0:0:
102,375,30490,2,0,L|117:327,3,40,8|8|8|8,3:3|3:3|3:3|3:3,0:0:0:0:
196,346,30798,2,0,L|207:307,3,40,4|4|4|4,3:3|3:3|3:3|3:3,0:0:0:0:
282,329,31105,2,0,L|293:290,3,40,4|4|4|4,3:3|3:3|3:3|3:3,0:0:0:0:
390,283,31413,6,0,B|367:239|393:185|393:185|362:206|331:197,1,160,6|8,1:1|0:2,0:2:0:0:
235,148,31875,1,0,0:2:0:0:
287,54,32028,2,0,P|332:40|382:38,1,80,2|0,0:2|0:2,0:0:0:0:
235,148,32336,1,8,0:2:0:0:
156,72,32490,5,2,0:1:0:0:
156,72,32567,1,0,0:2:0:0:
156,72,32644,1,0,0:2:0:0:
235,148,32798,2,0,P|249:193|251:243,1,80,2|8,0:1|0:2,0:0:0:0:
78,227,33105,2,0,P|123:213|173:211,1,80,2|0,0:1|0:2,0:0:0:0:
157,384,33413,2,0,P|143:339|141:289,1,80,2|8,0:1|0:2,0:0:0:0:
155,210,33721,1,2,0:1:0:0:
236,321,33875,6,0,P|276:317|313:305,1,80,6|0,0:2|0:2,0:2:0:0:
438,226,34182,2,0,B|472:200|472:200|449:321,1,160,8|2,0:2|0:2,0:2:0:0:
335,279,34644,1,0,0:2:0:0:
368,384,34798,1,8,0:2:0:0:
245,332,34952,5,2,0:1:0:0:
245,332,35028,1,0,0:2:0:0:
245,332,35105,1,0,0:2:0:0:
335,279,35259,2,0,L|351:183,1,80,2|8,0:1|0:2,0:2:0:0:
150,275,35567,2,0,L|163:196,1,80,2|0,0:1|0:2,0:2:0:0:
251,99,35875,5,14,0:2:0:0:
264,241,36028,2,0,B|254:184|254:184|260:154|260:154|249:87,1,143.999995605469,8|0,0:2|2:2,0:0:0:0:
202,28,36336,6,0,P|171:69|170:118,1,80,6|0,0:2|0:2,0:0:0:0:
335,93,36644,2,0,P|325:54|299:24,1,80,8|0,0:2|0:2,0:0:0:0:
112,161,36952,2,0,P|172:110|251:99,1,160,2|8,0:2|0:2,0:2:0:0:
452,164,37413,5,2,0:1:0:0:
452,164,37490,1,0,0:2:0:0:
452,164,37567,1,0,0:2:0:0:
316,223,37721,2,0,P|276:216|227:191,1,80,2|8,0:1|0:2,0:0:0:0:
253,333,38028,2,0,P|213:339|177:356,1,80,2|0,0:1|0:2,0:2:0:0:
160,223,38336,1,2,0:1:0:0:
160,223,38413,1,0,0:2:0:0:
160,223,38490,2,0,P|120:216|84:199,1,80,8|0,0:2|0:2,0:2:0:0:
69,2,38798,5,6,0:2:0:0:
0,54,38952,1,0,0:2:0:0:
77,88,39105,1,8,0:2:0:0:
156,49,39259,1,0,0:2:0:0:
156,49,39336,1,0,0:2:0:0:
156,49,39413,2,0,P|160:89|137:146,1,80,2|0,0:2|0:2,0:0:0:0:
7,241,39721,2,0,P|-4:203|0:163,1,80,8|0,0:2|0:2,0:0:0:0:
150,273,40028,5,6,0:2:0:0:
199,351,40182,6,0,B|210:356|210:356|216:363|216:363|225:362|225:362|285:389,1,80,0|0,0:2|0:2,0:0:0:0:
197,198,40490,6,0,B|202:187|202:187|209:181|209:181|208:172|208:172|235:112,1,88.000002685547,14|0,0:2|0:2,0:0:0:0:
302,309,40798,6,0,B|313:314|313:314|319:321|319:321|328:320|328:320|388:347,1,95.9999970703126,10|0,0:2|0:2,0:0:0:0:
294,176,41105,6,2,B|300:161|300:161|307:155|307:155|307:146|307:146|368:7,1,180.000006866455,6|0,1:1|1:2,0:1:0:0:
372,25,41875,1,2,1:2:0:0:
379,38,42182,1,0,1:2:0:0:
386,51,42490,1,0,1:2:0:0:
393,64,42798,1,0,1:2:0:0:
479,166,43105,5,0,1:2:0:0:
412,203,43259,1,2,0:2:0:0:
446,273,43413,1,2,1:2:0:0:
398,210,43567,2,0,P|389:120|369:18,1,180.000006866455,2|0,1:2|1:2,0:2:0:0:
360,40,44336,1,2,1:2:0:0:
347,47,44644,2,0,P|315:36|266:22,1,60.0000022888184,0|0,1:2|0:2,0:0:0:0:
213,8,44952,5,2,1:2:0:0:
252,133,45259,1,0,1:2:0:0:
241,263,45567,1,0,1:2:0:0:
166,284,45721,1,2,0:2:0:0:
103,244,45875,1,0,1:2:0:0:
170,297,46028,2,0,B|240:297|295:329|295:329|353:312,1,180.000006866455,2|0,1:2|1:2,0:2:0:0:
356,312,46798,1,2,1:2:0:0:
369,307,47105,2,0,P|366:276|355:248,1,60.0000022888184,0|0,1:2|0:2,0:0:0:0:
311,179,47413,5,2,1:2:0:0:
182,241,47721,1,0,1:2:0:0:
43,208,48028,1,0,1:2:0:0:
0,274,48182,1,2,0:2:0:0:
54,328,48336,1,2,1:2:0:0:
130,263,48490,2,0,P|136:198|153:85,1,180.000006866455,2|0,1:2|1:2,0:2:0:0:
304,281,49259,6,0,P|347:308|433:329,1,120.000004577637,2|0,1:2|1:2,0:2:0:0:
451,227,49721,1,2,0:2:0:0:
451,227,49875,2,0,P|408:200|322:179,1,120.000004577637,0|0,1:2|1:2,0:2:0:0:
248,99,50336,5,8,1:2:0:0:
248,99,50413,1,8,1:2:0:0:
248,99,50490,1,8,1:2:0:0:
177,179,50644,1,4,1:3:0:0:
132,83,50798,1,8,1:2:0:0:
257,216,50952,6,0,P|185:212|127:291,1,143.999995605469,6|0,1:2|1:2,0:2:0:0:
322,276,51413,1,8,0:2:0:0:
322,276,51721,2,0,P|394:280|452:201,1,143.999995605469,2|8,1:2|0:2,0:2:0:0:
441,45,52336,6,0,L|525:56,1,71.9999978027344,0|0,1:2|0:2,0:2:0:0:
373,105,52644,2,0,P|355:64|351:32,1,71.9999978027344,8|0,0:2|0:2,0:2:0:0:
242,2,52952,1,0,1:2:0:0:
199,84,53105,1,2,0:2:0:0:
269,144,53259,1,10,0:2:0:0:
176,68,53413,6,0,B|126:64|80:42|80:42|59:54|27:62,1,143.999995605469,2|0,1:2|1:2,0:2:0:0:
143,155,53875,2,0,P|156:210|166:305,1,143.999995605469,8|2,0:2|1:2,0:2:0:0:
405,313,54490,6,0,P|398:348|393:393,1,71.9999978027344,8|0,0:2|0:2,0:2:0:0:
244,346,54798,2,0,P|287:343|331:336,1,71.9999978027344,0|0,1:2|0:2,0:2:0:0:
468,246,55105,2,0,P|429:232|391:212,1,71.9999978027344,8|0,0:2|0:2,0:2:0:0:
313,87,55413,1,0,1:2:0:0:
383,26,55567,1,2,0:2:0:0:
404,120,55721,1,8,2:2:0:0:
305,72,55875,6,0,B|284:62|284:62|191:94|191:94|160:83,1,143.999995605469,2|0,1:2|1:2,0:2:0:0:
43,30,56336,1,8,0:2:0:0:
43,30,56644,2,0,P|66:78|76:180,1,143.999995605469,2|8,0:2|0:2,0:2:0:0:
61,242,57105,1,2,0:2:0:0:
81,333,57259,6,0,P|46:322|10:321,1,71.9999978027344,0|0,1:2|0:2,0:2:0:0:
166,384,57567,2,0,P|181:340|188:233,1,143.999995605469,8|0,0:2|1:2,0:2:0:0:
256,176,58028,1,2,0:2:0:0:
208,103,58182,1,10,0:2:0:0:
158,209,58336,6,0,B|203:240|269:232|269:232|289:251,1,143.999995605469,6|0,1:2|1:2,0:2:0:0:
482,225,58798,2,0,B|437:194|370:201|370:201|350:182,1,143.999995605469,8|2,0:2|1:2,0:2:0:0:
280,118,59259,1,8,0:2:0:0:
380,61,59413,1,8,0:2:0:0:
291,0,59567,1,2,1:2:0:0:
262,140,59721,5,14,1:2:0:0:
262,140,59875,2,0,B|270:233|270:233|295:255|300:298,1,143.999995605469,0|0,1:2|1:2,0:0:0:0:
272,384,60336,5,8,0:2:0:0:
224,297,60490,5,8,0:3:0:0:
189,227,60644,5,4,0:3:0:0:
300,303,60798,6,2,P|261:311|225:298,1,80,6|0,1:1|0:2,0:1:0:0:
150,263,61259,1,0,1:2:0:0:
150,263,61413,1,0,0:2:0:0:
269,233,61567,2,2,P|305:216|327:183,1,80,12|0,0:2|0:2,0:1:0:0:
225,57,62028,6,2,P|189:74|167:107,1,80,2|0,1:1|3:2,0:1:0:0:
146,182,62490,1,2,1:2:0:0:
146,182,62644,1,0,0:2:0:0:
243,133,62798,2,0,P|282:125|319:139,1,80,10|0,0:1|0:2,0:0:0:0:
306,321,63259,6,2,P|267:329|230:315,1,80,6|8,1:2|0:2,0:1:0:0:
164,276,63721,1,2,1:2:0:0:
164,276,63875,1,0,0:2:0:0:
273,250,64028,1,10,0:1:0:0:
273,250,64182,2,0,L|277:194,1,40,0|0,0:2|0:2,0:0:0:0:
225,84,64490,6,2,P|208:120|213:159,1,80,2|0,1:1|3:2,0:1:0:0:
348,177,64952,2,0,P|365:141|360:102,1,80,2|8,1:2|0:2,0:0:0:0:
305,39,65413,1,4,0:3:0:0:
288,133,65567,1,8,1:2:0:0:
78,83,65875,6,0,L|88:149,1,60.0000022888184,6|0,1:2|0:2,0:0:0:0:
78,301,66182,2,0,L|88:235,1,60.0000022888184,0|0,1:2|0:2,0:0:0:0:
205,65,66490,6,0,L|179:132,1,65.6000010009766,0|0,1:2|0:2,0:0:0:0:
205,319,66798,2,0,L|179:252,1,65.6000010009766,0|0,1:2|0:2,0:0:0:0:
341,99,67105,6,0,L|267:120,1,71.9999978027344,2|0,1:2|0:2,0:0:0:0:
341,285,67413,2,0,L|267:264,1,71.9999978027344,0|0,1:2|0:2,0:0:0:0:
445,107,67721,6,0,L|407:36,1,80,0|0,1:2|0:2,0:0:0:0:
445,277,68028,2,0,L|407:348,1,80,0|0,1:2|0:2,0:0:0:0:
305,98,68336,5,8,1:2:0:0:
216,79,68490,1,8,1:2:0:0:
305,286,68798,5,8,1:2:0:0:
216,305,68952,1,8,1:2:0:0:
256,192,69028,12,0,70567,0:2:0:0:
342,59,70644,6,0,L|322:156,1,88.000002685547,6|0,1:0|0:0,0:0:0:0:
273,266,70952,1,2,0:2:0:0:
210,191,71105,2,0,P|314:179|367:249,1,176.000005371094,8|2,0:0|0:2,0:0:0:0:
190,101,71567,1,0,0:0:0:0:
144,251,71721,2,0,P|126:210|125:166,1,88.000002685547,8|0,0:0|0:0,0:0:0:0:
278,272,72028,5,2,0:2:0:0:
278,272,72182,2,0,L|370:317,1,88.000002685547,2|8,0:1|0:0,0:0:0:0:
451,371,72490,2,0,P|485:374|464:346,1,88.000002685547,2|0,0:1|0:0,0:0:0:0:
278,272,72798,2,0,L|186:227,1,88.000002685547,2|8,0:1|0:0,0:0:0:0:
129,61,73105,6,0,B|50:68|33:141|33:141|59:124|83:126,1,176.000005371094,6|2,0:2|0:2,0:1:0:0:
199,233,73567,1,8,0:0:0:0:
44,298,73721,1,0,0:0:0:0:
112,218,73875,2,0,B|167:199|223:213|223:213|244:190|278:180,1,176.000005371094,2|8,0:2|0:0,0:0:0:0:
411,138,74336,1,0,0:0:0:0:
402,309,74490,5,2,0:2:0:0:
402,309,74644,2,0,P|351:302|309:272,1,88.000002685547,2|8,0:1|0:0,0:0:0:0:
297,89,74952,2,0,P|309:63|316:31,2,44.0000013427735,2|0|0,0:1|0:0|0:0,0:0:0:0:
146,229,75259,2,0,P|102:233|64:254,1,88.000002685547,2|8,0:1|0:0,0:0:0:0:
215,116,75567,6,0,P|267:173|376:118,1,176.000005371094,6|0,0:1|0:0,0:1:0:0:
503,290,76028,2,0,B|470:255|476:188|476:188|465:224|436:239,1,176.000005371094,12|2,0:2|0:1,0:0:0:0:
293,268,76490,1,0,0:2:0:0:
384,384,76644,2,0,P|381:331|366:295,1,88.000002685547,10|0,0:2|0:2,0:0:0:0:
226,202,76952,5,2,0:1:0:0:
158,312,77105,1,0,0:2:0:0:
39,247,77259,2,0,P|42:194|57:158,1,88.000002685547,10|0,0:2|0:2,0:0:0:0:
222,75,77567,5,2,0:1:0:0:
343,139,77721,1,0,0:2:0:0:
334,8,77875,1,8,0:2:0:0:
258,206,78028,6,2,P|311:244|427:219,1,155.999992858887,6|0,0:1|2:1,0:1:0:0:
398,238,78336,2,0,P|414:223|430:170,1,60.0000022888184,2|8,0:1|0:2,0:2:0:0:
246,181,78644,6,2,P|180:182|101:270,1,155.999992858887,6|0,0:2|2:2,0:1:0:0:
112,237,78952,2,2,P|107:258|126:311,1,60.0000022888184,2|8,0:1|0:2,0:1:0:0:
269,194,79259,6,2,P|322:155|334:37,1,155.999992858887,6|0,0:2|2:2,0:1:0:0:
343,70,79567,2,2,P|334:50|288:18,1,60.0000022888184,2|8,0:1|0:2,0:1:0:0:
243,198,79875,6,2,P|223:260|283:362,1,155.999992858887,6|0,0:2|2:2,0:1:0:0:
255,341,80182,2,2,P|274:351|330:350,1,60.0000022888184,6|8,0:2|0:2,0:1:0:0:
492,168,80490,6,0,B|460:158|460:158|357:198|357:198|320:182,1,176.000005371094,6|2,1:1|0:2,0:2:0:0:
184,22,80952,2,0,B|68:54|68:54|136:94,1,176.000005371094,12|2,0:2|0:2,0:0:0:0:
223,128,81413,1,0,0:2:0:0:
154,277,81567,2,0,P|135:234|150:165,1,88.000002685547,8|0,0:2|0:2,0:0:0:0:
348,239,81875,5,2,0:2:0:0:
348,239,82028,2,0,P|394:265|457:260,1,88.000002685547,2|8,0:1|0:2,0:2:0:0:
229,353,82336,2,0,P|183:379|120:374,1,88.000002685547,2|0,0:1|0:2,0:0:0:0:
40,253,82644,2,0,P|7:262|41:269,1,88.000002685547,2|8,0:1|0:2,0:0:0:0:
183,163,82952,6,0,B|238:162|291:112|291:112|315:121|346:119,1,176.000005371094,6|2,0:2|0:2,0:2:0:0:
498,22,83413,1,8,0:2:0:0:
346,0,83567,1,0,0:2:0:0:
431,143,83721,2,0,P|432:97|410:57,1,88.000002685547,2|0,0:2|0:2,0:0:0:0:
176,117,84028,2,0,P|175:163|197:203,1,88.000002685547,8|0,0:2|0:2,0:0:0:0:
348,123,84336,5,2,0:2:0:0:
348,123,84490,2,0,L|251:145,1,88.000002685547,2|8,0:1|0:2,0:2:0:0:
109,72,84798,2,0,L|69:28,2,44.0000013427735,2|0|0,0:1|0:2|0:2,0:0:0:0:
125,240,85105,2,0,L|99:324,1,88.000002685547,2|8,0:1|0:2,0:0:0:0:
305,218,85413,6,0,L|477:179,1,176.000005371094,6|0,0:1|0:2,0:2:0:0:
314,105,85875,2,0,B|216:58|236:124|134:71,1,176.000005371094,12|2,0:2|0:1,0:2:0:0:
355,23,86336,1,0,0:2:0:0:
375,178,86490,2,0,P|404:143|404:95,1,88.000002685547,10|0,0:2|0:2,0:0:0:0:
227,111,86798,5,2,0:1:0:0:
227,111,86952,1,0,0:2:0:0:
328,245,87105,2,0,P|370:262|416:247,1,88.000002685547,10|0,0:2|0:2,0:0:0:0:
311,63,87413,5,2,0:1:0:0:
311,63,87567,1,0,0:2:0:0:
249,221,87721,2,0,P|246:266|274:305,1,88.000002685547,8|0,0:2|0:1,0:0:0:0:
275,306,87952,1,0,0:2:0:0:
282,309,88028,5,12,1:2:0:0:
328,245,88182,1,8,1:1:0:0:
230,75,88490,5,8,0:2:0:0:
184,139,88644,1,8,0:2:0:0:
255,272,90490,5,6,1:1:0:0:
290,191,90644,1,0,0:2:0:0:
342,308,90798,2,0,B|290:289|231:319|231:319|186:307,1,160,8|2,0:2|0:2,0:0:0:0:
125,167,91259,1,0,0:2:0:0:
25,196,91413,1,8,0:2:0:0:
106,253,91567,5,2,0:1:0:0:
106,253,91644,1,0,0:2:0:0:
106,253,91721,1,0,0:2:0:0:
132,134,91875,2,0,P|96:120|41:109,1,80,2|8,0:1|0:2,0:0:0:0:
203,80,92182,2,0,P|180:48|140:9,1,80,2|0,0:1|0:2,0:0:0:0:
94,206,92490,2,0,P|56:213|4:234,1,80,2|8,0:1|0:2,0:0:0:0:
17,228,92798,1,2,0:1:0:0:
158,150,92952,6,0,B|236:185|237:144|319:181,1,160,6|8,0:2|0:2,0:2:0:0:
353,55,93413,1,0,0:2:0:0:
467,117,93567,2,0,P|444:132|380:131,1,80,2|0,0:2|0:2,0:0:0:0:
333,55,93875,1,8,0:2:0:0:
321,187,94028,5,2,0:1:0:0:
321,187,94105,1,0,0:2:0:0:
321,187,94182,1,0,0:2:0:0:
433,282,94336,2,0,P|393:282|358:263,1,80,2|8,0:1|0:2,0:2:0:0:
254,117,94644,2,0,P|214:116|179:135,1,80,2|0,0:1|0:2,0:2:0:0:
92,224,94952,5,14,0:2:0:0:
11,156,95105,2,0,B|-1:224|66:240|66:240|92:223,1,143.999995605469,8|0,0:2|2:2,0:0:0:0:
150,162,95413,6,0,P|126:186|128:323,1,160,6|8,0:2|0:2,0:0:0:0:
297,293,95875,1,0,0:2:0:0:
218,384,96028,2,0,L|204:273,1,80,2|0,0:2|0:2,0:2:0:0:
238,182,96336,1,8,0:2:0:0:
366,174,96490,5,2,0:1:0:0:
366,174,96567,1,0,0:2:0:0:
366,174,96644,1,0,0:2:0:0:
391,293,96798,2,0,P|351:291|314:276,1,80,2|8,0:1|0:2,0:0:0:0:
162,200,97105,2,0,P|201:198|238:183,1,80,2|0,0:1|0:2,0:2:0:0:
387,83,97413,1,2,0:1:0:0:
387,83,97490,1,0,0:2:0:0:
387,83,97567,2,0,P|347:81|310:66,1,80,8|0,0:2|0:2,0:2:0:0:
169,5,97875,5,8,3:3:0:0:
181,20,97952,1,8,3:3:0:0:
190,38,98028,1,8,3:3:0:0:
195,57,98105,1,8,3:3:0:0:
196,77,98182,2,0,P|174:85|153:100,3,40,8|8|8|8,3:3|3:3|3:3|3:3,0:0:0:0:
106,153,98490,2,0,P|91:171|82:195,3,40,4|4|4|4,3:3|3:3|3:3|3:3,0:0:0:0:
71,265,98798,2,0,P|69:288|74:313,3,40,4|4|4|4,3:3|3:3|3:3|3:3,0:0:0:0:
120,365,99105,6,0,P|161:356|199:355,1,80,4|2,3:3|1:1,0:0:0:0:
294,384,99413,1,8,1:2:0:0:
357,258,99567,2,0,P|354:214|343:161,1,80,2|8,1:1|1:3,0:0:0:0:
299,34,99875,1,2,1:1:0:0:
299,34,100028,1,4,1:3:0:0:
264,154,100182,6,2,B|323:169|369:129|369:129|381:147|411:159,1,160,6|0,1:2|0:2,0:1:0:0:
504,189,100644,1,12,0:2:0:0:
361,291,100952,6,0,P|366:316|369:356,1,64,2|0,1:2|0:2,0:2:0:0:
259,384,101259,2,0,P|261:352|266:320,1,64,8|0,0:2|0:2,0:2:0:0:
113,329,101567,2,0,P|143:338|175:343,1,64,0|0,1:2|0:2,0:2:0:0:
283,223,101875,2,0,B|209:221|234:259|134:252,1,128,8|0,0:2|1:2,0:2:0:0:
78,147,102336,5,2,0:2:0:0:
6,165,102490,1,10,0:2:0:0:
92,162,102644,2,0,L|110:28,1,128,2|0,1:2|1:2,0:2:0:0:
192,139,103105,2,0,P|230:157|329:173,1,128,8|0,0:2|1:2,0:2:0:0:
500,262,103721,6,0,P|470:266|427:280,1,64,10|0,0:2|0:2,0:2:0:0:
360,354,104028,2,0,P|391:358|422:367,1,64,0|0,1:2|0:2,0:2:0:0:
512,244,104336,2,0,P|493:171|488:103,1,128,8|0,0:2|1:2,0:2:0:0:
358,37,104798,5,2,0:2:0:0:
435,25,104952,1,10,0:2:0:0:
339,27,105105,2,0,B|324:43|324:43|337:157,1,128,2|0,1:2|1:2,0:2:0:0:
245,239,105567,2,0,B|260:223|260:223|247:109,1,128,8|0,0:2|1:2,0:2:0:0:
10,157,106182,6,0,P|40:168|72:170,1,64,10|0,0:2|0:2,0:2:0:0:
56,252,106490,2,0,P|87:250|117:239,1,64,0|0,1:2|0:2,0:2:0:0:
56,90,106798,2,0,B|128:108|110:68|197:83,1,128,8|0,0:2|1:2,0:2:0:0:
285,38,107259,5,2,0:2:0:0:
356,76,107413,1,10,0:2:0:0:
269,37,107567,2,0,P|239:71|243:166,1,128,2|0,1:2|1:2,0:2:0:0:
261,249,108028,2,0,P|232:234|201:225,1,64,8|0,0:2|0:2,0:2:0:0:
85,334,108336,2,0,P|148:340|204:307,1,128,2|8,1:2|0:2,0:2:0:0:
365,175,108952,6,0,P|340:286|339:324,1,128,2|8,1:2|0:2,0:2:0:0:
408,384,109413,1,0,1:2:0:0:
485,270,109567,1,8,0:2:0:0:
358,315,109721,1,0,1:2:0:0:
485,350,109875,1,8,0:2:0:0:
403,244,110028,6,0,B|391:211|391:211|397:184|397:184|373:154|372:82,1,151.999995941162,4|0,1:2|1:2,0:2:0:0:
233,171,110490,2,0,P|266:187|304:191,1,75.9999979705811,8|0,0:2|0:2,0:2:0:0:
304,191,110721,1,8,0:2:0:0:
304,191,110798,1,0,1:2:0:0:
240,273,110952,1,0,1:2:0:0:
165,226,111105,2,0,P|111:224|32:246,1,113.999996955872,8|8,0:2|0:2,0:0:0:0:
38,247,111413,6,0,P|26:220|23:156,1,75.9999979705811,0|0,1:2|1:2,0:0:0:0:
132,128,111721,2,0,P|135:90|149:55,1,75.9999979705811,8|0,0:2|0:2,0:2:0:0:
149,55,111952,1,8,0:2:0:0:
149,55,112028,1,0,1:2:0:0:
253,34,112182,1,2,1:2:0:0:
335,80,112336,1,10,0:2:0:0:
228,148,112490,6,0,B|234:234|234:234|262:256|262:294,1,151.999995941162,6|0,1:2|1:2,0:2:0:0:
111,314,112952,2,0,P|156:313|193:294,1,75.9999979705811,8|0,0:2|0:2,0:2:0:0:
183,300,113182,1,8,0:2:0:0:
183,300,113259,1,0,1:2:0:0:
265,376,113413,1,0,1:2:0:0:
347,328,113567,2,0,L|364:203,1,113.999996955872,8|8,0:2|0:2,0:0:0:0:
368,198,113875,6,0,P|404:209|450:202,1,75.9999979705811,0|0,1:2|1:2,0:0:0:0:
450,92,114182,2,0,P|414:81|368:88,1,75.9999979705811,8|0,0:2|0:2,0:2:0:0:
376,84,114413,1,8,2:2:0:0:
376,84,114490,1,0,0:2:0:0:
294,133,114644,1,2,1:2:0:0:
232,56,114798,1,10,0:2:0:0:
306,149,114952,6,0,P|324:206|288:303,1,151.999995941162,4|0,1:2|1:2,0:2:0:0:
215,361,115413,2,0,P|175:346|131:344,1,75.9999979705811,8|0,0:2|0:2,0:2:0:0:
142,343,115644,1,8,0:2:0:0:
142,343,115721,1,0,1:2:0:0:
52,383,115875,1,0,1:2:0:0:
5,296,116028,2,0,P|7:230|34:180,1,113.999996955872,8|8,0:2|2:2,0:0:0:0:
50,171,116336,6,0,P|84:189|129:193,1,75.9999979705811,0|0,1:2|1:2,0:0:0:0:
151,44,116644,2,0,P|126:73|113:116,1,75.9999979705811,8|0,0:2|0:2,0:2:0:0:
114,108,116875,1,8,0:2:0:0:
114,108,116952,1,0,1:2:0:0:
130,213,117105,1,2,1:2:0:0:
215,196,117259,1,10,0:2:0:0:
293,285,117413,6,0,B|327:319|327:319|380:325|427:296,1,151.999995941162,6|2,1:2|1:2,0:2:0:0:
468,155,117875,1,10,0:2:0:0:
404,214,118028,1,0,1:2:0:0:
510,309,118182,2,0,P|506:271|488:238,1,75.9999979705811,10|0,0:2|0:2,0:0:0:0:
384,128,118490,5,2,1:2:0:0:
480,70,118644,1,8,0:2:0:0:
363,143,118798,1,2,1:2:0:0:
309,29,118952,1,8,0:2:0:0:
309,29,119028,1,8,0:2:0:0:
309,29,119105,2,0,P|293:56|294:104,1,75.9999979705811,8|8,0:2|0:2,0:0:0:0:
356,200,119413,5,8,0:2:0:0:
413,274,119567,5,8,0:3:0:0:
424,354,119721,5,4,0:3:0:0:
388,236,119875,6,2,L|404:142,1,80,6|0,1:1|0:2,0:1:0:0:
419,79,120336,1,0,1:2:0:0:
419,79,120490,1,0,0:2:0:0:
310,178,120644,2,2,L|231:164,1,80,14|0,0:2|0:2,0:1:0:0:
158,42,121105,6,2,L|236:55,1,80,2|0,1:1|3:2,0:1:0:0:
319,70,121567,1,2,1:2:0:0:
319,70,121721,1,0,0:2:0:0:
231,164,121875,2,0,L|217:242,1,80,10|0,0:1|0:2,0:0:0:0:
114,174,122336,6,2,L|74:167,1,40,6|0,1:2|0:2,0:1:0:0:
58,281,122644,1,8,0:2:0:0:
58,281,122798,2,0,L|98:288,1,40,0|0,1:2|0:2,0:2:0:0:
219,219,123105,1,10,0:1:0:0:
219,219,123259,2,0,L|233:141,1,80,0|0,0:2|0:2,0:1:0:0:
300,36,123721,5,2,1:1:0:0:
357,135,123875,1,8,0:3:0:0:
357,135,123952,1,8,0:3:0:0:
357,135,124028,2,0,P|386:145|418:138,1,47.9999985351563,8|4,0:3|0:3,0:0:0:0:
512,122,124336,1,8,0:2:0:0:
472,225,124490,1,4,2:3:0:0:
402,143,124644,2,0,L|392:60,1,71.9999978027344,8|0,1:2|0:0,0:0:0:0:
392,54,124952,6,0,P|366:44|315:45,1,60.0000022888184,6|0,1:2|0:2,0:0:0:0:
252,61,125259,1,8,0:2:0:0:
279,171,125413,1,8,0:3:0:0:
279,171,125490,1,8,0:3:0:0:
279,171,125567,2,0,P|253:181|202:180,1,60.0000022888184,8|4,0:3|0:3,0:0:0:0:
158,86,125875,2,0,P|129:75|100:73,1,60.0000022888184,8|0,0:2|0:2,0:0:0:0:
23,196,126182,6,0,L|28:270,1,71.9999978027344,2|0,1:2|1:2,0:0:0:0:
65,351,126490,1,8,0:2:0:0:
188,276,126644,1,8,0:3:0:0:
188,276,126721,1,8,0:3:0:0:
188,276,126798,2,0,L|193:202,1,71.9999978027344,8|4,0:3|0:3,0:0:0:0:
363,307,127105,2,0,L|358:235,1,71.9999978027344,8|0,0:2|0:2,0:0:0:0:
380,94,127413,5,6,1:1:0:0:
256,373,127875,5,6,1:1:0:0:
132,94,128336,5,6,1:1:0:0:
256,192,128644,12,0,129644,0:2:0:0:
175,167,129721,6,0,P|135:147|106:115,1,88.000002685547,6|0,1:0|0:0,0:0:0:0:
275,274,130028,1,2,0:2:0:0:
275,274,130182,2,0,P|277:318|264:359,1,88.000002685547,8|0,0:0|0:0,0:0:0:0:
316,135,130490,1,2,0:2:0:0:
316,135,130644,2,0,P|353:110|396:101,1,88.000002685547,0|8,0:0|0:0,0:0:0:0:
240,110,130952,5,2,0:1:0:0:
240,110,131028,1,0,0:0:0:0:
240,110,131105,1,0,0:0:0:0:
334,219,131259,2,0,L|433:251,1,88.000002685547,2|0,0:1|0:0,0:0:0:0:
193,246,131567,2,0,L|116:315,1,88.000002685547,2|0,0:1|0:0,0:0:0:0:
240,110,131875,2,0,L|218:9,1,88.000002685547,2|8,0:1|0:0,0:0:0:0:
26,166,132182,6,0,B|76:130|161:142|161:142|139:157|128:181,1,176.000005371094,6|2,0:2|0:2,0:1:0:0:
70,231,132644,1,8,0:0:0:0:
121,88,132798,1,0,0:0:0:0:
203,206,132952,2,0,P|245:226|304:217,1,88.000002685547,2|0,0:2|0:0,0:0:0:0:
285,224,133182,1,0,0:0:0:0:
285,224,133259,1,8,0:0:0:0:
391,114,133413,6,0,B|394:89|417:69|417:69|423:34,1,88.000002685547,2|0,1:1|0:0,0:0:0:0:
432,248,133721,2,0,B|438:283|438:283|461:303|464:327,1,88.000002685547,2|8,0:1|0:0,0:0:0:0:
469,138,134028,2,0,P|491:151|514:157,2,44.0000013427735,2|0|0,0:1|0:0|0:0,0:0:0:0:
385,349,134336,2,0,P|335:368|299:366,1,88.000002685547,2|8,0:1|0:0,0:0:0:0:
223,206,134644,6,0,B|236:119|272:140|282:41,1,176.000005371094,6|0,0:1|0:0,0:1:0:0:
35,24,135105,2,0,P|69:66|191:68,1,176.000005371094,12|2,0:2|0:1,0:0:0:0:
307,18,135567,1,0,0:2:0:0:
316,208,135721,2,0,P|308:168|281:123,1,88.000002685547,10|0,0:2|0:2,0:0:0:0:
93,69,136028,5,2,0:1:0:0:
177,161,136182,1,0,0:2:0:0:
49,249,136336,2,0,P|58:206|80:168,1,88.000002685547,10|0,0:2|0:2,0:0:0:0:
275,90,136644,5,2,0:1:0:0:
371,145,136798,1,0,0:2:0:0:
481,106,136952,1,8,0:2:0:0:
362,165,137105,6,2,L|376:325,1,155.999992858887,6|0,0:1|2:1,0:1:0:0:
375,320,137413,2,0,L|317:304,1,60.0000022888184,2|8,0:1|0:2,0:2:0:0:
150,165,137721,6,2,L|136:325,1,155.999992858887,6|0,0:2|2:2,0:1:0:0:
136,320,138028,2,2,L|210:300,1,60.0000022888184,2|8,0:1|0:2,0:1:0:0:
391,140,138336,6,2,L|405:300,1,155.999992858887,6|0,0:2|2:2,0:1:0:0:
404,295,138644,2,2,L|346:279,1,60.0000022888184,2|8,0:1|0:2,0:1:0:0:
121,140,138952,6,2,L|107:300,1,155.999992858887,6|0,0:2|2:2,0:1:0:0:
108,295,139259,2,2,L|166:279,1,60.0000022888184,6|8,0:2|0:2,0:1:0:0:
414,103,139567,6,0,B|346:119|291:74|291:74|267:93|243:98,1,176.000005371094,6|2,1:1|0:2,0:2:0:0:
121,140,140028,1,12,0:2:0:0:
216,194,140182,1,0,0:2:0:0:
168,59,140336,1,2,0:2:0:0:
99,160,140490,1,0,0:2:0:0:
221,218,140644,2,0,P|253:231|316:235,1,88.000002685547,8|0,0:2|0:2,0:0:0:0:
66,317,140952,5,2,0:2:0:0:
66,317,141105,2,0,P|98:304|161:300,1,88.000002685547,2|8,0:1|0:2,0:2:0:0:
317,340,141413,2,0,B|353:366|353:366|310:357,1,88.000002685547,2|0,0:1|0:2,0:0:0:0:
151,299,141721,2,0,P|112:278|80:247,1,88.000002685547,2|8,0:1|0:2,0:0:0:0:
323,243,142028,6,0,B|359:193|421:173|421:173|430:152|460:117,1,176.000005371094,6|2,0:2|0:2,0:2:0:0:
287,58,142490,2,0,P|319:88|357:109,1,88.000002685547,8|0,0:2|0:2,0:0:0:0:
508,67,142798,1,2,0:2:0:0:
512,207,142952,1,0,0:2:0:0:
512,207,143028,1,0,0:0:0:0:
512,207,143105,1,8,0:2:0:0:
357,109,143259,6,0,P|314:117|274:136,1,88.000002685547,2|0,0:0|0:0,0:0:0:0:
80,221,143567,2,0,P|123:229|163:248,1,88.000002685547,2|8,0:0|0:0,0:0:0:0:
304,342,143875,2,0,P|311:371|330:404,2,44.0000013427735,2|0|0,0:0|0:0|0:0,0:0:0:0:
432,215,144182,2,0,P|447:172|449:118,1,88.000002685547,2|8,0:0|0:0,0:0:0:0:
252,10,144490,6,0,B|250:52|257:76|257:76|285:104|285:104|298:135|291:191,1,176.000005371094,6|0,0:1|0:2,0:2:0:0:
39,172,144952,2,0,P|136:175|220:149,1,176.000005371094,12|2,0:2|0:1,0:2:0:0:
332,17,145413,1,0,0:2:0:0:
428,127,145567,2,0,P|384:106|330:102,1,88.000002685547,10|0,0:2|0:2,0:0:0:0:
215,157,145875,5,2,0:1:0:0:
215,157,146028,1,0,0:2:0:0:
298,274,146182,2,0,P|342:295|396:299,1,88.000002685547,10|0,0:2|0:2,0:0:0:0:
215,157,146490,5,2,0:1:0:0:
104,232,146644,1,0,0:2:0:0:
41,113,146798,1,8,0:2:0:0:
116,264,146952,5,0,0:1:0:0:
116,264,147028,1,0,0:2:0:0:
116,264,147105,1,14,1:1:0:0:
256,192,147182,12,0,148644,0:2:0:0:
131,155,148798,5,8,0:2:0:0:
131,155,148875,1,8,0:2:0:0:
131,155,148952,2,0,P|95:145|54:148,1,60.0000022888184,8|8,0:2|0:3,0:0:0:0:
62,226,149259,2,0,P|98:236|139:233,1,60.0000022888184,4|4,0:3|0:3,0:0:0:0:
245,175,149567,6,0,P|228:115|246:49,1,120.000004577637,6|0,1:2|1:2,0:2:0:0:
240,59,150182,1,2,1:2:0:0:
240,59,150490,1,0,1:2:0:0:
392,125,150798,2,0,P|409:185|391:251,1,120.000004577637,2|0,1:2|1:2,0:2:0:0:
352,306,151259,1,0,0:2:0:0:
352,306,151413,2,0,P|313:292|226:291,1,120.000004577637,2|0,1:2|1:2,0:2:0:0:
60,327,152028,5,2,1:2:0:0:
135,361,152336,1,0,1:2:0:0:
129,276,152644,1,2,1:2:0:0:
231,249,152952,1,0,1:2:0:0:
162,197,153259,2,0,P|140:140|163:68,1,120.000004577637,2|0,1:2|1:2,0:2:0:0:
152,84,153721,2,0,L|89:64,1,60.0000022888184,0|2,0:2|1:2,0:0:0:0:
312,47,154182,2,0,L|254:28,1,60.0000022888184,2|0,0:2|0:2,0:0:0:0:
306,127,154490,6,0,P|364:119|396:53,1,120.000004577637,6|0,1:2|1:2,0:2:0:0:
395,70,155105,1,2,1:2:0:0:
395,70,155413,1,0,1:2:0:0:
480,219,155721,2,0,P|448:170|390:162,2,120.000004577637,2|0|0,1:2|1:2|1:2,0:2:0:0:
492,296,156490,1,2,0:2:0:0:
432,346,156644,2,0,P|395:343|367:326,1,60.0000022888184,2|0,0:2|0:2,0:0:0:0:
288,258,156952,6,0,P|284:184|274:113,1,120.000004577637,2|0,1:2|1:2,0:2:0:0:
278,138,157567,1,2,1:2:0:0:
278,138,157875,1,0,1:2:0:0:
162,203,158182,2,0,P|166:277|176:348,1,120.000004577637,2|0,1:2|1:2,0:2:0:0:
232,379,158644,1,2,0:2:0:0:
303,292,158798,2,0,P|277:289|234:277,1,60.0000022888184,0|0,1:2|0:2,0:0:0:0:
112,333,159105,2,2,P|142:329|171:322,1,60.0000022888184,0|0,1:2|0:2,0:1:0:0:
207,189,159413,5,6,1:2:0:0:
207,189,159567,1,0,0:2:0:0:
125,244,159721,2,0,B|120:178|99:146|99:146|118:93,1,137.600002099609,2|0,1:2|1:2,0:2:0:0:
207,189,160182,2,0,P|283:212|350:204,1,137.600002099609,2|0,0:2|0:2,0:2:0:0:
445,78,160644,5,6,1:2:0:0:
445,78,160798,1,0,0:2:0:0:
491,152,160952,2,0,L|473:300,1,137.600002099609,2|0,1:2|1:2,0:0:0:0:
345,316,161413,2,0,L|352:390,2,68.8000010498047,2|0|0,0:2|1:2|0:2,0:2:0:0:
238,246,161875,5,6,1:2:0:0:
238,246,162028,1,0,0:2:0:0:
144,304,162182,2,0,P|109:301|77:289,1,68.8000010498047,2|0,1:2|0:2,0:2:0:0:
146,205,162490,1,0,1:2:0:0:
146,205,162644,2,0,B|150:148|186:120|186:120|188:75,1,137.600002099609,2|0,0:2|0:2,0:0:0:0:
324,18,163105,5,2,1:2:0:0:
324,18,163259,1,0,0:2:0:0:
336,99,163413,2,0,P|301:96|269:82,1,68.8000010498047,2|0,1:2|0:2,0:2:0:0:
191,43,163721,1,0,1:2:0:0:
191,43,163875,2,0,P|219:93|225:188,1,137.600002099609,2|0,0:2|0:2,0:2:0:0:
159,289,164336,5,6,1:2:0:0:
159,289,164490,1,0,0:2:0:0:
253,366,164644,2,0,B|174:340|191:390|104:353,1,137.600002099609,2|0,1:2|1:2,0:2:0:0:
40,264,165105,2,0,P|42:207|82:122,1,137.600002099609,2|0,0:2|0:2,0:2:0:0:
189,64,165567,5,2,1:2:0:0:
189,64,165721,1,0,0:2:0:0:
229,156,165875,2,0,P|196:157|161:162,1,68.8000010498047,2|0,1:2|0:2,0:0:0:0:
291,228,166182,1,0,1:2:0:0:
366,175,166336,2,0,P|383:104|367:35,1,137.600002099609,2|0,0:2|0:2,0:2:0:0:
223,17,166798,6,0,B|202:129|297:126|272:243,1,240,4|0,1:2|0:2,0:2:0:0:
272,243,168028,2,0,B|179:210|205:283|106:246,1,160,2|0,0:2|0:2,0:2:0:0:
0,114,168952,5,8,1:2:0:0:
0,114,169259,6,2,B|26:108|26:108|47:91|47:91|108:109|170:66,1,176.000005371094,6|8,0:1|0:2,0:1:0:0:
323,0,169721,2,2,P|293:51|282:176,1,176.000005371094,2|2,0:1|0:1,0:1:0:0:
322,320,170182,1,8,0:1:0:0:
407,177,170336,1,0,0:2:0:0:
320,236,170490,5,2,0:1:0:0:
320,236,170644,2,0,B|276:247|276:247|236:230,1,88.000002685547,0|8,0:2|0:2,0:2:0:0:
349,115,170952,1,2,0:1:0:0:
357,90,171028,1,0,0:2:0:0:
365,64,171105,1,0,0:2:0:0:
262,92,171259,1,2,0:1:0:0:
185,49,171413,1,8,0:2:0:0:
138,123,171567,1,0,0:2:0:0:
47,43,171721,6,2,L|61:235,1,176.000005371094,4|8,1:2|0:2,0:1:0:0:
116,346,172182,2,2,P|74:358|30:353,1,88.000002685547,2|0,0:1|0:2,0:1:0:0:
151,247,172490,1,2,0:1:0:0:
224,384,172644,2,0,L|238:276,1,88.000002685547,8|0,0:2|0:2,0:0:0:0:
418,205,172952,5,2,0:1:0:0:
418,205,173105,2,0,B|424:249|424:249|406:292,1,88.000002685547,0|8,0:2|0:2,0:0:0:0:
280,220,173413,2,0,B|248:209|248:209|224:213|224:213|167:196,1,88.000002685547,2|0,0:1|0:2,0:0:0:0:
82,96,173721,5,14,0:2:0:0:
74,184,173875,2,0,B|38:225|38:225|82:96,1,155.999992858887,12|0,0:2|2:0,0:0:0:0:
133,75,174182,6,2,B|95:52|95:52|52:54,1,88.000002685547,6|0,1:1|0:2,0:1:0:0:
195,204,174490,2,0,L|252:22,1,176.000005371094,8|2,0:2|0:1,0:2:0:0:
326,147,174952,1,0,0:2:0:0:
414,71,175105,1,8,0:2:0:0:
491,136,175259,1,0,0:2:0:0:
322,167,175413,6,2,B|339:246|339:246|306:288|315:341,1,176.000005371094,2|8,0:1|0:2,0:1:0:0:
488,328,175875,1,2,0:1:0:0:
488,328,175952,1,0,0:2:0:0:
488,328,176028,2,0,L|382:309,1,88.000002685547,0|0,0:2|0:2,0:2:0:0:
230,293,176336,2,0,P|226:336|237:378,1,88.000002685547,8|0,0:2|0:2,0:2:0:0:
332,239,176644,5,8,3:3:0:0:
351,228,176721,1,8,3:3:0:0:
367,213,176798,1,8,3:3:0:0:
378,194,176875,1,8,3:3:0:0:
384,173,176952,2,0,P|369:147|366:126,3,44.0000013427735,8|8|8|8,3:3|3:3|3:3|3:3,0:0:0:0:
289,141,177259,2,0,P|290:111|299:91,3,44.0000013427735,4|4|4|4,3:3|3:3|3:3|3:3,0:0:0:0:
226,62,177567,2,0,P|243:37|261:26,3,44.0000013427735,4|4|4|4,3:3|3:3|3:3|3:3,0:0:0:0:
337,8,177875,5,8,3:3:0:0:
354,35,177952,1,8,3:3:0:0:
381,54,178028,1,8,3:3:0:0:
413,60,178105,1,8,3:3:0:0:
445,53,178182,2,0,L|461:-6,3,44.0000013427735,8|8|8|8,3:3|3:3|3:3|3:3,0:0:0:0:
457,128,178490,2,0,L|473:69,3,44.0000013427735,4|4|4|4,3:3|3:3|3:3|3:3,0:0:0:0:
469,203,178798,2,0,L|485:144,3,44.0000013427735,4|4|4|4,3:3|3:3|3:3|3:3,0:0:0:0:
512,272,179105,6,2,B|483:254|483:254|459:264|459:264|432:242|381:237,1,143.999995605469,6|0,0:1|2:0,0:1:0:0:
305,287,179413,2,2,L|296:183,1,95.9999970703126,6|0,0:2|0:2,0:1:0:0:
296,191,179644,1,0,0:2:0:0:
296,191,179721,1,2,0:1:0:0:
212,285,179875,1,0,0:2:0:0:
146,198,180028,1,10,0:2:0:0:
57,242,180182,1,0,0:2:0:0:
162,191,180336,6,0,B|179:147|179:147|164:93,1,95.9999970703126,2|0,0:1|0:2,0:2:0:0:
0,128,180644,2,0,B|103:143,1,95.9999970703126,10|0,0:2|0:2,0:2:0:0:
268,69,180952,1,2,0:1:0:0:
309,165,181105,1,0,0:2:0:0:
376,59,181259,1,10,0:2:0:0:
306,186,181413,1,0,0:2:0:0:
260,51,181567,6,2,P|217:35|165:37,1,95.9999970703126,6|0,1:2|0:2,0:1:0:0:
120,228,181875,2,0,P|72:229|27:213,1,95.9999970703126,8|2,0:2|0:1,0:0:0:0:
27,213,182105,1,0,0:2:0:0:
27,213,182182,1,0,0:2:0:0:
140,144,182336,1,2,0:2:0:0:
197,289,182490,2,0,L|210:187,1,95.9999970703126,8|0,0:2|0:2,0:0:0:0:
308,134,182798,5,2,0:1:0:0:
388,185,182952,1,0,0:2:0:0:
459,122,183105,1,8,0:2:0:0:
379,71,183259,2,0,L|372:13,2,47.9999985351563,2|0|0,0:1|0:2|0:2,0:0:0:0:
377,209,183567,5,14,0:2:0:0:
482,267,183721,2,0,B|521:264|521:264|428:225,1,111.999996582031,12|0,0:2|0:2,0:2:0:0:
225,82,184028,5,6,1:1:0:0:
225,82,184182,2,0,P|201:123|196:185,1,95.9999970703126,0|8,0:2|0:2,0:0:0:0:
303,329,184490,2,0,P|279:287|228:252,1,95.9999970703126,2|0,0:1|0:2,0:0:0:0:
50,273,184798,2,0,P|97:273|153:246,1,95.9999970703126,2|8,0:1|0:2,0:0:0:0:
289,163,185105,5,2,0:1:0:0:
289,163,185259,1,0,0:2:0:0:
369,243,185413,5,2,0:1:0:0:
369,243,185567,1,8,0:2:0:0:
448,138,185721,5,2,0:1:0:0:
448,138,185875,1,0,0:2:0:0:
512,299,186028,5,10,0:1:0:0:
459,230,186182,2,0,B|422:227|395:249|395:249|343:237,1,95.9999970703126,10|0,0:2|0:2,0:0:0:0:
143,93,186490,6,2,P|189:120|246:119,1,103.999995239258,6|0,1:1|0:2,0:1:0:0:
330,97,186798,1,2,0:2:0:0:
161,234,186952,6,2,P|214:231|261:199,1,103.999995239258,10|0,0:1|0:2,0:1:0:0:
320,135,187259,1,2,0:2:0:0:
252,341,187413,6,2,P|295:309|317:257,1,103.999995239258,10|0,0:1|0:2,0:1:0:0:
332,172,187721,1,2,0:1:0:0:
387,381,187875,6,0,P|405:330|395:275,1,103.999995239258,12|2,0:2|0:2,0:0:0:0:
362,196,188182,1,4,0:3:0:0:
309,285,188336,1,8,0:2:0:0:
250,163,188490,1,8,0:2:0:0:
217,312,188644,2,2,L|220:343,2,20,10|0|0,2:2|2:2|2:2,0:1:0:0:
142,175,188952,6,2,P|85:272|139:381,1,223.999993164063,14|0,1:1|0:2,0:1:0:0:
388,368,189413,2,0,P|426:267|370:175,1,223.999993164063,14|0,0:2|0:2,0:2:0:0:
111,103,189875,6,2,B|161:146|268:139|234:81|309:63|387:99|387:99|330:90|296:139,1,396.000012084961,14|4,0:1|1:1,2:1:0:0:
256,192,196952,12,0,198105,0:2:0:0:
256,192,198182,5,2,0:2:0:0:
287,267,198336,2,0,P|297:284|327:308,2,40,8|8|8,0:2|0:2|0:2,0:0:0:0:
185,149,198644,6,2,B|150:118|78:111|78:111|94:126|102:143,1,155.999992858887,6|0,0:2|2:1,0:1:0:0:
102,143,198952,2,0,P|130:137|162:135,1,60.0000022888184,2|8,0:1|0:2,0:2:0:0:
338,185,199259,6,2,B|385:189|447:152|447:152|424:150|408:140,1,155.999992858887,6|0,0:2|2:2,0:1:0:0:
408,140,199567,2,2,P|389:161|364:181,1,60.0000022888184,2|8,0:1|0:2,0:1:0:0:
193,245,199875,6,2,B|153:270|124:336|124:336|144:324|163:323,1,155.999992858887,6|0,0:2|2:2,0:1:0:0:
161,323,200182,2,2,P|164:295|173:264,1,60.0000022888184,2|8,0:1|0:2,0:1:0:0:
275,112,200490,6,2,B|293:68|278:-2|278:-2|269:19|254:31,1,155.999992858887,6|0,0:2|2:2,0:1:0:0:
255,30,200798,2,2,P|269:54|280:84,1,60.0000022888184,6|8,0:2|0:2,0:1:0:0:
287,267,201105,6,0,B|350:291|394:331|394:331|421:322|444:321,1,176.000005371094,6|2,1:1|0:2,0:2:0:0:
250,351,201567,2,0,B|148:331|183:382|62:360,1,176.000005371094,12|2,0:2|0:2,0:0:0:0:
241,262,202028,1,0,0:2:0:0:
326,383,202182,2,0,P|330:340|313:296,1,88.000002685547,8|0,0:2|0:2,0:0:0:0:
192,180,202490,5,2,0:2:0:0:
192,180,202644,2,0,P|148:172|113:147,1,88.000002685547,2|8,0:1|0:2,0:2:0:0:
355,132,202952,2,0,P|383:97|423:80,1,88.000002685547,2|0,0:1|0:2,0:0:0:0:
293,212,203259,1,2,0:1:0:0:
293,212,203336,1,0,0:0:0:0:
293,212,203413,1,8,0:2:0:0:
426,240,203567,6,0,L|520:267,1,88.000002685547,6|0,0:2|0:0,0:2:0:0:
394,383,203875,1,2,0:2:0:0:
329,288,204028,2,0,B|316:242|316:242|332:163|332:163|320:115,1,176.000005371094,8|2,0:2|0:2,0:0:0:0:
200,232,204490,1,0,0:2:0:0:
146,131,204644,1,8,0:2:0:0:
48,181,204798,1,0,0:2:0:0:
174,120,204952,5,2,0:2:0:0:
174,120,205105,2,0,P|172:67|151:27,1,88.000002685547,2|8,0:1|0:2,0:2:0:0:
283,263,205413,2,0,P|304:278|335:289,2,44.0000013427735,2|0|0,0:1|0:2|0:2,0:0:0:0:
104,285,205721,2,0,P|59:313|34:351,1,88.000002685547,2|8,0:1|0:2,0:0:0:0:
207,384,206028,6,0,B|180:299|214:305|191:209,1,176.000005371094,6|0,0:1|0:2,0:2:0:0:
26,230,206490,2,0,P|73:258|132:262,1,88.000002685547,12|0,0:2|0:2,0:2:0:0:
266,118,206798,1,2,0:1:0:0:
120,66,206952,1,0,0:0:0:0:
202,192,207105,1,8,0:0:0:0:
215,34,207259,1,8,0:3:0:0:
288,139,207413,5,4,0:3:0:0:
316,154,207490,1,4,0:3:0:0:
349,155,207567,1,4,0:3:0:0:
379,142,207644,1,4,0:3:0:0:
400,117,207721,2,0,P|404:73|377:17,1,88.000002685547,8|0,0:0|0:0,0:0:0:0:
243,3,208028,5,10,0:1:0:0:
165,99,208182,1,8,0:0:0:0:
49,49,208336,1,8,0:0:0:0:
182,121,208490,6,0,B|192:250|192:250|161:267|149:295,1,191.999994140625,6|2,1:0|1:2,0:0:0:0:
308,357,208952,2,0,P|263:357|223:329,1,95.9999970703126,12|0,0:2|0:0,0:0:0:0:
108,213,209259,1,2,0:2:0:0:
216,149,209413,1,0,0:0:0:0:
108,93,209567,1,12,0:2:0:0:
131,201,209721,1,0,0:0:0:0:
240,136,209875,5,2,0:2:0:0:
240,136,210028,2,0,P|248:90|231:24,1,95.9999970703126,2|12,0:1|0:2,0:0:0:0:
116,4,210336,1,2,0:1:0:0:
116,4,210413,1,0,0:0:0:0:
116,4,210490,1,0,0:0:0:0:
23,112,210644,2,0,P|15:158|32:224,1,95.9999970703126,2|12,0:1|0:2,0:0:0:0:
145,353,210952,6,0,L|246:343,1,95.9999970703126,6|0,0:1|0:0,0:1:0:0:
287,181,211259,1,2,1:2:0:0:
435,280,211413,2,0,L|334:270,1,95.9999970703126,12|0,0:2|0:0,0:0:0:0:
195,129,211721,1,2,0:2:0:0:
231,241,211875,1,0,0:0:0:0:
308,153,212028,1,12,0:2:0:0:
220,260,212182,1,0,0:0:0:0:
179,114,212336,5,2,0:2:0:0:
179,114,212490,2,0,P|134:93|69:94,1,95.9999970703126,2|12,0:1|0:2,0:0:0:0:
289,93,212798,2,0,P|262:50|207:16,1,95.9999970703126,2|0,0:1|0:0,0:0:0:0:
99,192,213105,2,0,P|49:198|-4:235,1,95.9999970703126,2|8,0:1|0:2,0:0:0:0:
234,383,213413,6,0,B|183:334|101:328|101:328|66:266,1,191.999994140625,6|0,0:1|0:0,0:1:0:0:
286,292,213875,2,0,B|389:276|359:229|478:216,1,191.999994140625,12|2,0:2|0:1,0:0:0:0:
299,198,214336,1,0,0:2:0:0:
435,321,214490,2,0,P|458:345|439:317,1,95.9999970703126,14|0,0:2|0:2,0:0:0:0:
274,186,214798,5,2,0:1:0:0:
172,258,214952,1,0,0:2:0:0:
66,193,215105,2,0,P|68:135|93:85,1,95.9999970703126,14|0,0:2|0:2,0:0:0:0:
262,30,215413,5,2,0:1:0:0:
369,117,215567,1,0,0:2:0:0:
463,26,215721,1,12,0:2:0:0:
355,137,215875,6,2,P|338:188|440:254,1,167.999994873047,6|0,0:1|2:1,0:1:0:0:
412,258,216182,2,0,P|437:235|441:194,1,60.0000022888184,2|8,0:1|0:2,0:2:0:0:
235,81,216490,6,2,P|278:112|372:36,1,167.999994873047,6|0,0:2|2:2,0:1:0:0:
368,62,216798,2,2,P|353:31|316:14,1,60.0000022888184,2|8,0:1|0:2,0:1:0:0:
143,177,217105,6,2,P|186:146|143:33,1,167.999994873047,6|0,0:2|2:2,0:1:0:0:
166,45,217413,2,2,P|132:49|105:79,1,60.0000022888184,2|8,0:1|0:2,0:1:0:0:
207,294,217721,6,2,P|191:243|70:250,1,167.999994873047,6|0,0:2|2:2,0:1:0:0:
89,229,218028,2,2,P|83:263|103:298,1,60.0000022888184,6|8,0:2|0:2,0:1:0:0:
338,269,218336,6,0,B|282:247|222:306|242:364|242:364|264:362|284:379,1,191.999994140625,6|2,1:1|0:2,0:2:0:0:
459,299,218798,2,0,B|480:222|402:196|419:116,1,191.999994140625,12|2,0:2|0:2,0:0:0:0:
338,269,219259,1,0,0:2:0:0:
249,201,219413,1,12,0:2:0:0:
178,298,219567,1,0,0:2:0:0:
119,175,219721,5,2,0:2:0:0:
119,175,219875,2,0,B|88:168|88:168|59:180|59:180|11:168,1,95.9999970703126,2|12,0:1|0:2,0:2:0:0:
173,332,220182,2,0,B|161:393,2,47.9999985351563,2|0|0,0:1|0:2|0:2,0:0:0:0:
347,240,220490,2,0,B|378:233|378:233|407:245|407:245|455:233,1,95.9999970703126,2|12,0:1|0:2,0:0:0:0:
280,32,220798,6,0,P|258:79|261:128,1,95.9999970703126,6|0,0:1|0:0,0:2:0:0:
167,64,221105,1,2,0:2:0:0:
348,97,221259,2,0,B|277:71|277:71|231:85|231:85|165:63,1,191.999994140625,12|2,0:2|0:2,0:0:0:0:
372,13,221721,1,0,0:2:0:0:
414,163,221875,2,0,P|435:120|434:72,1,95.9999970703126,12|0,0:2|0:2,0:0:0:0:
202,160,222182,5,2,0:2:0:0:
202,160,222336,2,0,P|150:177|73:166,1,95.9999970703126,2|12,0:1|0:2,0:2:0:0:
290,302,222644,1,2,0:1:0:0:
299,274,222721,1,0,0:2:0:0:
308,246,222798,1,0,0:2:0:0:
381,296,222952,1,2,0:1:0:0:
221,251,223105,1,8,0:2:0:0:
316,218,223259,6,0,L|306:105,1,95.9999970703126,6|0,0:1|0:0,0:2:0:0:
109,176,223567,1,0,0:2:0:0:
194,9,223721,2,0,L|202:104,1,95.9999970703126,12|0,0:2|0:2,0:2:0:0:
216,290,224028,5,2,0:1:0:0:
216,290,224182,1,0,0:2:0:0:
52,368,224336,2,0,P|99:362|141:340,1,95.9999970703126,14|0,0:2|0:2,0:0:0:0:
223,297,224644,5,2,0:1:0:0:
223,297,224798,1,0,0:2:0:0:
1,212,224952,2,0,P|29:250|69:275,1,95.9999970703126,14|0,0:2|0:2,0:0:0:0:
230,304,225259,5,2,0:1:0:0:
230,304,225413,1,0,0:2:0:0:
110,89,225567,2,0,P|91:132|89:180,1,95.9999970703126,12|0,0:2|0:1,0:0:0:0:
95,193,225798,1,0,0:2:0:0:
104,203,225875,5,12,1:2:0:0:
194,113,226028,1,8,1:1:0:0:
408,181,226336,5,8,0:2:0:0:
318,271,226490,1,8,0:2:0:0:
235,125,228336,6,0,B|291:146|336:112|336:112|348:140|396:153,1,160,6|8,0:1|0:2,0:0:0:0:
274,47,228798,1,0,0:2:0:0:
153,147,228952,2,0,P|152:107|173:65,1,80,2|0,0:2|0:2,0:2:0:0:
256,212,229259,1,8,0:2:0:0:
158,264,229413,5,2,0:1:0:0:
158,264,229490,1,0,0:2:0:0:
158,264,229567,1,0,0:2:0:0:
153,147,229721,2,0,P|119:133|64:135,1,80,2|8,0:1|0:2,0:0:0:0:
279,102,230028,2,0,P|264:68|224:30,1,80,2|0,0:1|0:2,0:0:0:0:
399,159,230336,2,0,P|412:125|411:70,1,80,2|8,0:1|0:2,0:0:0:0:
413,82,230644,1,2,0:1:0:0:
289,191,230798,6,0,P|257:193|206:221,1,80,6|0,0:2|0:2,0:2:0:0:
183,341,231105,1,8,0:2:0:0:
270,298,231259,1,0,0:2:0:0:
131,259,231413,2,0,P|208:250|270:298,1,160,2|8,0:2|0:2,0:0:0:0:
453,248,231875,5,2,0:1:0:0:
453,248,231952,1,0,0:2:0:0:
453,248,232028,1,0,0:2:0:0:
375,349,232182,2,0,L|361:243,1,80,2|8,0:1|0:2,0:2:0:0:
512,174,232490,2,0,L|501:94,1,80,2|0,0:1|0:2,0:2:0:0:
319,19,232798,5,14,0:2:0:0:
355,110,232952,2,0,B|397:27|397:27|348:41,1,143.999995605469,8|0,0:2|2:2,0:0:0:0:
278,87,233259,6,0,B|184:96|219:55|117:68,1,160,6|8,0:2|0:2,0:0:0:0:
133,204,233721,1,0,0:2:0:0:
0,158,233875,2,0,P|46:143|99:143,1,80,2|0,0:2|0:2,0:2:0:0:
146,229,234182,1,8,0:2:0:0:
71,302,234336,5,2,0:1:0:0:
71,302,234413,1,0,0:2:0:0:
71,302,234490,1,0,0:2:0:0:
216,376,234644,2,0,P|176:372|138:358,1,80,2|8,0:1|0:2,0:0:0:0:
309,276,234952,2,0,P|343:256|372:228,1,80,2|0,0:1|0:2,0:2:0:0:
185,197,235259,1,2,0:1:0:0:
185,197,235336,1,0,0:2:0:0:
185,197,235413,2,0,P|162:163|149:126,1,80,8|0,0:2|0:2,0:2:0:0:
255,11,235721,5,8,3:3:0:0:
267,31,235798,1,8,3:3:0:0:
287,45,235875,1,8,3:3:0:0:
311,50,235952,1,8,3:3:0:0:
334,44,236028,2,0,L|344:-4,3,40,8|8|8|8,3:3|3:3|3:3|3:3,0:0:0:0:
400,92,236336,2,0,L|410:44,3,40,4|4|4|4,3:3|3:3|3:3|3:3,0:0:0:0:
466,140,236644,2,0,L|476:92,3,40,4|4|4|4,3:3|3:3|3:3|3:3,0:0:0:0:
512,206,236952,5,8,3:3:0:0:
481,188,237028,1,8,3:3:0:0:
446,194,237105,1,8,3:3:0:0:
421,219,237182,1,8,3:3:0:0:
416,254,237259,2,0,L|468:276,3,40,8|8|8|8,3:3|3:3|3:3|3:3,0:0:0:0:
344,272,237567,2,0,L|396:294,3,40,4|4|4|4,3:3|3:3|3:3|3:3,0:0:0:0:
272,290,237875,2,0,L|324:312,3,40,4|4|4|4,3:3|3:3|3:3|3:3,0:0:0:0:
209,364,238182,6,0,B|195:308|241:265|241:265|212:196,1,160,6|12,1:1|0:2,0:2:0:0:
153,115,238644,1,0,0:2:0:0:
45,234,238798,2,0,P|85:230|120:211,1,80,2|0,0:2|0:2,0:0:0:0:
172,88,239105,1,8,0:2:0:0:
251,225,239259,5,2,0:1:0:0:
251,225,239336,1,0,0:2:0:0:
251,225,239413,1,0,0:2:0:0:
309,138,239567,2,0,P|309:100|290:53,1,80,2|8,0:1|0:2,0:0:0:0:
377,209,239875,2,0,P|397:177|407:127,1,80,2|0,0:1|0:2,0:0:0:0:
214,116,240182,2,0,P|193:84|151:55,1,80,2|8,0:1|0:2,0:0:0:0:
160,58,240490,1,0,0:2:0:0:
168,250,240644,6,0,P|138:269|93:276,1,80,6|0,0:2|0:2,0:2:0:0:
241,374,240952,2,0,B|257:321|257:321|256:281|256:281|281:206,1,160,12|2,0:2|0:2,0:2:0:0:
358,315,241413,1,0,0:2:0:0:
430,251,241567,1,8,0:2:0:0:
485,356,241721,5,2,0:1:0:0:
485,356,241798,1,0,0:2:0:0:
485,356,241875,1,0,0:2:0:0:
421,261,242028,2,0,P|409:217|413:162,1,80,2|8,0:1|0:2,0:2:0:0:
352,53,242336,2,0,P|395:40|450:43,1,80,2|0,0:1|0:2,0:2:0:0:
281,176,242644,5,14,0:2:0:0:
201,109,242798,2,0,B|185:173|253:192|253:192|296:168,1,143.999995605469,8|0,0:2|2:2,0:0:0:0:
364,189,243105,6,0,P|358:138|327:101,1,80,6|0,0:2|0:2,0:0:0:0:
204,287,243413,2,0,P|251:307|299:298,1,80,8|0,0:2|0:2,0:0:0:0:
199,99,243721,1,2,0:2:0:0:
199,99,243875,2,0,P|158:130|142:176,1,80,0|8,0:2|0:2,0:0:0:0:
256,192,244182,5,2,0:1:0:0:
256,192,244259,1,0,0:2:0:0:
256,192,244336,1,0,0:2:0:0:
155,227,244490,2,0,L|49:247,1,80,2|8,0:1|0:2,0:0:0:0:
276,87,244798,2,0,L|311:-14,1,80,2|0,0:1|0:2,0:2:0:0:
336,261,245105,1,2,0:1:0:0:
336,261,245182,1,0,0:2:0:0:
336,261,245259,2,0,L|407:343,1,80,8|0,0:2|0:2,0:2:0:0:
407,107,245567,5,6,0:2:0:0:
429,190,245721,1,0,0:2:0:0:
483,128,245875,1,8,0:2:0:0:
355,169,246028,1,0,0:2:0:0:
355,169,246105,1,0,0:2:0:0:
355,169,246182,2,0,P|301:152|271:129,1,80,2|0,0:2|0:2,0:0:0:0:
199,321,246490,2,0,P|253:338|283:361,1,80,8|0,0:2|0:2,0:0:0:0:
148,189,246798,5,6,0:2:0:0:
107,286,246952,6,0,B|102:297|102:297|95:303|95:303|96:312|96:312|69:372,1,80,0|0,0:2|0:2,0:0:0:0:
133,147,247259,6,0,B|122:142|122:142|116:135|116:135|107:136|107:136|47:109,1,88.000002685547,14|0,0:2|0:2,0:0:0:0:
231,254,247567,6,0,B|226:265|226:265|219:271|219:271|220:280|220:280|193:340,1,95.9999970703126,10|0,0:2|0:2,0:0:0:0:
233,94,247875,6,2,B|220:88|220:88|213:80|213:80|202:81|202:81|130:48,1,110.399996293945,6|0,1:1|2:2,2:1:0:0:
