osu file format v14

[General]
AudioFilename: audio.mp3
AudioLeadIn: 0
PreviewTime: 62559
Countdown: 0
SampleSet: Soft
StackLeniency: 0.7
Mode: 0
LetterboxInBreaks: 0
WidescreenStoryboard: 0

[Editor]
DistanceSpacing: 1
BeatDivisor: 4
GridSize: 32
TimelineZoom: 2.1

[Metadata]
Title:BRAND NEW STARS!!
TitleUnicode:BRAND NEW STARS!!
Artist:ES All Stars
ArtistUnicode:ESオールスターズ
Creator:Addy2607
Version:The Blooming Stars of Ensemble Square
Source:あんさんぶるスターズ!!
Tags:kanor Ensemble Stars!! basic music video mobile rhythm game male idol vocal Starmaker Cosmic Production Trickstar トリックスター RYUSEITAI 流星隊 fine フィーネ ALKANOID アルカロイド Eden エデン 2wink トゥウィンク Valkyrie ヴァルキュリー Crazy:B クレイジービー UNDEAD アンデッド AKATSUKI 紅月 Ra*bits ラビッツ Knights ナイツ Switch スウィッチ MaM マム Jin & Akiomi japanese j-pop jpop
BeatmapID:2597169
BeatmapSetID:1249620

[Difficulty]
HPDrainRate:6.5
CircleSize:3.8
OverallDifficulty:8.5
ApproachRate:9.3
SliderMultiplier:1.7
SliderTickRate:1

[Events]
//Background and Video events
0,0,"Starmaker Production.jpg",0,0
//Break Periods
//Storyboard Layer 0 (Background)
//Storyboard Layer 1 (Fail)
//Storyboard Layer 2 (Pass)
//Storyboard Layer 3 (Foreground)
//Storyboard Layer 4 (Overlay)
//Storyboard Sound Samples

[TimingPoints]
1284,255.31914893617,4,2,1,60,1,0
1284,-181.818181818182,4,2,1,60,0,0
2049,255.31914893617,4,2,1,60,1,0
2049,-250,4,2,1,60,0,0
6134,-166.666666666667,4,2,1,70,0,0
8176,-125,4,2,1,70,0,0
11751,-125,4,2,1,80,0,0
12261,-100,4,2,1,70,0,0
22474,-166.666666666667,4,2,1,70,0,0
22985,-125,4,2,1,70,0,0
23368,-100,4,2,1,70,0,0
28602,-166.666666666667,4,2,1,50,0,0
32048,-166.666666666667,4,2,2,50,0,0
32176,-166.666666666667,4,2,1,50,0,0
32687,-133.333333333333,4,2,1,60,0,0
36708,-133.333333333333,4,2,1,5,0,0
36772,-166.666666666667,4,2,1,50,0,0
40857,-133.333333333333,4,2,1,60,0,0
44687,-133.333333333333,4,2,2,60,0,0
44942,-181.818181818182,4,2,1,50,0,0
49538,-125,4,2,1,60,0,0
49793,-125,4,2,1,50,0,0
50048,-181.818181818182,4,2,1,50,0,0
50559,-125,4,2,1,60,0,0
51070,-166.666666666667,4,2,1,70,0,0
51261,-166.666666666667,4,2,1,5,0,0
51325,-166.666666666667,4,2,1,70,0,0
51453,-125,4,2,1,70,0,0
51836,-100,4,2,1,70,0,0
53112,-133.333333333333,4,2,1,60,0,0
57197,-133.333333333333,4,2,1,50,0,0
59112,-133.333333333333,4,2,2,50,0,0
59240,-133.333333333333,4,2,1,40,0,0
60261,-133.333333333333,4,2,1,50,0,0
61283,-111.111111111111,4,2,1,60,0,0
62304,-90.9090909090909,4,2,1,70,0,0
63325,-86.9565217391304,4,2,1,80,0,1
77495,-83.3333333333333,4,2,1,80,0,1
79666,-86.9565217391304,4,2,1,80,0,1
89878,-117.647058823529,4,2,1,80,0,1
90389,-100,4,2,1,80,0,1
90772,-86.9565217391304,4,2,1,80,0,1
91538,-86.9565217391304,4,2,2,80,0,1
91921,-100,4,2,1,60,0,0
91985,-100,4,2,1,5,0,0
92176,-100,4,2,1,60,0,0
92431,-100,4,2,1,60,0,0
93006,-100,4,2,1,5,0,0
93197,-100,4,2,1,60,0,0
93453,-100,4,2,1,60,0,0
93836,-100,4,2,2,50,0,0
93963,-125,4,2,1,50,0,0
94474,-125,4,2,1,60,0,0
94985,-111.111111111111,4,2,1,70,0,0
96006,-100,4,2,1,70,0,0
106219,-166.666666666667,4,2,1,70,0,0
106729,-125,4,2,1,70,0,0
107112,-100,4,2,1,70,0,0
112283,-100,4,2,1,5,0,0
112346,-133.333333333333,4,2,1,50,0,0
116431,-117.647058823529,4,2,1,60,0,0
119751,-100,4,2,1,60,0,0
120517,-133.333333333333,4,2,1,50,0,0
121793,-117.647058823529,4,2,1,50,0,0
122176,-100,4,2,1,50,0,0
122559,-133.333333333333,4,2,1,50,0,0
123836,-166.666666666667,4,2,1,50,0,0
124219,-133.333333333333,4,2,1,50,0,0
124602,-117.647058823529,4,2,1,60,0,0
128431,-117.647058823529,4,2,2,60,0,0
128687,-166.666666666667,4,2,1,50,0,0
133283,-117.647058823529,4,2,1,60,0,0
133538,-117.647058823529,4,2,1,50,0,0
133793,-166.666666666667,4,2,1,50,0,0
134304,-117.647058823529,4,2,1,60,0,0
134814,-153.846153846154,4,2,1,70,0,0
135006,-153.846153846154,4,2,1,5,0,0
135070,-153.846153846154,4,2,1,70,0,0
135197,-117.647058823529,4,2,1,70,0,0
135580,-95.2380952380952,4,2,1,70,0,0
135836,-95.2380952380952,4,2,1,70,0,0
136729,-95.2380952380952,4,2,2,70,0,0
136857,-125,4,2,1,60,0,0
140942,-125,4,2,1,60,0,0
142857,-125,4,2,2,60,0,0
142985,-125,4,2,1,40,0,0
144006,-125,4,2,1,50,0,0
145027,-111.111111111111,4,2,1,60,0,0
145219,-111.111111111111,4,2,1,60,0,0
145283,-111.111111111111,4,2,1,60,0,0
145602,-111.111111111111,4,2,1,60,0,0
145666,-111.111111111111,4,2,1,60,0,0
145985,-111.111111111111,4,2,1,5,0,0
146048,-111.111111111111,4,2,1,60,0,0
147070,-100,4,2,1,70,0,0
148091,-90.9090909090909,4,2,1,70,0,0
149112,-86.9565217391304,4,2,1,80,0,1
163283,-83.3333333333333,4,2,1,80,0,1
165453,-86.9565217391304,4,2,1,80,0,1
175666,-117.647058823529,4,2,1,80,0,1
176176,-100,4,2,1,80,0,1
176559,-86.9565217391304,4,2,1,80,0,1
177708,-100,4,2,1,60,0,0
177772,-100,4,2,1,5,0,0
177963,-100,4,2,1,60,0,0
178219,-100,4,2,1,60,0,0
178793,-100,4,2,1,5,0,0
178985,-100,4,2,1,60,0,0
179240,-100,4,2,1,60,0,0
179751,-125,4,2,1,50,0,0
180261,-125,4,2,2,60,0,0
180772,-111.111111111111,4,2,1,70,0,0
181793,-285.714285714286,4,2,1,50,0,0
185878,-222.222222222222,4,2,1,50,0,0
187921,-133.333333333333,4,2,1,50,0,0
188942,-125,4,2,1,50,0,0
189963,-153.846153846154,4,2,1,60,0,0
195836,-153.846153846154,4,2,1,60,0,0
195963,-153.846153846154,4,2,2,60,0,0
196091,-153.846153846154,4,2,1,50,0,0
196602,-153.846153846154,4,2,1,60,0,0
197112,-153.846153846154,4,2,1,70,0,0
197963,-153.846153846154,4,2,2,60,0,0
198134,-153.846153846154,4,2,1,60,0,0
199666,-90.9090909090909,4,2,1,70,0,0
200176,-86.9565217391304,4,2,1,80,0,1
206304,-86.9565217391304,4,2,1,90,0,1
208346,-86.9565217391304,4,2,1,80,0,1
212431,-100,4,2,1,80,0,1
216517,-86.9565217391304,4,2,1,80,0,1
218559,-100,4,2,1,80,0,1
218751,-100,4,2,1,5,0,1
218814,-100,4,2,1,80,0,1
219134,-100,4,2,1,5,0,1
219197,-100,4,2,1,80,0,1
219517,-100,4,2,1,5,0,1
219580,-100,4,2,1,80,0,1
219900,-100,4,2,1,5,0,1
219963,-100,4,2,1,80,0,1
220091,-100,4,2,1,70,0,1
220431,-100,4,2,2,70,0,1
220602,-285.714285714286,4,2,1,60,0,0
222644,-500,4,2,1,50,0,0
224687,-333.333333333333,4,2,1,50,0,0
226219,-222.222222222222,4,2,1,50,0,0
228772,-181.818181818182,4,2,1,40,0,0
229283,-181.818181818182,4,2,1,50,0,0
229793,-153.846153846154,4,2,1,60,0,0
230304,-153.846153846154,4,2,1,70,0,0
230814,-200,4,2,1,60,0,0
232857,-166.666666666667,4,2,1,60,0,0
233368,-142.857142857143,4,2,1,60,0,0
233751,-125,4,2,1,60,0,0
234900,-111.111111111111,4,2,1,70,0,0
236942,-100,4,2,1,80,0,0
237453,-100,4,2,2,80,0,0
237708,-100,4,2,1,80,0,0
237836,-100,4,2,2,80,0,0
237963,-125,4,2,1,80,0,0
238985,-100,4,2,1,70,0,0
239878,-90.9090909090909,4,2,1,70,0,0
241027,-86.9565217391304,4,2,1,80,0,1
253155,-83.3333333333333,4,2,1,80,0,1
255325,-86.9565217391304,4,2,1,80,0,1
265538,-117.647058823529,4,2,1,80,0,1
266048,-100,4,2,1,80,0,1
266431,-86.9565217391304,4,2,1,80,0,1
267197,-86.9565217391304,4,2,2,80,0,1
267580,-100,4,2,1,60,0,0
267644,-100,4,2,1,5,0,0
268091,-100,4,2,1,60,0,0
268666,-100,4,2,1,5,0,0
269112,-100,4,2,1,60,0,0
269495,-100,4,2,2,60,0,0
269623,-95.2380952380952,4,2,1,70,0,0
271538,-95.2380952380952,4,2,2,70,0,0
271666,-86.9565217391304,4,2,1,60,0,0
273708,-125,4,2,1,50,0,0
274219,-125,4,2,1,60,0,0
274729,-111.111111111111,4,2,1,70,0,0
275240,-111.111111111111,4,2,1,80,0,0
275751,-100,4,2,1,70,0,0
276772,-111.111111111111,4,2,1,70,0,0
276963,-111.111111111111,4,2,1,5,0,0
277027,-111.111111111111,4,2,1,70,0,0
277155,-100,4,2,1,70,0,0
277346,-100,4,2,1,5,0,0
277410,-100,4,2,1,70,0,0
277538,-86.9565217391304,4,2,1,70,0,0
277793,-100,4,2,1,70,0,0
278814,-111.111111111111,4,2,1,70,0,0
279006,-111.111111111111,4,2,1,5,0,0
279070,-111.111111111111,4,2,1,70,0,0
279197,-100,4,2,1,70,0,0
279389,-100,4,2,1,5,0,0
279453,-100,4,2,1,70,0,0
279580,-86.9565217391304,4,2,1,70,0,0
279836,-100,4,2,1,70,0,0
280857,-111.111111111111,4,2,1,70,0,0
281048,-111.111111111111,4,2,1,5,0,0
281112,-111.111111111111,4,2,1,70,0,0
281240,-100,4,2,1,70,0,0
281431,-100,4,2,1,5,0,0
281495,-100,4,2,1,70,0,0
281623,-86.9565217391304,4,2,1,70,0,0
281878,-90.9090909090909,4,2,1,70,0,0
283921,-100,4,2,1,70,0,0
284942,-111.111111111111,4,2,1,70,0,0
285134,-111.111111111111,4,2,1,5,0,0
285197,-111.111111111111,4,2,1,70,0,0
285325,-100,4,2,1,70,0,0
285517,-100,4,2,1,5,0,0
285580,-100,4,2,1,70,0,0
285708,-86.9565217391304,4,2,1,70,0,0
285963,-100,4,2,1,70,0,0
286985,-111.111111111111,4,2,1,70,0,0
287176,-111.111111111111,4,2,1,5,0,0
287240,-111.111111111111,4,2,1,70,0,0
287368,-100,4,2,1,70,0,0
287751,-86.9565217391304,4,2,1,70,0,0
288006,-100,4,2,1,70,0,0
290048,-86.9565217391304,4,2,1,80,0,0
291325,240,4,2,1,80,1,0
291325,-86.9565217391304,4,2,1,80,0,0
292091,255.31914893617,4,2,1,70,1,0
292091,-294.117647058824,4,2,1,70,0,0
292601,-294.117647058824,4,2,1,60,0,0
293112,-294.117647058824,4,2,1,50,0,0
293622,-294.117647058824,4,2,1,40,0,0
294133,-294.117647058824,4,2,1,30,0,0
294644,-294.117647058824,4,2,1,40,0,0
295154,-294.117647058824,4,2,1,50,0,0
295665,-294.117647058824,4,2,1,60,0,0
295920,-294.117647058824,4,2,1,70,0,0
296176,-294.117647058824,4,2,1,5,0,0

[Colours]
Combo1 : 0,234,234
Combo2 : 255,128,0
Combo3 : 255,0,0
Combo4 : 255,237,174

[HitObjects]
374,95,1284,6,0,P|408:78|456:111,2,93.5000028533936,2|2|2,0:0|0:0|0:0,0:0:0:0:
374,95,2049,6,0,P|458:124|390:168,1,204,6|2,3:2|0:0,0:0:0:0:
397,170,3070,6,0,B|340:179|304:137|304:137|269:172|207:164,1,204,4|2,3:2|0:0,0:0:0:0:
211,164,4091,6,0,P|274:157|312:130,1,102,6|8,3:2|0:0,0:0:0:0:
324,104,4602,1,10,0:0:0:0:
131,35,4857,1,2,3:2:0:0:
131,35,4985,1,0,3:2:0:0:
131,35,5112,6,0,B|85:60|85:60|89:151,1,136,4|0,3:2|3:0,0:0:0:0:
88,143,5878,1,2,0:0:0:0:
24,247,6134,6,0,P|71:234|124:260,1,101.999996887207,6|2,3:2|0:0,0:0:0:0:
281,323,6644,2,0,P|234:336|181:310,1,101.999996887207,2|2,3:2|0:0,0:0:0:0:
242,201,7027,1,2,0:0:0:0:
242,201,7155,6,0,L|244:258,1,50.9999984436036,2|0,3:2|0:0,0:0:0:0:
365,363,7410,2,0,L|367:306,1,50.9999984436036,2|0,0:0|0:0,0:0:0:0:
459,233,7666,1,10,0:0:0:0:
448,188,7793,1,8,0:0:0:0:
440,142,7921,1,2,3:2:0:0:
430,97,8048,1,0,3:0:0:0:
419,52,8176,6,0,B|346:41|360:100|276:76,1,136,14|0,0:0|3:0,0:0:0:0:
99,15,8559,2,0,P|155:11|209:78,1,136,8|0,0:0|3:0,0:0:0:0:
109,180,8942,2,0,L|117:105,1,68,8|0,0:0|3:0,0:0:0:0:
188,227,9197,5,12,0:0:0:0:
188,227,9453,1,8,0:0:0:0:
203,313,9580,1,8,0:0:0:0:
269,254,9708,1,8,0:0:0:0:
284,340,9835,1,8,0:0:0:0:
351,282,9963,1,8,0:0:0:0:
366,368,10090,1,8,0:0:0:0:
482,270,11240,5,8,0:0:0:0:
477,224,11325,1,8,0:0:0:0:
473,178,11410,1,0,1:0:0:0:
432,156,11495,5,0,1:0:0:0:
437,129,11580,1,0,3:0:0:0:
443,102,11666,1,0,3:0:0:0:
468,20,11751,6,0,B|366:3|384:106|261:64,1,204,14|0,0:0|0:0,0:0:0:0:
172,24,12261,6,0,L|182:123,1,85,6|0,3:2|0:0,0:0:0:0:
96,194,12517,1,8,0:0:0:0:
29,131,12644,2,0,L|109:72,1,85,2|0,0:0|3:0,0:0:0:0:
211,112,12900,1,0,3:0:0:0:
204,205,13027,2,0,L|113:164,1,85,10|0,0:0|3:0,0:0:0:0:
24,294,13283,5,0,0:0:0:0:
24,294,13410,2,0,L|114:253,1,85,2|8,3:2|0:0,0:0:0:0:
203,329,13666,1,0,0:0:0:0:
203,329,13793,5,2,3:2:0:0:
283,356,13921,1,0,3:0:0:0:
360,322,14048,1,10,0:0:0:0:
411,254,14176,1,0,0:0:0:0:
411,254,14304,6,0,P|356:237|315:251,1,85,2|0,3:2|0:0,0:0:0:0:
483,210,14559,1,8,0:0:0:0:
432,134,14687,2,0,P|487:117|528:131,1,85,2|0,0:0|3:0,0:0:0:0:
321,125,14942,1,0,3:0:0:0:
373,55,15070,2,0,P|318:38|277:52,1,85,10|0,0:0|3:0,0:0:0:0:
270,200,15325,5,0,0:0:0:0:
270,200,15453,2,0,P|325:217|366:203,1,85,2|8,3:2|0:0,0:0:0:0:
187,48,15708,1,0,0:0:0:0:
187,48,15836,5,2,3:2:0:0:
104,29,15963,1,0,3:0:0:0:
125,111,16091,1,10,0:0:0:0:
41,92,16219,1,0,0:0:0:0:
41,92,16346,6,0,L|28:189,1,85,2|0,3:2|0:0,0:0:0:0:
207,151,16602,1,8,0:0:0:0:
140,212,16729,2,0,L|43:199,1,85,2|0,0:0|3:0,0:0:0:0:
83,366,16985,1,0,3:0:0:0:
14,306,17112,2,0,L|27:209,1,85,10|0,0:0|3:0,0:0:0:0:
186,287,17368,5,0,0:0:0:0:
186,287,17495,2,0,L|173:384,1,85,2|8,3:2|0:0,0:0:0:0:
248,195,17751,1,0,0:0:0:0:
248,195,17878,5,2,3:2:0:0:
331,176,18006,1,0,3:0:0:0:
403,221,18134,1,10,0:0:0:0:
440,296,18261,1,0,0:0:0:0:
440,296,18389,6,0,L|342:303,1,85,2|0,3:2|0:0,0:0:0:0:
408,134,18644,2,0,L|506:141,1,85,10|0,0:0|0:0,0:0:0:0:
296,253,18900,1,2,3:2:0:0:
331,176,19027,1,0,3:0:0:0:
286,103,19155,1,10,0:0:0:0:
339,36,19283,6,0,P|268:20|196:97,1,170,6|2,3:2|3:2,0:0:0:0:
161,151,19666,2,0,P|154:96|119:66,1,85,10|0,0:0|0:0,0:0:0:0:
108,243,19921,2,0,P|159:264|202:249,1,85,2|0,3:2|3:0,0:0:0:0:
54,144,20176,2,0,P|9:177|2:222,1,85,10|8,0:0|0:0,0:0:0:0:
78,313,20431,5,0,3:0:0:0:
78,313,20687,2,0,L|74:216,2,85,10|2|2,0:0|0:0|3:2,0:0:0:0:
150,358,21070,1,2,3:2:0:0:
220,310,21197,1,10,0:0:0:0:
287,361,21325,6,0,B|245:326|245:326|249:199,1,170,2|2,3:2|3:2,0:0:0:0:
410,204,21708,2,0,L|334:243,1,85,10|2,0:0|0:0,0:0:0:0:
250,98,21963,2,0,L|321:143,1,85,2|2,3:2|3:2,0:0:0:0:
246,297,22219,2,0,L|249:212,1,85,10|0,0:0|0:0,0:0:0:0:
356,58,22474,6,0,P|408:41|461:92,1,101.999996887207,6|8,3:2|0:0,0:0:0:0:
400,129,22857,1,0,0:0:0:0:
324,70,22985,6,0,P|386:22|463:63,1,136,6|8,3:2|0:0,0:0:0:0:
300,94,23368,6,0,P|229:14|170:21,1,170,6|0,3:2|3:0,0:0:0:0:
147,154,23751,2,0,P|192:134|216:88,1,85,8|0,0:0|0:0,0:0:0:0:
76,86,24006,1,0,3:2:0:0:
23,152,24134,1,2,3:2:0:0:
77,216,24261,1,10,0:0:0:0:
22,281,24389,1,2,0:0:0:0:
74,347,24517,6,0,L|171:337,2,85,6|0|10,3:2|3:0|0:0,0:0:0:0:
163,247,24900,2,0,P|201:253|242:304,1,85,2|0,3:2|0:0,0:0:0:0:
365,305,25155,2,0,P|327:311|286:362,1,85,2|8,3:2|0:0,0:0:0:0:
471,363,25410,2,0,L|478:263,1,85,6|0,3:2|0:0,0:0:0:0:
352,188,25666,2,0,L|359:288,1,85,2|8,3:2|0:0,0:0:0:0:
489,352,25921,2,0,L|496:252,1,85,2|0,0:0|3:0,0:0:0:0:
330,202,26176,2,0,L|337:302,1,85,2|8,3:2|0:0,0:0:0:0:
499,152,26431,1,0,3:0:0:0:
458,36,26559,5,14,0:0:0:0:
458,36,26687,1,0,3:0:0:0:
377,132,26814,5,8,0:0:0:0:
377,132,26942,1,2,3:2:0:0:
312,28,27070,5,8,0:0:0:0:
312,28,27197,1,0,3:0:0:0:
253,134,27325,5,10,0:0:0:0:
253,134,27453,1,0,3:0:0:0:
184,28,27580,5,10,0:0:0:0:
99,16,27708,1,0,0:0:0:0:
49,90,27836,6,0,L|44:191,1,85,2|2,3:2|0:0,0:0:0:0:
172,229,28091,2,0,L|167:128,1,85,2|10,3:2|0:0,0:0:0:0:
8,271,28346,2,0,P|64:255|126:328,1,127.5,2|2,3:2|0:0,0:0:0:0:
138,373,28602,5,6,3:2:0:0:
374,334,30134,5,8,0:0:0:0:
374,334,30261,2,0,P|426:309|439:253,1,101.999996887207,0|0,3:0|0:0,0:0:0:0:
408,185,30644,5,8,0:0:0:0:
232,341,31538,5,2,3:2:0:0:
232,341,31602,1,0,3:0:0:0:
232,341,31666,2,0,L|239:276,1,50.9999984436036,10|0,0:0|1:0,0:0:0:0:
153,203,31921,2,0,L|160:268,1,50.9999984436036,0|2,3:0|3:2,0:0:0:0:
111,337,32176,1,8,0:0:0:0:
241,193,32304,2,0,P|215:137|177:121,1,101.999996887207,4|0,3:2|0:0,0:0:0:0:
90,121,32687,6,0,P|127:59|187:44,1,127.500004863739,4|8,3:2|0:0,0:0:0:0:
176,43,33070,1,0,0:0:0:0:
320,91,33197,1,2,3:2:0:0:
320,91,33325,1,0,3:0:0:0:
382,35,33453,1,8,0:0:0:0:
382,35,33580,1,0,3:0:0:0:
437,96,33708,6,0,L|428:164,1,63.7500024318696,2|0,0:0|3:0,0:0:0:0:
338,232,33963,2,0,L|331:161,1,63.7500024318696,8|0,0:0|0:0,0:0:0:0:
471,270,34219,1,2,3:2:0:0:
471,270,34346,1,0,3:0:0:0:
420,336,34474,2,0,L|351:337,1,63.7500024318696,8|0,0:0|0:0,0:0:0:0:
208,222,34729,6,0,P|269:218|306:272,1,127.500004863739,2|8,3:2|0:0,0:0:0:0:
305,267,35112,1,0,0:0:0:0:
224,353,35240,1,0,3:0:0:0:
152,311,35368,1,2,3:2:0:0:
79,350,35495,1,10,0:0:0:0:
17,294,35623,6,0,B|30:235|30:235|22:209|22:209|31:169,1,127.500004863739,2|0,3:2|3:0,0:0:0:0:
131,142,36006,2,0,L|114:216,1,63.7500024318696,8|0,0:0|0:0,0:0:0:0:
26,52,36261,1,0,3:0:0:0:
99,12,36389,1,0,3:0:0:0:
169,56,36517,2,0,P|225:77|270:53,1,95.6250036478044,10|0,0:0|0:0,0:0:0:0:
277,43,36772,5,4,3:2:0:0:
502,99,37283,6,0,P|443:89|404:113,1,101.999996887207,10|2,0:0|3:2,0:0:0:0:
393,141,37623,1,0,3:0:0:0:
393,141,37708,1,8,0:0:0:0:
393,141,37793,5,10,0:0:0:0:
459,305,38048,6,0,P|486:264|481:201,1,101.999996887207,0|8,3:0|0:0,0:0:0:0:
353,362,38431,2,0,P|326:321|331:258,1,101.999996887207,0|0,3:0|0:0,0:0:0:0:
401,215,38814,5,0,3:0:0:0:
276,321,39070,2,0,L|212:326,1,50.9999984436036,10|10,0:0|0:0,0:0:0:0:
169,265,39325,2,0,L|105:270,1,50.9999984436036,2|0,1:2|1:0,0:0:0:0:
98,310,39580,2,0,L|34:315,1,50.9999984436036,2|0,3:2|3:0,0:0:0:0:
12,282,39836,5,10,0:0:0:0:
173,167,40091,6,0,P|204:116|196:60,1,101.999996887207,0|8,3:2|0:0,0:0:0:0:
47,31,40474,2,0,P|75:83|128:104,1,101.999996887207,0|0,3:0|0:0,0:0:0:0:
135,13,40857,6,0,P|207:-7|262:29,1,127.500004863739,4|10,3:2|0:0,0:0:0:0:
266,38,41240,1,0,0:0:0:0:
353,93,41368,2,0,L|428:86,1,63.7500024318696,2|0,3:2|3:0,0:0:0:0:
289,170,41623,1,10,0:0:0:0:
381,233,41751,6,0,P|344:176|271:177,1,127.500004863739,0|0,3:0|3:0,0:0:0:0:
293,327,42134,2,0,L|300:247,1,63.7500024318696,10|0,0:0|0:0,0:0:0:0:
197,184,42389,1,2,3:2:0:0:
197,184,42517,1,0,3:0:0:0:
133,236,42644,2,0,L|140:316,1,63.7500024318696,10|0,0:0|0:0,0:0:0:0:
0,196,42900,6,0,L|11:65,1,127.500004863739,2|8,3:2|0:0,0:0:0:0:
11,68,43283,1,0,0:0:0:0:
83,167,43410,6,0,L|94:36,1,127.500004863739,8|0,0:0|3:0,0:0:0:0:
171,9,43751,1,0,3:0:0:0:
213,13,43836,1,8,0:0:0:0:
251,16,43921,6,0,P|318:45|324:102,1,127.500004863739,8|2,0:0|1:2,0:0:0:0:
500,109,44304,1,0,3:0:0:0:
500,109,44431,2,0,P|454:100|402:166,1,127.500004863739,2|2,3:2|3:2,0:0:0:0:
500,251,44942,6,0,B|407:229|416:321|310:281,1,187.000005706787,6|8,0:0|0:0,0:0:0:0:
274,211,45708,1,2,0:0:0:0:
274,211,45836,2,0,P|315:252|323:305,1,93.5000028533936,10|0,0:0|0:0,0:0:0:0:
183,366,46219,2,0,P|224:325|232:272,1,93.5000028533936,2|10,3:2|0:0,0:0:0:0:
174,208,46602,1,0,3:0:0:0:
174,208,46729,1,2,0:0:0:0:
22,320,46985,6,0,L|17:216,1,93.5000028533936,2|2,3:2|0:0,0:0:0:0:
133,146,47368,1,0,3:0:0:0:
133,146,47495,2,0,L|128:250,1,93.5000028533936,10|2,0:0|0:0,0:0:0:0:
7,101,47878,2,0,B|82:114|64:54|139:65,1,140.25000428009,8|0,0:0|3:0,0:0:0:0:
290,115,48517,2,0,L|225:124,1,46.7500014266968,8|0,0:0|3:0,0:0:0:0:
330,37,48772,1,2,0:0:0:0:
330,37,48900,1,2,0:0:0:0:
434,100,49027,6,0,L|436:206,1,93.5000028533936,2|2,3:2|0:0,0:0:0:0:
435,193,49410,1,2,3:2:0:0:
406,89,49538,6,0,L|409:244,1,136,14|2,0:0|0:0,0:0:0:0:
408,224,49921,1,2,0:0:0:0:
238,308,50048,6,0,P|298:319|338:297,1,93.5000028533936,2|2,3:2|0:0,0:0:0:0:
326,306,50431,1,2,3:2:0:0:
220,330,50559,6,0,P|291:353|354:324,1,136,14|2,0:0|0:0,0:0:0:0:
345,331,50942,1,0,0:0:0:0:
148,205,51070,6,0,L|142:299,1,76.4999976654053,6|0,3:2|0:0,0:0:0:0:
143,299,51325,1,8,0:0:0:0:
57,154,51453,6,0,L|48:290,1,136,2|0,3:2|0:0,0:0:0:0:
218,40,51836,6,0,P|142:14|67:76,1,170,2|0,3:2|0:0,0:0:0:0:
235,125,52346,2,0,L|336:107,1,85,2|0,3:2|0:0,0:0:0:0:
482,67,52602,1,8,0:0:0:0:
493,150,52730,1,8,0:0:0:0:
422,194,52857,1,8,0:0:0:0:
433,278,52985,1,8,0:0:0:0:
494,343,53112,6,0,P|427:371|377:347,1,127.500004863739,6|8,3:2|0:0,0:0:0:0:
380,350,53495,1,0,0:0:0:0:
304,197,53623,1,0,3:0:0:0:
304,197,53751,1,0,3:0:0:0:
344,268,53878,1,10,0:0:0:0:
297,336,54006,6,0,P|234:310|173:338,1,127.500004863739,2|0,3:2|3:0,0:0:0:0:
98,369,54389,2,0,L|92:284,1,63.7500024318696,10|0,0:0|0:0,0:0:0:0:
154,234,54644,1,2,3:2:0:0:
154,234,54771,1,0,3:0:0:0:
6,195,54900,2,0,L|12:280,1,63.7500024318696,10|0,0:0|0:0,0:0:0:0:
150,118,55155,6,0,B|85:145|85:145|25:114,1,127.500004863739,2|10,3:2|0:0,0:0:0:0:
34,118,55538,1,0,0:0:0:0:
176,20,55666,1,2,3:2:0:0:
176,20,55793,1,0,3:0:0:0:
247,62,55921,1,10,0:0:0:0:
314,14,56048,6,0,P|324:91|283:138,1,127.500004863739,0|0,3:0|3:0,0:0:0:0:
159,194,56431,2,0,L|225:187,1,63.7500024318696,8|0,0:0|0:0,0:0:0:0:
282,288,56687,2,0,L|216:281,1,63.7500024318696,0|2,3:2|3:2,0:0:0:0:
341,226,56942,1,8,0:0:0:0:
399,284,57070,1,10,0:0:0:0:
492,182,57197,5,10,0:0:0:0:
431,33,58474,6,0,L|501:25,1,63.7500024318696,2|2,0:0|0:0,0:0:0:0:
361,121,58729,1,8,0:0:0:0:
282,20,58857,2,0,L|352:14,2,63.7500024318696,0|0|0,1:0|3:0|3:0,0:0:0:0:
223,78,59240,5,14,0:0:0:0:
220,97,59495,1,0,3:0:0:0:
113,20,59751,5,2,3:2:0:0:
116,39,60006,1,0,3:0:0:0:
29,110,60261,6,0,L|23:181,1,63.7500024318696,2|0,1:2|0:0,0:0:0:0:
113,167,60517,1,2,1:2:0:0:
113,167,60644,2,0,L|107:238,1,63.7500024318696,2|8,0:0|0:0,0:0:0:0:
198,219,60900,2,0,L|192:290,1,63.7500024318696,2|8,0:0|0:0,0:0:0:0:
120,357,61155,1,2,0:0:0:0:
273,264,61283,5,8,0:0:0:0:
312,354,61410,1,0,3:0:0:0:
312,354,61538,1,0,3:0:0:0:
363,268,61666,5,8,0:0:0:0:
402,358,61793,1,0,3:0:0:0:
402,358,61921,1,0,3:0:0:0:
471,197,62048,2,0,L|467:274,1,76.4999976654053,10|0,0:0|0:0,0:0:0:0:
476,94,62304,6,0,B|375:81|406:164|302:147,1,187.000005706787,6|2,0:0|0:0,0:0:0:0:
242,7,62814,6,0,L|245:59,1,46.7500014266968,2|0,3:2|3:0,0:0:0:0:
167,28,62942,1,0,3:0:0:0:
167,28,63006,1,0,3:0:0:0:
167,28,63070,2,0,L|172:130,1,93.5000028533936,10|0,0:0|0:0,0:0:0:0:
46,187,63325,6,0,P|59:123|103:103,1,97.7500018644333,6|0,3:2|0:0,0:0:0:0:
218,178,63580,2,0,P|156:198|116:170,1,97.7500018644333,10|0,0:0|0:0,0:0:0:0:
267,76,63836,1,2,3:2:0:0:
340,139,63963,1,0,3:0:0:0:
409,69,64091,1,10,0:0:0:0:
472,143,64219,6,0,B|477:221|477:221|453:254|453:254|458:352,1,195.500003728867,0|0,3:0|3:0,0:0:0:0:
361,225,64602,2,0,P|306:215|258:246,1,97.7500018644333,10|0,0:0|0:0,0:0:0:0:
284,381,64857,2,0,P|320:338|317:281,1,97.7500018644333,2|0,3:2|3:0,0:0:0:0:
180,236,65112,2,0,P|198:288|249:314,1,97.7500018644333,10|0,0:0|0:0,0:0:0:0:
214,138,65368,6,0,L|107:159,1,97.7500018644333,2|0,3:2|0:0,0:0:0:0:
16,306,65623,2,0,L|123:285,1,97.7500018644333,10|0,0:0|0:0,0:0:0:0:
228,116,65878,1,2,3:2:0:0:
171,36,66006,1,0,3:0:0:0:
73,27,66134,1,10,0:0:0:0:
9,100,66261,6,0,B|54:135|48:183|48:183|-1:223|14:282,1,195.500003728867,0|0,3:0|3:0,0:0:0:0:
117,370,66644,2,0,L|104:253,1,97.7500018644333,10|0,0:0|0:0,0:0:0:0:
228,142,66900,2,0,L|215:259,1,97.7500018644333,2|0,3:2|3:0,0:0:0:0:
97,384,67155,2,0,L|84:267,1,97.7500018644333,10|0,0:0|0:0,0:0:0:0:
251,368,67410,5,2,3:2:0:0:
251,368,67538,1,0,0:0:0:0:
301,285,67666,2,0,P|244:269|203:285,1,97.7500018644333,8|0,0:0|0:0,0:0:0:0:
402,292,67921,5,2,3:2:0:0:
402,292,68049,1,0,3:0:0:0:
352,209,68177,2,0,P|409:193|450:209,1,97.7500018644333,8|0,0:0|3:0,0:0:0:0:
263,175,68431,5,2,0:0:0:0:
263,175,68559,1,0,3:0:0:0:
338,109,68687,2,0,L|343:9,1,97.7500018644333,8|0,0:0|0:0,0:0:0:0:
136,45,68942,5,2,3:2:0:0:
136,45,69070,1,0,3:0:0:0:
211,111,69198,2,0,L|216:211,1,97.7500018644333,8|0,0:0|0:0,0:0:0:0:
62,294,69453,6,0,B|179:258|142:354|261:313,1,195.500003728867,2|8,3:2|0:0,0:0:0:0:
247,317,69836,1,0,0:0:0:0:
383,201,69963,2,0,P|320:185|284:208,1,97.7500018644333,0|0,3:0|3:0,0:0:0:0:
389,359,70219,1,10,0:0:0:0:
465,298,70346,6,0,B|418:246|418:246|427:117,1,195.500003728867,2|0,3:2|3:0,0:0:0:0:
390,36,70729,2,0,P|450:27|493:65,1,97.7500018644333,10|0,0:0|0:0,0:0:0:0:
353,127,70985,2,0,P|293:136|250:98,1,97.7500018644333,2|0,3:2|3:0,0:0:0:0:
151,15,71240,2,0,P|188:62|177:118,1,97.7500018644333,10|0,0:0|0:0,0:0:0:0:
46,150,71495,6,0,P|108:118|190:207,1,195.500003728867,6|10,3:2|0:0,0:0:0:0:
190,193,71878,1,0,0:0:0:0:
22,282,72006,1,2,3:2:0:0:
22,282,72134,1,0,3:0:0:0:
89,352,72261,1,10,0:0:0:0:
153,278,72389,6,0,B|238:275|238:275|269:297|269:297|341:292,1,195.500003728867,2|0,3:2|3:0,0:0:0:0:
452,194,72772,2,0,L|341:199,1,97.7500018644333,10|0,0:0|0:0,0:0:0:0:
267,327,73027,2,0,L|378:322,1,97.7500018644333,2|0,3:2|3:0,0:0:0:0:
475,172,73283,2,0,L|364:177,1,97.7500018644333,10|0,0:0|0:0,0:0:0:0:
229,23,73538,6,0,P|291:30|319:80,1,97.7500018644333,6|0,3:2|0:0,0:0:0:0:
150,145,73793,2,0,P|212:138|240:88,1,97.7500018644333,10|0,0:0|0:0,0:0:0:0:
110,37,74048,1,6,3:2:0:0:
24,85,74176,1,0,3:2:0:0:
24,183,74304,1,10,0:0:0:0:
104,235,74431,6,0,P|185:224|135:144,1,195.500003728867,6|0,3:2|3:0,0:0:0:0:
24,183,74814,2,0,L|15:289,1,97.7500018644333,8|0,0:0|0:0,0:0:0:0:
123,376,75070,1,0,3:0:0:0:
123,376,75197,1,0,3:0:0:0:
215,343,75325,2,0,L|206:237,1,97.7500018644333,10|0,0:0|0:0,0:0:0:0:
379,328,75580,6,0,P|294:380|203:326,1,195.500003728867,6|10,3:2|0:0,0:0:0:0:
214,342,75963,1,0,0:0:0:0:
396,235,76091,1,2,3:2:0:0:
396,235,76219,1,0,3:0:0:0:
477,287,76346,1,10,0:0:0:0:
506,193,76474,6,0,B|470:150|470:150|504:14,1,195.500003728867,2|0,3:2|3:0,0:0:0:0:
386,143,76857,2,0,P|336:162|285:134,1,97.7500018644333,10|0,0:0|0:0,0:0:0:0:
293,0,77112,2,0,P|334:33|335:91,1,97.7500018644333,2|0,3:2|3:0,0:0:0:0:
340,75,77368,1,10,0:0:0:0:
115,80,77495,6,0,P|195:59|182:161,1,203.999993774414,2|0,3:2|3:0,0:0:0:0:
5,37,77878,1,10,0:0:0:0:
5,37,78006,1,0,3:0:0:0:
56,131,78134,1,10,0:0:0:0:
56,131,78261,1,0,3:0:0:0:
11,222,78389,1,10,0:0:0:0:
39,320,78517,6,0,B|99:327|138:295|138:295|174:333|233:320,1,203.999993774414,2|0,3:2|3:0,0:0:0:0:
319,193,78900,2,0,P|262:185|223:220,1,101.999996887207,10|0,0:0|0:0,0:0:0:0:
334,350,79155,1,10,0:0:0:0:
434,329,79283,1,8,0:0:0:0:
500,252,79410,1,10,0:0:0:0:
509,150,79538,1,10,0:0:0:0:
490,53,79666,6,0,L|390:29,1,97.7500018644333,6|0,3:2|0:0,0:0:0:0:
314,211,79921,2,0,L|384:136,1,97.7500018644333,10|0,0:0|0:0,0:0:0:0:
189,101,80176,1,2,3:2:0:0:
291,108,80304,1,0,3:0:0:0:
242,25,80431,1,10,0:0:0:0:
193,105,80559,6,0,B|143:82|138:28|138:28|95:1|37:31,1,195.500003728867,0|0,3:0|3:0,0:0:0:0:
183,195,80942,2,0,P|203:152|184:93,1,97.7500018644333,10|0,0:0|0:0,0:0:0:0:
103,240,81197,2,0,P|130:278|190:291,1,97.7500018644333,2|0,3:2|3:0,0:0:0:0:
108,138,81453,2,0,P|60:142|19:188,1,97.7500018644333,10|0,0:0|0:0,0:0:0:0:
33,357,81708,6,0,L|27:249,1,97.7500018644333,2|0,3:2|0:0,0:0:0:0:
183,195,81963,2,0,L|177:303,1,97.7500018644333,10|0,0:0|0:0,0:0:0:0:
429,191,82219,1,2,3:2:0:0:
333,170,82346,1,0,3:0:0:0:
266,242,82474,1,10,0:0:0:0:
301,333,82602,6,0,P|379:355|372:253,1,195.500003728867,0|0,3:0|3:0,0:0:0:0:
248,146,82985,2,0,L|136:137,1,97.7500018644333,10|0,0:0|0:0,0:0:0:0:
359,250,83240,2,0,L|471:241,1,97.7500018644333,2|0,3:2|3:0,0:0:0:0:
260,126,83495,2,0,L|148:117,1,97.7500018644333,10|0,0:0|0:0,0:0:0:0:
457,107,83751,5,2,3:2:0:0:
457,107,83878,1,0,0:0:0:0:
381,44,84006,2,0,L|374:151,1,97.7500018644333,8|0,0:0|0:0,0:0:0:0:
177,160,84261,5,2,3:2:0:0:
177,160,84388,1,0,3:0:0:0:
253,223,84516,2,0,L|260:116,1,97.7500018644333,8|0,0:0|3:0,0:0:0:0:
124,19,84772,5,2,0:0:0:0:
124,19,84900,1,0,3:0:0:0:
37,63,85027,2,0,B|22:111|22:111|49:171,1,97.7500018644333,8|0,0:0|0:0,0:0:0:0:
197,309,85283,5,2,3:2:0:0:
197,309,85411,1,0,3:0:0:0:
110,265,85538,2,0,B|96:215|96:215|122:157,1,97.7500018644333,8|0,0:0|0:0,0:0:0:0:
421,321,85793,6,0,B|362:309|286:319|286:319|261:287|281:251,1,195.500003728867,2|8,3:2|0:0,0:0:0:0:
275,262,86176,1,0,0:0:0:0:
492,142,86304,1,0,3:0:0:0:
422,209,86431,1,0,3:0:0:0:
365,128,86559,1,10,0:0:0:0:
436,60,86687,6,0,B|333:39|353:133|240:89,1,195.500003728867,2|0,3:2|3:0,0:0:0:0:
179,9,87070,2,0,P|235:-3|284:29,1,97.7500018644333,10|0,0:0|0:0,0:0:0:0:
113,77,87325,2,0,P|57:65|8:97,1,97.7500018644333,2|0,3:2|3:0,0:0:0:0:
181,144,87580,2,0,P|237:132|286:164,1,97.7500018644333,10|0,0:0|0:0,0:0:0:0:
97,286,87836,6,0,P|27:247|75:154,1,195.500003728867,6|10,3:2|0:0,0:0:0:0:
65,156,88219,1,0,0:0:0:0:
178,339,88346,1,2,3:2:0:0:
178,339,88474,1,0,3:0:0:0:
245,267,88602,1,10,0:0:0:0:
305,342,88729,6,0,P|273:298|351:196,1,195.500003728867,2|0,3:2|3:0,0:0:0:0:
458,297,89112,2,0,P|409:308|362:264,1,97.7500018644333,10|0,0:0|0:0,0:0:0:0:
437,131,89368,2,0,L|423:237,1,97.7500018644333,2|0,3:2|3:0,0:0:0:0:
331,142,89623,1,10,0:0:0:0:
331,142,89751,1,8,0:0:0:0:
372,63,89878,6,0,P|434:38|518:83,1,144.500002756119,6|10,3:2|0:0,0:0:0:0:
437,131,90261,1,0,0:0:0:0:
344,51,90389,6,0,P|415:0|513:29,1,170,6|10,3:2|0:0,0:0:0:0:
315,65,90772,6,0,P|243:11|130:56,1,195.500003728867,6|0,3:2|3:0,0:0:0:0:
200,177,91155,2,0,P|229:118|219:82,1,97.7500018644333,8|0,0:0|0:0,0:0:0:0:
60,62,91410,1,8,0:0:0:0:
82,147,91538,1,0,3:0:0:0:
30,205,91666,1,2,3:2:0:0:
46,281,91794,1,0,3:0:0:0:
20,361,91921,6,0,L|70:351,1,42.5,14|0,3:2|0:0,0:0:0:0:
179,330,92431,5,2,3:2:0:0:
359,350,92942,6,0,L|309:340,1,42.5,8|0,0:0|0:0,0:0:0:0:
188,306,93452,5,10,0:0:0:0:
229,231,93580,1,0,1:0:0:0:
309,203,93708,1,2,3:2:0:0:
387,235,93836,1,0,3:0:0:0:
431,310,93963,6,0,L|433:231,1,68,6|0,3:2|0:0,0:0:0:0:
454,301,94219,2,0,L|456:222,1,68,0|0,3:0|0:0,0:0:0:0:
337,122,94474,6,0,L|339:201,1,68,0|0,3:0|0:0,0:0:0:0:
360,131,94730,2,0,L|362:210,1,68,0|0,3:0|0:0,0:0:0:0:
395,11,94985,6,0,P|352:1|307:17,1,76.4999976654053,8|0,0:0|0:0,0:0:0:0:
184,97,95240,2,0,P|227:107|272:91,1,76.4999976654053,8|0,0:0|0:0,0:0:0:0:
81,13,95495,5,10,0:0:0:0:
16,88,95623,1,8,0:0:0:0:
76,167,95751,1,8,0:0:0:0:
16,246,95878,1,8,0:0:0:0:
76,324,96006,6,0,B|171:294|147:374|243:341,1,170,6|8,3:2|0:0,0:0:0:0:
323,211,96389,2,0,P|258:190|213:286,1,170,2|0,0:0|3:0,0:0:0:0:
426,344,96772,6,0,B|420:278|420:278|440:246|440:246|435:161,1,170,10|0,0:0|0:0,0:0:0:0:
374,97,97155,2,0,B|423:60|486:89|486:89|515:59|509:24,1,170,2|0,3:2|0:0,0:0:0:0:
288,11,97538,6,0,L|298:113,1,85,2|0,3:2|3:0,0:0:0:0:
187,145,97793,2,0,L|197:43,1,85,10|0,0:0|0:0,0:0:0:0:
53,58,98048,6,0,P|136:21|203:75,1,170,2|8,3:2|0:0,0:0:0:0:
39,217,98431,2,0,B|60:187|43:140|43:140|56:125|56:125|35:89|60:42,1,170,2|0,0:0|3:0,0:0:0:0:
201,266,98814,6,0,B|159:242|112:249|112:249|92:292|47:297,1,170,10|0,0:0|0:0,0:0:0:0:
246,358,99197,2,0,P|222:309|296:233,1,170,2|0,3:2|0:0,0:0:0:0:
398,312,99580,6,0,P|337:320|303:294,1,85,2|0,3:2|3:0,0:0:0:0:
328,171,99836,2,0,P|365:219|359:262,1,85,10|0,0:0|0:0,0:0:0:0:
239,153,100091,6,0,P|324:85|393:116,1,170,2|8,3:2|0:0,0:0:0:0:
484,196,100474,2,0,B|427:160|427:160|467:113|434:49,1,170,2|0,0:0|3:0,0:0:0:0:
325,5,100857,6,0,B|256:-6|208:47|208:47|146:46,1,170,10|0,0:0|0:0,0:0:0:0:
45,103,101240,2,0,P|130:111|168:44,1,170,2|0,3:2|0:0,0:0:0:0:
0,7,101623,6,0,L|6:116,1,85,2|0,3:2|3:0,0:0:0:0:
167,221,101878,2,0,L|173:112,1,85,10|0,0:0|0:0,0:0:0:0:
2,196,102134,6,0,P|43:183|92:201,1,85,2|0,3:2|0:0,0:0:0:0:
205,296,102389,2,0,P|164:309|115:291,1,85,10|0,0:0|0:0,0:0:0:0:
256,189,102644,1,2,3:2:0:0:
292,266,102772,1,0,3:0:0:0:
369,302,102900,1,10,0:0:0:0:
444,264,103027,6,0,P|396:224|302:255,1,170,6|2,3:2|3:2,0:0:0:0:
500,198,103410,2,0,L|509:111,1,85,10|0,0:0|0:0,0:0:0:0:
409,39,103666,1,2,3:2:0:0:
325,27,103793,1,0,3:0:0:0:
261,83,103921,1,10,0:0:0:0:
177,71,104048,1,8,0:0:0:0:
93,54,104176,5,0,3:0:0:0:
93,54,104431,2,0,L|8:40,2,85,10|2|2,0:0|0:0|3:2,0:0:0:0:
177,71,104814,1,2,3:2:0:0:
157,153,104942,1,10,0:0:0:0:
134,235,105070,6,0,P|80:203|90:98,1,170,2|2,3:2|3:2,0:0:0:0:
239,186,105453,2,0,L|248:288,1,85,10|2,0:0|0:0,0:0:0:0:
126,319,105708,2,0,L|135:217,1,85,2|2,3:2|3:2,0:0:0:0:
258,167,105963,2,0,L|267:269,1,85,10|0,0:0|0:0,0:0:0:0:
338,341,106219,6,0,P|404:347|442:316,1,101.999996887207,6|8,3:2|0:0,0:0:0:0:
431,328,106602,1,0,0:0:0:0:
313,331,106729,6,0,P|368:301|387:227,1,136,6|8,3:2|0:0,0:0:0:0:
286,313,107112,6,0,P|273:261|170:230,1,170,6|0,3:2|3:0,0:0:0:0:
119,355,107495,2,0,P|174:343|202:301,1,85,8|0,0:0|0:0,0:0:0:0:
76,279,107751,1,0,3:2:0:0:
13,336,107878,1,2,3:2:0:0:
65,268,108006,1,10,0:0:0:0:
23,193,108134,1,2,0:0:0:0:
85,136,108261,6,0,L|186:126,1,85,2|0,3:2|3:0,0:0:0:0:
244,85,108517,1,10,0:0:0:0:
49,57,108644,2,0,L|150:47,1,85,2|0,3:2|0:0,0:0:0:0:
328,93,108900,2,0,L|227:83,1,85,2|8,3:2|0:0,0:0:0:0:
343,2,109155,6,0,P|391:21|415:141,1,170,6|2,3:2|3:2,0:0:0:0:
421,126,109538,1,8,0:0:0:0:
317,204,109666,2,0,P|302:175|323:124,1,85,2|0,0:0|3:0,0:0:0:0:
494,184,109921,2,0,P|535:260|483:329,1,170,2|0,3:2|3:0,0:0:0:0:
373,357,110304,5,14,0:0:0:0:
373,357,110431,1,0,3:0:0:0:
308,253,110559,5,10,0:0:0:0:
308,253,110687,1,0,3:2:0:0:
240,356,110814,5,10,0:0:0:0:
240,356,110942,1,0,3:0:0:0:
171,248,111070,5,10,0:0:0:0:
171,248,111197,1,0,3:0:0:0:
83,335,111325,5,10,0:0:0:0:
47,257,111453,1,0,0:0:0:0:
101,192,111580,6,0,L|115:90,1,85,2|2,3:2|0:0,0:0:0:0:
0,26,111836,2,0,L|14:128,1,85,2|10,3:2|0:0,0:0:0:0:
202,180,112091,2,0,L|220:50,1,127.5,2|0,3:2|0:0,0:0:0:0:
320,47,112346,5,6,3:2:0:0:
320,47,112602,1,10,0:0:0:0:
320,47,112857,1,10,0:0:0:0:
381,110,113112,5,2,0:0:0:0:
330,175,113240,1,10,0:0:0:0:
396,225,113368,5,2,3:2:0:0:
448,161,113495,2,0,P|479:215|460:282,1,127.500004863739,10|10,0:0|0:0,0:0:0:0:
464,275,113878,1,8,0:0:0:0:
358,330,114006,2,0,B|306:327|306:327|282:344|282:344|231:340,1,127.500004863739,4|0,3:2|0:0,0:0:0:0:
160,268,114389,5,4,3:2:0:0:
160,268,114644,1,10,0:0:0:0:
160,268,114900,1,10,0:0:0:0:
96,327,115155,5,2,0:0:0:0:
86,244,115283,1,8,0:0:0:0:
26,187,115410,5,2,3:2:0:0:
9,104,115538,2,0,B|83:95|61:149|141:134,1,127.500004863739,10|10,0:0|0:0,0:0:0:0:
128,135,115921,1,8,0:0:0:0:
241,37,116048,2,0,P|181:16|123:77,1,127.500004863739,4|0,3:2|0:0,0:0:0:0:
243,135,116431,6,0,L|316:124,1,72.2500013780594,4|0,3:2|0:0,0:0:0:0:
399,45,116687,2,0,L|326:34,1,72.2500013780594,8|0,0:0|0:0,0:0:0:0:
461,124,116942,1,2,3:2:0:0:
461,124,117070,1,0,3:0:0:0:
389,182,117197,1,8,0:0:0:0:
389,182,117325,1,0,3:0:0:0:
468,232,117453,6,0,L|474:146,1,72.2500013780594,2|0,0:0|3:0,0:0:0:0:
350,196,117708,2,0,L|356:282,1,72.2500013780594,8|0,0:0|0:0,0:0:0:0:
276,353,117963,1,2,3:2:0:0:
276,353,118091,1,0,3:0:0:0:
199,298,118219,1,8,0:0:0:0:
121,350,118346,1,0,0:0:0:0:
44,295,118474,6,0,B|87:264|87:264|74:164,1,144.500002756119,2|8,3:2|0:0,0:0:0:0:
75,173,118857,1,0,0:0:0:0:
3,78,118985,1,0,3:0:0:0:
84,31,119112,1,2,3:2:0:0:
161,84,119240,1,10,0:0:0:0:
227,17,119368,6,0,P|205:91|256:150,1,144.500002756119,2|0,3:2|3:0,0:0:0:0:
385,83,119751,2,0,L|294:71,1,85,10|0,0:0|0:0,0:0:0:0:
428,187,120006,2,0,L|519:175,1,85,2|0,3:2|3:0,0:0:0:0:
370,102,120261,2,0,L|321:96,2,42.5,10|8|8,0:0|0:0|0:0,0:0:0:0:
375,257,120517,5,6,3:2:0:0:
375,257,120772,2,0,L|308:250,1,63.7500024318696,2|0,0:0|3:0,0:0:0:0:
160,334,121027,2,0,P|205:359|275:324,1,127.500004863739,10|2,0:0|0:0,0:0:0:0:
270,330,121410,1,8,0:0:0:0:
213,276,121538,5,10,0:0:0:0:
21,242,121793,6,0,P|53:199|146:182,1,144.500002756119,4|8,3:2|0:0,0:0:0:0:
4,211,122176,6,0,P|14:133|114:85,1,170,4|0,3:2|0:0,0:0:0:0:
213,75,122559,5,4,3:2:0:0:
213,75,122814,2,0,L|206:151,1,63.7500024318696,2|2,0:0|3:2,0:0:0:0:
302,39,123070,2,0,L|314:173,1,127.500004863739,10|2,0:0|0:0,0:0:0:0:
313,165,123453,1,10,0:0:0:0:
386,111,123580,5,10,0:0:0:0:
348,307,123836,6,0,P|297:320|258:294,1,101.999996887207,4|8,3:2|0:0,0:0:0:0:
357,329,124219,6,0,P|289:360|228:351,1,127.500004863739,4|0,3:2|0:0,0:0:0:0:
91,209,124602,6,0,P|142:209|174:291,1,144.500002756119,4|10,3:2|0:0,0:0:0:0:
175,285,124985,1,0,0:0:0:0:
5,361,125112,1,2,3:2:0:0:
5,361,125240,1,0,3:0:0:0:
45,275,125368,1,10,0:0:0:0:
4,190,125495,6,0,B|-2:116|58:130|48:52,1,144.500002756119,0|0,3:0|3:0,0:0:0:0:
128,124,125878,2,0,P|159:135|208:117,1,72.2500013780594,10|0,0:0|0:0,0:0:0:0:
303,25,126134,1,2,3:2:0:0:
303,25,126261,1,0,3:0:0:0:
387,66,126389,1,10,0:0:0:0:
387,66,126517,1,2,0:0:0:0:
466,15,126644,6,0,B|461:79|461:79|475:101|475:101|469:162,1,144.500002756119,0|8,3:0|0:0,0:0:0:0:
469,154,127027,1,0,0:0:0:0:
357,256,127155,2,0,L|364:179,1,72.2500013780594,0|0,3:0|0:0,0:0:0:0:
487,242,127410,2,0,L|438:239,1,36.1250006890297,0|0,3:0|3:0,0:0:0:0:
503,327,127538,1,0,3:0:0:0:
503,327,127602,1,0,3:0:0:0:
503,327,127666,6,0,L|416:318,1,72.2500013780594,8|8,0:0|0:0,0:0:0:0:
347,363,127921,2,0,L|260:372,1,72.2500013780594,2|0,1:2|1:0,0:0:0:0:
221,299,128176,2,0,P|165:275|96:326,1,144.500002756119,2|2,3:2|3:2,0:0:0:0:
99,317,128559,1,0,3:0:0:0:
16,375,128687,6,0,L|9:261,1,101.999996887207,4|0,0:0|0:0,0:0:0:0:
163,161,129197,2,0,L|156:275,1,101.999996887207,8|2,0:0|0:0,0:0:0:0:
85,120,129580,2,0,P|117:84|183:78,1,101.999996887207,10|0,0:0|0:0,0:0:0:0:
257,128,129963,2,0,L|264:70,1,50.9999984436036,2|0,3:2|0:0,0:0:0:0:
352,23,130219,2,0,L|359:81,1,50.9999984436036,10|0,0:0|3:0,0:0:0:0:
242,140,130474,2,0,L|249:82,1,50.9999984436036,2|0,0:0|0:0,0:0:0:0:
369,7,130729,6,0,P|426:6|470:38,1,101.999996887207,2|2,3:2|0:0,0:0:0:0:
462,29,131112,1,0,3:0:0:0:
393,184,131240,2,0,P|377:149|399:85,1,101.999996887207,10|2,0:0|0:0,0:0:0:0:
512,260,131623,2,0,L|403:275,1,101.999996887207,8|0,0:0|0:0,0:0:0:0:
291,170,132006,2,0,L|400:185,1,101.999996887207,0|8,3:0|0:0,0:0:0:0:
392,183,132389,1,0,3:0:0:0:
277,283,132517,2,0,L|334:290,1,50.9999984436036,2|2,0:0|0:0,0:0:0:0:
195,240,132772,6,0,L|190:341,1,101.999996887207,2|2,3:2|0:0,0:0:0:0:
189,341,133155,1,2,3:2:0:0:
172,222,133283,6,0,L|164:368,1,144.500002756119,14|2,0:0|0:0,0:0:0:0:
164,366,133666,1,2,0:0:0:0:
25,130,133793,6,0,B|70:148|70:148|121:127,1,101.999996887207,2|2,3:2|0:0,0:0:0:0:
119,127,134176,1,2,3:2:0:0:
5,156,134304,6,0,B|70:179|70:179|144:146,1,144.500002756119,14|2,0:0|0:0,0:0:0:0:
139,148,134687,1,2,0:0:0:0:
305,29,134814,6,0,P|262:19|221:31,1,82.8749962062838,14|0,0:0|0:0,0:0:0:0:
213,39,135070,1,8,0:0:0:0:
328,37,135197,6,0,P|281:107|301:172,1,144.500002756119,2|0,3:2|0:0,0:0:0:0:
359,34,135580,6,0,P|361:90|471:126,1,178.499994552612,2|0,3:2|0:0,0:0:0:0:
209,109,136091,2,0,L|205:224,1,89.2499972763062,2|0,3:2|0:0,0:0:0:0:
157,273,136346,1,8,0:0:0:0:
246,265,136474,1,0,1:0:0:0:
301,334,136602,1,0,3:0:0:0:
390,326,136730,1,0,3:0:0:0:
446,258,136857,6,0,B|448:193|448:193|460:177|460:177|461:113,1,136,6|8,0:0|0:0,0:0:0:0:
460,126,137240,1,0,0:0:0:0:
309,189,137368,1,0,3:0:0:0:
309,189,137495,1,0,3:0:0:0:
366,121,137623,1,10,0:0:0:0:
315,48,137751,6,0,B|247:35|254:96|180:70,1,136,2|0,3:2|3:0,0:0:0:0:
19,11,138134,2,0,P|52:3|101:19,1,68,8|0,0:0|0:0,0:0:0:0:
86,153,138389,2,0,P|62:128|51:77,1,68,2|0,3:2|3:0,0:0:0:0:
172,28,138644,2,0,P|162:60|124:95,1,68,10|0,0:0|0:0,0:0:0:0:
3,227,138900,6,0,L|100:223,1,68,2|0,3:2|0:0,0:0:0:0:
234,164,139155,2,0,L|137:160,1,68,10|0,0:0|0:0,0:0:0:0:
24,352,139410,1,2,3:2:0:0:
24,352,139538,1,0,3:0:0:0:
81,284,139666,1,10,0:0:0:0:
141,347,139793,6,0,P|202:372|269:342,1,136,0|0,3:0|3:0,0:0:0:0:
287,224,140176,2,0,L|199:236,1,68,8|0,0:0|0:0,0:0:0:0:
410,353,140431,5,8,0:0:0:0:
415,312,140517,1,8,0:0:0:0:
420,271,140602,1,0,1:0:0:0:
448,241,140687,5,2,1:2:0:0:
444,212,140773,1,0,3:0:0:0:
440,182,140858,1,0,3:0:0:0:
380,116,140942,5,10,0:0:0:0:
82,27,142219,6,0,L|14:22,1,68,2|2,3:2|3:2,0:0:0:0:
87,125,142474,1,8,0:0:0:0:
223,68,142602,2,0,L|155:63,2,68,0|0|0,1:0|3:0|3:0,0:0:0:0:
331,9,142985,5,6,3:2:0:0:
334,27,143240,1,0,3:0:0:0:
463,103,143495,5,2,3:2:0:0:
467,83,143750,1,0,3:0:0:0:
316,175,144006,6,0,L|389:167,1,68,2|0,3:2|0:0,0:0:0:0:
357,251,144261,1,2,3:2:0:0:
357,251,144389,2,0,L|430:243,1,68,2|8,0:0|0:0,0:0:0:0:
395,329,144644,2,0,L|468:321,1,68,2|8,0:0|0:0,0:0:0:0:
505,241,144900,1,2,0:0:0:0:
315,92,145027,6,0,P|246:122|229:178,1,114.749996498108,6|0,3:2|0:0,0:0:0:0:
230,154,145283,1,8,0:0:0:0:
324,3,145410,6,0,P|260:8|202:41,1,114.749996498108,4|0,3:2|0:0,0:0:0:0:
215,30,145666,1,8,0:0:0:0:
123,160,145793,6,0,P|132:112|64:88,1,114.749996498108,4|0,3:2|0:0,0:0:0:0:
21,154,146048,5,8,0:0:0:0:
21,154,146134,1,8,0:0:0:0:
21,154,146219,1,8,0:0:0:0:
21,154,146304,2,0,L|11:241,1,76.4999976654053,2|0,3:2|0:0,0:0:0:0:
209,271,146559,2,0,L|195:165,1,76.4999976654053,2|8,3:2|0:0,0:0:0:0:
37,171,146814,2,0,L|27:258,1,76.4999976654053,2|0,3:2|0:0,0:0:0:0:
120,357,147070,5,10,0:0:0:0:
220,172,147197,1,0,3:2:0:0:
336,358,147453,5,8,0:0:0:0:
215,143,147580,1,0,3:2:0:0:
477,229,147836,6,0,L|473:323,1,85,8|0,0:0|0:0,0:0:0:0:
382,241,148091,6,0,B|373:126|462:179|441:51,1,187.000005706787,6|2,0:0|3:2,0:0:0:0:
443,73,148474,1,0,3:0:0:0:
287,11,148602,5,10,0:0:0:0:
244,21,148687,1,8,0:0:0:0:
201,31,148772,1,8,0:0:0:0:
158,106,148857,5,10,0:0:0:0:
115,97,148942,1,8,0:0:0:0:
72,88,149027,1,8,0:0:0:0:
16,22,149112,6,0,L|19:130,1,97.7500018644333,6|0,3:2|0:0,0:0:0:0:
155,203,149368,2,0,L|158:95,1,97.7500018644333,10|0,0:0|0:0,0:0:0:0:
3,231,149623,1,2,3:2:0:0:
66,305,149751,1,0,3:0:0:0:
135,236,149878,1,10,0:0:0:0:
189,317,150006,6,0,B|296:278|267:380|394:333,1,195.500003728867,0|0,3:0|3:0,0:0:0:0:
408,181,150389,2,0,P|366:211|348:264,1,97.7500018644333,10|0,0:0|0:0,0:0:0:0:
470,353,150644,2,0,P|464:301|427:259,1,97.7500018644333,2|0,3:2|3:0,0:0:0:0:
282,326,150900,2,0,P|329:347|384:335,1,97.7500018644333,10|0,0:0|0:0,0:0:0:0:
495,196,151155,6,0,L|505:90,1,97.7500018644333,2|0,3:2|0:0,0:0:0:0:
365,7,151410,2,0,L|375:113,1,97.7500018644333,10|0,0:0|0:0,0:0:0:0:
253,151,151666,1,2,3:2:0:0:
167,198,151793,1,0,3:0:0:0:
88,139,151921,1,10,0:0:0:0:
78,42,152048,6,0,P|140:21|162:131,1,195.500003728867,0|0,3:0|3:0,0:0:0:0:
0,232,152431,2,0,P|49:216|100:231,1,97.7500018644333,10|0,0:0|0:0,0:0:0:0:
227,343,152687,2,0,P|178:359|127:344,1,97.7500018644333,2|0,3:2|3:0,0:0:0:0:
11,207,152942,2,0,P|60:191|111:206,1,97.7500018644333,10|0,0:0|0:0,0:0:0:0:
245,361,153197,5,2,3:2:0:0:
245,361,153325,1,0,0:0:0:0:
340,383,153453,2,0,L|332:278,1,97.7500018644333,8|0,0:0|0:0,0:0:0:0:
512,230,153708,5,2,3:2:0:0:
512,230,153836,1,0,3:0:0:0:
417,208,153964,2,0,L|425:313,1,97.7500018644333,8|0,0:0|3:0,0:0:0:0:
313,184,154218,5,2,0:0:0:0:
313,184,154346,1,0,3:0:0:0:
368,102,154474,2,0,P|428:89|478:122,1,97.7500018644333,8|0,0:0|0:0,0:0:0:0:
269,102,154729,5,2,3:2:0:0:
269,102,154857,1,0,3:0:0:0:
214,20,154985,2,0,P|154:7|104:40,1,97.7500018644333,8|0,0:0|0:0,0:0:0:0:
114,224,155240,6,0,B|173:219|191:168|191:168|146:129|170:66,1,195.500003728867,2|8,3:2|0:0,0:0:0:0:
164,83,155623,1,0,0:0:0:0:
23,176,155751,1,0,3:0:0:0:
23,176,155878,1,0,3:0:0:0:
35,273,156006,1,10,0:0:0:0:
53,369,156134,6,0,B|133:361|133:361|158:333|158:333|256:324,1,195.500003728867,2|0,3:2|3:0,0:0:0:0:
403,240,156517,2,0,L|294:228,1,97.7500018644333,10|0,0:0|0:0,0:0:0:0:
174,363,156772,2,0,L|283:351,1,97.7500018644333,2|0,3:2|3:0,0:0:0:0:
409,263,157027,2,0,L|300:251,1,97.7500018644333,10|0,0:0|0:0,0:0:0:0:
444,351,157283,6,0,P|499:283|453:182,1,195.500003728867,6|10,3:2|0:0,0:0:0:0:
464,189,157666,1,0,0:0:0:0:
354,93,157793,2,0,P|400:116|455:96,1,97.7500018644333,2|0,3:2|3:0,0:0:0:0:
443,105,158048,1,10,0:0:0:0:
307,18,158176,6,0,B|262:47|264:103|264:103|219:72|155:96,1,195.500003728867,2|0,3:2|3:0,0:0:0:0:
146,221,158559,2,0,P|203:194|214:157,1,97.7500018644333,10|0,0:0|0:0,0:0:0:0:
74,305,158814,2,0,P|17:278|6:241,1,97.7500018644333,2|0,3:2|3:0,0:0:0:0:
175,239,159070,2,0,P|232:212|243:175,1,97.7500018644333,10|0,0:0|0:0,0:0:0:0:
51,20,159325,6,0,L|38:134,1,97.7500018644333,6|0,3:2|0:0,0:0:0:0:
242,182,159580,2,0,L|229:68,1,97.7500018644333,10|0,0:0|0:0,0:0:0:0:
74,305,159836,1,6,3:2:0:0:
160,260,159963,1,0,3:2:0:0:
255,280,160091,1,10,0:0:0:0:
285,371,160219,6,0,P|205:347|255:279,1,195.500003728867,6|0,3:2|3:0,0:0:0:0:
490,341,160602,2,0,L|386:366,1,97.7500018644333,8|0,0:0|0:0,0:0:0:0:
217,224,160857,2,0,L|321:249,1,97.7500018644333,0|0,3:0|3:0,0:0:0:0:
466,323,161112,2,0,L|362:348,1,97.7500018644333,10|0,0:0|0:0,0:0:0:0:
273,155,161368,6,0,P|204:136|127:241,1,195.500003728867,6|10,3:2|0:0,0:0:0:0:
126,217,161751,1,0,0:0:0:0:
386,224,161878,1,2,3:2:0:0:
386,224,162006,1,0,3:0:0:0:
440,142,162134,1,10,0:0:0:0:
493,223,162261,6,0,B|454:215|452:180|452:180|491:117|464:32,1,195.500003728867,2|0,3:2|3:0,0:0:0:0:
320,145,162644,2,0,P|364:150|395:93,1,97.7500018644333,10|0,0:0|0:0,0:0:0:0:
233,26,162900,2,0,P|277:21|308:78,1,97.7500018644333,2|0,3:2|3:0,0:0:0:0:
308,59,163155,1,10,0:0:0:0:
216,206,163283,6,0,B|234:106|234:106|167:102|145:44,1,203.999993774414,2|0,3:2|3:0,0:0:0:0:
0,99,163666,2,0,P|65:104|95:147,1,101.999996887207,10|0,0:0|3:0,0:0:0:0:
216,206,163921,2,0,P|151:211|121:254,1,101.999996887207,10|0,0:0|3:0,0:0:0:0:
97,335,164176,1,10,0:0:0:0:
298,261,164304,6,0,P|384:246|460:341,1,203.999993774414,2|0,3:2|3:0,0:0:0:0:
196,377,164687,2,0,L|190:259,1,101.999996887207,10|0,0:0|0:0,0:0:0:0:
213,119,164942,1,10,0:0:0:0:
295,58,165070,1,8,0:0:0:0:
376,116,165197,1,10,0:0:0:0:
457,180,165325,1,10,0:0:0:0:
506,95,165453,6,0,P|481:43|427:27,1,97.7500018644333,6|0,3:2|0:0,0:0:0:0:
317,185,165708,2,0,P|359:161|376:117,1,97.7500018644333,10|0,0:0|0:0,0:0:0:0:
219,8,165963,1,2,3:2:0:0:
140,67,166091,1,0,3:0:0:0:
60,9,166219,1,10,0:0:0:0:
5,89,166346,6,0,P|87:61|143:155,1,195.500003728867,0|0,3:0|3:0,0:0:0:0:
45,243,166729,2,0,L|66:129,1,97.7500018644333,10|0,0:0|0:0,0:0:0:0:
197,349,166985,2,0,L|179:252,1,97.7500018644333,2|0,3:2|3:0,0:0:0:0:
32,254,167240,2,0,L|53:140,1,97.7500018644333,10|0,0:0|0:0,0:0:0:0:
269,248,167495,6,0,P|214:266|171:245,1,97.7500018644333,2|0,3:2|0:0,0:0:0:0:
225,135,167751,2,0,P|280:117|323:138,1,97.7500018644333,10|0,0:0|0:0,0:0:0:0:
450,361,168006,1,2,3:2:0:0:
369,305,168134,1,0,3:0:0:0:
367,207,168261,1,10,0:0:0:0:
445,148,168389,6,0,P|499:187|424:254,1,195.500003728867,0|0,3:0|3:0,0:0:0:0:
401,58,168772,2,0,P|461:49|504:74,1,97.7500018644333,10|0,0:0|0:0,0:0:0:0:
308,25,169027,2,0,P|248:16|205:41,1,97.7500018644333,2|0,3:2|3:0,0:0:0:0:
410,82,169283,2,0,P|470:73|513:98,1,97.7500018644333,10|0,0:0|0:0,0:0:0:0:
270,106,169538,5,2,3:2:0:0:
270,106,169666,1,0,0:0:0:0:
183,149,169793,2,0,B|167:99|167:99|187:48,1,97.7500018644333,8|0,0:0|0:0,0:0:0:0:
269,202,170048,5,2,3:2:0:0:
269,202,170176,1,0,3:0:0:0:
356,159,170303,2,0,B|372:207|372:207|352:260,1,97.7500018644333,8|0,0:0|3:0,0:0:0:0:
263,346,170559,5,2,0:0:0:0:
263,346,170687,1,0,3:0:0:0:
203,269,170814,2,0,L|97:263,1,97.7500018644333,8|0,0:0|0:0,0:0:0:0:
1,94,171070,5,2,3:2:0:0:
1,94,171198,1,0,3:0:0:0:
61,171,171325,2,0,L|167:177,1,97.7500018644333,8|0,0:0|0:0,0:0:0:0:
306,48,171580,6,0,P|396:12|476:72,1,195.500003728867,2|8,3:2|0:0,0:0:0:0:
471,62,171963,1,0,0:0:0:0:
345,226,172091,1,0,3:0:0:0:
294,141,172219,1,0,3:0:0:0:
380,96,172346,1,10,0:0:0:0:
434,177,172474,6,0,P|451:248|355:323,1,195.500003728867,2|0,3:2|3:0,0:0:0:0:
248,212,172857,2,0,L|353:227,1,97.7500018644333,10|0,0:0|0:0,0:0:0:0:
245,363,173112,1,2,3:2:0:0:
153,326,173240,1,8,0:0:0:0:
128,231,173368,1,10,0:0:0:0:
177,147,173495,1,8,0:0:0:0:
266,108,173623,6,0,B|186:78|160:176|78:132,1,195.500003728867,6|10,3:2|0:0,0:0:0:0:
81,133,174006,1,0,0:0:0:0:
236,5,174134,1,2,3:2:0:0:
236,5,174261,1,0,3:0:0:0:
332,22,174389,1,10,0:0:0:0:
427,42,174517,6,0,B|429:126|429:126|446:151|446:151|449:236,1,195.500003728867,2|0,3:2|3:0,0:0:0:0:
387,344,174900,2,0,P|336:364|282:339,1,97.7500018644333,10|0,0:0|0:0,0:0:0:0:
285,193,175155,2,0,P|327:227|333:286,1,97.7500018644333,2|0,3:2|3:0,0:0:0:0:
202,355,175410,2,0,P|210:300|258:266,1,97.7500018644333,10|0,0:0|0:0,0:0:0:0:
106,354,175666,6,0,P|54:374|0:314,1,144.500002756119,6|10,3:2|0:0,0:0:0:0:
0,315,176048,1,0,0:0:0:0:
108,328,176176,6,0,P|70:259|109:175,1,170,6|10,3:2|0:0,0:0:0:0:
132,307,176559,6,0,P|207:264|290:335,1,195.500003728867,6|0,3:2|3:0,0:0:0:0:
26,226,176942,2,0,L|15:114,1,97.7500018644333,8|0,0:0|0:0,0:0:0:0:
156,14,177197,2,0,L|145:126,1,97.7500018644333,0|0,3:0|0:0,0:0:0:0:
299,205,177453,1,10,0:0:0:0:
274,110,177580,1,8,0:0:0:0:
257,26,177708,6,0,L|311:34,1,42.5,14|0,3:2|0:0,0:0:0:0:
426,57,178219,5,2,3:2:0:0:
196,93,178729,6,0,L|142:101,1,42.5,8|0,0:0|0:0,0:0:0:0:
27,124,179240,5,10,0:0:0:0:
34,208,179368,1,0,1:0:0:0:
112,239,179495,1,2,3:2:0:0:
119,323,179623,1,0,3:0:0:0:
48,371,179751,6,0,L|137:355,1,68,6|0,3:2|0:0,0:0:0:0:
61,348,180006,2,0,L|150:332,1,68,0|0,3:0|0:0,0:0:0:0:
275,262,180261,6,0,L|186:246,1,68,0|0,3:0|0:0,0:0:0:0:
262,239,180516,2,0,L|173:223,1,68,0|0,3:0|0:0,0:0:0:0:
336,340,180772,6,0,P|396:371|483:335,1,152.999995330811,8|8,0:0|0:0,0:0:0:0:
473,345,181155,1,8,0:0:0:0:
409,206,181283,1,0,1:0:0:0:
409,206,181411,1,0,1:0:0:0:
473,165,181538,2,0,L|475:81,1,76.4999976654053,0|0,3:0|3:0,0:0:0:0:
391,30,181793,6,0,B|270:6|293:109|159:74,1,237.999992736817,4|6,3:2|0:0,0:0:0:0:
166,75,183325,1,0,3:0:0:0:
31,13,183836,6,0,P|85:35|103:200,1,237.999992736817,12|6,0:0|3:2,0:0:0:0:
8,275,185240,1,2,3:2:0:0:
8,275,185368,1,8,0:0:0:0:
172,251,185623,1,2,1:2:0:0:
172,251,185751,1,0,1:0:0:0:
151,351,185878,6,0,L|236:340,1,76.4999976654053,4|8,3:2|0:0,0:0:0:0:
311,233,186389,1,2,0:0:0:0:
311,233,186517,1,8,0:0:0:0:
443,354,186900,6,0,L|451:265,1,76.4999976654053,6|0,3:2|0:0,0:0:0:0:
478,252,187283,1,2,1:2:0:0:
478,252,187410,1,0,1:0:0:0:
419,138,187666,1,0,3:0:0:0:
419,138,187793,1,0,3:0:0:0:
496,65,187921,6,0,L|419:53,1,63.7500024318696,6|0,3:2|0:0,0:0:0:0:
483,42,188176,2,0,L|406:30,1,63.7500024318696,2|0,3:2|0:0,0:0:0:0:
245,155,188431,2,0,L|322:143,1,63.7500024318696,2|0,3:2|0:0,0:0:0:0:
258,132,188686,2,0,L|335:120,1,63.7500024318696,2|2,3:2|0:0,0:0:0:0:
269,22,188942,6,0,P|205:24|158:96,1,136,12|8,0:0|0:0,0:0:0:0:
161,75,189325,1,8,0:0:0:0:
47,192,189453,2,0,L|34:115,1,68,2|0,1:2|1:0,0:0:0:0:
158,191,189708,2,0,L|145:268,1,68,2|0,3:2|3:0,0:0:0:0:
53,326,189963,6,0,P|111:274|234:323,1,220.999989883423,6|2,3:2|3:2,0:0:0:0:
232,320,190729,1,0,0:0:0:0:
423,206,190985,6,0,P|344:183|282:247,1,165.749992412568,2|2,3:2|3:2,0:0:0:0:
364,274,191495,1,8,0:0:0:0:
481,150,191751,1,2,3:2:0:0:
481,150,191836,1,0,3:0:0:0:
481,150,191921,1,0,3:0:0:0:
481,150,192006,6,0,B|466:97|477:40|477:40|423:61|360:31,1,220.999989883423,8|2,0:0|3:2,0:0:0:0:
369,35,192772,1,0,0:0:0:0:
179,120,193027,6,0,P|243:110|277:22,1,165.749992412568,10|10,0:0|0:0,0:0:0:0:
197,39,193538,1,0,3:0:0:0:
108,4,193793,1,2,0:0:0:0:
51,89,194048,6,0,B|42:179|42:179|60:208|60:208|51:305,1,220.999989883423,0|10,3:0|0:0,0:0:0:0:
51,304,194814,1,0,0:0:0:0:
263,212,195070,5,10,0:0:0:0:
219,223,195197,1,8,0:0:0:0:
176,236,195325,1,0,1:0:0:0:
132,246,195453,1,2,1:2:0:0:
179,333,195580,5,8,0:0:0:0:
235,319,195707,1,0,1:0:0:0:
292,303,195835,1,2,3:2:0:0:
348,289,195963,1,0,3:0:0:0:
443,348,196091,6,0,L|447:282,1,55.2499974708558,6|0,3:2|0:0,0:0:0:0:
466,341,196346,2,0,L|470:275,1,55.2499974708558,0|0,3:0|0:0,0:0:0:0:
375,206,196602,2,0,L|371:140,1,55.2499974708558,0|0,3:0|0:0,0:0:0:0:
352,199,196857,2,0,L|348:133,1,55.2499974708558,8|8,3:2|3:2,0:0:0:0:
452,43,197112,5,8,0:0:0:0:
371,21,197240,1,8,0:0:0:0:
310,78,197368,1,8,0:0:0:0:
229,56,197496,1,8,0:0:0:0:
149,35,197623,6,0,L|138:82,2,36.8333316472372,8|0|0,0:0|1:0|1:0,0:0:0:0:
69,11,197878,2,0,L|60:57,2,36.8333316472372,0|0|0,1:0|3:0|3:0,0:0:0:0:
94,160,198134,5,10,0:0:0:0:
465,348,199027,5,0,3:0:0:0:
465,348,199091,1,0,3:0:0:0:
465,348,199155,2,0,L|396:358,1,55.2499974708558,8|0,0:0|3:0,0:0:0:0:
491,255,199410,2,0,L|422:265,1,55.2499974708558,0|0,3:0|3:0,0:0:0:0:
283,357,199666,6,0,P|346:284|314:198,1,187.000005706787,14|2,0:0|3:2,0:0:0:0:
321,205,200048,1,2,3:2:0:0:
31,41,200176,6,0,B|26:117|26:117|46:146|46:146|40:237,1,195.500003728867,6|8,3:2|0:0,0:0:0:0:
126,22,200559,2,0,B|121:98|121:98|141:127|141:127|135:218,1,195.500003728867,2|0,0:0|3:0,0:0:0:0:
215,14,200942,6,0,B|211:73|211:73|287:41|359:86,1,195.500003728867,10|0,0:0|0:0,0:0:0:0:
342,76,201325,1,0,3:0:0:0:
309,237,201453,2,0,P|285:194|280:132,1,97.7500018644333,10|0,0:0|0:0,0:0:0:0:
435,101,201708,2,0,P|409:142|358:177,1,97.7500018644333,2|0,3:2|3:0,0:0:0:0:
252,62,201963,2,0,P|301:63|356:89,1,97.7500018644333,10|0,0:0|0:0,0:0:0:0:
460,286,202219,6,0,B|373:255|373:360|265:313,1,195.500003728867,2|8,3:2|0:0,0:0:0:0:
209,165,202602,2,0,P|260:194|278:239,1,97.7500018644333,2|0,0:0|3:0,0:0:0:0:
277,228,202857,1,0,3:0:0:0:
114,265,202985,6,0,P|178:252|128:326,1,195.500003728867,10|0,0:0|0:0,0:0:0:0:
142,331,203368,1,0,3:0:0:0:
12,246,203495,2,0,L|-1:149,1,97.7500018644333,10|0,0:0|0:0,0:0:0:0:
223,59,203751,2,0,L|210:156,1,97.7500018644333,2|0,3:2|3:0,0:0:0:0:
35,225,204006,2,0,L|22:128,1,97.7500018644333,10|0,0:0|0:0,0:0:0:0:
157,17,204261,6,0,P|237:-18|301:68,1,195.500003728867,2|8,3:2|0:0,0:0:0:0:
301,52,204644,1,0,0:0:0:0:
126,204,204772,1,2,3:2:0:0:
126,204,204900,1,0,3:0:0:0:
210,155,205027,1,8,0:0:0:0:
273,229,205155,6,0,B|327:246|364:209|364:209|401:248|469:231,1,195.500003728867,2|0,3:2|3:0,0:0:0:0:
494,88,205538,2,0,P|437:123|429:167,1,97.7500018644333,8|0,0:0|0:0,0:0:0:0:
404,330,205793,2,0,P|347:295|339:251,1,97.7500018644333,0|0,3:0|3:0,0:0:0:0:
410,88,206048,1,10,0:0:0:0:
328,34,206176,1,2,0:0:0:0:
243,88,206304,6,0,B|162:87|162:87|131:121|131:121|53:121,1,195.500003728867,2|8,3:2|0:0,0:0:0:0:
63,121,206687,1,0,0:0:0:0:
234,64,206814,2,0,B|138:34|148:129|31:88,1,195.500003728867,2|8,3:2|0:0,0:0:0:0:
261,183,207197,6,0,P|217:230|219:142,1,195.500003728867,2|0,3:2|3:0,0:0:0:0:
337,247,207580,2,0,L|340:351,1,97.7500018644333,10|0,0:0|0:0,0:0:0:0:
204,372,207836,1,2,3:2:0:0:
137,300,207963,1,8,0:0:0:0:
81,380,208091,1,10,0:0:0:0:
25,308,208218,1,8,0:0:0:0:
81,228,208346,6,0,P|156:207|232:304,1,195.500003728867,6|10,3:2|0:0,0:0:0:0:
231,283,208729,1,0,0:0:0:0:
30,157,208857,2,0,L|21:50,1,97.7500018644333,2|0,3:2|3:0,0:0:0:0:
182,119,209112,2,0,L|173:226,1,97.7500018644333,10|0,0:0|3:0,0:0:0:0:
120,53,209368,6,0,P|190:24|270:108,1,195.500003728867,2|8,0:0|0:0,0:0:0:0:
358,182,209751,2,0,P|294:199|269:97,1,195.500003728867,2|0,0:0|3:0,0:0:0:0:
444,111,210134,2,0,L|458:225,1,97.7500018644333,10|0,0:0|0:0,0:0:0:0:
260,309,210389,6,0,L|274:195,1,97.7500018644333,6|0,3:2|0:0,0:0:0:0:
428,127,210644,2,0,L|442:241,1,97.7500018644333,10|0,0:0|0:0,0:0:0:0:
282,297,210900,1,6,3:2:0:0:
204,356,211027,1,0,3:0:0:0:
129,292,211155,1,10,0:0:0:0:
55,357,211283,6,0,B|113:323|113:323|100:179,1,195.500003728867,6|0,3:2|3:0,0:0:0:0:
0,117,211666,2,0,L|9:225,1,97.7500018644333,8|0,0:0|0:0,0:0:0:0:
124,28,211921,1,2,3:2:0:0:
124,28,212048,1,8,0:0:0:0:
201,87,212176,1,8,0:0:0:0:
201,87,212304,1,8,0:0:0:0:
291,21,212431,6,0,L|197:12,2,85,6|2|10,3:2|0:0|0:0,0:0:0:0:
315,117,212814,2,0,L|221:108,2,85,2|2|2,0:0|3:2|3:2,0:0:0:0:
398,191,213197,6,0,L|492:182,2,85,10|2|2,0:0|0:0|3:2,0:0:0:0:
374,287,213580,2,0,L|468:278,2,85,2|10|2,3:2|0:0|3:2,0:0:0:0:
265,360,213963,6,0,L|171:351,1,85,2|2,0:0|3:2,0:0:0:0:
15,316,214219,1,10,0:0:0:0:
21,265,214304,1,2,0:0:0:0:
29,214,214389,1,2,0:0:0:0:
16,116,214474,6,0,B|118:107|68:176|190:161,1,170,6|8,3:2|0:0,0:0:0:0:
172,162,214857,1,0,0:0:0:0:
272,24,214985,1,0,3:0:0:0:
272,24,215112,1,0,3:0:0:0:
337,79,215240,1,8,0:0:0:0:
406,29,215368,6,0,P|423:88|351:161,1,170,2|0,0:0|3:0,0:0:0:0:
187,27,215751,2,0,L|289:23,1,85,10|0,0:0|3:0,0:0:0:0:
139,126,216006,2,0,L|37:122,1,85,2|0,0:0|3:0,0:0:0:0:
198,47,216261,2,0,L|300:43,1,85,10|0,0:0|0:0,0:0:0:0:
170,218,216517,5,6,3:2:0:0:
226,139,216644,1,2,0:0:0:0:
283,218,216772,2,0,L|392:207,1,97.7500018644333,10|2,0:0|0:0,0:0:0:0:
418,104,217027,2,0,L|309:115,2,97.7500018644333,2|2|10,3:2|3:2|0:0,0:0:0:0:
484,175,217410,1,2,0:0:0:0:
434,259,217538,6,0,L|444:360,2,97.7500018644333,2|2|10,3:2|3:2|0:0,0:0:0:0:
210,360,217921,2,0,P|305:356|327:268,1,195.500003728867,2|2,3:2|3:2,0:0:0:0:
164,184,218304,2,0,L|173:292,1,97.7500018644333,10|0,0:0|0:0,0:0:0:0:
28,356,218559,6,0,L|40:227,1,127.5,6|0,3:2|0:0,0:0:0:0:
42,210,218814,1,8,0:0:0:0:
201,283,218942,6,0,L|189:154,1,127.5,6|0,3:2|0:0,0:0:0:0:
188,137,219197,1,8,0:0:0:0:
0,90,219325,6,0,P|47:115|126:87,1,127.5,6|0,3:2|0:0,0:0:0:0:
129,86,219580,1,8,0:0:0:0:
332,15,219708,6,0,P|285:-10|206:18,1,127.5,6|0,3:2|0:0,0:0:0:0:
202,24,219963,1,8,0:0:0:0:
358,115,220091,5,2,1:2:0:0:
365,159,220176,1,0,1:0:0:0:
373,203,220261,1,0,3:0:0:0:
400,238,220346,5,2,3:2:0:0:
395,268,220431,1,0,3:0:0:0:
389,299,220516,1,0,3:0:0:0:
318,349,220602,6,0,B|213:281|194:407|91:347,1,237.999992736817,6|0,3:2|0:0,0:0:0:0:
145,273,221878,2,0,L|152:207,2,59.4999981842042,2|2|2,0:0|3:2|3:2,0:0:0:0:
13,137,222644,6,0,B|126:113|103:201|205:178,1,204,6|10,0:0|0:0,0:0:0:0:
187,8,224687,6,0,P|141:38|230:78,1,203.999993774414,6|8,3:2|0:0,0:0:0:0:
328,22,225963,1,2,0:0:0:0:
335,34,226219,2,0,L|330:86,1,38.2499988327027,10|0,0:0|0:0,0:0:0:0:
408,127,226474,1,2,1:2:0:0:
408,127,226602,1,0,1:0:0:0:
408,127,226729,6,0,B|409:210|409:210|437:241|437:241|439:350,1,229.499992996216,6|0,3:2|0:0,0:0:0:0:
317,201,227751,6,0,L|317:284,1,76.4999976654053,14|0,0:0|0:0,0:0:0:0:
317,277,228134,1,0,1:0:0:0:
317,277,228261,1,2,1:2:0:0:
232,149,228517,1,0,0:0:0:0:
166,230,228772,6,0,L|157:327,1,93.5000028533936,6|0,3:2|3:0,0:0:0:0:
148,243,229283,2,0,L|139:340,1,93.5000028533936,0|2,3:0|3:2,0:0:0:0:
139,336,229666,1,2,0:0:0:0:
39,222,229793,6,0,L|27:100,1,110.499994941712,12|8,0:0|0:0,0:0:0:0:
16,205,230304,2,0,L|4:83,1,110.499994941712,8|8,0:0|0:0,0:0:0:0:
5,94,230687,1,0,1:0:0:0:
111,28,230814,6,0,B|160:41|203:22|203:22|207:63|247:91,1,170,4|2,3:2|3:2,0:0:0:0:
403,45,231580,1,2,0:0:0:0:
403,45,231708,6,0,P|340:4|290:25,1,127.5,2|2,0:0|0:0,0:0:0:0:
295,19,232219,1,0,0:0:0:0:
393,142,232346,2,0,L|491:128,1,85,2|2,3:2|0:0,0:0:0:0:
343,227,232857,6,0,P|292:235|251:207,1,101.999996887207,6|2,3:2|0:0,0:0:0:0:
252,208,233240,1,0,0:0:0:0:
181,129,233368,2,0,L|175:61,2,59.4999981842042,10|0|2,0:0|1:0|3:2,0:0:0:0:
93,198,233751,6,0,B|91:254|91:254|73:276|73:276|70:332,1,136,6|0,3:2|0:0,0:0:0:0:
136,372,234134,1,0,3:0:0:0:
237,252,234389,2,0,L|158:263,1,68,8|0,0:0|3:0,0:0:0:0:
294,357,234644,2,0,L|215:346,1,68
334,267,234900,6,0,P|388:262|446:342,1,152.999995330811,6|2,3:2|0:0,0:0:0:0:
445,332,235283,1,0,3:0:0:0:
408,184,235410,2,0,P|375:136|275:141,1,152.999995330811,10|2,0:0|0:0,0:0:0:0:
117,225,235793,6,0,P|207:244|214:184,1,152.999995330811,14|0,0:0|0:0,0:0:0:0:
38,196,236176,2,0,P|45:264|62:286,1,76.4999976654053,2|0,3:2|0:0,0:0:0:0:
108,127,236431,2,0,L|20:112,1,76.4999976654053,10|0,0:0|0:0,0:0:0:0:
152,38,236687,2,0,L|240:23,1,76.4999976654053,2|2,3:2|0:0,0:0:0:0:
431,133,236942,5,12,0:0:0:0:
452,37,237070,1,0,3:0:0:0:
452,37,237197,1,0,3:0:0:0:
335,164,237325,5,0,1:0:0:0:
356,68,237453,1,0,3:0:0:0:
356,68,237580,1,0,3:0:0:0:
241,192,237708,5,0,3:0:0:0:
262,96,237836,1,0,3:0:0:0:
408,230,237963,5,12,0:0:0:0:
408,230,238474,6,0,B|305:219|325:306|217:282,1,204,2|0,0:0|0:0,0:0:0:0:
219,282,238985,6,0,L|225:373,1,85,2|0,3:2|0:0,0:0:0:0:
196,265,239240,1,2,0:0:0:0:
98,358,239368,1,0,3:0:0:0:
98,358,239431,1,0,3:0:0:0:
98,358,239495,2,0,L|92:267,1,85,10|0,0:0|0:0,0:0:0:0:
155,177,239751,1,10,0:0:0:0:
9,124,239878,6,0,P|44:180|164:168,1,187.000005706787,4|0,3:2|3:0,0:0:0:0:
163,49,240261,2,0,P|114:69|98:112,1,93.5000028533936,8|2,0:0|0:0,0:0:0:0:
248,155,240517,5,10,0:0:0:0:
290,146,240602,1,8,0:0:0:0:
332,137,240687,1,8,0:0:0:0:
371,46,240772,5,10,0:0:0:0:
413,55,240857,1,8,0:0:0:0:
455,64,240942,1,8,0:0:0:0:
494,141,241027,6,0,P|509:189|488:246,1,97.7500018644333,6|0,3:2|0:0,0:0:0:0:
335,239,241283,2,0,P|369:202|428:191,1,97.7500018644333,10|0,0:0|0:0,0:0:0:0:
429,318,241538,1,2,3:2:0:0:
338,356,241666,1,0,3:0:0:0:
254,306,241793,1,10,0:0:0:0:
219,214,241921,6,0,P|160:192|80:298,1,195.500003728867,0|0,3:0|3:0,0:0:0:0:
156,370,242304,2,0,L|164:268,1,97.7500018644333,10|0,0:0|0:0,0:0:0:0:
0,134,242559,2,0,L|8:236,1,97.7500018644333,2|0,3:2|3:0,0:0:0:0:
175,355,242814,2,0,L|183:253,1,97.7500018644333,10|0,0:0|0:0,0:0:0:0:
85,118,243070,5,2,3:2:0:0:
85,118,243197,1,0,0:0:0:0:
34,34,243325,2,0,P|91:18|139:35,1,97.7500018644333,8|0,0:0|0:0,0:0:0:0:
247,155,243580,5,2,3:2:0:0:
247,155,243707,1,0,3:0:0:0:
298,71,243835,2,0,P|241:55|193:72,1,97.7500018644333,8|0,0:0|3:0,0:0:0:0:
61,212,244091,5,2,0:0:0:0:
61,212,244219,1,0,3:0:0:0:
155,187,244346,2,0,B|141:218|141:218|164:299,1,97.7500018644333,8|0,0:0|0:0,0:0:0:0:
338,330,244602,5,2,3:2:0:0:
338,330,244730,1,0,3:0:0:0:
244,355,244857,2,0,B|258:324|258:324|235:243,1,97.7500018644333,8|0,0:0|0:0,0:0:0:0:
11,331,245112,6,0,P|90:355|158:271,1,195.500003728867,2|8,3:2|0:0,0:0:0:0:
157,278,245495,1,0,0:0:0:0:
10,80,245623,1,0,3:0:0:0:
10,80,245751,1,0,3:0:0:0:
89,136,245878,1,10,0:0:0:0:
151,60,246006,6,0,B|232:51|232:51|265:85|265:85|335:76,1,195.500003728867,2|0,3:2|3:0,0:0:0:0:
498,25,246389,2,0,L|397:12,1,97.7500018644333,10|0,0:0|0:0,0:0:0:0:
266,118,246644,2,0,L|367:105,1,97.7500018644333,2|0,3:2|3:0,0:0:0:0:
508,43,246900,2,0,L|407:30,1,97.7500018644333,10|0,0:0|0:0,0:0:0:0:
448,232,247155,6,0,P|457:159|357:106,1,195.500003728867,6|10,3:2|0:0,0:0:0:0:
361,104,247538,1,0,0:0:0:0:
315,284,247666,2,0,P|323:223|361:198,1,97.7500018644333,2|0,3:2|3:0,0:0:0:0:
348,202,247921,1,10,0:0:0:0:
459,335,248048,6,0,B|362:298|375:401|257:349,1,195.500003728867,2|0,3:2|3:0,0:0:0:0:
169,206,248431,2,0,P|218:212|252:268,1,97.7500018644333,10|0,0:0|0:0,0:0:0:0:
103,255,248687,2,0,P|83:208|115:151,1,97.7500018644333,2|0,3:2|3:0,0:0:0:0:
175,288,248942,2,0,P|144:327|79:328,1,97.7500018644333,10|0,0:0|0:0,0:0:0:0:
0,293,249197,6,0,L|9:187,1,97.7500018644333,6|0,3:2|0:0,0:0:0:0:
159,108,249453,2,0,L|170:215,1,97.7500018644333,10|0,0:0|0:0,0:0:0:0:
27,92,249708,1,6,3:2:0:0:
99,26,249836,1,0,3:2:0:0:
177,82,249963,1,10,0:0:0:0:
245,12,250091,6,0,B|276:56|276:56|423:44,1,195.500003728867,6|0,3:2|3:0,0:0:0:0:
327,144,250474,2,0,L|316:258,1,97.7500018644333,8|0,0:0|0:0,0:0:0:0:
463,318,250729,2,0,L|452:204,1,97.7500018644333,0|0,3:0|3:0,0:0:0:0:
306,128,250985,2,0,L|295:242,1,97.7500018644333,10|0,0:0|0:0,0:0:0:0:
217,324,251240,6,0,P|297:357|386:286,1,195.500003728867,6|10,3:2|0:0,0:0:0:0:
380,300,251623,1,0,0:0:0:0:
204,197,251751,1,2,3:2:0:0:
204,197,251878,1,0,3:0:0:0:
118,245,252006,1,10,0:0:0:0:
97,340,252134,6,0,P|143:278|96:179,1,195.500003728867,2|0,3:2|3:0,0:0:0:0:
11,48,252517,2,0,P|15:112|46:132,1,97.7500018644333,10|0,0:0|0:0,0:0:0:0:
185,72,252772,2,0,P|127:43|94:60,1,97.7500018644333,2|0,3:2|3:0,0:0:0:0:
135,154,253027,1,10,0:0:0:0:
210,44,253155,6,0,B|282:58|348:20|348:20|346:60|371:82,1,203.999993774414,2|0,3:2|3:0,0:0:0:0:
484,34,253538,1,10,0:0:0:0:
484,34,253666,1,0,3:0:0:0:
447,130,253793,1,10,0:0:0:0:
447,130,253921,1,0,3:0:0:0:
486,223,254048,1,10,0:0:0:0:
454,320,254176,6,0,B|384:365|317:322|317:322|336:283|383:309,1,203.999993774414,2|0,3:2|3:0,0:0:0:0:
241,375,254559,2,0,P|219:329|252:255,1,101.999996887207,10|0,0:0|0:0,0:0:0:0:
327,178,254814,5,10,0:0:0:0:
331,75,254942,1,8,0:0:0:0:
237,33,255070,1,10,0:0:0:0:
164,103,255197,1,8,0:0:0:0:
213,187,255325,6,0,L|225:76,1,97.7500018644333,6|0,3:2|0:0,0:0:0:0:
57,18,255580,2,0,L|69:129,1,97.7500018644333,10|0,0:0|0:0,0:0:0:0:
215,215,255836,1,2,3:2:0:0:
122,185,255963,1,0,3:0:0:0:
30,219,256091,1,10,0:0:0:0:
7,314,256219,6,0,B|65:282|109:304|109:304|123:357|190:362,1,195.500003728867,0|0,3:0|3:0,0:0:0:0:
285,264,256602,2,0,P|235:254|192:283,1,97.7500018644333,10|0,0:0|0:0,0:0:0:0:
348,367,256857,2,0,P|296:379|258:346,1,97.7500018644333,2|0,3:2|3:0,0:0:0:0:
402,297,257112,2,0,P|438:336|437:393,1,97.7500018644333,10|0,0:0|0:0,0:0:0:0:
367,209,257368,6,0,P|419:206|478:244,1,97.7500018644333,2|0,3:2|0:0,0:0:0:0:
317,137,257623,2,0,P|265:134|206:172,1,97.7500018644333,10|0,0:0|0:0,0:0:0:0:
396,78,257878,1,2,3:2:0:0:
325,10,258006,1,0,3:0:0:0:
241,60,258134,1,10,0:0:0:0:
156,12,258261,6,0,B|98:33|25:18|25:18|1:51|16:80,1,195.500003728867,0|0,3:0|3:0,0:0:0:0:
155,186,258644,2,0,P|172:133|150:79,1,97.7500018644333,10|0,0:0|0:0,0:0:0:0:
80,219,258900,2,0,P|117:260|175:268,1,97.7500018644333,2|0,3:2|3:0,0:0:0:0:
88,134,259155,2,0,P|33:145|-2:191,1,97.7500018644333,10|0,0:0|0:0,0:0:0:0:
5,329,259410,5,2,3:2:0:0:
5,329,259538,1,0,0:0:0:0:
93,370,259666,2,0,L|91:258,1,97.7500018644333,8|0,0:0|0:0,0:0:0:0:
273,227,259921,5,2,3:2:0:0:
273,227,260049,1,0,3:0:0:0:
185,186,260177,2,0,L|187:298,1,97.7500018644333,8|0,0:0|3:0,0:0:0:0:
324,365,260431,5,2,0:0:0:0:
324,365,260559,1,0,3:0:0:0:
371,279,260687,2,0,P|310:258|271:279,1,97.7500018644333,8|0,0:0|0:0,0:0:0:0:
469,281,260942,5,2,3:2:0:0:
469,281,261070,1,0,3:0:0:0:
422,195,261198,2,0,P|483:174|522:195,1,97.7500018644333,8|0,0:0|0:0,0:0:0:0:
312,182,261453,6,0,P|352:98|304:18,1,195.500003728867,2|8,3:2|0:0,0:0:0:0:
304,18,261836,1,0,0:0:0:0:
159,164,261963,1,0,3:0:0:0:
238,107,262091,1,0,3:0:0:0:
181,26,262219,1,10,0:0:0:0:
98,77,262346,6,0,B|89:156|89:156|111:191|111:191|103:269,1,195.500003728867,2|0,3:2|3:0,0:0:0:0:
229,357,262729,2,0,P|171:373|133:345,1,97.7500018644333,10|0,0:0|0:0,0:0:0:0:
236,229,262985,1,2,3:2:0:0:
276,140,263112,1,8,0:0:0:0:
372,122,263240,1,10,0:0:0:0:
445,187,263368,1,8,0:0:0:0:
484,275,263495,6,0,P|401:282|348:191,1,195.500003728867,6|10,3:2|0:0,0:0:0:0:
348,195,263878,1,0,0:0:0:0:
508,58,264006,1,2,3:2:0:0:
508,58,264134,1,0,3:0:0:0:
423,10,264261,1,10,0:0:0:0:
338,59,264389,6,0,B|277:54|250:23|250:23|209:55|150:53,1,195.500003728867,2|0,3:2|3:0,0:0:0:0:
1,3,264772,2,0,P|65:12|91:44,1,97.7500018644333,10|0,0:0|0:0,0:0:0:0:
18,143,265027,1,2,3:2:0:0:
7,144,265112,2,0,P|0:114|16:81,1,65.1666679096222,0|0,3:0|3:0,0:0:0:0:
146,88,265283,1,10,0:0:0:0:
149,98,265368,2,0,P|126:119|89:121,1,65.1666679096222,8|8,0:0|0:0,0:0:0:0:
5,284,265538,6,0,P|47:225|117:231,1,144.500002756119,6|10,3:2|0:0,0:0:0:0:
112,228,265921,1,0,0:0:0:0:
6,314,266048,6,0,P|69:289|142:358,1,170,6|10,3:2|0:0,0:0:0:0:
309,236,266431,6,0,P|224:230|168:323,1,195.500003728867,6|0,3:2|3:0,0:0:0:0:
372,340,266814,2,0,P|316:349|272:315,1,97.7500018644333,8|0,0:0|0:0,0:0:0:0:
499,181,267070,1,8,0:0:0:0:
404,202,267197,1,0,3:0:0:0:
349,120,267325,1,2,3:2:0:0:
254,141,267452,1,0,3:3:0:0:
189,72,267580,6,0,L|132:80,1,42.5,10|0,3:2|0:0,0:0:0:0:
11,102,268091,5,2,3:2:0:0:
254,141,268602,6,0,L|197:149,1,42.5,8|0,0:0|0:0,0:0:0:0:
76,171,269113,5,8,0:0:0:0:
48,251,269240,1,2,1:2:0:0:
124,289,269368,1,0,3:0:0:0:
96,369,269495,1,2,3:2:0:0:
182,347,269623,6,0,P|205:278|131:210,1,178.499994552612,2|2,3:2|0:0,0:0:0:0:
136,210,270006,1,0,3:0:0:0:
284,347,270134,2,0,P|293:285|245:170,1,178.499994552612,10|2,0:0|0:0,0:0:0:0:
15,124,270517,6,0,P|102:191|151:163,1,178.499994552612,2|8,3:2|0:0,0:0:0:0:
117,27,270900,1,0,3:0:0:0:
158,29,270985,1,0,3:0:0:0:
199,31,271070,1,0,3:0:0:0:
240,31,271155,2,0,L|346:28,1,89.2499972763062,8|0,0:0|1:0,0:0:0:0:
387,116,271410,2,0,L|281:119,1,89.2499972763062,2|0,3:2|0:0,0:0:0:0:
442,17,271666,5,2,3:2:0:0:
442,17,271921,1,2,3:2:0:0:
510,128,272176,6,0,P|481:69|387:121,1,195.500003728867,14|2,0:0|0:0,0:0:0:0:
387,116,272559,1,2,3:2:0:0:
502,291,272687,5,0,3:2:0:0:
502,291,272942,1,2,3:2:0:0:
407,350,273197,6,0,B|324:340|324:340|301:363|301:363|209:355,1,195.500003728867,14|2,0:0|0:0,0:0:0:0:
221,356,273580,1,0,0:0:0:0:
56,255,273708,6,0,L|61:331,1,68,6|0,3:2|0:0,0:0:0:0:
41,268,273963,2,0,L|46:344,1,68,0|0,3:0|0:0,0:0:0:0:
160,208,274219,6,0,L|155:284,1,68,0|0,3:0|0:0,0:0:0:0:
175,221,274474,2,0,L|170:297,1,68,0|0,3:0|0:0,0:0:0:0:
1,137,274729,6,0,P|39:125|88:143,1,76.4999976654053,8|0,0:0|0:0,0:0:0:0:
176,56,274985,2,0,P|138:44|89:62,1,76.4999976654053,8|0,0:0|0:0,0:0:0:0:
231,146,275240,5,8,0:0:0:0:
266,139,275325,1,8,0:0:0:0:
301,133,275410,1,8,0:0:0:0:
329,97,275495,5,8,0:0:0:0:
364,90,275580,1,8,0:0:0:0:
399,84,275665,1,8,0:0:0:0:
469,137,275751,6,0,L|479:231,1,85,4|0,3:2|0:0,0:0:0:0:
379,336,276006,2,0,L|389:242,1,85,10|0,0:0|0:0,0:0:0:0:
486,121,276261,2,0,L|496:215,1,85,2|0,3:2|3:0,0:0:0:0:
355,350,276517,2,0,L|365:256,1,85,10|0,0:0|3:0,0:0:0:0:
156,317,276772,6,0,P|195:342|266:322,1,114.749996498108,2|0,0:0|0:0,0:0:0:0:
258,328,277027,1,8,0:0:0:0:
141,293,277155,6,0,P|208:285|246:225,1,127.5,2|0,0:0|0:0,0:0:0:0:
242,240,277410,1,0,3:0:0:0:
71,238,277538,6,0,P|48:283|65:342,1,97.7500018644333,10|0,0:0|0:0,0:0:0:0:
127,165,277793,6,0,P|72:147|31:158,1,85,0|0,3:0|0:0,0:0:0:0:
199,99,278048,2,0,P|254:81|295:92,1,85,10|0,0:0|0:0,0:0:0:0:
114,138,278304,2,0,P|59:120|18:131,1,85,2|0,3:2|3:0,0:0:0:0:
207,67,278559,2,0,P|262:49|303:60,1,85,10|0,0:0|3:0,0:0:0:0:
469,142,278814,6,0,L|455:26,1,114.749996498108,2|0,0:0|0:0,0:0:0:0:
455,28,279070,1,8,0:0:0:0:
330,225,279197,6,0,L|347:94,1,127.5,2|0,0:0|0:0,0:0:0:0:
347,99,279453,1,0,3:0:0:0:
512,225,279580,6,0,L|501:124,1,97.7500018644333,10|0,0:0|0:0,0:0:0:0:
287,302,279836,6,0,P|328:318|380:294,1,85,0|0,3:0|0:0,0:0:0:0:
226,210,280091,2,0,P|185:194|133:218,1,85,10|0,0:0|0:0,0:0:0:0:
139,352,280346,2,0,P|173:324|178:267,1,85,2|0,3:2|3:0,0:0:0:0:
60,209,280602,2,0,P|66:252|113:285,1,85,10|0,0:0|3:0,0:0:0:0:
107,121,280857,6,0,P|39:105|1:128,1,114.749996498108,2|0,0:0|0:0,0:0:0:0:
3,125,281112,1,8,0:0:0:0:
252,54,281240,6,0,P|192:68|143:28,1,127.5,2|0,0:0|0:0,0:0:0:0:
143,29,281495,1,0,3:0:0:0:
266,140,281623,6,0,P|310:157|368:137,1,97.7500018644333,10|0,0:0|0:0,0:0:0:0:
453,77,281878,6,0,L|463:169,1,93.5000028533936,2|0,3:2|0:0,0:0:0:0:
331,272,282134,2,0,L|341:180,1,93.5000028533936,10|0,0:0|0:0,0:0:0:0:
468,61,282389,2,0,L|478:153,1,93.5000028533936,2|0,3:2|3:0,0:0:0:0:
310,284,282644,1,10,0:0:0:0:
195,91,282772,6,0,P|280:73|244:146,1,187.000005706787,6|0,3:2|3:0,0:0:0:0:
118,125,283155,2,0,P|111:63|135:27,1,93.5000028533936,10|0,0:0|0:0,0:0:0:0:
189,176,283410,2,0,P|138:212|95:208,1,93.5000028533936,2|0,3:2|3:0,0:0:0:0:
195,91,283666,2,0,P|249:110|268:152,1,93.5000028533936,10|8,0:0|0:0,0:0:0:0:
167,343,283921,6,0,L|161:243,1,85,4|0,3:2|0:0,0:0:0:0:
291,166,284176,2,0,L|285:266,1,85,10|0,0:0|0:0,0:0:0:0:
143,353,284431,2,0,L|137:253,1,85,2|0,3:2|3:0,0:0:0:0:
309,149,284687,2,0,L|303:249,1,85,10|0,0:0|3:0,0:0:0:0:
154,133,284942,6,0,P|101:120|42:147,1,114.749996498108,2|0,0:0|0:0,0:0:0:0:
47,142,285197,1,8,0:0:0:0:
171,101,285325,6,0,P|120:51|45:58,1,127.5,2|0,0:0|0:0,0:0:0:0:
66,48,285580,1,0,3:0:0:0:
202,78,285708,6,0,P|246:48|299:57,1,97.7500018644333,10|0,0:0|0:0,0:0:0:0:
406,125,285963,6,0,L|501:113,1,85,4|0,3:2|0:0,0:0:0:0:
327,185,286219,2,0,L|232:173,1,85,10|0,0:0|0:0,0:0:0:0:
419,100,286474,2,0,L|514:88,1,85,6|0,3:2|3:0,0:0:0:0:
312,206,286729,2,0,L|217:194,1,85,10|4,0:0|3:2,0:0:0:0:
452,342,286985,6,0,P|470:282|465:221,1,114.749996498108,2|0,0:0|0:0,0:0:0:0:
467,230,287240,1,8,0:0:0:0:
416,353,287368,6,0,P|405:298|383:259,1,85,2|0,0:0|3:0,0:0:0:0:
334,334,287623,1,0,3:0:0:0:
254,277,287751,1,10,0:0:0:0:
174,333,287878,1,8,0:0:0:0:
33,251,288006,6,0,B|75:265|75:265|113:252,1,85,4|0,3:2|0:0,0:0:0:0:
259,179,288261,2,0,B|217:165|217:165|178:177,1,85,10|0,0:0|0:0,0:0:0:0:
25,272,288517,2,0,B|67:286|67:286|105:273,1,85,2|0,3:2|3:0,0:0:0:0:
269,160,288772,2,0,B|227:146|227:146|188:158,1,85,10|0,0:0|3:0,0:0:0:0:
9,21,289027,6,0,L|15:123,1,85,2|0,0:0|3:0,0:0:0:0:
20,198,289283,1,8,0:0:0:0:
106,42,289410,2,0,L|112:144,1,85,2|0,0:0|3:0,0:0:0:0:
117,219,289666,1,0,3:0:0:0:
185,169,289793,1,10,0:0:0:0:
242,232,289921,1,0,0:0:0:0:
342,39,290048,5,14,0:0:0:0:
342,39,290176,1,0,3:0:0:0:
443,31,290304,5,8,0:0:0:0:
443,31,290432,1,0,3:0:0:0:
405,133,290559,5,10,0:0:0:0:
405,133,290687,1,2,3:2:0:0:
506,125,290815,5,10,0:0:0:0:
506,125,290943,1,0,3:0:0:0:
456,220,291070,6,0,P|406:238|353:220,1,97.7500018644333,10|0,0:0|3:0,0:0:0:0:
164,20,291325,5,8,0:0:0:0:
161,72,291405,1,8,0:0:0:0:
158,124,291485,1,8,0:0:0:0:
125,155,291565,5,10,0:0:0:0:
127,197,291645,1,8,0:0:0:0:
130,239,291725,1,8,0:0:0:0:
109,264,291805,5,10,0:0:0:0:
110,286,291885,1,8,0:0:0:0:
111,309,291965,1,8,0:0:0:0:
207,337,292091,6,0,B|301:308|301:308|374:372|374:372|380:273|380:273|463:221|463:221|374:187|374:187|348:94|348:94|290:165|290:165|191:160|191:160|241:242|241:242|221:294,1,924.800005644531,6|2,3:2|0:0,0:0:0:0:
