osu file format v14

[General]
AudioFilename: audio.mp3
AudioLeadIn: 0
PreviewTime: 269321
Countdown: 0
SampleSet: Normal
StackLeniency: 0.5
Mode: 0
LetterboxInBreaks: 0
WidescreenStoryboard: 0

[Editor]
Bookmarks: 559,27067,40781,57543,69733,84972,97162,109353,133733,145924,167257,173353,197733,217543,229733,241924,269353,281543
DistanceSpacing: 0.8
BeatDivisor: 4
GridSize: 32
TimelineZoom: 2.899996

[Metadata]
Title:Wings of Freedom
TitleUnicode:自由の翼
Artist:EPICA
ArtistUnicode:EPICA
Creator:Sieg
Version:Victoria
Source:進撃の巨人
Tags:shingeki no kyojin vs attack on titan songs linked horizon jiyuu no tsubasa cover anime english rock metal symphonic marathon
BeatmapID:1555717
BeatmapSetID:737174

[Difficulty]
HPDrainRate:6
CircleSize:4
OverallDifficulty:8
ApproachRate:9
SliderMultiplier:1.9
SliderTickRate:1

[Events]
//Background and Video events
0,0,"shingeki_no_kyojin.jpg",0,0
//Break Periods
2,220791,229133
//Storyboard Layer 0 (Background)
//Storyboard Layer 1 (Fail)
//Storyboard Layer 2 (Pass)
//Storyboard Layer 3 (Foreground)
//Storyboard Sound Samples

[TimingPoints]
1001,441.176470588235,4,1,69,45,1,0
1001,-87.719298245614,4,1,69,45,0,0
4824,-87.719298245614,4,1,69,20,0,0
4971,-87.719298245614,4,1,69,45,0,0
5265,-87.719298245614,4,1,69,20,0,0
5412,-87.719298245614,4,1,69,45,0,0
5706,-87.719298245614,4,1,69,20,0,0
5853,-87.719298245614,4,1,69,45,0,0
7471,-87.719298245614,4,1,69,35,0,0
7618,-87.719298245614,4,1,69,45,0,0
8353,-87.719298245614,4,1,69,20,0,0
8500,-87.719298245614,4,1,69,45,0,0
8795,-87.719298245614,4,1,69,20,0,0
8942,-87.719298245614,4,1,69,45,0,0
9236,-87.719298245614,4,1,69,20,0,0
9383,-87.719298245614,4,1,69,45,0,0
9677,-87.719298245614,4,1,69,20,0,0
9824,-87.719298245614,4,1,69,45,0,0
11883,-87.719298245614,4,1,69,20,0,0
12030,-87.719298245614,4,1,69,45,0,0
12324,-87.719298245614,4,1,69,20,0,0
12471,-87.719298245614,4,1,69,45,0,0
12765,-87.719298245614,4,1,69,20,0,0
12912,-87.719298245614,4,1,69,45,0,0
13206,-87.719298245614,4,1,69,20,0,0
13353,380.952380952381,4,1,69,60,1,0
13353,-76.9230769230769,4,1,69,60,0,0
25924,-76.9230769230769,4,1,69,60,0,0
27067,-90.9090909090909,4,1,69,60,0,0
51448,-76.9230769230769,4,1,69,60,0,1
51543,-76.9230769230769,4,1,69,60,0,0
54495,-76.9230769230769,4,1,69,60,0,1
54591,-76.9230769230769,4,1,69,60,0,0
57543,-76.9230769230769,4,1,69,60,0,1
69638,-76.9230769230769,4,1,69,60,0,0
69733,-76.9230769230769,4,1,69,60,0,1
83543,-76.9230769230769,4,1,69,60,0,0
97162,-66.6666666666667,4,1,69,60,0,1
109353,-90.9090909090909,4,1,69,60,0,1
109448,-90.9090909090909,4,1,69,60,0,0
133733,-90.9090909090909,4,1,69,60,0,1
133829,-90.9090909090909,4,1,69,60,0,0
145924,-76.9230769230769,4,1,69,60,0,0
148972,-71.4285714285714,4,1,69,60,0,0
152019,-76.9230769230769,4,1,69,60,0,0
167257,-66.6666666666667,4,1,69,60,0,1
173305,-76.9230769230769,4,1,69,60,0,0
173353,-76.9230769230769,4,1,69,60,0,1
173400,-76.9230769230769,4,1,69,60,0,0
197733,-76.9230769230769,4,1,69,70,0,1
203733,-76.9230769230769,4,1,69,70,0,0
203829,-76.9230769230769,4,1,69,70,0,1
208400,-76.9230769230769,4,1,69,70,0,1
208876,-76.9230769230769,4,1,69,60,0,0
214495,-76.9230769230769,4,1,69,80,0,0
217638,-76.9230769230769,4,1,69,40,0,0
229733,-181.818181818182,4,2,69,60,0,0
230305,-181.818181818182,4,2,69,30,0,0
230495,-181.818181818182,4,2,69,60,0,0
232400,-181.818181818182,4,2,69,30,0,0
232591,-181.818181818182,4,2,69,60,0,0
233543,-181.818181818182,4,2,69,30,0,0
233924,-181.818181818182,4,2,69,45,0,0
234114,-181.818181818182,4,2,69,60,0,0
234686,-181.818181818182,4,2,69,45,0,0
234876,-181.818181818182,4,2,69,60,0,0
235448,-181.818181818182,4,2,69,30,0,0
235829,-181.818181818182,4,2,69,60,0,0
236210,-181.818181818182,4,2,69,30,0,0
236591,-181.818181818182,4,2,69,60,0,0
237162,-181.818181818182,4,2,69,45,0,0
237353,-181.818181818182,4,2,69,60,0,0
238114,-181.818181818182,4,2,69,30,0,0
238495,-181.818181818182,4,2,69,45,0,0
238686,-181.818181818182,4,2,69,60,0,0
239638,-181.818181818182,4,2,69,30,0,0
240019,-181.818181818182,4,2,69,45,0,0
240210,-181.818181818182,4,2,69,60,0,0
241162,-181.818181818182,4,2,69,30,0,0
241924,-142.857142857143,4,1,69,50,0,0
243257,-142.857142857143,4,1,69,45,0,0
243353,-142.857142857143,4,1,69,40,0,0
243448,-142.857142857143,4,2,69,25,0,0
243543,-142.857142857143,4,1,69,20,0,0
243638,-142.857142857143,4,1,69,30,0,0
243733,-142.857142857143,4,1,69,35,0,0
243829,-142.857142857143,4,1,69,38,0,0
243924,-142.857142857143,4,1,69,41,0,0
244019,-142.857142857143,4,1,69,44,0,0
244114,-142.857142857143,4,1,69,47,0,0
244210,-142.857142857143,4,1,69,50,0,0
248972,-142.857142857143,4,1,69,45,0,0
249162,-142.857142857143,4,1,69,40,0,0
249353,-142.857142857143,4,1,69,35,0,0
249733,-142.857142857143,4,1,69,32,0,0
249829,-142.857142857143,4,1,69,35,0,0
249924,-142.857142857143,4,1,69,38,0,0
250019,-142.857142857143,4,1,69,41,0,0
250114,-142.857142857143,4,1,69,44,0,0
250210,-142.857142857143,4,1,69,47,0,0
250305,-142.857142857143,4,1,69,50,0,0
251067,-111.111111111111,4,1,69,60,0,0
254114,-100,4,1,69,60,0,1
254210,-100,4,1,69,60,0,0
263257,-90.9090909090909,4,1,69,60,0,0
269353,-83.3333333333333,4,1,69,60,0,1
269448,-83.3333333333333,4,1,69,60,0,0
276591,-83.3333333333333,4,1,69,50,0,0
277353,-83.3333333333333,4,1,69,60,0,0
279448,-83.3333333333333,4,1,69,70,0,0
281162,-76.9230769230769,4,1,69,70,0,0
281543,-76.9230769230769,4,1,69,70,0,1
295353,-76.9230769230769,4,1,69,70,0,0
302114,-76.9230769230769,4,1,69,70,0,0
302876,-76.9230769230769,4,1,69,60,0,1
308876,-76.9230769230769,4,1,69,60,0,0
308972,-83.3333333333333,4,1,69,60,0,1
309067,-83.3333333333333,4,1,69,60,0,0
309606,-83.3333333333333,4,1,69,40,0,0
309733,-83.3333333333333,4,1,69,60,0,0
309987,-83.3333333333333,4,1,69,40,0,0
310114,-83.3333333333333,4,1,69,60,0,0
310368,-83.3333333333333,4,1,69,40,0,0
310495,-83.3333333333333,4,1,69,60,0,0
312273,-83.3333333333333,4,1,69,40,0,0
312400,-83.3333333333333,4,1,69,60,0,0
312654,-83.3333333333333,4,1,69,40,0,0
312781,-83.3333333333333,4,1,69,60,0,0
313035,-83.3333333333333,4,1,69,40,0,0
313162,-83.3333333333333,4,1,69,60,0,0
313416,-83.3333333333333,4,1,69,40,0,0
313543,-83.3333333333333,4,1,69,60,0,0
313797,-83.3333333333333,4,1,69,40,0,0
313924,-83.3333333333333,4,1,69,60,0,0
315321,-83.3333333333333,4,1,69,40,0,0
315448,-83.3333333333333,4,1,69,60,0,0
316083,-83.3333333333333,4,1,69,40,0,0
316210,-83.3333333333333,4,1,69,60,0,0
318368,-83.3333333333333,4,1,69,40,0,0
318495,-83.3333333333333,4,1,69,60,0,0
318749,-83.3333333333333,4,1,69,40,0,0
318876,-83.3333333333333,4,1,69,60,0,0
319130,-83.3333333333333,4,1,69,40,0,0
319257,-83.3333333333333,4,1,69,60,0,0
319511,-83.3333333333333,4,1,69,40,0,0
319638,-76.9230769230769,4,1,69,70,0,0

[Colours]
Combo1 : 109,146,155
Combo2 : 232,208,169
Combo3 : 183,175,163
Combo4 : 187,215,210
Combo5 : 215,218,215
Combo6 : 141,191,224

[HitObjects]
326,265,559,5,0,2:0:0:0:
256,235,706,1,0,2:0:0:0:
188,205,853,1,0,2:0:0:0:
119,174,1000,2,0,P|192:255|170:340,1,190,4|0,0:1|0:0,0:0:0:0:
408,55,1883,6,0,B|433:96|433:96|419:264,1,216.599997355957,0|0,0:0|0:0,0:0:0:0:
103,55,2765,2,0,B|77:96|77:96|92:264,1,216.599997355957,0|0,0:0|0:0,0:0:0:0:
256,112,3500,1,0,0:0:0:0:
259,115,3648,5,0,0:0:0:0:
261,119,3795,1,0,0:0:0:0:
261,119,3942,1,0,0:0:0:0:
274,172,4089,1,0,0:0:0:0:
248,216,4236,1,0,0:0:0:0:
200,233,4383,1,0,0:0:0:0:
152,213,4530,6,0,P|155:142|163:57,1,144.399998237305,4|0,0:0|0:0,0:0:0:0:
93,55,4971,2,0,P|182:57|222:15,1,144.399998237305
289,42,5412,2,0,B|326:30|326:30|439:52,1,144.399998237305,0|0,0:0|0:0,0:0:0:0:
461,129,5853,2,0,L|378:112,1,72.1999991186524,0|0,0:0|0:0,0:0:0:0:
322,158,6148,1,0,0:0:0:0:
320,161,6295,6,0,P|322:290|391:335,1,216.599997355957
154,214,6956,1,0,0:0:0:0:
158,215,7067,1,0,0:0:0:0:
162,216,7177,2,0,P|220:294|207:351,1,144.399998237305
133,300,7618,5,0,0:0:0:0:
204,275,7765,1,0,0:0:0:0:
276,252,7912,1,0,0:0:0:0:
348,228,8059,2,0,P|364:144|328:85,1,144.399998237305,4|0,0:0|0:0,0:0:0:0:
273,56,8500,2,0,P|203:45|125:35,1,144.399998237305
62,38,8942,6,0,P|102:110|85:172,1,144.399998237305,0|0,0:0|0:0,0:0:0:0:
45,224,9383,2,0,B|75:197|75:197|193:187,1,144.399998237305,0|0,0:0|0:0,0:0:0:0:
223,126,9824,2,0,P|240:232|152:264,1,216.599997355957
448,209,10559,1,0,0:0:0:0:
448,209,10706,5,0,0:0:0:0:
485,244,10853,1,0,0:0:0:0:
490,298,11000,1,0,0:0:0:0:
459,340,11147,1,0,0:0:0:0:
408,350,11294,1,0,0:0:0:0:
364,324,11441,1,0,0:0:0:0:
347,275,11589,6,0,P|355:202|365:122,1,144.399998237305,4|0,0:0|0:0,0:0:0:0:
414,180,12030,2,0,P|432:110|379:63,1,144.399998237305
301,55,12471,2,0,P|292:126|282:212,1,144.399998237305
299,275,12912,2,0,P|272:207|202:190,1,144.399998237305,0|0,0:0|0:0,0:0:0:0:
222,273,13353,5,4,0:0:0:0:
222,273,13543,1,8,0:0:0:0:
69,179,13733,2,0,P|39:183|-6:169,2,61.7499971733095,0|0|8,0:0|0:0|0:0,0:0:0:0:
216,107,14114,1,0,0:0:0:0:
338,42,14305,2,0,P|369:32|409:33,1,61.7499971733095,8|0,0:0|0:0,0:0:0:0:
498,149,14591,2,0,P|466:160|427:158,1,61.7499971733095,0|8,0:0|0:0,0:0:0:0:
258,144,14876,5,0,0:0:0:0:
420,200,15067,1,8,0:0:0:0:
234,179,15257,2,0,P|173:173|168:174,2,61.7499971733095,0|0|8,0:0|0:0|0:0,0:0:0:0:
419,271,15638,1,0,0:0:0:0:
441,266,15733,1,0,0:0:0:0:
461,255,15828,1,8,0:0:0:0:
477,238,15923,1,0,0:0:0:0:
486,217,16018,1,0,0:0:0:0:
488,194,16114,1,0,0:0:0:0:
482,172,16209,1,8,0:0:0:0:
469,152,16304,1,0,0:0:0:0:
448,133,16400,6,0,B|461:37|461:37|450:9,1,123.499994346619,4|8,0:2|0:0,0:0:0:0:
308,86,16781,2,0,P|284:141|288:216,1,123.499994346619,4|8,0:0|0:0,0:0:0:0:
272,353,17162,1,4,0:0:0:0:
263,335,17257,1,0,0:0:0:0:
252,319,17353,1,8,0:0:0:0:
237,307,17448,1,0,0:0:0:0:
219,299,17543,1,0,0:0:0:0:
199,295,17638,1,0,0:0:0:0:
178,297,17733,1,8,0:0:0:0:
157,304,17829,1,0,0:0:0:0:
138,317,17924,5,4,0:2:0:0:
116,325,18019,1,0,0:0:0:0:
91,326,18115,1,8,0:0:0:0:
66,321,18210,1,0,0:0:0:0:
43,308,18305,1,0,0:0:0:0:
24,289,18400,1,0,0:0:0:0:
11,264,18495,1,8,0:0:0:0:
6,235,18591,1,0,0:0:0:0:
8,205,18686,5,0,0:0:0:0:
22,177,18781,1,0,0:0:0:0:
46,154,18877,1,8,0:0:0:0:
77,141,18972,1,0,0:0:0:0:
112,139,19067,5,0,0:0:0:0:
147,152,19162,1,0,0:0:0:0:
176,180,19257,1,8,0:0:0:0:
191,220,19353,1,0,0:0:0:0:
186,262,19448,6,0,B|81:273|81:273|52:288,1,123.499994346619,4|8,0:0|0:0,0:0:0:0:
258,345,19829,1,0,0:0:0:0:
258,345,19924,1,0,0:0:0:0:
258,345,20019,2,0,P|305:356|285:310,1,123.499994346619,8|0,0:0|0:0,0:0:0:0:
235,142,20400,2,0,L|223:77,1,61.7499971733095,8|0,0:0|0:0,0:0:0:0:
335,229,20686,2,0,L|347:294,1,61.7499971733095,0|8,0:0|0:0,0:0:0:0:
346,105,20972,5,0,0:0:0:0:
242,249,21162,1,8,0:0:0:0:
420,115,21353,2,0,P|410:62|345:31,1,123.499994346619,0|8,0:0|0:0,0:0:0:0:
183,120,21733,1,0,0:0:0:0:
169,155,21828,1,0,0:0:0:0:
166,194,21923,1,8,0:0:0:0:
176,231,22018,1,0,0:0:0:0:
197,263,22113,1,0,0:0:0:0:
227,287,22209,1,0,0:0:0:0:
263,301,22304,1,8,0:0:0:0:
301,303,22399,1,0,0:0:0:0:
339,294,22495,6,0,P|408:268|468:284,1,123.499994346619,4|8,0:0|0:0,0:0:0:0:
235,359,22876,2,0,P|182:334|109:341,1,123.499994346619,4|8,0:0|0:0,0:0:0:0:
341,192,23257,1,0,0:0:0:0:
176,246,23448,1,8,0:0:0:0:
301,101,23638,1,0,0:0:0:0:
128,122,23829,1,8,0:0:0:0:
375,46,24019,5,0,0:0:0:0:
343,21,24114,1,0,0:0:0:0:
302,13,24210,1,8,0:0:0:0:
261,23,24305,1,0,0:0:0:0:
229,48,24400,1,0,0:0:0:0:
210,85,24495,1,0,0:0:0:0:
209,127,24591,1,8,0:0:0:0:
225,165,24686,1,0,0:0:0:0:
256,193,24781,5,0,0:0:0:0:
286,218,24876,1,0,0:0:0:0:
302,256,24971,1,8,0:0:0:0:
301,298,25067,1,0,0:0:0:0:
282,335,25162,1,0,0:0:0:0:
250,360,25257,1,0,0:0:0:0:
209,370,25352,1,8,0:0:0:0:
168,362,25448,1,0,0:0:0:0:
136,338,25543,5,4,0:0:0:0:
117,151,25733,1,2,0:1:0:0:
302,256,25924,1,0,0:0:0:0:
332,274,26019,1,8,0:0:0:0:
367,279,26114,1,0,0:0:0:0:
401,267,26209,1,0,0:0:0:0:
426,242,26304,1,8,0:0:0:0:
438,208,26400,1,0,0:0:0:0:
434,172,26495,5,0,0:2:0:0:
437,153,26590,1,0,0:0:0:0:
454,142,26685,1,8,0:0:0:0:
473,147,26780,1,8,0:0:0:0:
482,164,26875,1,8,0:0:0:0:
475,183,26971,1,8,0:0:0:0:
456,191,27067,6,0,B|362:182|362:182|328:198,1,104.500003189087,4|0,0:0|0:0,0:0:0:0:
233,289,27448,1,10,0:0:0:0:
112,192,27638,2,0,B|18:200|18:200|-16:185,1,104.500003189087,0|0,0:0|0:0,0:0:0:0:
178,125,28019,1,0,0:0:0:0:
305,35,28210,1,10,0:0:0:0:
306,178,28400,1,0,0:0:0:0:
112,192,28591,6,0,P|90:113|187:33,1,209.000006378174,4|10,0:2|0:0,0:0:0:0:
208,211,29162,2,0,P|206:271|200:318,1,104.500003189087,0|0,0:0|0:0,0:0:0:0:
183,129,29543,1,0,0:0:0:0:
74,273,29733,2,0,P|76:333|82:380,1,104.500003189087,10|0,0:0|0:0,0:0:0:0:
145,192,30114,5,4,0:2:0:0:
7,120,30305,1,0,0:0:0:0:
147,228,30495,1,10,0:0:0:0:
10,156,30686,1,0,0:0:0:0:
0,327,30876,2,0,P|38:359|163:285,1,209.000006378174,0|10,0:0|0:0,0:0:0:0:
180,134,31448,1,0,0:0:0:0:
69,271,31638,5,4,0:2:0:0:
227,342,31829,1,0,0:0:0:0:
227,342,31924,1,0,0:0:0:0:
227,342,32019,2,0,B|312:351|312:351|342:333,1,104.500003189087,10|0,0:0|0:0,0:0:0:0:
233,253,32400,1,0,0:0:0:0:
420,322,32591,2,0,P|439:313|461:322,2,34.8333343963623,0|0|0,0:0|0:0|0:0,0:0:0:0:
401,361,32781,2,0,B|507:350,1,104.500003189087,10|0,0:0|0:0,0:0:0:0:
406,204,33162,6,0,P|352:200|292:197,1,104.500003189087,4|0,0:0|0:0,0:0:0:0:
478,250,33543,1,10,0:0:0:0:
264,136,33733,2,0,P|232:181|241:237,1,104.500003189087
409,297,34114,1,0,0:0:0:0:
471,131,34305,1,10,0:0:0:0:
322,63,34495,1,0,0:0:0:0:
328,221,34686,6,0,P|301:284|167:280,1,209.000006378174,4|10,0:2|0:0,0:0:0:0:
114,130,35257,2,0,B|110:178|110:178|126:222|126:222|88:246|80:292|102:333,1,209.000006378174,0|0,0:0|0:0,0:0:0:0:
33,178,35829,1,10,0:0:0:0:
191,154,36019,1,0,0:0:0:0:
326,58,36210,5,4,0:2:0:0:
175,37,36400,1,0,0:0:0:0:
383,106,36591,2,0,P|425:93|393:80,1,104.500003189087,10|0,0:0|0:0,0:0:0:0:
236,70,36972,1,0,0:0:0:0:
75,111,37162,1,0,0:0:0:0:
301,102,37353,2,0,P|304:43|267:7,1,104.500003189087,10|0,0:0|0:0,0:0:0:0:
200,176,37733,6,0,P|207:230|215:287,1,104.500003189087,4|0,0:0|0:0,0:0:0:0:
372,230,38114,2,0,P|367:283|363:350,1,104.500003189087,10|0,0:0|0:0,0:0:0:0:
290,171,38495,1,10,0:0:0:0:
173,314,38686,2,0,L|166:366,2,34.8333343963623,8|0|0,0:0|0:0|0:0,0:0:0:0:
144,284,38876,2,0,P|200:286|215:329,1,104.500003189087,8|0,0:0|0:0,0:0:0:0:
386,278,39257,6,0,P|458:270|504:387,1,209.000006378174,4|10,0:0|0:0,0:0:0:0:
394,196,39829,2,0,P|344:210|309:256,1,104.500003189087
430,348,40210,1,0,0:0:0:0:
510,208,40400,1,10,0:0:0:0:
355,327,40591,1,0,0:0:0:0:
250,193,40781,6,0,P|269:105|170:24,1,209.000006378174,4|10,0:0|0:0,0:0:0:0:
191,228,41353,2,0,P|203:178|188:129,1,104.500003189087
67,41,41734,1,0,0:0:0:0:
73,237,41924,1,10,0:0:0:0:
0,80,42115,1,0,0:0:0:0:
198,58,42306,6,0,P|258:130|176:199,1,209.000006378174,4|10,0:2|0:0,0:0:0:0:
285,18,42877,1,0,0:0:0:0:
295,172,43068,2,0,B|306:235|306:235|263:312|263:312|274:377,1,209.000006378174,0|10,0:0|0:0,0:0:0:0:
375,260,43638,1,0,0:0:0:0:
205,259,43829,5,4,0:0:0:0:
378,173,44020,1,0,0:0:0:0:
378,173,44114,1,0,0:0:0:0:
378,173,44210,2,0,B|454:152|454:152|494:113,1,104.500003189087,10|0,0:0|0:0,0:0:0:0:
278,103,44591,2,0,P|330:86|391:67,1,104.500003189087
205,81,44972,1,10,0:0:0:0:
378,173,45163,1,0,0:0:0:0:
156,140,45353,6,0,P|130:83|148:28,1,104.500003189087,4|0,0:0|0:0,0:0:0:0:
249,184,45734,1,10,0:0:0:0:
314,316,45925,1,0,0:0:0:0:
465,253,46114,1,0,0:0:0:0:
469,105,46305,1,0,0:0:0:0:
259,102,46496,2,0,P|308:134|374:132,1,104.500003189087,10|0,0:0|0:0,0:0:0:0:
491,30,46876,6,0,P|413:53|432:172,1,209.000006378174,4|10,0:2|0:0,0:0:0:0:
501,323,47448,2,0,P|504:273|513:215,1,104.500003189087
382,265,47829,1,0,0:0:0:0:
255,311,48019,1,10,0:0:0:0:
125,359,48210,1,0,0:0:0:0:
321,346,48400,6,0,P|323:287|292:245,1,104.500003189087,4|0,0:0|0:0,0:0:0:0:
125,359,48781,2,0,P|12:258|35:204,1,209.000006378174,10|0,0:0|0:0,0:0:0:0:
209,152,49353,1,0,0:0:0:0:
274,327,49544,1,10,0:0:0:0:
103,268,49733,1,0,0:0:0:0:
287,250,49924,6,0,B|370:242|370:242|400:251,1,104.500003189087,4|0,0:2|0:0,0:0:0:0:
176,332,50305,1,10,0:0:0:0:
269,166,50495,1,8,0:0:0:0:
273,139,50590,1,0,0:0:0:0:
272,114,50685,1,8,0:0:0:0:
265,88,50780,1,0,0:0:0:0:
254,67,50875,1,8,0:0:0:0:
236,47,50971,1,0,0:0:0:0:
214,34,51066,1,8,0:0:0:0:
189,24,51161,1,0,0:0:0:0:
165,22,51256,1,8,0:0:0:0:
138,25,51352,1,0,0:0:0:0:
115,34,51447,5,12,0:0:0:0:
217,221,51638,1,0,0:0:0:0:
401,120,51829,1,8,0:0:0:0:
158,178,52019,6,0,P|145:231|190:291,1,123.499994346619,12|0,0:2|2:0,0:0:0:0:
380,211,52400,2,0,P|446:204|523:193,1,123.499994346619,12|0,0:0|0:0,0:0:0:0:
281,117,52781,2,0,P|349:106|408:123,1,123.499994346619,12|0,0:2|0:0,0:0:0:0:
315,287,53162,2,0,P|380:310|440:305,1,123.499994346619,12|0,0:2|0:0,0:0:0:0:
259,353,53543,5,12,0:0:0:0:
259,353,53638,1,0,0:0:0:0:
259,353,53733,2,0,P|193:376|133:371,1,123.499994346619,12|0,0:2|0:0,0:0:0:0:
10,241,54114,2,0,P|-11:264|17:241,1,123.499994346619,12|0,0:1|0:0,0:0:0:0:
22,64,54495,5,12,0:0:0:0:
169,80,54686,1,0,0:0:0:0:
315,98,54876,1,12,0:2:0:0:
134,16,55067,6,0,P|99:97|114:126,1,123.499994346619,12|0,0:2|0:0,0:0:0:0:
358,37,55448,2,0,P|385:76|366:155,1,123.499994346619,12|0,0:2|0:0,0:0:0:0:
382,363,55829,2,0,B|486:352|486:352|506:342,1,123.499994346619,12|0,0:0|0:0,0:0:0:0:
296,328,56210,2,0,B|191:338|191:338|172:349,1,123.499994346619,12|0,0:2|0:0,0:0:0:0:
0,290,56591,5,12,0:0:0:0:
0,290,56686,1,0,0:0:0:0:
0,290,56781,2,0,B|104:279|104:279|124:269,1,123.499994346619,12|0,0:2|0:0,0:0:0:0:
289,119,57162,5,8,0:0:0:0:
308,148,57257,1,8,0:0:0:0:
314,185,57352,1,8,0:0:0:0:
303,220,57447,1,0,0:0:0:0:
297,255,57542,5,8,0:0:0:0:
324,256,57638,1,0,0:0:0:0:
350,252,57733,1,0,0:0:0:0:
373,241,57828,1,0,0:0:0:0:
393,224,57923,1,8,0:0:0:0:
408,203,58019,1,0,0:0:0:0:
417,179,58114,5,0,0:0:0:0:
421,154,58209,1,0,0:0:0:0:
418,129,58304,1,8,0:0:0:0:
409,104,58400,1,0,0:0:0:0:
395,83,58495,1,0,0:0:0:0:
376,66,58590,1,0,0:0:0:0:
353,54,58686,2,0,P|408:27|483:32,1,123.499994346619,8|0,0:0|0:0,0:0:0:0:
276,82,59067,6,0,P|245:67|210:67,2,61.7499971733095,12|0|0,0:0|0:0|0:0,0:0:0:0:
446,177,59448,1,8,0:0:0:0:
455,188,59543,1,0,0:0:0:0:
470,187,59638,1,0,0:0:0:0:
478,175,59733,1,0,0:0:0:0:
473,161,59829,2,0,P|478:230|485:290,1,123.499994346619,8|0,0:0|0:0,0:0:0:0:
340,374,60210,5,12,0:2:0:0:
340,374,60305,1,0,0:0:0:0:
340,374,60400,2,0,P|306:324|331:257,1,123.499994346619,4|8,0:2|0:0,0:0:0:0:
459,372,60781,1,0,0:0:0:0:
265,330,60972,1,8,0:0:0:0:
244,332,61067,1,0,0:0:0:0:
222,335,61162,2,0,P|161:340|92:345,1,123.499994346619,0|8,0:0|0:0,0:0:0:0:
240,187,61543,2,0,P|301:150|364:177,1,123.499994346619,0|8,0:0|0:0,0:0:0:0:
174,258,61924,1,0,0:0:0:0:
301,97,62114,6,0,B|310:197|310:197|301:238,1,123.499994346619,12|0,0:0|0:0,0:0:0:0:
164,340,62495,1,8,0:0:0:0:
5,247,62686,1,0,0:0:0:0:
8,211,62781,1,0,0:0:0:0:
11,175,62876,1,8,0:0:0:0:
14,139,62971,1,0,0:0:0:0:
18,103,63066,1,0,0:0:0:0:
21,67,63162,1,0,0:0:0:0:
24,31,63257,2,0,B|124:23|124:23|151:30,1,123.499994346619,8|0,0:0|0:0,0:0:0:0:
332,109,63638,6,0,P|404:106|449:71,1,123.499994346619,12|0,0:0|0:0,0:0:0:0:
251,36,64019,1,8,0:0:0:0:
104,153,64210,1,0,0:0:0:0:
104,153,64305,1,0,0:0:0:0:
104,153,64400,2,0,P|74:149|116:113,1,123.499994346619,12|0,0:2|0:0,0:0:0:0:
257,220,64781,1,12,0:0:0:0:
260,237,64876,1,0,0:0:0:0:
264,256,64971,1,0,0:0:0:0:
267,275,65066,1,0,0:0:0:0:
245,245,65162,5,8,0:0:0:0:
238,209,65257,1,0,0:0:0:0:
247,174,65352,1,0,0:0:0:0:
271,146,65447,1,0,0:0:0:0:
305,131,65543,2,0,P|374:123|431:163,1,123.499994346619,8|0,0:0|0:0,0:0:0:0:
253,73,65924,2,0,P|317:53|373:93,1,123.499994346619,8|0,0:0|0:0,0:0:0:0:
327,241,66305,1,12,0:0:0:0:
335,263,66400,1,0,0:0:0:0:
336,287,66495,1,0,0:0:0:0:
330,310,66590,1,0,0:0:0:0:
317,330,66686,6,0,P|328:242|188:245,1,246.999988693238,12|8,0:0|0:0,0:0:0:0:
43,359,67257,2,0,B|26:256|26:256|31:228,1,123.499994346619,0|8,0:0|0:0,0:0:0:0:
258,279,67638,5,0,0:0:0:0:
217,304,67733,1,0,0:0:0:0:
170,302,67828,1,8,0:0:0:0:
133,272,67923,1,0,0:0:0:0:
120,226,68018,1,0,0:0:0:0:
136,182,68114,1,0,0:0:0:0:
176,155,68209,5,12,0:0:0:0:
4,157,68400,1,8,0:0:0:0:
198,229,68591,1,8,0:0:0:0:
56,112,68781,6,0,P|24:89|-4:89,2,61.7499971733095,12|0|0,0:2|0:0|0:0,0:0:0:0:
90,285,69162,1,8,0:0:0:0:
294,315,69353,1,0,0:0:0:0:
497,347,69543,1,8,0:0:0:0:
335,271,69733,5,12,0:0:0:0:
292,254,69828,1,0,0:0:0:0:
251,272,69923,1,0,0:0:0:0:
233,313,70018,1,0,0:0:0:0:
250,355,70113,1,8,0:0:0:0:
291,374,70209,1,0,0:0:0:0:
333,358,70304,1,0,0:0:0:0:
353,317,70399,1,0,0:0:0:0:
335,271,70495,2,0,P|308:220|333:131,1,123.499994346619,8|0,0:0|0:0,0:0:0:0:
494,41,70876,2,0,P|498:98|441:170,1,123.499994346619,8|0,0:0|0:0,0:0:0:0:
272,77,71258,6,0,P|266:40|253:19,2,61.7499971733095,12|0|0,0:0|0:0|0:0,0:0:0:0:
255,261,71638,1,8,0:0:0:0:
256,273,71733,1,0,0:0:0:0:
258,286,71828,1,0,0:0:0:0:
260,298,71923,1,0,0:0:0:0:
261,310,72019,2,0,P|219:313|256:262,1,123.499994346619,8|0,0:0|0:0,0:0:0:0:
404,190,72400,1,8,0:0:0:0:
416,189,72495,1,0,0:0:0:0:
428,188,72590,1,0,0:0:0:0:
440,186,72685,1,0,0:0:0:0:
452,186,72781,6,0,P|362:172|322:192,1,123.499994346619,12|0,0:0|0:0,0:0:0:0:
168,239,73163,1,8,0:0:0:0:
168,239,73257,1,0,0:0:0:0:
168,239,73353,2,0,P|138:302|152:360,1,123.499994346619,0|8,0:0|0:0,0:0:0:0:
80,181,73733,2,0,P|77:102|71:46,1,123.499994346619,0|8,0:0|0:0,0:0:0:0:
72,253,74114,1,0,0:0:0:0:
45,244,74209,1,0,0:0:0:0:
24,226,74304,5,12,0:0:0:0:
12,201,74399,1,0,0:0:0:0:
9,174,74494,1,0,0:0:0:0:
18,147,74590,1,0,0:0:0:0:
35,126,74685,1,8,0:0:0:0:
59,113,74780,1,0,0:0:0:0:
87,110,74875,1,0,0:0:0:0:
113,118,74971,1,0,0:0:0:0:
135,135,75067,2,0,P|138:214|144:270,1,123.499994346619,8|0,0:0|0:0,0:0:0:0:
198,83,75448,1,8,0:0:0:0:
391,41,75638,5,0,0:0:0:0:
391,41,75733,1,0,0:0:0:0:
391,41,75829,2,0,B|488:21|488:21|525:26,1,123.499994346619,12|0,0:0|0:0,0:0:0:0:
365,169,76210,1,8,0:0:0:0:
338,181,76305,1,0,0:0:0:0:
316,163,76400,1,0,0:0:0:0:
322,135,76495,1,0,0:0:0:0:
351,129,76591,2,0,P|415:115|488:101,1,123.499994346619,8|0,0:0|0:0,0:0:0:0:
491,292,76972,1,12,0:0:0:0:
501,320,77067,1,0,0:0:0:0:
491,349,77162,1,0,0:0:0:0:
466,365,77257,1,0,0:0:0:0:
436,362,77352,5,8,0:0:0:0:
414,341,77448,1,0,0:0:0:0:
410,311,77543,1,0,0:0:0:0:
426,285,77638,1,0,0:0:0:0:
454,275,77733,2,0,P|389:261|319:274,1,123.499994346619,8|0,0:0|0:0,0:0:0:0:
149,335,78114,2,0,P|215:333|281:359,1,123.499994346619,8|0,0:0|0:0,0:0:0:0:
141,186,78495,1,12,0:0:0:0:
115,203,78590,1,0,0:0:0:0:
96,228,78685,1,0,0:0:0:0:
86,257,78780,1,0,0:0:0:0:
85,286,78876,6,0,P|116:203|268:222,1,246.999988693238,12|8,0:0|0:0,0:0:0:0:
439,134,79448,2,0,P|370:135|312:171,1,123.499994346619,0|8,0:0|0:0,0:0:0:0:
185,277,79829,5,0,0:0:0:0:
175,318,79924,1,0,0:0:0:0:
147,351,80019,1,8,0:0:0:0:
108,368,80114,1,0,0:0:0:0:
65,365,80209,1,0,0:0:0:0:
28,344,80305,1,0,0:0:0:0:
4,308,80400,5,12,0:0:0:0:
39,109,80591,1,8,0:0:0:0:
92,274,80782,1,8,0:0:0:0:
205,97,80972,6,0,P|225:80|268:66,2,61.7499971733095,12|0|0,0:2|0:0|0:0,0:0:0:0:
316,221,81353,2,0,P|402:218|454:229,1,123.499994346619,12|0,0:2|0:0,0:0:0:0:
239,180,81734,1,0,0:0:0:0:
375,46,81924,5,4,0:0:0:0:
343,21,82019,1,0,0:0:0:0:
302,13,82115,1,0,0:0:0:0:
261,23,82210,1,8,0:0:0:0:
229,48,82305,1,8,0:0:0:0:
210,85,82400,1,0,0:0:0:0:
209,127,82496,5,8,0:0:0:0:
225,165,82591,1,0,0:0:0:0:
256,193,82686,1,0,0:0:0:0:
286,218,82781,1,8,0:0:0:0:
302,256,82876,1,8,0:0:0:0:
301,298,82972,1,8,0:0:0:0:
282,335,83067,5,0,0:0:0:0:
250,360,83162,1,0,0:0:0:0:
209,370,83257,1,0,0:0:0:0:
168,362,83353,1,0,0:0:0:0:
136,338,83448,5,12,0:0:0:0:
92,59,84019,6,0,P|61:49|19:50,1,61.7499971733095,2|0,2:1|2:0,0:0:0:0:
266,164,84400,2,0,P|280:150|314:135,2,41.1666647822063,0|0|0,0:0|0:0|0:0,0:0:0:0:
263,216,84591,2,0,P|200:197|117:202,1,123.499994346619,12|0,0:0|2:0,0:0:0:0:
354,221,84972,5,4,0:0:0:0:
354,221,85162,1,8,0:0:0:0:
146,313,85352,2,0,P|113:321|84:350,2,61.7499971733095,0|0|8,0:0|0:0|0:0,0:0:0:0:
337,367,85733,2,0,P|405:367|449:310,1,123.499994346619,0|8,0:0|0:0,0:0:0:0:
373,299,86019,1,0,0:0:0:0:
187,251,86210,2,0,P|158:239|110:252,1,61.7499971733095,0|8,0:0|0:0,0:0:0:0:
336,235,86495,5,4,0:2:0:0:
483,183,86686,1,8,0:0:0:0:
275,104,86876,2,0,P|242:107|215:124,2,61.7499971733095,0|0|8,0:0|0:0|0:0,0:0:0:0:
475,113,87257,1,0,0:0:0:0:
494,100,87352,1,0,0:0:0:0:
506,81,87447,1,8,0:0:0:0:
509,58,87542,1,0,0:0:0:0:
503,36,87637,1,0,0:0:0:0:
488,18,87733,1,0,0:0:0:0:
467,9,87828,1,8,0:0:0:0:
444,9,87923,1,0,0:0:0:0:
424,23,88019,6,0,B|328:10|328:10|294:16,1,123.499994346619,4|8,0:0|0:0,0:0:0:0:
248,183,88400,2,0,P|191:185|139:126,1,123.499994346619,4|8,0:2|0:0,0:0:0:0:
8,62,88781,1,0,0:0:0:0:
8,83,88876,1,0,0:0:0:0:
9,103,88971,1,8,0:0:0:0:
10,124,89066,1,0,0:0:0:0:
11,144,89161,1,0,0:0:0:0:
13,165,89256,1,0,0:0:0:0:
14,185,89352,1,8,0:0:0:0:
16,206,89447,1,0,0:0:0:0:
18,230,89543,5,4,0:2:0:0:
18,253,89638,1,0,0:0:0:0:
25,277,89734,1,8,0:0:0:0:
38,299,89829,1,0,0:0:0:0:
58,316,89924,1,0,0:0:0:0:
83,327,90019,1,0,0:0:0:0:
111,331,90114,1,8,0:0:0:0:
140,325,90210,1,0,0:0:0:0:
167,313,90305,1,0,0:0:0:0:
189,291,90400,1,8,0:0:0:0:
202,260,90496,5,8,0:0:0:0:
204,227,90591,1,8,0:0:0:0:
194,193,90686,1,8,0:0:0:0:
169,165,90781,1,8,0:0:0:0:
133,147,90876,1,8,0:0:0:0:
91,147,90972,1,8,0:0:0:0:
53,166,91067,6,0,P|46:228|42:299,1,123.499994346619,12|8,0:0|0:0,0:0:0:0:
23,99,91448,1,0,0:0:0:0:
23,99,91543,1,0,0:0:0:0:
23,99,91638,2,0,P|5:53|53:67,1,123.499994346619,12|0,0:2|0:0,0:0:0:0:
124,231,92019,1,8,0:0:0:0:
134,76,92210,1,0,0:0:0:0:
134,76,92305,1,0,0:0:0:0:
134,76,92400,2,0,P|201:51|269:60,1,123.499994346619,12|0,0:2|0:0,0:0:0:0:
435,116,92781,5,8,0:0:0:0:
265,163,92972,2,0,P|247:183|240:221,2,61.7499971733095,0|0|8,0:2|0:0|0:2,0:0:0:0:
417,40,93353,1,0,0:2:0:0:
440,38,93448,1,0,0:0:0:0:
462,43,93543,1,8,0:0:0:0:
482,55,93638,1,0,0:0:0:0:
497,72,93733,1,0,0:0:0:0:
507,93,93829,1,0,0:0:0:0:
511,116,93924,1,8,0:0:0:0:
508,139,94019,1,0,0:0:0:0:
498,159,94114,6,0,P|461:248|479:288,1,123.499994346619,4|8,0:0|0:0,0:0:0:0:
328,375,94495,2,0,P|239:337|199:355,1,123.499994346619,4|8,0:0|0:0,0:0:0:0:
26,331,94876,1,4,0:2:0:0:
191,277,95067,1,8,0:0:0:0:
204,109,95257,1,4,0:2:0:0:
64,213,95448,1,8,0:0:0:0:
179,369,95638,5,4,0:0:0:0:
227,362,95733,1,0,0:0:0:0:
266,331,95829,1,0,0:0:0:0:
283,285,95924,1,0,0:0:0:0:
274,236,96019,1,8,0:0:0:0:
292,190,96114,1,8,0:0:0:0:
331,160,96210,1,0,0:0:0:0:
379,153,96305,1,0,0:0:0:0:
423,173,96400,5,8,0:0:0:0:
453,211,96495,1,8,0:0:0:0:
458,260,96591,1,8,0:0:0:0:
438,305,96686,1,8,0:0:0:0:
398,334,96781,1,8,0:0:0:0:
348,337,96876,1,8,0:0:0:0:
303,315,96972,1,8,0:0:0:0:
278,272,97067,1,8,0:0:0:0:
277,222,97162,5,12,0:0:0:0:
341,29,97353,1,8,0:0:0:0:
262,221,97543,5,8,0:0:0:0:
246,11,97733,1,8,0:0:0:0:
363,211,97924,5,8,0:0:0:0:
148,121,98114,1,8,0:0:0:0:
387,117,98305,5,8,0:0:0:0:
166,238,98495,1,8,0:0:0:0:
257,57,98686,5,8,0:0:0:0:
241,279,98876,1,8,0:0:0:0:
387,117,99067,5,8,0:0:0:0:
96,189,99257,1,8,0:0:0:0:
499,256,99448,6,0,B|490:277|505:313|505:313|472:303|472:303|417:389|327:366|299:331,1,285.000010871888,12|8,0:0|0:0,0:0:0:0:
138,276,100019,1,8,0:0:0:0:
352,283,100210,6,0,P|273:318|212:311,1,142.500005435944,12|8,0:2|0:0,0:0:0:0:
18,247,100591,2,0,P|104:236|151:199,1,142.500005435944,8|8,0:0|0:0,0:0:0:0:
213,19,100972,5,8,0:0:0:0:
230,225,101162,1,8,0:0:0:0:
412,235,101353,1,8,0:0:0:0:
297,62,101543,1,8,0:0:0:0:
158,259,101733,6,0,P|211:302|279:287,1,142.500005435944,12|8,0:0|0:0,0:0:0:0:
112,136,102114,1,8,0:0:0:0:
104,137,102210,1,0,0:0:0:0:
97,139,102305,1,8,0:0:0:0:
89,141,102400,1,0,0:0:0:0:
82,143,102495,5,8,0:0:0:0:
74,145,102591,1,8,0:0:0:0:
67,147,102686,1,0,0:0:0:0:
59,149,102781,1,8,0:0:0:0:
52,151,102876,1,0,0:0:0:0:
44,153,102972,1,0,0:0:0:0:
37,155,103067,1,8,0:0:0:0:
29,157,103162,1,0,0:0:0:0:
22,159,103256,5,12,0:0:0:0:
4,127,103353,1,0,0:0:0:0:
0,91,103448,1,8,0:0:0:0:
10,56,103543,1,0,0:0:0:0:
32,28,103638,1,8,0:0:0:0:
62,10,103733,1,0,0:0:0:0:
97,5,103828,1,8,0:0:0:0:
131,13,103923,1,0,0:0:0:0:
159,33,104019,5,8,0:0:0:0:
177,63,104113,1,0,0:0:0:0:
184,98,104209,1,8,0:0:0:0:
173,130,104304,1,0,0:0:0:0:
168,167,104399,1,8,0:0:0:0:
174,200,104494,1,0,0:0:0:0:
190,230,104590,1,8,0:0:0:0:
221,249,104685,1,0,0:0:0:0:
256,256,104780,5,8,0:0:0:0:
291,249,104876,1,0,0:0:0:0:
322,230,104971,1,8,0:0:0:0:
338,200,105067,1,0,0:0:0:0:
344,167,105162,1,8,0:0:0:0:
339,130,105257,1,0,0:0:0:0:
328,98,105353,1,8,0:0:0:0:
335,63,105449,1,0,0:0:0:0:
353,33,105543,5,8,0:0:0:0:
381,13,105639,1,0,0:0:0:0:
415,5,105734,1,8,0:0:0:0:
450,10,105829,1,0,0:0:0:0:
480,28,105924,1,8,0:0:0:0:
502,56,106019,1,0,0:0:0:0:
512,91,106114,1,8,0:0:0:0:
508,127,106209,1,0,0:0:0:0:
490,159,106305,6,0,P|488:230|506:306,1,142.500005435944,12|8,0:0|0:0,0:0:0:0:
410,133,106686,2,0,P|391:80|447:105,1,142.500005435944,8|8,0:0|0:0,0:0:0:0:
374,299,107067,1,8,0:0:0:0:
174,257,107257,1,8,0:0:0:0:
329,359,107448,2,0,P|407:367|362:225,1,285.000010871888,12|8,0:2|0:0,0:0:0:0:
311,258,107924,6,0,P|278:239|221:245,1,71.2500027179719,8|0,0:0|2:0,0:0:0:0:
78,354,108210,2,0,L|5:336,1,71.2500027179719,4|0,0:0|0:0,0:0:0:0:
174,257,108495,2,0,L|101:239,1,71.2500027179719,4|0,0:2|0:0,0:0:0:0:
270,160,108781,2,0,L|197:142,1,71.2500027179719,4|0,0:2|0:0,0:0:0:0:
155,87,108972,1,8,0:0:0:0:
120,82,109067,1,8,0:0:0:0:
87,96,109162,1,8,0:0:0:0:
67,125,109257,1,8,0:0:0:0:
64,160,109352,5,4,0:0:0:0:
381,60,109733,1,10,0:0:0:0:
381,60,109923,2,0,P|436:53|488:48,1,104.500003189087
343,127,110305,1,0,0:0:0:0:
196,87,110495,1,10,0:0:0:0:
235,234,110686,1,0,0:0:0:0:
223,20,110876,6,0,P|127:68|162:151,1,209.000006378174,4|10,0:2|0:0,0:0:0:0:
219,304,111448,1,0,0:0:0:0:
58,296,111638,2,0,B|36:243|68:178|68:178|41:126|41:126|57:89,1,209.000006378174,0|10,0:0|0:0,0:0:0:0:
165,248,112210,1,0,0:0:0:0:
286,349,112400,6,0,P|367:336|383:317,1,104.500003189087,4|0,0:2|0:0,0:0:0:0:
194,326,112781,1,10,0:0:0:0:
276,186,112971,1,0,0:0:0:0:
395,293,113162,2,0,P|496:272|478:181,1,209.000006378174,0|10,0:0|0:0,0:0:0:0:
359,108,113733,1,0,0:0:0:0:
332,251,113924,6,0,P|385:242|436:236,1,104.500003189087,4|0,0:2|0:0,0:0:0:0:
282,169,114305,2,0,P|233:149|181:150,1,104.500003189087,10|0,0:0|0:0,0:0:0:0:
204,293,114685,1,0,0:0:0:0:
99,156,114876,2,0,P|105:132|81:114,2,34.8333343963623,0|0|0,0:0|0:0|0:0,0:0:0:0:
67,178,115066,2,0,B|57:256|57:256|64:291,1,104.500003189087,10|0,0:0|2:0,0:0:0:0:
209,358,115447,6,0,P|205:309|199:233,1,104.500003189087,4|0,0:0|0:0,0:0:0:0:
113,359,115828,1,10,0:0:0:0:
263,286,116019,2,0,P|266:230|140:220,1,209.000006378174
39,325,116590,1,10,0:0:0:0:
4,175,116780,1,0,0:0:0:0:
46,25,116972,6,0,P|142:49|257:22,1,209.000006378174,4|10,0:0|0:0,0:0:0:0:
402,57,117543,1,0,0:0:0:0:
213,128,117733,2,0,P|157:128|136:265,1,209.000006378174,4|10,0:2|0:0,0:0:0:0:
260,334,118304,1,0,0:0:0:0:
430,295,118495,5,4,0:2:0:0:
436,122,118686,1,0,0:0:0:0:
279,198,118877,1,10,0:0:0:0:
498,155,119067,2,0,P|501:96|379:80,1,209.000006378174,0|0,0:0|0:0,0:0:0:0:
322,260,119638,2,0,P|350:294|349:260,1,104.500003189087,12|0,0:2|0:0,0:0:0:0:
168,315,120019,6,0,P|150:356|141:322,1,104.500003189087,4|0,0:0|0:0,0:0:0:0:
63,160,120400,1,10,0:0:0:0:
63,156,120495,1,8,0:0:0:0:
63,152,120590,1,8,0:0:0:0:
62,148,120685,1,8,0:0:0:0:
62,143,120780,1,8,0:0:0:0:
61,139,120876,1,8,0:0:0:0:
61,135,120972,5,8,0:0:0:0:
42,153,121067,1,0,0:0:0:0:
30,176,121162,1,8,0:0:0:0:
24,201,121257,1,0,0:0:0:0:
25,227,121352,1,0,0:0:0:0:
34,252,121448,1,0,0:0:0:0:
48,274,121543,6,0,P|99:254|156:258,1,104.500003189087,4|0,0:0|0:0,0:0:0:0:
312,200,121924,2,0,P|254:191|202:315,1,209.000006378174,10|0,0:0|2:0,0:0:0:0:
406,331,122495,1,0,0:0:0:0:
388,179,122685,1,10,0:0:0:0:
266,270,122876,1,0,0:0:0:0:
479,295,123067,6,0,B|506:283|527:242|530:201|504:135|504:135|461:150,1,209.000006378174,4|10,0:0|0:0,0:0:0:0:
331,117,123638,2,0,P|381:103|435:87,1,104.500003189087,0|0,0:0|2:0,0:0:0:0:
338,218,124019,1,0,0:0:0:0:
303,214,124114,1,0,0:0:0:0:
272,198,124209,1,10,0:0:0:0:
250,171,124304,1,0,0:0:0:0:
239,139,124399,1,0,0:0:0:0:
240,104,124495,1,0,0:0:0:0:
255,73,124591,6,0,P|347:13|453:42,1,209.000006378174,4|10,0:2|0:0,0:0:0:0:
374,160,125162,1,0,0:0:0:0:
246,21,125353,2,0,P|181:22|130:45,1,104.500003189087,0|0,0:0|0:0,0:0:0:0:
25,137,125733,1,10,0:0:0:0:
199,129,125923,1,0,0:0:0:0:
34,61,126114,5,4,0:0:0:0:
175,200,126305,1,0,0:0:0:0:
175,200,126399,1,0,0:0:0:0:
175,200,126495,2,0,P|196:254|180:312,1,104.500003189087,10|0,0:0|0:0,0:0:0:0:
111,130,126876,1,0,0:0:0:0:
17,273,127067,1,0,0:0:0:0:
10,306,127162,1,0,0:0:0:0:
19,340,127257,1,10,0:0:0:0:
43,365,127352,1,0,0:0:0:0:
75,377,127447,1,0,0:0:0:0:
109,373,127543,1,0,0:0:0:0:
142,362,127638,6,0,B|218:347|218:347|256:352,1,104.500003189087,4|0,0:0|2:0,0:0:0:0:
405,296,128019,1,10,0:0:0:0:
210,275,128210,2,0,B|134:290|134:290|96:285,1,104.500003189087,0|0,0:0|0:0,0:0:0:0:
289,287,128590,1,0,0:0:0:0:
473,324,128781,2,0,P|477:286|432:229,1,104.500003189087,10|0,0:0|0:0,0:0:0:0:
268,171,129162,6,0,P|334:226|431:153,1,209.000006378174,4|10,0:2|0:0,0:0:0:0:
338,52,129733,2,0,P|326:88|358:153,1,104.500003189087,0|0,0:0|2:0,0:0:0:0:
510,28,130114,1,0,0:0:0:0:
481,31,130209,1,0,0:0:0:0:
452,35,130304,1,10,0:0:0:0:
423,39,130399,1,0,0:0:0:0:
394,43,130494,1,0,0:0:0:0:
366,47,130590,1,0,0:0:0:0:
337,51,130686,6,0,P|282:49|226:44,1,104.500003189087,4|0,0:0|0:0,0:0:0:0:
82,41,131067,1,10,0:0:0:0:
235,116,131257,2,0,B|148:110|148:110|120:121,1,104.500003189087
290,162,131638,1,0,0:0:0:0:
109,225,131829,1,10,0:0:0:0:
332,218,132019,2,0,P|345:204|372:199,2,34.8333343963623,0|0|0,0:0|0:0|0:0,0:0:0:0:
316,256,132210,6,0,P|382:232|431:241,1,104.500003189087,4|0,0:2|0:0,0:0:0:0:
319,358,132591,1,10,0:0:0:0:
163,344,132781,1,8,0:0:0:0:
6,329,132972,2,0,P|1:274|31:220,1,104.500003189087,8|8,0:0|0:0,0:0:0:0:
213,171,133353,2,0,P|218:226|188:280,1,104.500003189087,8|0,0:0|0:0,0:0:0:0:
91,108,133733,5,12,0:0:0:0:
464,167,134114,2,0,L|460:284,1,104.500003189087,2|0,0:0|0:0,0:0:0:0:
434,60,134495,2,0,P|363:150|398:260,1,209.000006378174,8|0,0:0|0:0,0:0:0:0:
48,167,135257,5,0,0:0:0:0:
48,167,135448,1,8,0:0:0:0:
48,167,135638,2,0,L|52:284,1,104.500003189087,2|0,0:0|0:0,0:0:0:0:
78,60,136019,2,0,P|149:150|114:260,1,209.000006378174,12|0,0:0|0:0,0:0:0:0:
63,348,136591,1,8,0:0:0:0:
63,348,136781,1,4,0:0:0:0:
342,370,137162,5,0,0:0:0:0:
367,88,137544,1,8,0:0:0:0:
85,62,137924,1,0,0:0:0:0:
192,192,138114,2,0,P|159:191|124:171,2,52.2500015945435,8|8|8,0:0|0:0|0:0,0:0:0:0:
403,243,138495,6,0,P|467:242|510:213,1,104.500003189087,8|0,0:0|0:0,0:0:0:0:
427,62,138876,2,0,P|429:42|438:26,2,34.8333343963623
435,134,139067,1,12,0:0:0:0:
449,309,139257,1,0,0:0:0:0:
365,104,139448,1,8,0:0:0:0:
379,279,139638,1,0,0:0:0:0:
295,74,139829,5,12,0:0:0:0:
48,167,140210,2,0,P|36:220|52:284,1,104.500003189087,2|0,0:1|0:0,0:0:0:0:
78,60,140591,2,0,P|149:150|114:260,1,209.000006378174,8|0,0:0|0:0,0:0:0:0:
464,167,141353,5,0,0:0:0:0:
464,167,141544,1,8,0:0:0:0:
464,167,141734,2,0,L|460:284,1,104.500003189087,2|0,0:0|0:0,0:0:0:0:
434,60,142115,2,0,P|363:150|398:260,1,209.000006378174,12|0,0:0|0:0,0:0:0:0:
449,348,142687,1,8,0:0:0:0:
449,348,142877,1,4,0:0:0:0:
263,67,143638,6,0,P|314:43|381:43,1,104.500003189087,8|0,0:0|0:0,0:0:0:0:
205,122,144020,1,4,0:2:0:0:
72,259,144210,2,0,P|52:261|27:270,2,34.8333343963623
141,288,144400,6,0,P|183:265|259:260,1,104.500003189087,12|0,0:0|0:0,0:0:0:0:
83,343,144781,1,0,0:0:0:0:
166,190,144972,2,0,P|248:187|262:72,1,209.000006378174,12|0,0:0|0:0,0:0:0:0:
92,88,145543,2,0,P|89:139|83:207,1,104.500003189087,8|0,0:0|0:0,0:0:0:0:
211,334,145924,5,4,0:0:0:0:
211,334,146114,2,0,P|215:283|220:206,1,123.499994346619,8|0,0:0|0:0,0:0:0:0:
294,187,146400,1,0,0:0:0:0:
294,187,146495,2,0,P|290:238|285:315,1,123.499994346619,8|0,0:0|0:0,0:0:0:0:
369,142,146876,2,0,P|365:193|360:270,1,123.499994346619,8|0,0:0|0:0,0:0:0:0:
401,331,147162,1,0,0:0:0:0:
401,331,147257,1,8,0:0:0:0:
444,134,147448,6,0,P|419:88|343:74,1,123.499994346619,12|8,0:0|0:0,0:0:0:0:
285,51,147733,1,0,0:0:0:0:
285,51,147829,2,0,B|171:62|171:62|150:73,1,123.499994346619,0|8,0:0|0:0,0:0:0:0:
42,191,148210,1,0,0:0:0:0:
210,132,148400,2,0,B|324:121|324:121|345:110,1,123.499994346619,8|0,0:0|0:0,0:0:0:0:
410,145,148686,2,0,P|423:181|419:218,2,61.7499971733095,0|8|0,0:0|0:0|0:0,0:0:0:0:
349,191,148972,5,12,0:0:0:0:
316,215,149067,1,0,0:0:0:0:
297,251,149162,1,0,0:0:0:0:
294,292,149257,1,0,0:0:0:0:
309,330,149352,1,8,0:0:0:0:
338,359,149448,1,0,0:0:0:0:
376,374,149543,2,0,P|281:335|242:353,1,132.999995941162,0|0,0:0|0:0,0:0:0:0:
63,378,149924,1,0,0:0:0:0:
169,184,150114,2,0,P|195:145|167:58,1,132.999995941162,12|0,0:2|0:0,0:0:0:0:
47,286,150495,6,0,P|51:223|58:143,1,132.999995941162,12|0,0:0|0:0,0:0:0:0:
268,210,150876,1,8,0:0:0:0:
268,210,150972,1,0,0:0:0:0:
268,210,151067,2,0,P|263:288|257:353,1,132.999995941162
341,141,151448,1,0,0:0:0:0:
213,301,151638,2,0,P|176:228|197:167,1,132.999995941162,12|0,0:0|0:0,0:0:0:0:
374,333,152019,5,4,0:0:0:0:
397,351,152114,1,0,0:0:0:0:
426,360,152209,1,8,0:0:0:0:
456,354,152304,1,0,0:0:0:0:
481,337,152399,1,0,0:0:0:0:
496,310,152495,1,0,0:0:0:0:
499,279,152591,2,0,P|495:206|497:154,1,123.499994346619,8|0,0:0|0:0,0:0:0:0:
377,18,152972,2,0,P|304:14|262:62,1,123.499994346619,8|0,0:0|0:0,0:0:0:0:
340,86,153257,1,0,0:0:0:0:
340,86,153352,1,8,0:0:0:0:
159,55,153543,6,0,P|97:51|31:49,1,123.499994346619,4|8,0:2|0:0,0:0:0:0:
0,113,153829,1,0,0:0:0:0:
0,113,153925,2,0,P|61:84|128:104,2,123.499994346619,0|8|0,0:0|0:0|0:0,0:0:0:0:
81,300,154495,1,8,0:0:0:0:
81,300,154590,1,0,0:0:0:0:
81,300,154686,2,0,P|69:246|81:167,1,123.499994346619,0|8,0:0|0:0,0:0:0:0:
258,164,155067,5,12,0:0:0:0:
291,179,155162,1,0,0:0:0:0:
316,206,155257,1,0,0:0:0:0:
330,240,155353,1,0,0:0:0:0:
332,276,155448,5,8,0:0:0:0:
320,311,155543,1,0,0:0:0:0:
296,339,155638,1,0,0:0:0:0:
263,356,155733,1,0,0:0:0:0:
225,359,155829,1,8,0:0:0:0:
189,350,155924,1,0,0:0:0:0:
160,326,156019,1,0,0:0:0:0:
141,293,156114,1,0,0:0:0:0:
136,255,156210,5,8,0:0:0:0:
145,219,156305,1,0,0:0:0:0:
167,189,156400,1,0,0:0:0:0:
198,168,156495,1,0,0:0:0:0:
234,162,156591,1,8,0:0:0:0:
270,168,156686,1,0,0:0:0:0:
301,187,156781,1,0,0:0:0:0:
322,216,156876,1,0,0:0:0:0:
353,236,156972,5,8,0:0:0:0:
389,242,157067,1,0,0:0:0:0:
425,237,157162,1,0,0:0:0:0:
457,216,157257,1,0,0:0:0:0:
480,184,157353,1,8,0:0:0:0:
489,145,157448,1,0,0:0:0:0:
481,104,157543,1,0,0:0:0:0:
455,68,157638,1,0,0:0:0:0:
416,47,157733,5,8,0:0:0:0:
370,46,157829,1,0,0:0:0:0:
328,66,157924,1,0,0:0:0:0:
299,104,158019,1,0,0:0:0:0:
292,152,158114,5,12,0:0:0:0:
309,200,158210,1,0,0:0:0:0:
346,235,158304,2,0,P|359:298|353:362,1,123.499994346619,8|0,0:0|0:0,0:0:0:0:
277,329,158590,1,0,0:0:0:0:
277,329,158685,2,0,P|224:350|243:305,1,123.499994346619,8|0,0:0|0:0,0:0:0:0:
176,142,159066,2,0,P|182:211|166:282,1,123.499994346619,8|0,0:0|0:0,0:0:0:0:
136,334,159352,1,0,0:0:0:0:
136,334,159447,1,8,0:0:0:0:
346,235,159638,6,0,P|402:214|474:237,1,123.499994346619,4|8,0:0|0:0,0:0:0:0:
410,294,159924,1,0,0:0:0:0:
410,294,160019,2,0,P|415:350|377:320,1,123.499994346619,0|8,0:0|0:0,0:0:0:0:
487,150,160400,1,0,0:0:0:0:
291,44,160590,2,0,P|354:36|417:29,1,123.499994346619,8|0,0:0|0:0,0:0:0:0:
487,55,160876,1,0,0:0:0:0:
487,55,160972,1,8,0:0:0:0:
363,212,161162,5,12,0:0:0:0:
333,232,161257,1,0,0:0:0:0:
298,238,161352,1,0,0:0:0:0:
263,230,161447,1,0,0:0:0:0:
234,209,161542,1,8,0:0:0:0:
217,178,161638,1,0,0:0:0:0:
214,143,161733,2,0,P|157:150|88:158,1,123.499994346619,0|8,0:0|0:0,0:0:0:0:
305,145,162114,1,0,0:0:0:0:
86,86,162304,2,0,P|27:124|22:176,1,123.499994346619,12|0,0:2|0:0,0:0:0:0:
115,343,162686,6,0,P|131:285|119:193,1,123.499994346619,12|0,0:0|0:0,0:0:0:0:
235,382,163066,1,8,0:0:0:0:
235,382,163162,1,0,0:0:0:0:
235,382,163257,2,0,P|219:324|231:232,1,123.499994346619,8|0,0:0|0:0,0:0:0:0:
226,76,163638,1,0,0:0:0:0:
356,202,163828,2,0,B|366:237|366:237|354:336,1,123.499994346619,12|0,0:0|0:0,0:0:0:0:
486,381,164210,5,4,0:0:0:0:
489,334,164305,1,0,0:0:0:0:
492,288,164400,1,8,0:0:0:0:
495,242,164495,1,0,0:0:0:0:
497,196,164591,2,0,P|500:131|502:66,1,123.499994346619,0|8,0:0|0:0,0:0:0:0:
457,19,164876,1,0,0:0:0:0:
457,19,164972,1,0,0:0:0:0:
248,33,165162,2,0,P|180:27|107:57,1,123.499994346619,8|0,0:0|0:0,0:0:0:0:
81,99,165447,1,0,0:0:0:0:
77,103,165542,1,8,0:0:0:0:
308,141,165733,6,0,P|367:146|440:154,1,123.499994346619,4|8,0:2|0:0,0:0:0:0:
383,227,166018,1,0,0:0:0:0:
383,227,166114,2,0,P|321:221|251:214,1,123.499994346619,0|8,0:0|0:0,0:0:0:0:
388,334,166495,1,0,0:0:0:0:
207,274,166685,1,8,0:0:0:0:
207,274,166780,1,0,0:0:0:0:
207,274,166876,2,0,P|183:205|209:152,1,123.499994346619,4|8,0:2|0:0,0:0:0:0:
321,33,167257,5,12,0:0:0:0:
368,29,167352,1,0,0:0:0:0:
415,25,167447,1,0,0:0:0:0:
463,22,167542,1,0,0:0:0:0:
510,18,167637,1,0,0:0:0:0:
320,139,167829,5,0,0:0:0:0:
263,154,167924,1,0,0:0:0:0:
205,143,168019,5,12,0:0:0:0:
158,107,168114,1,0,0:0:0:0:
131,55,168210,2,0,P|87:27|0:33,1,142.500005435944
105,207,168591,5,0,0:0:0:0:
112,250,168686,1,0,0:0:0:0:
119,294,168781,5,12,0:0:0:0:
126,338,168876,1,0,0:0:0:0:
133,382,168972,2,0,P|46:362|13:307,1,142.500005435944
263,154,169353,5,0,0:0:0:0:
309,178,169448,1,0,0:0:0:0:
334,224,169543,5,12,0:0:0:0:
329,276,169638,1,0,0:0:0:0:
295,317,169733,2,0,P|359:357|437:349,1,142.500005435944
376,63,170305,38,0,P|441:24|516:21,1,142.500005435944,12|0,0:0|0:0,0:0:0:0:
267,106,170686,2,0,P|207:81|119:92,1,142.500005435944,12|0,0:0|0:0,0:0:0:0:
341,183,171067,2,0,P|292:225|263:309,1,142.500005435944,12|0,0:2|0:0,0:0:0:0:
42,285,171448,2,0,P|61:223|43:136,1,142.500005435944,12|0,0:0|0:0,0:0:0:0:
146,359,171829,69,12,0:0:0:0:
146,359,172019,1,0,0:0:0:0:
146,359,172210,1,8,0:0:0:0:
146,359,172400,1,0,0:0:0:0:
146,359,172591,69,8,0:0:0:0:
130,350,172686,1,8,0:0:0:0:
122,334,172781,1,8,0:0:0:0:
125,317,172876,1,8,0:0:0:0:
138,305,172971,1,8,0:0:0:0:
155,302,173067,1,8,0:0:0:0:
170,309,173162,1,8,0:0:0:0:
179,324,173257,1,8,0:0:0:0:
179,343,173353,38,0,P|136:241|186:109,1,246.999988693238,4|8,0:0|0:0,0:0:0:0:
350,32,173924,2,0,P|346:93|345:168,1,123.499994346619
250,45,174305,1,0,0:0:0:0:
413,183,174495,2,0,P|351:229|296:210,1,123.499994346619,8|0,0:0|0:0,0:0:0:0:
37,76,175067,6,0,P|26:45|34:15,2,61.7499971733095,0|0|8,0:0|0:0|0:0,0:0:0:0:
93,252,175448,1,0,0:0:0:0:
93,252,175543,1,0,0:0:0:0:
93,252,175638,2,0,L|86:342,1,82.3333295644126,0|0,0:0|0:0,0:0:0:0:
172,280,175892,2,0,L|179:190,1,82.3333295644126,0|8,0:0|0:0,0:0:0:0:
262,144,176146,2,0,L|255:234,1,82.3333295644126
333,118,176400,5,4,0:0:0:0:
394,148,176527,1,0,0:0:0:0:
431,206,176654,1,0,0:0:0:0:
436,276,176781,1,8,0:0:0:0:
405,338,176908,1,0,0:0:0:0:
346,376,177035,1,0,0:0:0:0:
275,378,177162,1,0,0:0:0:0:
213,344,177289,1,0,0:0:0:0:
181,283,177416,1,0,0:0:0:0:
168,213,177543,2,0,P|183:162|156:79,1,123.499994346619,8|0,0:0|0:0,0:0:0:0:
335,19,177924,5,0,0:0:0:0:
318,34,178019,1,0,0:0:0:0:
305,53,178114,1,0,0:0:0:0:
296,75,178209,1,0,0:0:0:0:
292,97,178304,1,8,0:0:0:0:
292,121,178400,1,0,0:0:0:0:
298,143,178495,1,0,0:0:0:0:
308,164,178590,1,0,0:0:0:0:
323,182,178686,2,0,P|318:316|222:322,1,246.999988693238,0|8,0:0|0:0,0:0:0:0:
392,219,179257,5,0,0:0:0:0:
392,219,179353,1,0,0:0:0:0:
392,219,179448,2,0,B|481:208|481:208|521:187,1,123.499994346619,4|0,0:0|0:0,0:0:0:0:
348,300,179829,1,8,0:0:0:0:
348,300,179925,1,0,0:0:0:0:
348,300,180020,2,0,B|437:290|437:290|480:302,1,123.499994346619,4|0,0:2|0:0,0:0:0:0:
238,11,180591,5,12,0:0:0:0:
282,64,180717,1,0,0:0:0:0:
295,132,180844,1,0,0:0:0:0:
277,199,180971,1,0,0:0:0:0:
219,237,181099,2,0,L|126:253,1,82.3333295644126
81,183,181353,2,0,L|174:167,1,82.3333295644126,8|0,0:0|0:0,0:0:0:0:
157,95,181606,1,0,0:0:0:0:
106,37,181733,2,0,P|-10:127|5:220,1,246.999988693238,4|8,0:2|0:0,0:0:0:0:
141,368,182305,5,0,0:0:0:0:
141,368,182400,1,0,0:0:0:0:
141,368,182495,2,0,P|84:324|26:331,1,123.499994346619,4|0,0:0|0:0,0:0:0:0:
226,342,182876,1,8,0:0:0:0:
258,367,182971,1,0,0:0:0:0:
299,375,183067,1,8,0:0:0:0:
340,365,183162,1,0,0:0:0:0:
372,340,183257,5,8,0:0:0:0:
391,303,183352,1,0,0:0:0:0:
392,261,183448,1,8,0:0:0:0:
376,223,183543,1,0,0:0:0:0:
345,195,183638,1,8,0:0:0:0:
315,170,183733,1,0,0:0:0:0:
299,132,183828,1,8,0:0:0:0:
300,90,183924,1,0,0:0:0:0:
319,53,184019,5,0,0:0:0:0:
351,28,184114,1,0,0:0:0:0:
392,18,184210,1,8,0:0:0:0:
434,24,184305,1,0,0:0:0:0:
469,49,184400,1,8,0:0:0:0:
491,85,184495,1,8,0:0:0:0:
494,128,184591,1,8,0:0:0:0:
479,168,184686,1,8,0:0:0:0:
448,198,184781,5,8,0:0:0:0:
407,213,184876,1,8,0:0:0:0:
363,208,184972,1,8,0:0:0:0:
326,184,185067,1,8,0:0:0:0:
303,147,185162,1,8,0:0:0:0:
298,104,185257,1,8,0:0:0:0:
312,62,185353,1,8,0:0:0:0:
342,31,185448,1,8,0:0:0:0:
383,17,185543,6,0,B|386:60|396:96|396:96|391:130|391:130|430:177|424:222|403:273,1,246.999988693238,12|8,0:0|0:0,0:0:0:0:
230,373,186114,1,0,0:0:0:0:
230,373,186210,1,0,0:0:0:0:
230,373,186305,2,0,P|196:294|234:132,1,246.999988693238,4|8,0:2|0:0,0:0:0:0:
331,319,186876,1,0,0:0:0:0:
100,261,187067,6,0,P|78:251|57:251,2,41.1666647822063,0|0|0,0:0|0:0|0:0,0:0:0:0:
117,305,187257,2,0,P|165:285|254:297,1,123.499994346619,0|8,0:0|0:0,0:0:0:0:
425,362,187638,1,0,0:0:0:0:
474,177,187829,2,0,P|496:167|517:167,2,41.1666647822063,0|0|0,0:0|0:0|0:0,0:0:0:0:
456,220,188019,2,0,P|408:200|319:212,2,123.499994346619,0|8|0,0:0|0:0|0:0,0:0:0:0:
269,241,188591,6,0,P|280:156|328:128,1,123.499994346619,4|0,0:0|0:0,0:0:0:0:
156,59,188972,2,0,P|132:44|67:41,1,61.7499971733095,8|0,0:0|0:0,0:0:0:0:
141,66,189162,2,0,P|75:42|13:50,1,123.499994346619,4|0,0:2|0:0,0:0:0:0:
222,106,189543,2,0,P|247:78|281:65,1,61.7499971733095,0|0,0:0|0:0,0:0:0:0:
235,111,189733,2,0,P|291:68|352:58,1,123.499994346619,12|0,0:2|0:0,0:0:0:0:
178,179,190114,6,0,P|149:165|102:163,1,61.7499971733095,0|0,0:0|0:0,0:0:0:0:
164,184,190305,2,0,P|95:167|35:181,1,123.499994346619,4|8,0:2|0:0,0:0:0:0:
254,215,190686,2,0,P|285:203|331:203,1,61.7499971733095,0|0,0:0|0:0,0:0:0:0:
364,236,190876,1,0,0:0:0:0:
362,240,190971,1,0,0:0:0:0:
360,245,191066,1,0,0:0:0:0:
359,250,191161,1,0,0:0:0:0:
357,255,191256,1,8,0:0:0:0:
159,354,191448,5,0,0:0:0:0:
159,354,191543,1,0,0:0:0:0:
159,354,191638,2,0,P|85:332|31:335,1,123.499994346619,4|0,0:0|0:0,0:0:0:0:
1,275,191924,2,0,P|32:263|72:265,1,61.7499971733095,0|8,0:0|0:0,0:0:0:0:
239,312,192210,2,0,P|254:294|295:281,1,61.7499971733095,0|0,0:0|0:0,0:0:0:0:
258,308,192400,2,0,P|338:284|394:322,1,123.499994346619,4|0,0:2|0:0,0:0:0:0:
419,350,192686,2,0,L|492:339,1,61.7499971733095,0|8,0:0|0:0,0:0:0:0:
409,164,192972,5,4,0:2:0:0:
367,145,193067,1,0,0:0:0:0:
321,149,193162,1,0,0:0:0:0:
283,175,193257,1,0,0:0:0:0:
263,216,193352,1,0,0:0:0:0:
3,90,193670,5,4,0:2:0:0:
39,32,193797,1,0,0:0:0:0:
101,3,193924,1,0,0:0:0:0:
168,15,194051,1,0,0:0:0:0:
219,61,194178,1,0,0:0:0:0:
234,128,194305,1,8,0:0:0:0:
214,194,194432,1,0,0:0:0:0:
159,235,194559,1,0,0:0:0:0:
93,210,194686,6,0,P|34:210|25:370,1,246.999988693238,4|8,0:0|0:0,0:0:0:0:
101,332,195162,2,0,P|87:307|50:284,2,61.7499971733095,0|0|0,0:0|0:0|0:0,0:0:0:0:
186,348,195448,2,0,P|249:341|318:340,1,123.499994346619,0|0,0:0|0:0,0:0:0:0:
149,207,195829,2,0,P|212:217|279:216,1,123.499994346619,8|0,0:0|0:0,0:0:0:0:
440,160,196210,5,4,0:0:0:0:
446,344,196400,2,0,P|483:364|451:329,1,123.499994346619,0|8,0:0|0:0,0:0:0:0:
268,360,196781,2,0,B|180:276|256:196|256:188|332:108|244:20,1,370.499983039857,4|8,0:0|0:0,0:0:0:0:
108,126,197543,1,0,0:0:0:0:
232,257,197733,6,0,P|305:237|367:250,1,123.499994346619,12|8,0:0|0:0,0:0:0:0:
119,223,198114,1,8,0:0:0:0:
119,223,198305,1,8,0:0:0:0:
307,136,198495,2,0,P|383:134|439:105,1,123.499994346619,12|8,0:0|0:0,0:0:0:0:
199,94,198876,1,8,0:0:0:0:
199,94,199067,1,8,0:0:0:0:
176,294,199257,6,0,P|243:298|302:327,1,123.499994346619,12|8,0:0|0:0,0:0:0:0:
73,330,199638,1,8,0:0:0:0:
73,330,199829,1,8,0:0:0:0:
252,213,200019,2,0,P|320:195|386:201,1,123.499994346619,12|8,0:0|0:0,0:0:0:0:
142,192,200400,1,8,0:0:0:0:
142,192,200591,1,8,0:0:0:0:
312,46,200781,6,0,P|383:54|448:33,1,123.499994346619,12|8,0:0|0:0,0:0:0:0:
203,55,201162,1,8,0:0:0:0:
203,55,201353,1,8,0:0:0:0:
391,180,201543,2,0,P|462:167|515:180,1,123.499994346619,12|8,0:0|0:0,0:0:0:0:
279,171,201924,1,8,0:0:0:0:
279,171,202114,1,8,0:0:0:0:
291,348,202305,6,0,P|368:350|428:328,1,123.499994346619,12|8,0:0|0:0,0:0:0:0:
187,297,202686,1,8,0:0:0:0:
187,297,202876,1,8,0:0:0:0:
187,297,203067,1,8,0:0:0:0:
59,154,203257,2,0,P|38:142|8:139,2,41.1666647822063,0|0|0,0:0|0:0|0:0,0:0:0:0:
90,193,203448,2,0,P|149:176|228:179,1,123.499994346619,4|0,0:0|0:0,0:0:0:0:
300,372,203829,5,12,0:0:0:0:
276,329,203924,1,0,0:0:0:0:
279,280,204019,1,8,0:0:0:0:
308,241,204114,1,0,0:0:0:0:
353,223,204209,1,8,0:0:0:0:
401,233,204305,2,0,L|412:312,1,61.7499971733095,0|8,0:0|0:0,0:0:0:0:
483,229,204495,2,0,L|468:144,1,61.7499971733095,0|8,0:0|0:0,0:0:0:0:
486,119,204686,5,0,0:0:0:0:
479,70,204781,1,8,0:0:0:0:
447,33,204876,1,0,0:0:0:0:
401,18,204971,1,8,0:0:0:0:
354,30,205066,1,0,0:0:0:0:
320,65,205162,2,0,L|250:58,1,61.7499971733095,8|0,0:0|0:0,0:0:0:0:
211,113,205353,5,8,0:0:0:0:
173,144,205448,1,0,0:0:0:0:
125,148,205543,1,8,0:0:0:0:
83,122,205638,1,0,0:0:0:0:
65,78,205733,1,8,0:0:0:0:
76,30,205829,2,0,L|1:20,1,61.7499971733095,0|8,0:0|0:0,0:0:0:0:
152,14,206019,2,0,L|232:24,1,61.7499971733095,0|8,0:0|0:0,0:0:0:0:
273,63,206210,5,0,0:0:0:0:
274,70,206305,1,8,0:0:0:0:
276,77,206400,1,0,0:0:0:0:
333,124,206495,2,0,L|413:134,1,61.7499971733095,8|0,0:0|0:0,0:0:0:0:
304,197,206686,2,0,L|224:187,1,61.7499971733095,8|0,0:0|0:0,0:0:0:0:
176,155,206876,5,8,0:0:0:0:
120,129,206971,1,0,0:0:0:0:
62,146,207066,1,8,0:0:0:0:
28,196,207161,1,0,0:0:0:0:
35,256,207256,1,8,0:0:0:0:
79,298,207353,2,0,L|65:360,1,61.7499971733095,0|8,0:0|0:0,0:0:0:0:
154,327,207543,2,0,L|168:265,1,61.7499971733095,0|8,0:0|0:0,0:0:0:0:
184,218,207733,5,0,0:0:0:0:
223,184,207828,1,8,0:0:0:0:
275,177,207923,1,0,0:0:0:0:
321,201,208018,1,8,0:0:0:0:
347,246,208113,1,0,0:0:0:0:
343,298,208209,1,8,0:0:0:0:
311,339,208304,1,0,0:0:0:0:
261,356,208400,6,0,B|231:304|259:246|259:241|298:175|258:112,1,246.999988693238,12|8,0:0|0:0,0:0:0:0:
502,33,209162,1,0,0:0:0:0:
478,187,209353,1,0,0:0:0:0:
359,90,209543,1,0,0:0:0:0:
276,243,209733,5,0,0:0:0:0:
276,243,209829,1,0,0:0:0:0:
276,243,209924,2,0,P|252:191|269:108,1,123.499994346619,4|8,0:0|0:0,0:0:0:0:
173,45,210210,2,0,P|180:117|158:180,1,123.499994346619
85,203,210495,2,0,L|90:133,1,61.7499971733095,8|0,0:0|0:0,0:0:0:0:
15,238,210686,2,0,P|8:307|4:377,1,123.499994346619,4|8,0:2|0:0,0:0:0:0:
179,378,211067,2,0,P|248:372|295:325,1,123.499994346619,4|8,0:2|0:0,0:0:0:0:
381,183,211448,6,0,B|485:169|485:169|516:146,1,123.499994346619,4|8,0:0|0:0,0:0:0:0:
409,100,211733,2,0,B|305:114|305:114|274:137,1,123.499994346619,0|0,0:0|0:0,0:0:0:0:
237,184,212019,2,0,L|173:191,1,61.7499971733095,8|0,0:0|0:0,0:0:0:0:
218,51,212210,2,0,P|283:43|352:35,1,123.499994346619,4|8,0:0|0:0,0:0:0:0:
129,109,212591,1,0,0:0:0:0:
118,321,212781,5,12,0:0:0:0:
118,321,212876,1,8,0:0:0:0:
118,321,212972,2,0,P|58:331|-1:290,1,123.499994346619,12|8,0:2|0:0,0:0:0:0:
50,235,213257,2,0,P|114:230|181:224,1,123.499994346619
229,168,213543,2,0,P|227:131|215:104,1,61.7499971733095,8|0,0:0|0:0,0:0:0:0:
310,200,213733,2,0,P|289:274|300:327,1,123.499994346619,4|8,0:0|0:0,0:0:0:0:
383,357,214019,2,0,P|390:287|397:219,1,123.499994346619
482,177,214305,2,0,L|477:238,1,61.7499971733095,8|0,0:0|0:0,0:0:0:0:
432,109,214495,6,0,P|463:84|480:40,2,82.3333295644126,12|0|0,0:0|0:0|0:0,0:0:0:0:
370,62,214876,2,0,P|341:38|290:29,2,82.3333295644126,8|0|0,0:0|0:0|0:0,0:0:0:0:
359,135,215257,5,8,0:0:0:0:
339,191,215384,1,0,0:0:0:0:
289,222,215511,1,0,0:0:0:0:
229,215,215638,1,8,0:0:0:0:
187,173,215765,1,0,0:0:0:0:
180,113,215892,1,0,0:0:0:0:
139,69,216019,5,8,0:0:0:0:
79,62,216146,1,0,0:0:0:0:
29,93,216273,1,0,0:0:0:0:
8,149,216400,1,8,0:0:0:0:
26,205,216527,1,0,0:0:0:0:
73,239,216654,1,0,0:0:0:0:
132,235,216781,5,8,0:0:0:0:
177,196,216908,1,0,0:0:0:0:
236,193,217035,1,0,0:0:0:0:
284,227,217162,1,8,0:0:0:0:
301,284,217289,1,0,0:0:0:0:
279,339,217416,1,0,0:0:0:0:
227,367,217543,5,12,0:0:0:0:
256,192,217670,12,2,220591,2:0:0:0:
406,18,229733,6,0,P|344:49|248:31,1,156.750004783631,2|0,0:0|0:0,0:0:0:0:
377,114,230495,6,0,B|389:123|406:150|415:192|390:230|349:260|284:253|256:192|256:192|223:127|158:120|117:149|94:188|102:229|118:256|133:266,1,522.500015945435,2|0,0:0|0:0,0:0:0:0:
200,337,232591,5,0,0:0:0:0:
200,337,232781,2,0,P|279:313|389:365,1,209.000006378174,2|0,0:0|0:0,0:0:0:0:
81,353,233924,5,0,0:0:0:0:
26,278,234114,1,0,0:0:0:0:
66,197,234305,2,0,P|62:132|39:89,1,104.500003189087,2|0,0:0|0:0,0:0:0:0:
156,19,234876,1,0,0:0:0:0:
156,19,235067,2,0,P|147:86|163:131,1,104.500003189087,2|0,0:0|0:0,0:0:0:0:
188,350,235829,6,0,P|247:311|301:312,1,104.500003189087,2|0,0:0|0:0,0:0:0:0:
422,146,236591,2,0,P|444:240|502:256,1,156.750004783631,2|0,0:0|0:0,0:0:0:0:
493,183,237257,1,0,0:0:0:0:
493,183,237353,6,0,P|481:91|381:75,1,209.000006378174,2|0,0:0|0:0,0:0:0:0:
162,24,238495,1,0,0:0:0:0:
83,32,238686,1,0,0:0:0:0:
6,47,238876,6,0,P|96:152|74:209,1,209.000006378174,2|0,0:0|0:0,0:0:0:0:
105,360,240019,1,0,0:0:0:0:
190,375,240210,1,0,0:0:0:0:
256,321,240400,6,0,B|296:266|256:226|256:220|214:180|256:126,1,209.000006378174,2|0,0:0|0:0,0:0:0:0:
256,125,241924,6,0,P|270:253|157:256,1,265.999991882324,4|0,0:0|0:0,0:0:0:0:
51,320,242876,1,0,0:0:0:0:
212,194,243257,1,0,0:0:0:0:
68,55,243638,1,0,0:0:0:0:
58,55,243733,1,0,0:0:0:0:
48,56,243828,1,0,0:0:0:0:
39,57,243923,1,0,0:0:0:0:
29,58,244018,1,0,0:0:0:0:
19,58,244114,1,0,0:0:0:0:
11,60,244210,2,0,P|69:66|160:35,1,132.999995941162,0|0,0:0|2:0,0:0:0:0:
371,46,244972,6,0,P|435:65|501:60,1,132.999995941162,8|0,0:0|2:0,0:0:0:0:
466,179,245543,2,0,L|514:175,2,33.2499989852906,0|0|0,0:0|0:0|0:0,0:0:0:0:
343,157,245924,1,0,0:0:0:0:
157,53,246305,1,0,0:0:0:0:
42,235,246686,2,0,L|30:312,2,66.4999979705811,0|0|0,0:0|0:0|0:0,0:0:0:0:
124,160,247257,2,0,B|127:185|127:185|111:291,1,132.999995941162,0|0,0:0|2:0,0:0:0:0:
304,382,248019,6,0,P|338:291|321:245,1,132.999995941162,8|0,0:0|2:0,0:0:0:0:
225,259,248591,2,0,P|214:279|209:302,2,33.2499989852906
286,172,248971,1,0,0:0:0:0:
273,66,249162,1,0,0:0:0:0:
175,22,249353,1,0,0:0:0:0:
32,162,249733,1,0,0:0:0:0:
30,171,249828,1,0,0:0:0:0:
29,181,249923,1,0,0:0:0:0:
28,190,250018,1,0,0:0:0:0:
27,200,250113,1,0,0:0:0:0:
26,210,250209,1,0,0:0:0:0:
26,220,250305,2,0,P|20:162|65:75,1,132.999995941162,0|0,0:0|2:0,0:0:0:0:
220,250,251067,6,0,L|233:355,1,85.4999973907472,4|0,0:0|2:0,0:0:0:0:
157,184,251448,1,0,0:0:0:0:
157,184,251638,1,0,0:0:0:0:
322,280,251829,2,0,L|335:385,1,85.4999973907472,4|0,0:0|2:0,0:0:0:0:
285,204,252210,1,0,0:0:0:0:
315,195,252305,1,0,0:0:0:0:
347,199,252400,1,0,0:0:0:0:
375,215,252495,1,0,0:0:0:0:
394,240,252591,6,0,P|462:261|490:159,1,170.999994781494,4|0,0:0|2:0,0:0:0:0:
457,27,253162,2,0,P|474:15|495:7,2,28.4999991302491,0|0|0,0:0|0:0|0:0,0:0:0:0:
437,61,253353,2,0,P|392:40|335:39,1,85.4999973907472,8|0,0:0|0:0,0:0:0:0:
225,158,253733,2,0,B|298:152|298:152|322:136,1,85.4999973907472,8|0,0:0|0:0,0:0:0:0:
150,36,254114,6,0,P|87:23|25:117,1,190,4|0,0:0|0:0,0:0:0:0:
194,237,254686,1,0,0:0:0:0:
112,198,254876,2,0,P|109:153|103:84,1,95,8|0,0:0|2:0,0:0:0:0:
126,356,255448,5,0,0:0:0:0:
220,367,255638,1,8,0:0:0:0:
299,315,255828,1,0,0:0:0:0:
256,229,256019,2,0,B|292:178|256:141|256:136|217:99|256:50,1,190,0|8,0:0|0:0,0:0:0:0:
338,98,256591,1,0,0:0:0:0:
407,33,256781,1,0,0:0:0:0:
477,97,256972,1,0,0:0:0:0:
407,33,257162,6,0,B|350:109|407:165|407:172|465:228|407:302,1,285,12|0,0:0|0:0,0:0:0:0:
297,335,257924,1,8,0:0:0:0:
335,238,258114,1,0,0:0:0:0:
122,338,258495,1,0,0:0:0:0:
183,265,258686,6,0,P|178:174|108:108,1,190,12|0,0:0|0:0,0:0:0:0:
16,89,259257,1,0,0:0:0:0:
8,183,259448,2,0,P|11:283|17:392,1,190,8|0,0:0|2:0,0:0:0:0:
256,105,260210,5,12,0:0:0:0:
256,105,260400,2,0,B|292:156|256:193|256:198|217:235|256:284,1,190,8|0,0:0|2:0,0:0:0:0:
157,68,261162,2,0,P|142:58|122:60,2,31.6666666666667,8|0|0,0:0|0:0|0:0,0:0:0:0:
182,86,261353,1,0,0:0:0:0:
349,69,261543,6,0,P|394:54|446:53,1,95,12|0,0:2|0:0,0:0:0:0:
320,184,261924,2,0,P|277:197|217:197,1,95,12|0,0:2|0:0,0:0:0:0:
65,200,262305,1,0,0:0:0:0:
43,189,262400,1,0,0:0:0:0:
26,173,262495,1,0,0:0:0:0:
13,153,262590,1,0,0:0:0:0:
5,131,262685,5,0,0:0:0:0:
4,107,262781,1,0,0:0:0:0:
9,84,262876,1,0,0:0:0:0:
19,63,262971,1,0,0:0:0:0:
35,46,263066,1,0,0:0:0:0:
55,33,263162,1,0,0:0:0:0:
79,27,263257,6,0,P|130:23|195:18,1,104.500003189087,12|0,0:0|0:0,0:0:0:0:
330,126,263638,2,0,P|282:131|214:135,1,104.500003189087,8|0,0:0|0:0,0:0:0:0:
78,259,264019,2,0,P|132:254|182:250,1,104.500003189087,8|0,0:0|0:0,0:0:0:0:
340,359,264400,2,0,P|289:362|235:367,1,104.500003189087,12|0,0:0|0:0,0:0:0:0:
376,271,264781,5,8,0:0:0:0:
512,214,264972,1,0,0:0:0:0:
498,53,265162,1,0,0:0:0:0:
384,146,265353,1,12,0:0:0:0:
248,359,265733,5,8,0:0:0:0:
226,151,265924,1,8,0:0:0:0:
433,27,266305,6,0,P|381:23|317:18,1,104.500003189087,12|0,0:0|0:0,0:0:0:0:
182,126,266686,2,0,P|237:131|298:135,1,104.500003189087,8|0,0:0|0:0,0:0:0:0:
434,259,267067,2,0,P|384:255|330:250,1,104.500003189087,8|0,0:0|0:0,0:0:0:0:
172,359,267448,2,0,P|226:363|277:367,1,104.500003189087,12|0,0:0|0:0,0:0:0:0:
136,271,267829,5,8,0:0:0:0:
0,214,268020,1,0,0:0:0:0:
14,53,268210,1,0,0:0:0:0:
128,146,268401,1,12,0:0:0:0:
264,359,268781,5,8,0:0:0:0:
286,151,268972,1,8,0:0:0:0:
290,155,269353,5,12,0:0:0:0:
290,155,269543,2,0,B|208:181|208:280|208:280|185:160|102:148,1,341.999989562989,8|0,0:0|2:0,0:0:0:0:
304,230,270495,6,0,P|284:292|305:338,1,113.999996520996,2|0,2:1|2:0,0:0:0:0:
101,231,270876,2,0,P|126:290|110:338,1,113.999996520996,8|0,0:0|2:0,0:0:0:0:
215,158,271257,5,2,2:0:0:0:
215,158,271448,2,0,P|313:131|337:15,1,227.999993041992,2|0,2:1|2:0,0:0:0:0:
140,81,272019,2,0,P|197:53|256:63,1,113.999996520996,2|0,2:1|2:0,0:0:0:0:
39,203,272400,5,12,0:0:0:0:
39,203,272591,2,0,P|109:202|158:235,1,113.999996520996,8|0,0:0|2:0,0:0:0:0:
350,286,272972,2,0,P|286:282|222:312,1,113.999996520996,2|0,2:1|2:0,0:0:0:0:
430,221,273354,2,0,P|402:130|481:3,1,227.999993041992,4|0,2:0|2:0,0:0:0:0:
407,290,273925,6,0,P|380:194|253:130,1,227.999993041992,4|0,0:0|2:0,0:0:0:0:
239,305,274495,1,4,0:0:0:0:
239,305,274687,1,0,0:0:0:0:
183,133,274876,1,0,0:0:0:0:
157,115,274971,1,0,0:0:0:0:
128,108,275066,1,0,0:0:0:0:
97,112,275161,1,0,0:0:0:0:
70,127,275256,1,0,0:0:0:0:
51,150,275352,1,0,0:0:0:0:
41,179,275448,6,0,P|11:110|18:58,1,113.999996520996,4|0,0:0|2:0,0:0:0:0:
125,196,275829,1,8,0:0:0:0:
16,349,276019,1,8,0:0:0:0:
16,349,276114,1,8,0:0:0:0:
16,349,276211,2,0,P|77:344|144:333,1,113.999996520996,8|0,0:0|0:0,0:0:0:0:
327,326,276592,1,12,0:0:0:0:
344,323,276687,1,8,0:0:0:0:
363,319,276782,1,8,0:0:0:0:
382,316,276877,1,8,0:0:0:0:
352,338,276973,5,12,0:2:0:0:
316,345,277068,1,8,0:0:0:0:
281,336,277163,1,8,0:0:0:0:
253,312,277258,1,8,0:0:0:0:
238,278,277354,6,0,P|224:208|248:152,1,113.999996520996,12|8,0:0|0:0,0:0:0:0:
411,149,277733,2,0,P|437:126|472:125,2,56.9999982604981,8|0|8,0:0|0:0|0:0,0:0:0:0:
323,306,278114,5,8,0:0:0:0:
307,336,278210,1,8,0:0:0:0:
282,360,278305,1,8,0:0:0:0:
248,371,278400,1,8,0:0:0:0:
212,371,278495,5,8,0:0:0:0:
179,354,278591,1,8,0:0:0:0:
155,326,278686,1,8,0:0:0:0:
145,290,278781,1,8,0:0:0:0:
150,252,278876,1,8,0:0:0:0:
170,218,278972,1,8,0:0:0:0:
203,197,279067,1,8,0:0:0:0:
242,190,279162,1,8,0:0:0:0:
275,166,279257,1,8,0:0:0:0:
296,129,279353,1,8,0:0:0:0:
296,86,279448,5,8,0:0:0:0:
275,47,279543,1,8,0:0:0:0:
237,20,279638,1,8,0:0:0:0:
191,17,279733,1,8,0:0:0:0:
148,39,279829,1,8,0:0:0:0:
121,80,279924,1,8,0:0:0:0:
120,129,280019,5,12,0:0:0:0:
238,279,280211,1,0,0:0:0:0:
208,107,280400,1,0,0:0:0:0:
325,289,280592,2,0,P|320:322|327:360,2,56.9999982604981
354,60,280973,5,12,0:0:0:0:
354,60,281067,1,8,0:0:0:0:
354,60,281162,2,0,P|303:38|231:34,1,123.499994346619,12|0,0:0|0:0,0:0:0:0:
23,39,281543,5,12,0:0:0:0:
20,77,281638,1,0,0:0:0:0:
17,115,281733,1,0,0:0:0:0:
14,154,281828,1,0,0:0:0:0:
11,192,281923,1,8,0:0:0:0:
8,231,282019,1,0,0:0:0:0:
5,269,282114,1,0,0:0:0:0:
3,308,282209,1,0,0:0:0:0:
0,346,282305,6,0,P|70:352|133:365,1,123.499994346619,8|0,0:0|0:0,0:0:0:0:
292,277,282686,2,0,P|232:270|159:258,1,123.499994346619,8|0,0:0|0:0,0:0:0:0:
368,277,283067,2,0,P|364:307|346:332,2,61.7499971733095,12|0|0,0:0|0:0|0:0,0:0:0:0:
349,81,283449,5,8,0:0:0:0:
348,69,283544,1,0,0:0:0:0:
346,56,283639,1,0,0:0:0:0:
344,44,283734,1,0,0:0:0:0:
343,32,283830,2,0,P|321:112|340:155,1,123.499994346619,8|0,0:0|0:0,0:0:0:0:
424,311,284211,5,8,0:0:0:0:
425,323,284306,1,0,0:0:0:0:
426,335,284401,1,0,0:0:0:0:
428,347,284496,1,0,0:0:0:0:
428,359,284592,2,0,P|442:269|422:229,1,123.499994346619,12|0,0:0|0:0,0:0:0:0:
251,190,284972,5,8,0:0:0:0:
251,190,285068,1,0,0:0:0:0:
251,190,285162,2,0,P|185:180|112:181,1,123.499994346619,0|8,0:0|0:0,0:0:0:0:
203,341,285543,2,0,P|268:350|342:350,1,123.499994346619,0|8,0:0|0:0,0:0:0:0:
349,169,285925,1,0,0:0:0:0:
337,134,286020,1,0,0:0:0:0:
314,108,286115,5,12,0:0:0:0:
283,93,286210,1,0,0:0:0:0:
249,89,286305,1,0,0:0:0:0:
215,100,286401,1,0,0:0:0:0:
188,122,286496,1,8,0:0:0:0:
172,152,286591,1,0,0:0:0:0:
168,187,286686,1,0,0:0:0:0:
178,220,286782,1,0,0:0:0:0:
197,247,286876,2,0,P|135:200|73:199,1,123.499994346619,8|0,0:0|0:0,0:0:0:0:
36,370,287257,5,8,0:0:0:0:
10,200,287449,1,0,0:0:0:0:
10,200,287544,1,0,0:0:0:0:
10,200,287638,2,0,P|8:116|23:59,1,123.499994346619,12|0,0:0|0:0,0:0:0:0:
213,103,288019,1,8,0:0:0:0:
186,115,288114,1,0,0:0:0:0:
164,97,288211,1,0,0:0:0:0:
170,69,288306,1,0,0:0:0:0:
199,63,288400,2,0,P|271:49|336:66,1,123.499994346619,8|0,0:0|0:0,0:0:0:0:
481,183,288781,5,12,0:0:0:0:
493,217,288876,1,0,0:0:0:0:
481,252,288973,1,0,0:0:0:0:
450,272,289068,1,0,0:0:0:0:
413,268,289163,5,8,0:0:0:0:
386,243,289257,1,0,0:0:0:0:
381,206,289354,1,0,0:0:0:0:
401,174,289449,1,0,0:0:0:0:
426,148,289544,2,0,P|459:93|447:26,1,123.499994346619,8|0,0:0|0:0,0:0:0:0:
300,183,289924,2,0,P|307:251|312:310,1,123.499994346619,8|0,0:0|0:0,0:0:0:0:
227,126,290306,5,12,0:0:0:0:
210,152,290401,1,0,0:0:0:0:
185,171,290496,1,0,0:0:0:0:
156,181,290591,1,0,0:0:0:0:
127,182,290687,6,0,P|210:151|191:-1,1,246.999988693238,12|8,0:0|0:0,0:0:0:0:
24,109,291257,2,0,P|29:176|36:236,1,123.499994346619,0|8,0:0|0:0,0:0:0:0:
166,363,291638,5,0,0:0:0:0:
213,357,291733,1,0,0:0:0:0:
254,334,291828,1,8,0:0:0:0:
283,295,291923,1,0,0:0:0:0:
292,248,292018,1,0,0:0:0:0:
283,202,292114,1,0,0:0:0:0:
255,163,292209,5,12,0:0:0:0:
71,125,292400,1,8,0:0:0:0:
184,256,292591,1,8,0:0:0:0:
269,82,292781,2,0,P|294:88|331:114,2,61.7499971733095,12|0|0,0:2|0:0|0:0,0:0:0:0:
51,48,293162,5,12,0:2:0:0:
266,159,293353,1,0,0:0:0:0:
104,278,293543,1,8,0:0:0:0:
137,46,293733,5,4,0:0:0:0:
169,21,293830,1,0,0:0:0:0:
210,13,293924,1,8,0:0:0:0:
251,23,294019,1,0,0:0:0:0:
283,48,294114,1,0,0:0:0:0:
302,85,294211,1,8,0:0:0:0:
303,127,294305,5,8,0:0:0:0:
287,165,294400,1,0,0:0:0:0:
256,193,294495,1,8,0:0:0:0:
226,218,294592,1,0,0:0:0:0:
210,256,294687,1,8,0:0:0:0:
211,298,294781,1,8,0:0:0:0:
230,335,294876,5,8,0:0:0:0:
262,360,294973,1,0,0:0:0:0:
303,370,295068,1,0,0:0:0:0:
344,362,295162,1,0,0:0:0:0:
376,338,295257,5,12,0:0:0:0:
92,59,295830,6,0,P|61:49|19:50,1,61.7499971733095,2|0,2:1|2:0,0:0:0:0:
266,164,296211,2,0,P|280:150|314:135,2,41.1666647822063,0|0|0,0:0|0:0|0:0,0:0:0:0:
263,216,296400,2,0,P|200:197|117:202,1,123.499994346619,12|0,0:0|2:0,0:0:0:0:
354,221,296781,5,4,0:0:0:0:
354,221,296973,1,8,0:0:0:0:
146,313,297163,2,0,P|113:321|84:350,2,61.7499971733095,0|0|8,0:0|0:0|0:0,0:0:0:0:
337,367,297544,2,0,P|405:367|449:310,1,123.499994346619,0|8,0:0|0:0,0:0:0:0:
216,280,297924,2,0,P|170:241|107:245,1,123.499994346619,0|8,0:0|0:0,0:0:0:0:
227,366,298306,5,4,0:2:0:0:
371,298,298495,1,8,0:0:0:0:
272,128,298687,2,0,P|263:92|274:60,2,61.7499971733095,0|0|8,0:0|0:0|0:0,0:0:0:0:
259,335,299068,1,0,0:0:0:0:
246,354,299163,1,0,0:0:0:0:
227,366,299258,1,8,0:0:0:0:
204,369,299353,1,0,0:0:0:0:
182,363,299448,1,0,0:0:0:0:
164,348,299544,1,0,0:0:0:0:
155,327,299639,1,8,0:0:0:0:
155,304,299734,1,0,0:0:0:0:
169,284,299830,6,0,P|97:305|33:292,1,123.499994346619,4|8,0:0|0:0,0:0:0:0:
231,216,300210,2,0,P|303:237|367:224,1,123.499994346619,4|8,0:2|0:0,0:0:0:0:
490,75,300592,5,0,0:0:0:0:
469,75,300687,1,0,0:0:0:0:
449,76,300782,1,8,0:0:0:0:
428,77,300877,1,0,0:0:0:0:
408,78,300972,1,0,0:0:0:0:
387,80,301067,1,0,0:0:0:0:
367,81,301163,1,8,0:0:0:0:
346,83,301258,1,0,0:0:0:0:
300,55,301353,5,4,0:2:0:0:
279,55,301448,1,0,0:0:0:0:
259,56,301543,1,8,0:0:0:0:
238,57,301638,1,0,0:0:0:0:
218,58,301733,1,0,0:0:0:0:
197,60,301828,1,0,0:0:0:0:
177,61,301924,1,8,0:0:0:0:
156,63,302019,1,0,0:0:0:0:
98,54,302114,6,0,P|77:37|55:28,2,41.1666647822063,8|0|0,0:0|0:0|0:0,0:0:0:0:
96,131,302305,2,0,P|59:137|12:183,1,82.3333295644126,8|0,0:0|0:0,0:0:0:0:
88,211,302495,2,0,P|72:228|145:359,1,205.833323911032,8|0,0:0|0:0,0:0:0:0:
138,276,302876,5,12,0:0:0:0:
319,324,303066,1,8,0:0:0:0:
405,158,303257,2,0,P|416:127|411:85,2,61.7499971733095,8|0|8,0:0|0:0|0:0,0:0:0:0:
319,324,303638,5,8,0:0:0:0:
141,360,303828,1,8,0:0:0:0:
370,270,304019,2,0,P|342:253|307:251,2,61.7499971733095,8|0|8,0:0|0:0|0:0,0:0:0:0:
178,220,304400,5,8,0:0:0:0:
0,256,304590,1,8,0:0:0:0:
228,168,304781,2,0,P|200:151|165:149,2,61.7499971733095,8|0|8,0:0|0:0|0:0,0:0:0:0:
455,168,305162,5,8,0:0:0:0:
482,154,305257,1,0,0:0:0:0:
501,131,305352,1,8,0:0:0:0:
509,101,305447,1,0,0:0:0:0:
503,71,305542,1,8,0:0:0:0:
486,46,305638,1,0,0:0:0:0:
459,31,305733,1,8,0:0:0:0:
428,29,305828,1,0,0:0:0:0:
400,40,305923,5,12,0:0:0:0:
425,176,306114,1,8,0:0:0:0:
252,60,306304,5,8,0:0:0:0:
340,203,306495,1,8,0:0:0:0:
145,135,306685,5,8,0:0:0:0:
264,253,306876,1,8,0:0:0:0:
58,234,307066,5,8,0:0:0:0:
202,320,307257,1,8,0:0:0:0:
0,350,307447,5,12,0:0:0:0:
256,192,307511,12,4,308971,0:0:0:0:
261,318,309353,6,0,P|342:302|430:285,1,151.999995361328,4|0,0:0|0:0,0:0:0:0:
325,176,309733,2,0,P|254:188|176:204,1,151.999995361328,4|0,0:2|0:0,0:0:0:0:
91,90,310114,2,0,P|168:76|264:58,1,151.999995361328,4|0,0:0|0:0,0:0:0:0:
364,126,310495,6,0,B|373:133|387:156|395:192|374:227|338:252|281:246|256:192|256:192|229:136|172:130|136:155|115:190|123:226|137:249|149:257,1,455.999986083985,4|4,0:0|0:0,0:0:0:0:
53,65,311638,2,0,P|27:55|-3:61,2,37.9999988403321,8|0|0,0:0|0:0|0:0,0:0:0:0:
113,105,311892,1,0,0:0:0:0:
176,63,312019,6,0,P|253:76|313:12,1,151.999995361328,12|0,0:0|0:0,0:0:0:0:
275,96,312400,2,0,P|275:177|285:255,1,151.999995361328,0|0,0:0|0:0,0:0:0:0:
209,317,312781,2,4,P|204:240|196:161,1,151.999995361328
135,219,313162,2,0,P|175:239|274:190,1,151.999995361328,0|0,0:0|0:0,0:0:0:0:
344,140,313543,6,0,P|349:217|357:296,1,151.999995361328,4|0,0:0|0:0,0:0:0:0:
427,308,313924,2,0,P|443:291|470:279,2,37.9999988403321,8|8|8,0:0|0:0|0:0,0:0:0:0:
398,379,314178,2,0,P|356:378|307:357,2,75.9999976806641,8|8|8,0:0|0:0|0:0,0:0:0:0:
496,97,314685,5,0,0:0:0:0:
422,78,314812,1,0,0:0:0:0:
350,59,314939,1,0,0:0:0:0:
277,39,315067,2,0,P|324:120|290:187,1,151.999995361328,4|0,0:0|0:0,0:0:0:0:
240,117,315447,5,0,0:0:0:0:
166,98,315574,1,0,0:0:0:0:
94,79,315701,1,0,0:0:0:0:
21,59,315829,2,0,P|1:151|54:204,1,151.999995361328,4|0,0:0|0:0,0:0:0:0:
91,254,316209,5,0,0:0:0:0:
165,272,316336,1,0,0:0:0:0:
237,291,316463,1,0,0:0:0:0:
310,308,316590,1,4,0:0:0:0:
262,44,316972,5,0,0:0:0:0:
301,85,317099,1,0,0:0:0:0:
303,143,317226,1,0,0:0:0:0:
266,186,317353,1,0,0:0:0:0:
209,197,317479,1,0,0:0:0:0:
160,165,317606,1,0,0:0:0:0:
135,112,317734,2,0,P|113:114|80:125,2,37.9999988403321,8|0|0,0:0|0:0|0:0,0:0:0:0:
431,127,318114,6,0,P|362:101|297:165,1,151.999995361328,4|0,0:0|0:0,0:0:0:0:
191,17,318495,2,0,P|165:85|229:150,1,151.999995361328,4|0,0:0|0:0,0:0:0:0:
81,257,318876,2,0,P|149:282|214:218,1,151.999995361328,4|0,0:0|0:0,0:0:0:0:
321,367,319257,2,0,P|346:298|282:233,1,151.999995361328,4|0,0:0|0:0,0:0:0:0:
157,375,319638,5,12,0:0:0:0:
26,233,319829,1,0,0:0:0:0:
161,106,320020,1,8,0:0:0:0:
263,301,320210,2,0,P|316:310|373:261,1,123.499994346619,8|0,0:0|0:0,0:0:0:0:
147,254,320591,2,0,B|41:242|41:242|18:228,1,123.499994346619,12|0,0:2|0:0,0:0:0:0:
261,193,320972,6,0,P|197:183|125:174,1,123.499994346619,12|0,0:2|0:0,0:0:0:0:
314,252,321353,2,0,P|337:187|305:129,1,123.499994346619,12|0,0:0|0:0,0:0:0:0:
91,121,321733,1,8,0:0:0:0:
91,121,321829,1,0,0:0:0:0:
91,121,321924,2,0,P|68:186|100:244,1,123.499994346619,8|0,0:0|0:0,0:0:0:0:
286,338,322305,2,0,B|392:326|392:326|415:312,1,123.499994346619,12|0,0:2|0:0,0:0:0:0:
432,119,322686,5,12,0:0:0:0:
480,310,322876,1,8,0:0:0:0:
488,71,323067,1,8,0:0:0:0:
357,257,323257,2,0,P|336:323|360:378,1,123.499994346619,12|0,0:0|0:0,0:0:0:0:
305,81,323638,2,0,P|219:72|169:64,1,123.499994346619,12|0,0:2|0:0,0:0:0:0:
207,303,324019,2,0,P|293:312|343:320,1,123.499994346619,12|0,0:0|0:0,0:0:0:0:
217,171,324591,22,0,P|188:164|163:167,2,41.1666647822063
295,171,324781,70,0,P|324:164|349:167,1,41.1666647822063,4|0,0:0|0:0,0:0:0:0:
