osu file format v14

[General]
AudioFilename: audio.mp3
AudioLeadIn: 0
PreviewTime: 65587
Countdown: 0
SampleSet: Normal
StackLeniency: 0.3
Mode: 0
LetterboxInBreaks: 1
WidescreenStoryboard: 1

[Editor]
DistanceSpacing: 0.7
BeatDivisor: 4
GridSize: 8
TimelineZoom: 2.899999

[Metadata]
Title:Victims of Contingency
TitleUnicode:Victims of Contingency
Artist:EPICA
ArtistUnicode:EPICA
Creator:Nidasimno
Version:Pain
Source:
Tags:metal rock symphonic jump epica epic stream forest scream growl female vocalist redhead guitar electronic drums
BeatmapID:1387884
BeatmapSetID:654813

[Difficulty]
HPDrainRate:7
CircleSize:3.8
OverallDifficulty:8
ApproachRate:10
SliderMultiplier:2.2
SliderTickRate:1

[Events]
//Background and Video events
0,0,"backgr.jpg",0,0
//Break Periods
2,45358,46078
2,153930,155221
2,158501,160078
//Storyboard Layer 0 (Background)
//Storyboard Layer 1 (Fail)
//Storyboard Layer 2 (Pass)
//Storyboard Layer 3 (Foreground)
//Storyboard Sound Samples

[TimingPoints]
1730,285.714285714286,4,1,1,100,1,0
1730,-100,4,1,1,5,0,0
10872,-90.9090909090909,4,1,1,100,0,0
12015,-125,4,1,1,100,0,0
13158,-90.9090909090909,4,1,1,100,0,0
15444,-125,4,1,1,100,0,0
17158,-400,4,1,1,100,0,0
17230,-400,4,1,1,5,0,0
17730,-90.9090909090909,4,1,1,100,0,0
18872,-125,4,1,1,100,0,0
20015,-90.9090909090909,4,1,1,100,0,0
21158,-125,4,1,1,100,0,0
24015,-400,4,1,1,100,0,0
24087,-400,4,1,1,5,0,0
24588,-125,4,1,1,100,0,0
25872,-90.9090909090909,4,1,1,100,0,0
26444,-200,4,1,1,100,0,0
26515,-200,4,1,1,5,0,0
26872,-125,4,1,1,100,0,0
31444,-90.9090909090909,4,1,1,100,0,0
36015,-125,4,1,1,100,0,0
40587,-90.9090909090909,4,1,1,100,0,0
44587,-500,4,1,1,100,0,0
47444,-100,4,1,1,100,0,0
60015,-125,4,1,1,100,0,0
65730,-83.3333333333333,4,1,1,100,0,1
69158,-111.111111111111,4,1,1,100,0,1
70301,-83.3333333333333,4,1,1,100,0,1
73730,-111.111111111111,4,1,1,100,0,1
74872,-83.3333333333333,4,1,1,100,0,1
78301,-111.111111111111,4,1,1,100,0,1
79444,-83.3333333333333,4,1,1,100,0,1
84015,-90.9090909090909,4,1,1,100,0,1
85158,-100,4,1,1,100,0,0
92015,-125,4,1,1,100,0,0
93158,-100,4,1,1,100,0,0
98872,-125,4,1,1,100,0,0
100015,-125,4,1,1,100,0,0
105301,-100,4,1,1,100,0,0
105730,-83.3333333333333,4,1,1,100,0,0
106015,-125,4,1,1,100,0,0
106872,-83.3333333333333,4,1,1,100,0,1
110301,-111.111111111111,4,1,1,100,0,1
111444,-83.3333333333333,4,1,1,100,0,1
114872,-125,4,1,1,100,0,1
116015,-83.3333333333333,4,1,1,100,0,1
119444,-125,4,1,1,100,0,1
120587,-83.3333333333333,4,1,1,100,0,1
126301,-100,4,1,1,100,0,0
127444,-90.9090909090909,4,1,1,100,0,0
131444,-400,4,1,1,100,0,0
131515,-400,4,1,1,5,0,0
132015,-90.9090909090909,4,1,1,100,0,0
136587,-100,4,1,1,100,0,0
153730,-200,4,1,1,100,0,0
157158,-400,4,1,1,100,0,0
157230,-400,4,1,1,5,0,0
157730,-400,4,1,1,100,0,0
157801,-400,4,1,1,5,0,0
158301,-200,4,1,1,100,0,0
160587,-90.9090909090909,4,1,1,100,0,0
160872,-100,4,1,1,100,0,0
161158,-111.111111111111,4,1,1,100,0,0
161444,-125,4,1,1,100,0,0
161730,-90.9090909090909,4,1,1,100,0,0
165158,-76.9230769230769,4,1,1,100,0,1
168587,-125,4,1,1,100,0,1
169730,-76.9230769230769,4,1,1,100,0,1
173158,-125,4,1,1,100,0,1
174301,-76.9230769230769,4,1,1,100,0,1
177730,-125,4,1,1,100,0,1
178872,-76.9230769230769,4,1,1,100,0,1
182301,-76.9230769230769,4,1,1,100,0,0
183444,-76.9230769230769,4,1,1,100,0,1
186872,-111.111111111111,4,1,1,100,0,1
188015,-76.9230769230769,4,1,1,100,0,1
204015,-100,4,1,1,100,0,0

[Colours]
Combo1 : 121,121,255
Combo2 : 0,0,213

[HitObjects]
256,192,6301,12,0,10587,0:0:0:0:
135,50,10872,5,6,0:0:0:0:
126,90,10944,1,0,0:0:0:0:
126,130,11015,1,0,0:0:0:0:
126,251,11158,2,0,P|128:305|155:369,1,121.000003692627
253,104,11444,2,8,P|241:185|246:244,1,121.000003692627,8|0,1:0|0:0,3:0:0:0:
295,374,11730,1,0,0:0:0:0:
446,88,12015,5,6,0:0:0:0:
446,88,12087,1,0,0:0:0:0:
446,88,12158,2,0,L|442:140,1,44
397,259,12301,1,0,0:0:0:0:
397,259,12373,1,0,0:0:0:0:
397,259,12444,2,0,L|392:316,1,44
421,174,12587,5,8,0:0:0:0:
37,184,13158,5,6,0:0:0:0:
72,204,13230,1,0,0:0:0:0:
102,232,13301,1,0,0:0:0:0:
120,269,13372,1,0,0:0:0:0:
130,310,13444,2,0,P|166:369|244:367,1,121.000003692627
92,116,13730,2,0,P|157:108|211:125,1,121.000003692627,8|0,0:0|0:0,0:0:0:0:
212,281,14015,1,0,0:0:0:0:
417,109,14301,5,6,0:0:0:0:
456,141,14372,1,0,0:0:0:0:
474,189,14443,1,0,0:0:0:0:
466,240,14515,1,0,0:0:0:0:
434,280,14586,1,0,0:0:0:0:
180,200,14730,2,0,L|311:200,1,121.000003692627,0|8,0:0|0:0,0:0:0:0:
274,365,15015,1,0,0:0:0:0:
285,347,15086,1,0,0:0:0:0:
296,329,15157,1,0,0:0:0:0:
42,72,15444,5,6,0:0:0:0:
29,88,15515,1,0,0:0:0:0:
19,107,15586,1,0,0:0:0:0:
12,126,15658,1,0,0:0:0:0:
8,147,15729,1,0,0:0:0:0:
7,168,15801,1,0,0:0:0:0:
9,189,15872,1,0,0:0:0:0:
15,210,15944,2,0,P|31:232|50:253,1,44,0|8,0:0|0:0,0:0:0:0:
130,163,16301,5,8,0:0:0:0:
434,346,16444,1,8,0:0:0:0:
434,346,17158,6,0,B|425:314|425:314|439:289|439:289|430:256,1,96.25,14|0,0:0|0:0,0:0:0:0:
421,57,17730,5,6,0:0:0:0:
435,95,17801,1,0,0:0:0:0:
436,135,17872,1,0,0:0:0:0:
373,238,18015,2,0,P|415:262|491:245,1,121.000003692627
283,54,18301,2,0,P|290:113|275:188,1,121.000003692627,8|0,0:0|0:0,0:0:0:0:
219,384,18587,1,0,0:0:0:0:
9,177,18872,5,6,0:0:0:0:
9,177,18944,1,0,0:0:0:0:
9,177,19015,2,0,B|64:131,1,44
183,154,19158,1,0,0:0:0:0:
183,154,19230,1,0,0:0:0:0:
183,154,19300,2,0,B|130:200,1,44
78,237,19444,1,8,0:0:0:0:
482,280,20015,5,6,0:0:0:0:
497,243,20086,1,0,0:0:0:0:
497,202,20158,1,0,0:0:0:0:
364,0,20301,2,0,L|346:150,1,121.000003692627
185,226,20587,2,0,L|214:72,1,121.000003692627,8|0,0:0|0:0,0:0:0:0:
299,305,20872,1,0,0:0:0:0:
110,360,21158,5,6,0:0:0:0:
107,331,21229,1,0,0:0:0:0:
104,302,21300,1,0,0:0:0:0:
102,273,21372,1,0,0:0:0:0:
99,244,21444,1,0,0:0:0:0:
140,71,21587,5,0,0:0:0:0:
143,100,21658,1,0,0:0:0:0:
146,129,21729,1,8,0:0:0:0:
148,158,21801,1,0,0:0:0:0:
151,187,21872,1,0,0:0:0:0:
154,216,21944,2,0,L|161:288,1,44
39,266,22301,5,6,0:0:0:0:
11,296,22372,1,0,0:0:0:0:
9,335,22443,1,0,0:0:0:0:
28,369,22515,1,0,0:0:0:0:
65,384,22586,1,0,0:0:0:0:
105,376,22658,1,0,0:0:0:0:
139,357,22729,1,0,0:0:0:0:
173,337,22801,2,0,L|164:263,1,44,0|8,0:0|0:0,0:0:0:0:
332,354,23158,5,8,0:0:0:0:
255,9,23301,1,8,0:0:0:0:
255,9,24015,6,0,B|254:35|239:54|239:54|251:74|252:110,1,96.25,14|0,0:0|0:0,0:0:0:0:
345,62,24587,5,14,0:0:0:0:
342,82,24658,1,0,0:0:0:0:
340,103,24729,1,0,0:0:0:0:
338,123,24801,1,0,0:0:0:0:
336,144,24872,1,0,0:0:0:0:
334,164,24944,1,0,0:0:0:0:
332,185,25015,1,0,0:0:0:0:
328,206,25087,2,0,L|321:272,1,44,0|8,0:0|0:0,0:0:0:0:
142,217,25444,5,8,0:0:0:0:
474,325,25587,1,8,0:0:0:0:
382,122,25872,6,0,P|394:188|359:256,1,121.000003692627,6|0,0:0|0:0,0:0:0:0:
252,159,26158,2,0,P|240:93|275:25,1,121.000003692627,6|0,0:0|0:0,0:0:0:0:
480,54,26444,2,0,B|512:120|456:182,1,137.5,6|0,0:0|0:0,0:0:0:0:
446,206,26872,5,14,0:0:0:0:
429,251,26943,1,0,0:0:0:0:
423,299,27014,1,0,0:0:0:0:
421,346,27087,1,0,0:0:0:0:
367,342,27158,1,0,0:0:0:0:
313,333,27229,1,0,0:0:0:0:
259,336,27300,1,0,0:0:0:0:
206,350,27372,1,0,0:0:0:0:
155,369,27444,5,8,0:0:0:0:
102,372,27515,1,0,0:0:0:0:
52,350,27586,1,0,0:0:0:0:
19,308,27658,1,0,0:0:0:0:
11,272,27730,1,0,0:0:0:0:
12,235,27801,1,0,0:0:0:0:
29,203,27872,1,0,0:0:0:0:
59,181,27944,1,0,0:0:0:0:
95,176,28015,6,0,L|138:185,3,44,14|0|0|0,0:0|0:0|0:0|0:0,0:0:0:0:
181,292,28301,2,0,L|211:243,3,44
331,292,28587,2,0,L|308:254,3,44,8|0|0|0,0:0|0:0|0:0|0:0,0:0:0:0:
417,176,28873,2,0,L|374:185,3,44
338,51,29158,5,14,0:0:0:0:
300,65,29229,1,0,0:0:0:0:
267,88,29300,1,0,0:0:0:0:
241,118,29372,1,0,0:0:0:0:
213,151,29444,1,0,0:0:0:0:
189,185,29515,1,0,0:0:0:0:
152,205,29586,1,0,0:0:0:0:
110,207,29658,1,0,0:0:0:0:
72,190,29729,5,8,0:0:0:0:
46,148,29801,1,0,0:0:0:0:
52,100,29872,1,0,0:0:0:0:
83,64,29943,1,0,0:0:0:0:
129,52,30015,1,0,0:0:0:0:
175,66,30086,1,0,0:0:0:0:
205,104,30158,1,0,0:0:0:0:
209,151,30229,1,0,0:0:0:0:
199,180,30301,5,14,0:0:0:0:
193,204,30372,1,0,0:0:0:0:
192,228,30443,1,0,0:0:0:0:
195,252,30515,1,0,0:0:0:0:
202,275,30586,1,0,0:0:0:0:
212,297,30658,1,0,0:0:0:0:
224,317,30730,1,0,0:0:0:0:
239,335,30801,1,0,0:0:0:0:
260,347,30872,5,8,0:0:0:0:
276,356,30944,1,0,0:0:0:0:
292,362,31015,1,0,0:0:0:0:
310,364,31086,1,0,0:0:0:0:
328,361,31158,1,0,0:0:0:0:
376,26,31444,5,6,0:0:0:0:
376,26,31515,1,0,0:0:0:0:
376,26,31587,2,0,B|333:122|333:122|365:126,1,121.000003692627,0|8,0:0|0:0,0:0:0:0:
428,246,31872,1,0,0:0:0:0:
428,246,31944,1,0,0:0:0:0:
428,246,32015,2,0,B|433:351|433:351|402:343,1,121.000003692627,6|0,0:0|0:0,0:0:0:0:
291,253,32301,2,0,B|245:237|245:237|238:217|238:217|158:192,1,121.000003692627,8|0,0:0|0:0,0:0:0:0:
98,88,32587,5,6,0:0:0:0:
98,88,32658,1,0,0:0:0:0:
98,87,32730,2,0,B|193:45|193:45|195:60,1,121.000003692627,0|8,0:0|0:0,0:0:0:0:
131,194,33015,1,0,0:0:0:0:
131,194,33087,1,0,0:0:0:0:
131,194,33158,2,0,B|94:292|94:292|110:293,1,121.000003692627,14|0,0:0|0:0,0:0:0:0:
266,320,33444,2,0,B|315:306|315:306|331:319|331:319|379:307,1,121.000003692627,8|0,0:0|0:0,0:0:0:0:
504,283,33730,5,6,0:0:0:0:
504,283,33801,1,0,0:0:0:0:
504,283,33872,2,0,B|404:248|404:248|413:236,1,121.000003692627,0|8,0:0|0:0,0:0:0:0:
380,101,34158,1,0,0:0:0:0:
380,101,34230,1,0,0:0:0:0:
380,101,34301,2,0,B|417:2|417:2|429:12,1,121.000003692627,6|0,0:0|0:0,0:0:0:0:
432,172,34587,2,0,L|382:290,1,121.000003692627,8|0,0:0|0:0,0:0:0:0:
254,219,34872,5,6,0:0:0:0:
254,219,34944,1,0,0:0:0:0:
254,219,35015,2,0,B|252:324|252:324|237:319,1,121.000003692627,0|8,0:0|0:0,0:0:0:0:
112,243,35301,1,0,0:0:0:0:
112,243,35372,1,0,0:0:0:0:
111,242,35444,2,0,B|104:138|104:138|119:141,1,121.000003692627,14|0,0:0|0:0,0:0:0:0:
248,73,35730,2,0,L|188:181,1,121.000003692627,8|0,0:0|0:0,0:0:0:0:
145,263,36015,5,14,0:0:0:0:
145,296,36086,1,0,0:0:0:0:
158,326,36157,1,0,0:0:0:0:
183,348,36229,1,0,0:0:0:0:
214,360,36300,1,0,0:0:0:0:
247,358,36372,1,0,0:0:0:0:
276,343,36443,1,0,0:0:0:0:
298,319,36515,1,0,0:0:0:0:
335,283,36587,5,8,0:0:0:0:
346,324,36658,1,0,0:0:0:0:
377,355,36729,1,0,0:0:0:0:
419,366,36801,1,0,0:0:0:0:
461,355,36872,1,0,0:0:0:0:
491,324,36944,1,0,0:0:0:0:
502,282,37015,1,0,0:0:0:0:
506,239,37087,1,0,0:0:0:0:
508,198,37159,6,0,L|511:124,3,44,14|0|0|0,0:0|0:0|0:0|0:0,0:0:0:0:
423,322,37444,6,0,L|418:365,3,44
380,111,37730,2,0,L|388:28,3,44,8|0|0|0,0:0|0:0|0:0|0:0,0:0:0:0:
292,269,38015,2,0,L|290:312,3,44
320,155,38301,5,14,0:0:0:0:
354,153,38372,1,0,0:0:0:0:
385,168,38443,1,0,0:0:0:0:
405,197,38515,1,0,0:0:0:0:
408,231,38586,1,0,0:0:0:0:
393,263,38658,1,0,0:0:0:0:
365,283,38729,1,0,0:0:0:0:
331,287,38801,1,0,0:0:0:0:
292,269,38872,5,8,0:0:0:0:
260,231,38944,1,0,0:0:0:0:
219,204,39015,1,0,0:0:0:0:
171,197,39086,1,0,0:0:0:0:
122,204,39157,1,0,0:0:0:0:
82,232,39229,1,0,0:0:0:0:
61,272,39300,1,0,0:0:0:0:
74,314,39371,1,0,0:0:0:0:
104,335,39443,5,14,0:0:0:0:
138,339,39514,1,0,0:0:0:0:
171,331,39585,1,0,0:0:0:0:
197,307,39657,1,0,0:0:0:0:
208,274,39729,1,0,0:0:0:0:
198,244,39800,1,0,0:0:0:0:
186,216,39871,1,0,0:0:0:0:
179,186,39943,1,0,0:0:0:0:
174,162,40014,5,8,0:0:0:0:
176,137,40085,1,0,0:0:0:0:
182,114,40156,1,0,0:0:0:0:
194,96,40229,1,0,0:0:0:0:
207,76,40300,1,0,0:0:0:0:
452,375,40587,1,6,0:0:0:0:
452,375,40658,1,0,0:0:0:0:
452,375,40730,2,0,B|452:269|452:269|437:274,1,121.000003692627,0|8,0:0|0:0,0:0:0:0:
328,192,41015,1,0,0:0:0:0:
328,192,41087,1,0,0:0:0:0:
328,192,41158,2,0,B|424:150|424:150|426:166,1,121.000003692627,6|0,0:0|0:0,0:0:0:0:
329,277,41444,2,0,P|259:315|205:285,1,121.000003692627,8|0,0:0|0:0,0:0:0:0:
177,164,41730,5,6,0:0:0:0:
177,164,41801,1,0,0:0:0:0:
177,164,41872,2,0,B|151:61|151:61|167:62,1,121.000003692627,0|8,0:0|0:0,0:0:0:0:
320,24,42158,1,0,0:0:0:0:
320,24,42230,1,0,0:0:0:0:
321,24,42301,2,0,B|315:129|315:129|300:123,1,121.000003692627,14|0,0:0|0:0,0:0:0:0:
167,62,42587,2,0,P|92:74|50:109,1,121.000003692627,8|0,0:0|0:0,0:0:0:0:
90,242,42872,5,6,0:0:0:0:
90,242,42944,1,0,0:0:0:0:
90,242,43015,1,0,0:0:0:0:
233,266,43158,1,14,0:0:0:0:
233,266,43230,1,0,0:0:0:0:
233,266,43301,1,0,0:0:0:0:
153,144,43444,1,14,0:0:0:0:
153,144,43587,2,0,B|183:166|183:166|284:123,1,121.000003692627,14|0,0:0|0:0,0:0:0:0:
437,76,43872,1,6,0:0:0:0:
437,76,43944,1,0,0:0:0:0:
437,76,44015,2,0,L|451:203,1,121.000003692627,14|0,0:0|0:0,0:0:0:0:
360,357,44587,6,0,L|350:270,1,88,8|8,0:0|0:0,0:0:0:0:
347,247,46587,5,6,0:0:0:0:
340,207,46872,1,6,0:0:0:0:
332,162,47158,2,0,L|324:110,1,44,6|8,0:0|0:0,0:0:0:0:
80,198,47587,1,0,0:0:0:0:
178,38,47730,1,8,0:0:0:0:
197,201,47872,2,0,P|196:278|205:339,1,110,0|8,0:0|0:0,0:0:0:0:
328,172,48158,1,0,0:0:0:0:
445,253,48301,1,8,0:0:0:0:
262,330,48444,6,0,P|185:320|126:302,1,110,0|8,0:0|0:0,0:0:0:0:
32,170,48730,2,0,P|108:179|167:197,1,110,0|8,0:0|0:0,0:0:0:0:
338,209,49015,1,0,0:0:0:0:
214,84,49158,1,8,0:0:0:0:
242,269,49301,1,0,0:0:0:0:
317,27,49444,2,0,L|293:150,1,110,8|0,0:0|0:0,0:0:0:0:
137,320,49730,2,0,L|176:183,1,110,8|0,0:0|0:0,0:0:0:0:
73,78,50015,5,8,0:0:0:0:
31,272,50158,1,0,0:0:0:0:
192,121,50301,2,0,L|224:6,1,110,8|0,0:0|0:0,0:0:0:0:
292,190,50587,1,8,0:0:0:0:
396,62,50730,1,0,0:0:0:0:
497,217,50872,6,0,B|499:304|499:304|485:333,1,110,14|0,0:0|0:0,0:0:0:0:
457,138,51158,1,0,0:0:0:0:
335,250,51301,1,0,0:0:0:0:
152,208,51444,6,0,B|172:197|172:197|222:126,1,110,14|0,0:0|0:0,0:0:0:0:
44,81,51730,1,0,0:0:0:0:
193,11,51873,1,0,0:0:0:0:
152,208,52015,6,0,B|124:290|124:290|129:322,1,110,14|0,0:0|0:0,0:0:0:0:
309,171,52301,1,0,0:0:0:0:
480,246,52444,1,0,0:0:0:0:
460,60,52587,6,0,B|427:140|427:140|403:162,1,110,14|0,0:0|0:0,0:0:0:0:
386,341,52872,1,0,0:0:0:0:
309,171,53015,1,0,0:0:0:0:
124,237,53158,6,0,P|178:248|233:243,1,110,14|0,0:0|0:0,0:0:0:0:
257,55,53444,2,0,P|266:117|252:172,1,110,8|0,0:0|0:0,0:0:0:0:
181,348,53730,1,14,0:0:0:0:
152,357,53801,1,0,0:0:0:0:
122,359,53872,1,0,0:0:0:0:
93,351,53944,1,0,0:0:0:0:
67,336,54015,1,8,0:0:0:0:
46,314,54087,1,0,0:0:0:0:
33,287,54158,1,0,0:0:0:0:
28,257,54230,1,0,0:0:0:0:
23,226,54301,6,0,P|42:155|76:113,1,110,14|0,0:0|0:0,0:0:0:0:
216,215,54587,1,8,0:0:0:0:
135,58,54730,1,0,0:0:0:0:
301,164,54872,1,8,0:0:0:0:
220,7,55015,1,0,0:0:0:0:
325,201,55158,2,0,L|397:334,1,110,8|0,0:0|0:0,0:0:0:0:
416,102,55444,1,8,0:0:0:0:
505,279,55587,1,0,0:0:0:0:
330,302,55730,1,8,0:0:0:0:
230,158,55872,6,0,P|208:213|201:294,1,110,0|8,0:0|0:0,0:0:0:0:
418,222,56158,2,0,P|361:226|289:213,1,110,0|8,0:0|0:0,0:0:0:0:
106,189,56444,1,0,0:0:0:0:
274,83,56587,1,8,0:0:0:0:
55,105,56730,1,0,0:0:0:0:
171,289,56872,2,0,P|221:313|290:309,1,110,8|0,0:0|0:0,0:0:0:0:
347,127,57158,5,8,0:0:0:0:
369,139,57229,1,0,0:0:0:0:
389,157,57300,1,0,0:0:0:0:
404,178,57372,1,0,0:0:0:0:
415,203,57443,1,8,0:0:0:0:
420,228,57515,1,0,0:0:0:0:
419,255,57586,1,0,0:0:0:0:
415,282,57658,1,0,0:0:0:0:
402,306,57730,6,0,P|356:342|285:348,1,110,14|0,0:0|0:0,0:0:0:0:
123,315,58015,1,0,0:0:0:0:
329,167,58158,1,0,0:0:0:0:
329,167,58301,2,0,P|314:223|262:272,1,110,14|0,0:0|0:0,0:0:0:0:
81,237,58587,1,0,0:0:0:0:
223,29,58730,1,0,0:0:0:0:
223,29,58872,2,0,L|180:140,1,110,14|0,0:0|0:0,0:0:0:0:
200,328,59158,1,0,0:0:0:0:
46,126,59301,1,0,0:0:0:0:
46,126,59444,2,0,P|62:183|109:221,1,110,14|0,0:0|0:0,0:0:0:0:
298,245,59730,2,0,B|327:278|327:278|414:261,1,110,8|0,0:0|0:0,0:0:0:0:
498,97,60015,5,14,0:0:0:0:
491,112,60086,1,0,0:0:0:0:
481,125,60157,1,0,0:0:0:0:
469,136,60229,1,0,0:0:0:0:
454,144,60300,1,8,0:0:0:0:
439,148,60372,1,0,0:0:0:0:
424,156,60444,2,0,P|395:169|376:182,1,44
296,242,60587,5,8,0:0:0:0:
282,269,60658,1,0,0:0:0:0:
280,299,60729,1,0,0:0:0:0:
289,327,60801,1,0,0:0:0:0:
308,350,60872,1,8,0:0:0:0:
335,365,60944,1,0,0:0:0:0:
365,372,61015,2,0,P|418:359|441:339,1,44
444,253,61158,5,14,0:0:0:0:
457,211,61229,1,0,0:0:0:0:
453,167,61300,1,0,0:0:0:0:
433,129,61372,1,0,0:0:0:0:
399,101,61443,1,8,0:0:0:0:
357,89,61515,1,0,0:0:0:0:
313,94,61586,1,0,0:0:0:0:
275,116,61658,1,0,0:0:0:0:
249,150,61730,6,0,L|224:204,3,44,14|0|0|0,0:0|0:0|0:0|0:0,0:0:0:0:
265,270,62015,2,0,L|270:338,3,44,8|0|0|0,0:0|0:0|0:0|0:0,0:0:0:0:
255,226,62301,1,14,0:0:0:0:
245,183,62372,1,0,0:0:0:0:
219,147,62443,1,0,0:0:0:0:
182,125,62515,1,0,0:0:0:0:
139,118,62586,1,8,0:0:0:0:
96,129,62658,1,0,0:0:0:0:
62,156,62729,1,0,0:0:0:0:
40,194,62801,1,0,0:0:0:0:
35,237,62872,6,0,L|35:302,1,44,14|0,0:0|0:0,0:0:0:0:
152,246,63015,2,0,L|151:202,1,44
63,121,63158,1,8,0:0:0:0:
32,110,63229,1,0,0:0:0:0:
15,82,63300,1,0,0:0:0:0:
20,50,63372,1,0,0:0:0:0:
44,28,63443,1,14,0:0:0:0:
77,23,63515,1,0,0:0:0:0:
109,32,63587,6,0,L|153:66,5,44,0|0|8|0|0|0,0:0|0:0|0:0|0:0|0:0|0:0,0:0:0:0:
156,195,64015,2,0,L|169:255,5,44,14|0|0|0|8|0,0:0|0:0|0:0|0:0|0:0|0:0,0:0:0:0:
42,307,64444,2,0,L|17:365,2,44,0|0|14,0:0|0:0|0:0,0:0:0:0:
79,273,64658,5,0,0:0:0:0:
127,264,64729,1,0,0:0:0:0:
174,277,64800,1,0,0:0:0:0:
212,309,64872,1,8,0:0:0:0:
248,343,64944,1,0,0:0:0:0:
291,365,65015,1,0,0:0:0:0:
340,373,65086,1,0,0:0:0:0:
389,364,65158,1,8,0:0:0:0:
432,341,65229,1,0,0:0:0:0:
466,305,65301,1,0,0:0:0:0:
192,73,65730,6,0,P|255:51|343:103,1,131.99999597168,6|0,0:0|0:0,0:0:0:0:
358,264,66015,1,0,0:0:0:0:
134,189,66158,1,0,0:0:0:0:
366,140,66301,1,0,0:0:0:0:
150,315,66444,2,0,L|6:296,1,131.99999597168
47,60,66730,1,0,0:0:0:0:
269,225,66872,6,0,P|282:301|248:365,1,131.99999597168,6|0,0:0|0:0,0:0:0:0:
171,128,67158,1,0,0:0:0:0:
401,191,67301,1,0,0:0:0:0:
169,245,67444,1,0,0:0:0:0:
375,59,67587,2,0,L|521:37,1,131.99999597168
475,275,67872,1,0,0:0:0:0:
229,373,68015,6,0,P|141:366|88:311,1,131.99999597168,6|0,0:0|0:0,0:0:0:0:
251,148,68301,1,0,0:0:0:0:
358,360,68444,1,0,0:0:0:0:
154,236,68587,1,0,0:0:0:0:
424,172,68730,1,0,0:0:0:0:
203,337,68872,2,0,L|58:360,1,131.99999597168
40,228,69158,5,6,0:0:0:0:
40,228,69230,1,0,0:0:0:0:
40,228,69301,2,0,L|33:155,1,49.4999984893799
133,156,69444,5,6,0:0:0:0:
133,156,69516,1,0,0:0:0:0:
133,156,69587,2,0,L|127:82,1,49.4999984893799
242,169,69730,5,6,0:0:0:0:
242,169,69802,1,0,0:0:0:0:
242,169,69873,2,0,L|247:241,1,49.4999984893799
346,223,70016,5,6,0:0:0:0:
346,223,70088,1,0,0:0:0:0:
346,223,70159,2,0,L|353:297,1,49.4999984893799
349,328,70301,6,0,P|287:372|209:355,1,131.99999597168,6|0,0:0|0:0,0:0:0:0:
113,162,70587,1,0,0:0:0:0:
310,293,70730,1,0,0:0:0:0:
270,58,70872,1,0,0:0:0:0:
182,307,71015,2,0,L|65:366,1,131.99999597168
197,167,71301,1,0,0:0:0:0:
454,228,71444,6,0,P|421:314|366:335,1,131.99999597168,6|0,0:0|0:0,0:0:0:0:
368,92,71730,1,0,0:0:0:0:
132,207,71872,2,0,P|40:193|-4:145,1,131.99999597168
223,57,72158,1,0,0:0:0:0:
261,318,72301,2,0,P|162:362|106:336,1,131.99999597168
82,288,72587,5,6,0:0:0:0:
132,207,72730,1,0,0:0:0:0:
220,211,72872,1,0,0:0:0:0:
291,269,73015,1,0,0:0:0:0:
383,314,73158,1,0,0:0:0:0:
473,297,73301,1,0,0:0:0:0:
492,206,73444,2,0,B|480:132|480:132|427:103,1,131.99999597168
170,78,73730,5,6,0:0:0:0:
160,117,73801,1,0,0:0:0:0:
150,156,73872,1,0,0:0:0:0:
140,195,73944,1,0,0:0:0:0:
127,232,74015,2,0,L|103:311,1,49.4999984893799
236,263,74158,5,6,0:0:0:0:
286,275,74229,1,0,0:0:0:0:
324,310,74300,1,0,0:0:0:0:
365,342,74372,1,0,0:0:0:0:
412,366,74444,2,0,P|449:370|486:350,1,49.4999984893799
445,228,74587,5,6,0:0:0:0:
435,197,74658,1,0,0:0:0:0:
432,166,74729,1,0,0:0:0:0:
435,135,74801,1,0,0:0:0:0:
439,104,74872,2,0,B|443:36|443:36|396:52|324:46,1,131.99999597168,6|0,0:0|0:0,0:0:0:0:
185,228,75158,6,0,P|152:284|155:389,1,131.99999597168
383,314,75444,1,0,0:0:0:0:
253,114,75587,1,0,0:0:0:0:
264,351,75730,1,0,0:0:0:0:
402,127,75872,2,0,L|478:4,1,131.99999597168,0|6,0:0|0:0,0:0:0:0:
479,253,76158,1,0,0:0:0:0:
219,204,76301,6,0,P|144:153|122:93,1,131.99999597168
356,48,76587,1,0,0:0:0:0:
300,279,76730,1,0,0:0:0:0:
226,54,76872,1,0,0:0:0:0:
130,300,77015,2,0,L|-1:288,1,131.99999597168,0|6,0:0|0:0,0:0:0:0:
85,62,77301,1,0,0:0:0:0:
291,179,77444,6,0,P|263:263|207:298,1,131.99999597168
7,166,77730,1,0,0:0:0:0:
212,49,77872,1,0,0:0:0:0:
318,261,78015,2,0,L|375:385,1,131.99999597168
169,384,78301,5,6,0:0:0:0:
169,384,78372,1,0,0:0:0:0:
169,384,78444,2,0,L|147:310,1,49.4999984893799
150,221,78587,5,6,0:0:0:0:
150,221,78658,1,0,0:0:0:0:
150,221,78730,2,0,L|127:146,1,49.4999984893799
224,66,78872,5,6,0:0:0:0:
224,66,78943,1,0,0:0:0:0:
224,66,79015,2,0,L|246:138,1,49.4999984893799
329,178,79158,5,6,0:0:0:0:
329,178,79229,1,0,0:0:0:0:
329,178,79301,2,0,L|346:249,1,49.4999984893799
356,273,79444,6,0,P|397:335|457:358,1,131.99999597168,6|0,0:0|0:0,0:0:0:0:
454,117,79730,1,0,0:0:0:0:
237,212,79872,1,0,0:0:0:0:
469,259,80015,1,0,0:0:0:0:
278,116,80158,2,0,L|143:12,1,131.99999597168
3,204,80444,1,0,0:0:0:0:
212,364,80587,6,0,P|231:278|215:214,1,131.99999597168,6|0,0:0|0:0,0:0:0:0:
72,52,80872,1,0,0:0:0:0:
85,289,81015,1,0,0:0:0:0:
263,131,81158,1,0,0:0:0:0:
27,167,81301,1,0,0:0:0:0:
241,270,81444,2,0,L|371:334,1,131.99999597168
443,288,81730,5,6,0:0:0:0:
455,198,81872,1,0,0:0:0:0:
403,125,82015,1,0,0:0:0:0:
318,88,82158,1,0,0:0:0:0:
231,114,82301,1,0,0:0:0:0:
175,188,82444,1,0,0:0:0:0:
87,159,82587,2,0,B|62:120|22:90|22:90|24:28,1,131.99999597168
241,43,82872,5,6,0:0:0:0:
241,43,82944,1,0,0:0:0:0:
241,43,83015,2,0,B|260:114|260:114|328:108,1,131.99999597168
449,221,83301,1,6,0:0:0:0:
449,221,83372,1,0,0:0:0:0:
449,221,83444,2,0,B|376:232|376:232|354:167,1,131.99999597168,0|0,0:0|2:0,0:0:0:0:
168,225,83730,2,0,B|219:276|219:276|180:332,1,131.99999597168
15,250,84015,5,6,0:0:0:0:
13,201,84086,1,0,0:0:0:0:
13,152,84157,1,0,0:0:0:0:
13,103,84229,1,0,0:0:0:0:
55,126,84301,1,0,0:0:0:0:
88,151,84372,1,0,0:0:0:0:
128,166,84443,1,0,0:0:0:0:
170,167,84515,1,0,0:0:0:0:
210,155,84586,5,0,0:0:0:0:
253,131,84658,1,0,0:0:0:0:
276,103,84729,1,0,0:0:0:0:
306,83,84800,1,0,0:0:0:0:
341,73,84872,1,0,0:0:0:0:
389,82,84944,1,0,0:0:0:0:
416,93,85015,1,0,0:0:0:0:
438,114,85086,1,0,0:0:0:0:
452,139,85158,6,0,P|442:228|373:261,2,165
322,85,85801,2,0,P|327:164|315:209,1,110
317,197,86301,5,0,0:0:0:0:
160,300,86444,1,0,0:0:0:0:
173,135,86587,2,0,P|258:79|304:72,1,110
449,47,86872,1,0,0:0:0:0:
453,234,87015,1,0,0:0:0:0:
289,143,87158,2,0,P|281:241|299:292,1,110
420,345,87444,6,0,P|438:237|421:188,1,110
433,72,87730,1,0,0:0:0:0:
357,241,87872,1,0,0:0:0:0:
304,49,88015,1,0,0:0:0:0:
217,227,88158,2,0,L|154:345,1,110
163,139,88444,5,0,0:0:0:0:
14,210,88587,1,0,0:0:0:0:
31,39,88730,1,0,0:0:0:0:
96,189,88872,2,0,P|122:236|186:256,1,110
296,146,89157,1,0,0:0:0:0:
253,341,89301,1,0,0:0:0:0:
191,152,89444,1,0,0:0:0:0:
418,307,89587,1,0,0:0:0:0:
407,87,89730,6,0,B|317:47|317:47|293:58,1,110
92,103,90015,1,0,0:0:0:0:
288,131,90158,1,0,0:0:0:0:
105,209,90301,2,0,B|45:267|45:267|40:292,1,110
257,340,90587,1,0,0:0:0:0:
193,152,90730,1,0,0:0:0:0:
362,251,90872,6,0,B|437:293|437:293|454:331,1,110
260,244,91158,1,0,0:0:0:0:
354,69,91301,1,0,0:0:0:0:
489,213,91444,2,0,B|482:119|482:119|460:92,1,110
281,46,91730,2,0,B|282:142|282:142|301:167,1,110
135,230,92015,5,0,0:0:0:0:
162,254,92086,1,0,0:0:0:0:
196,268,92157,1,0,0:0:0:0:
232,268,92229,1,0,0:0:0:0:
267,256,92300,1,0,0:0:0:0:
295,232,92372,1,0,0:0:0:0:
316,215,92444,2,0,P|337:190|355:174,1,44
427,92,92587,5,0,0:0:0:0:
429,118,92658,1,0,0:0:0:0:
434,144,92729,1,0,0:0:0:0:
442,169,92801,1,0,0:0:0:0:
453,193,92872,1,0,0:0:0:0:
466,216,92944,1,0,0:0:0:0:
481,238,93015,1,0,0:0:0:0:
496,261,93087,1,0,0:0:0:0:
508,285,93158,6,0,B|508:315|508:315|454:325|422:348,1,110
233,333,93444,1,0,0:0:0:0:
359,180,93587,1,0,0:0:0:0:
196,208,93730,1,0,0:0:0:0:
249,53,93872,2,0,P|337:42|382:77,1,110
463,174,94158,5,0,0:0:0:0:
301,208,94301,1,0,0:0:0:0:
460,90,94444,1,0,0:0:0:0:
262,107,94587,2,0,P|201:138|162:200,1,110
109,356,94872,2,0,P|170:364|232:323,1,110
208,196,95158,5,0,0:0:0:0:
38,299,95301,1,0,0:0:0:0:
76,104,95444,1,0,0:0:0:0:
256,184,95587,2,0,L|366:236,1,110
408,51,95872,1,0,0:0:0:0:
454,232,96015,5,0,0:0:0:0:
479,273,96086,1,0,0:0:0:0:
471,320,96157,1,0,0:0:0:0:
433,351,96229,1,0,0:0:0:0:
384,350,96301,1,0,0:0:0:0:
349,333,96372,1,0,0:0:0:0:
312,324,96443,1,0,0:0:0:0:
273,323,96515,1,0,0:0:0:0:
236,334,96587,6,0,P|133:354|94:342,1,110
7,244,96872,1,0,0:0:0:0:
122,56,97015,1,0,0:0:0:0:
122,56,97158,2,0,P|117:127|102:185,1,110
80,317,97444,1,0,0:0:0:0:
240,166,97587,1,0,0:0:0:0:
240,166,97730,2,0,P|299:151|379:163,1,110
466,252,98015,1,0,0:0:0:0:
276,363,98158,1,0,0:0:0:0:
276,363,98301,2,0,P|246:287|257:229,1,110
270,39,98587,2,0,P|305:128|276:178,1,110
201,267,98872,5,0,0:0:0:0:
167,285,98943,1,0,0:0:0:0:
129,288,99014,1,0,0:0:0:0:
94,274,99086,1,0,0:0:0:0:
68,246,99157,1,0,0:0:0:0:
56,208,99230,1,0,0:0:0:0:
61,170,99301,2,0,L|85:105,1,44
169,190,99444,5,0,0:0:0:0:
185,149,99515,1,0,0:0:0:0:
184,105,99586,1,0,0:0:0:0:
166,65,99658,1,0,0:0:0:0:
127,44,99730,1,0,0:0:0:0:
83,40,99801,1,0,0:0:0:0:
42,55,99872,2,0,L|-4:102,1,44
2,197,100015,5,0,0:0:0:0:
4,245,100086,1,0,0:0:0:0:
29,287,100157,1,0,0:0:0:0:
72,311,100229,1,0,0:0:0:0:
122,318,100301,1,0,0:0:0:0:
163,302,100372,1,0,0:0:0:0:
206,294,100443,1,0,0:0:0:0:
250,295,100515,1,0,0:0:0:0:
298,308,100587,6,0,L|346:331,3,44
326,203,100872,2,0,L|389:186,3,44
282,212,101158,5,0,0:0:0:0:
249,214,101229,1,0,0:0:0:0:
219,201,101300,1,0,0:0:0:0:
198,176,101372,1,0,0:0:0:0:
179,142,101444,1,0,0:0:0:0:
181,104,101515,1,0,0:0:0:0:
200,71,101586,1,0,0:0:0:0:
238,39,101658,1,0,0:0:0:0:
281,32,101730,1,0,0:0:0:0:
324,35,101801,1,0,0:0:0:0:
361,59,101872,6,0,L|393:133,1,44
422,212,102015,2,0,L|405:288,1,44
337,346,102158,1,0,0:0:0:0:
287,350,102229,1,0,0:0:0:0:
240,335,102300,1,0,0:0:0:0:
199,307,102372,1,0,0:0:0:0:
158,278,102443,1,0,0:0:0:0:
110,268,102514,1,0,0:0:0:0:
60,275,102587,5,0,0:0:0:0:
33,308,102658,1,0,0:0:0:0:
33,352,102729,1,0,0:0:0:0:
64,383,102801,1,0,0:0:0:0:
106,384,102872,1,0,0:0:0:0:
141,367,102944,1,0,0:0:0:0:
156,332,103015,1,0,0:0:0:0:
165,294,103086,1,0,0:0:0:0:
163,255,103158,1,0,0:0:0:0:
153,223,103229,1,0,0:0:0:0:
140,192,103301,1,0,0:0:0:0:
132,160,103372,1,0,0:0:0:0:
120,128,103444,6,0,L|96:45,1,44
205,117,103587,2,0,L|191:68,1,44
290,106,103730,2,0,L|276:57,1,44
375,95,103872,2,0,L|361:46,1,44
460,84,104015,1,0,0:0:0:0:
415,331,104587,5,0,0:0:0:0:
452,113,104730,1,0,0:0:0:0:
326,292,104872,2,0,P|265:325|209:327,1,88
452,113,105158,1,0,0:0:0:0:
256,213,105301,2,0,P|199:214|145:191,1,110
452,113,105587,1,0,0:0:0:0:
223,110,105730,2,0,P|164:84|126:31,1,131.99999597168
302,4,106015,5,0,0:0:0:0:
306,26,106087,1,0,0:0:0:0:
309,47,106158,1,0,0:0:0:0:
313,69,106229,1,0,0:0:0:0:
316,91,106301,1,0,0:0:0:0:
320,112,106372,1,0,0:0:0:0:
323,134,106444,2,0,L|331:189,1,44
361,259,106587,1,0,0:0:0:0:
318,264,106658,1,0,0:0:0:0:
278,247,106730,1,0,0:0:0:0:
251,212,106801,1,0,0:0:0:0:
240,174,106872,6,0,P|244:100|284:28,1,131.99999597168
484,203,107158,1,0,0:0:0:0:
234,288,107301,1,0,0:0:0:0:
356,53,107444,1,0,0:0:0:0:
468,292,107587,2,0,L|341:343,1,131.99999597168
140,174,107872,1,0,0:0:0:0:
401,136,108015,6,0,P|386:211|336:259,1,131.99999597168
101,345,108301,1,0,0:0:0:0:
226,112,108444,1,0,0:0:0:0:
324,357,108587,1,0,0:0:0:0:
112,198,108730,2,0,L|9:81,1,131.99999597168
278,25,109015,1,0,0:0:0:0:
184,272,109158,6,0,P|114:300|36:284,1,131.99999597168
131,37,109444,1,0,0:0:0:0:
290,247,109587,1,0,0:0:0:0:
30,198,109730,1,0,0:0:0:0:
256,64,109872,1,0,0:0:0:0:
142,302,110015,2,0,L|106:152,1,131.99999597168
309,148,110301,5,0,0:0:0:0:
309,148,110372,1,0,0:0:0:0:
309,148,110444,2,0,L|396:114,1,49.4999984893799
378,238,110587,5,0,0:0:0:0:
378,238,110658,1,0,0:0:0:0:
378,238,110730,2,0,L|414:317,1,49.4999984893799
287,306,110872,5,0,0:0:0:0:
287,306,110944,1,0,0:0:0:0:
287,306,111015,2,0,L|216:353,1,49.4999984893799
218,231,111158,5,0,0:0:0:0:
218,231,111230,1,0,0:0:0:0:
218,231,111301,2,0,L|174:145,1,49.4999984893799
174,152,111444,6,0,P|102:69|51:50,1,131.99999597168
65,325,111730,1,0,0:0:0:0:
287,185,111872,1,0,0:0:0:0:
29,127,112015,1,0,0:0:0:0:
235,291,112158,2,0,L|344:381,1,131.99999597168
465,142,112444,1,0,0:0:0:0:
212,62,112587,6,0,P|203:146|226:207,1,131.99999597168
441,329,112872,1,0,0:0:0:0:
325,91,113015,1,0,0:0:0:0:
153,291,113158,1,0,0:0:0:0:
406,215,113301,1,0,0:0:0:0:
167,100,113444,2,0,P|102:60|1:65,1,131.99999597168
23,143,113730,5,0,0:0:0:0:
40,233,113872,1,0,0:0:0:0:
120,340,114015,1,0,0:0:0:0:
137,250,114157,1,0,0:0:0:0:
218,146,114301,1,0,0:0:0:0:
235,236,114443,1,0,0:0:0:0:
311,352,114587,2,0,B|334:280|334:280|313:220,1,131.99999597168
111,57,114872,5,0,0:0:0:0:
62,73,114943,1,0,0:0:0:0:
42,120,115014,1,0,0:0:0:0:
64,166,115086,1,0,0:0:0:0:
107,187,115158,2,0,P|153:186|189:177,1,44
270,94,115301,5,0,0:0:0:0:
299,67,115372,1,0,0:0:0:0:
336,55,115443,1,0,0:0:0:0:
375,61,115515,1,0,0:0:0:0:
409,80,115587,2,0,P|430:102|442:140,1,44
346,212,115730,5,0,0:0:0:0:
337,236,115801,1,0,0:0:0:0:
328,261,115872,1,0,0:0:0:0:
320,286,115944,1,0,0:0:0:0:
309,310,116015,2,0,B|261:357|261:357|179:325,1,131.99999597168
120,79,116301,6,0,P|170:35|248:29,1,131.99999597168
452,175,116587,1,0,0:0:0:0:
190,214,116730,1,0,0:0:0:0:
375,28,116872,1,0,0:0:0:0:
255,263,117015,2,0,L|175:388,1,131.99999597168
97,122,117301,1,0,0:0:0:0:
352,191,117444,6,0,P|375:266|357:343,1,131.99999597168
102,299,117730,1,0,0:0:0:0:
169,45,117872,1,0,0:0:0:0:
415,139,118015,1,0,0:0:0:0:
155,188,118158,2,0,L|38:88,1,131.99999597168
314,45,118444,1,0,0:0:0:0:
210,287,118587,6,0,P|128:320|50:301,1,131.99999597168
135,56,118872,1,0,0:0:0:0:
329,234,119015,1,0,0:0:0:0:
68,187,119158,2,0,L|37:23,1,131.99999597168
298,113,119444,5,0,0:0:0:0:
298,113,119515,1,0,0:0:0:0:
298,113,119587,2,0,L|286:172,1,44
174,185,119731,5,0,0:0:0:0:
174,185,119801,1,0,0:0:0:0:
174,185,119873,2,0,L|186:244,1,44
296,260,120015,5,0,0:0:0:0:
296,260,120086,1,0,0:0:0:0:
296,260,120158,2,0,L|293:327,1,44
192,302,120301,5,0,0:0:0:0:
192,302,120372,1,0,0:0:0:0:
192,302,120444,2,0,L|202:361,1,44
210,374,120587,6,0,P|252:387|345:324,1,131.99999597168
503,154,120872,1,0,0:0:0:0:
238,145,121015,1,0,0:0:0:0:
430,326,121158,1,0,0:0:0:0:
446,62,121301,2,0,L|298:36,1,131.99999597168
130,229,121587,1,0,0:0:0:0:
390,274,121730,6,0,P|402:181|376:128,1,131.99999597168
157,20,122015,1,0,0:0:0:0:
252,266,122158,1,0,0:0:0:0:
396,45,122301,1,0,0:0:0:0:
148,137,122444,1,0,0:0:0:0:
347,310,122587,2,0,L|391:177,1,131.99999597168
348,102,122872,5,0,0:0:0:0:
260,71,123015,1,0,0:0:0:0:
82,80,123158,1,0,0:0:0:0:
170,111,123301,1,0,0:0:0:0:
337,217,123444,1,0,0:0:0:0:
249,186,123587,1,0,0:0:0:0:
91,186,123730,2,0,B|149:225|149:225|170:316,1,131.99999597168
385,316,124015,5,0,0:0:0:0:
385,316,124087,1,0,0:0:0:0:
385,316,124158,2,0,B|363:257|363:257|372:216|372:216|353:156,1,131.99999597168
226,109,124444,1,0,0:0:0:0:
226,109,124515,1,0,0:0:0:0:
226,109,124587,2,0,B|248:168|248:168|239:209|239:209|258:269,1,131.99999597168
324,90,124872,2,0,B|373:64|373:64|398:75|398:75|474:37,1,131.99999597168
498,173,125158,5,0,0:0:0:0:
454,211,125229,1,0,0:0:0:0:
395,215,125300,1,0,0:0:0:0:
347,183,125372,1,0,0:0:0:0:
303,142,125444,1,0,0:0:0:0:
252,128,125515,1,0,0:0:0:0:
202,141,125586,1,0,0:0:0:0:
165,178,125658,1,0,0:0:0:0:
152,229,125729,5,0,0:0:0:0:
166,279,125801,1,0,0:0:0:0:
203,315,125872,1,0,0:0:0:0:
259,326,125944,1,0,0:0:0:0:
302,312,126015,1,0,0:0:0:0:
347,303,126086,1,0,0:0:0:0:
393,303,126158,1,0,0:0:0:0:
438,314,126230,1,0,0:0:0:0:
480,323,126301,6,0,P|513:237|460:188,2,165
328,56,126944,2,0,L|367:201,1,110
63,93,127444,5,0,0:0:0:0:
51,133,127515,1,0,0:0:0:0:
55,175,127587,1,0,0:0:0:0:
92,290,127730,2,0,P|149:343|236:335,1,121.000003692627
196,85,128015,2,0,P|206:153|238:196,1,121.000003692627
381,285,128301,1,0,0:0:0:0:
409,20,128587,5,0,0:0:0:0:
407,36,128658,1,0,0:0:0:0:
406,53,128729,1,0,0:0:0:0:
405,70,128801,1,0,0:0:0:0:
404,87,128872,1,0,0:0:0:0:
403,104,128944,1,0,0:0:0:0:
402,121,129015,1,0,0:0:0:0:
401,138,129086,1,0,0:0:0:0:
399,156,129158,2,0,L|390:287,1,121.000003692627
35,192,129730,6,0,B|18:107|18:107|53:42,1,121.000003692627
208,129,130015,1,0,0:0:0:0:
208,129,130087,1,0,0:0:0:0:
208,129,130158,1,0,0:0:0:0:
87,264,130301,2,0,B|114:346|114:346|177:384,1,121.000003692627
313,294,130587,1,0,0:0:0:0:
329,291,130658,1,0,0:0:0:0:
346,288,130729,1,0,0:0:0:0:
363,285,130801,1,0,0:0:0:0:
380,280,130872,2,0,L|512:246,1,121.000003692627
220,40,131444,6,0,B|245:60|245:60|272:29|272:29|303:45,1,96.25
322,157,132015,5,0,0:0:0:0:
322,157,132087,2,0,L|316:234,1,60.5000018463135
219,315,132301,5,0,0:0:0:0:
219,315,132373,2,0,L|225:238,1,60.5000018463135
232,80,132587,1,0,0:0:0:0:
130,236,132730,1,0,0:0:0:0:
100,266,132802,1,0,0:0:0:0:
58,273,132873,1,0,0:0:0:0:
67,31,133158,5,0,0:0:0:0:
67,47,133229,1,0,0:0:0:0:
68,64,133300,1,0,0:0:0:0:
68,81,133372,1,0,0:0:0:0:
69,98,133443,1,0,0:0:0:0:
70,115,133515,1,0,0:0:0:0:
70,132,133586,1,0,0:0:0:0:
71,149,133658,1,0,0:0:0:0:
72,167,133730,2,0,L|82:301,1,121.000003692627
383,36,134301,5,0,0:0:0:0:
374,63,134372,1,0,0:0:0:0:
366,91,134443,1,0,0:0:0:0:
358,119,134515,1,0,0:0:0:0:
312,131,134587,5,0,0:0:0:0:
308,148,134658,1,0,0:0:0:0:
303,165,134729,1,0,0:0:0:0:
298,182,134801,1,0,0:0:0:0:
294,199,134872,1,0,0:0:0:0:
289,216,134944,1,0,0:0:0:0:
248,228,135015,5,0,0:0:0:0:
244,245,135086,1,0,0:0:0:0:
239,262,135157,1,0,0:0:0:0:
234,279,135229,1,0,0:0:0:0:
230,296,135300,1,0,0:0:0:0:
225,313,135372,1,0,0:0:0:0:
220,330,135444,2,0,B|211:368|211:368|173:348|83:358,1,121.000003692627
62,103,136587,6,0,L|172:113,1,110
303,125,136872,1,0,0:0:0:0:
148,207,137015,2,0,L|15:220,1,110
230,345,137444,1,0,0:0:0:0:
230,345,137587,1,0,0:0:0:0:
418,195,137872,1,0,0:0:0:0:
418,195,138015,1,0,0:0:0:0:
276,28,138301,1,0,0:0:0:0:
276,28,138444,2,0,B|246:78|246:78|256:161,1,110
265,273,138730,1,0,0:0:0:0:
379,140,138872,6,0,L|338:275,1,110
293,367,139158,1,0,0:0:0:0:
433,260,139301,2,0,L|392:395,1,110
254,200,139730,1,0,0:0:0:0:
254,200,139872,1,0,0:0:0:0:
46,273,140158,1,0,0:0:0:0:
46,273,140301,1,0,0:0:0:0:
52,53,140587,2,0,B|18:99|18:99|41:164,1,110
333,15,141158,6,0,L|450:25,1,110
427,168,141444,1,0,0:0:0:0:
273,82,141587,2,0,L|163:72,1,110
181,296,142015,1,0,0:0:0:0:
181,296,142158,1,0,0:0:0:0:
65,109,142444,1,0,0:0:0:0:
65,109,142587,1,0,0:0:0:0:
46,272,142872,2,0,B|76:218|76:218|166:237,1,110
229,256,143158,2,0,B|289:273|289:273|320:191,1,110
355,70,143444,6,0,L|438:167,1,110
437,297,143730,1,0,0:0:0:0:
314,188,143872,2,0,L|345:308,1,110
262,371,144158,1,0,0:0:0:0:
262,371,144301,2,0,B|229:372|229:372|183:354|183:354|105:358,1,110
1,223,144587,5,0,0:0:0:0:
30,227,144658,1,0,0:0:0:0:
60,231,144729,1,0,0:0:0:0:
90,235,144801,1,0,0:0:0:0:
116,256,144872,5,0,0:0:0:0:
146,259,144943,1,0,0:0:0:0:
176,263,145014,1,0,0:0:0:0:
206,267,145086,1,0,0:0:0:0:
235,293,145158,5,0,0:0:0:0:
265,296,145229,1,0,0:0:0:0:
295,300,145300,1,0,0:0:0:0:
325,303,145372,1,0,0:0:0:0:
357,341,145444,5,0,0:0:0:0:
386,345,145515,1,0,0:0:0:0:
416,349,145586,1,0,0:0:0:0:
446,353,145658,1,0,0:0:0:0:
483,358,145730,6,0,B|477:307|477:307|492:276|492:276|487:206,1,110
462,89,146015,1,0,0:0:0:0:
391,260,146158,6,0,B|385:209|385:209|400:178|400:178|395:108,1,110
179,303,146587,1,0,0:0:0:0:
179,303,146730,1,0,0:0:0:0:
137,86,147015,1,0,0:0:0:0:
137,86,147158,1,0,0:0:0:0:
19,271,147444,1,0,0:0:0:0:
19,271,147587,2,0,B|6:206|6:206|31:140,1,110
60,62,147872,1,0,0:0:0:0:
156,197,148015,6,0,B|205:199|205:199|238:219|238:219|290:221,1,110
421,262,148301,1,0,0:0:0:0:
241,315,148444,2,0,B|202:312|202:312|167:326|167:326|107:321,1,110
2,153,148872,1,0,0:0:0:0:
2,153,149015,1,0,0:0:0:0:
195,49,149301,1,0,0:0:0:0:
195,49,149444,1,0,0:0:0:0:
158,264,149730,2,0,B|154:318|154:318|201:370,1,110
458,162,150301,6,0,B|445:192|445:192|450:250|450:250|436:278,1,110,0|0,0:0|0:0,2:0:0:0:
315,125,150587,1,0,0:0:0:0:
336,333,150730,2,0,B|332:304|332:304|308:252|308:252|304:196,1,110
119,335,151158,1,0,0:0:0:0:
119,335,151301,1,0,0:0:0:0:
6,145,151587,1,0,0:0:0:0:
6,145,151730,1,0,0:0:0:0:
201,44,152015,2,0,P|205:115|192:164,1,110
98,205,152301,2,0,P|84:151|97:87,1,110
291,0,152587,5,0,0:0:0:0:
291,21,152658,1,0,0:0:0:0:
290,41,152729,1,0,0:0:0:0:
290,61,152801,1,0,0:0:0:0:
278,77,152872,5,0,0:0:0:0:
278,98,152943,1,0,0:0:0:0:
277,118,153014,1,0,0:0:0:0:
277,139,153086,1,0,0:0:0:0:
262,153,153158,5,0,0:0:0:0:
262,173,153229,1,0,0:0:0:0:
261,194,153300,1,0,0:0:0:0:
261,214,153372,1,0,0:0:0:0:
243,224,153444,5,0,0:0:0:0:
243,244,153515,1,0,0:0:0:0:
242,265,153586,1,0,0:0:0:0:
242,285,153658,1,0,0:0:0:0:
257,324,153730,1,0,0:0:0:0:
88,48,155730,5,0,0:0:0:0:
104,267,156015,1,0,0:0:0:0:
286,67,157158,6,0,P|296:120|284:167,1,96.25
219,121,157730,6,0,P|208:167|218:214,1,96.25
256,309,158301,1,0,0:0:0:0:
491,36,160587,6,0,L|364:53,1,121.000003692627
423,149,160872,2,0,L|302:167,1,110
357,255,161158,2,0,L|248:271,1,98.9999969787599
283,355,161444,2,0,L|166:373,1,88
62,308,161730,5,0,0:0:0:0:
24,268,161801,1,0,0:0:0:0:
12,213,161872,1,0,0:0:0:0:
22,159,161944,1,0,0:0:0:0:
61,126,162015,1,0,0:0:0:0:
112,119,162087,1,0,0:0:0:0:
115,160,162158,5,0,0:0:0:0:
140,200,162229,1,0,0:0:0:0:
183,220,162300,1,0,0:0:0:0:
230,214,162372,1,0,0:0:0:0:
267,183,162443,1,0,0:0:0:0:
281,137,162515,1,0,0:0:0:0:
323,163,162587,5,0,0:0:0:0:
365,184,162658,1,0,0:0:0:0:
412,180,162730,1,0,0:0:0:0:
450,150,162801,1,0,0:0:0:0:
465,104,162873,1,0,0:0:0:0:
353,374,163158,2,0,P|344:313|360:257,1,121.000003692627
417,71,163444,5,0,0:0:0:0:
397,40,163515,1,0,0:0:0:0:
368,20,163586,1,0,0:0:0:0:
332,13,163658,1,0,0:0:0:0:
297,20,163729,1,0,0:0:0:0:
268,41,163801,1,0,0:0:0:0:
247,71,163872,1,0,0:0:0:0:
228,102,163943,1,0,0:0:0:0:
194,76,164015,5,0,0:0:0:0:
160,50,164086,1,0,0:0:0:0:
112,46,164157,1,0,0:0:0:0:
64,55,164229,1,0,0:0:0:0:
30,89,164300,1,0,0:0:0:0:
15,134,164372,1,0,0:0:0:0:
24,182,164443,1,0,0:0:0:0:
53,220,164515,1,0,0:0:0:0:
97,240,164587,5,0,0:0:0:0:
149,252,164658,1,0,0:0:0:0:
204,249,164729,1,0,0:0:0:0:
255,233,164801,1,0,0:0:0:0:
301,204,164872,1,0,0:0:0:0:
347,173,164944,1,0,0:0:0:0:
399,162,165015,1,0,0:0:0:0:
447,186,165086,1,0,0:0:0:0:
479,224,165158,6,0,P|473:302|394:338,1,142.99999345398
64,329,165444,1,0,0:0:0:0:
250,75,165587,1,0,0:0:0:0:
350,373,165730,1,0,0:0:0:0:
142,139,165872,2,0,L|24:31,1,142.99999345398
353,26,166158,1,0,0:0:0:0:
296,335,166301,6,0,P|207:344|122:318,1,142.99999345398
234,25,166587,1,0,0:0:0:0:
383,301,166730,1,0,0:0:0:0:
81,217,166872,1,0,0:0:0:0:
356,64,167015,2,0,L|497:147,1,142.99999345398
248,354,167301,1,0,0:0:0:0:
80,87,167444,6,0,P|165:24|224:19,1,142.99999345398
330,307,167730,1,0,0:0:0:0:
31,214,167872,1,0,0:0:0:0:
323,97,168015,1,0,0:0:0:0:
155,363,168158,1,0,0:0:0:0:
194,50,168301,2,0,L|357:4,1,142.99999345398
144,202,168587,5,0,0:0:0:0:
144,202,168658,1,0,0:0:0:0:
144,202,168730,2,0,L|84:248,1,44
210,275,168872,5,0,0:0:0:0:
210,275,168943,1,0,0:0:0:0:
210,275,169015,2,0,L|191:333,1,44
302,275,169158,5,0,0:0:0:0:
302,275,169230,1,0,0:0:0:0:
302,275,169301,2,0,L|320:348,1,44
368,202,169444,5,0,0:0:0:0:
368,202,169515,1,0,0:0:0:0:
368,202,169587,2,0,L|431:246,1,44
436,250,169730,6,0,P|467:292|390:363,1,142.99999345398
280,82,170015,1,0,0:0:0:0:
20,260,170158,1,0,0:0:0:0:
317,364,170301,1,0,0:0:0:0:
138,104,170444,2,0,L|8:37,1,142.99999345398
28,355,170730,1,0,0:0:0:0:
246,130,170872,6,0,P|218:61|145:23,1,142.99999345398
123,340,171158,1,0,0:0:0:0:
423,244,171301,1,0,0:0:0:0:
111,196,171444,1,0,0:0:0:0:
382,355,171587,1,0,0:0:0:0:
187,107,171730,2,0,L|76:2,1,142.99999345398
26,140,172015,5,0,0:0:0:0:
33,282,172158,1,0,0:0:0:0:
118,167,172301,1,0,0:0:0:0:
124,310,172444,1,0,0:0:0:0:
215,199,172587,1,0,0:0:0:0:
213,342,172730,1,0,0:0:0:0:
310,238,172872,2,0,B|381:215|381:215|461:230,1,142.99999345398
397,360,173158,5,0,0:0:0:0:
381,312,173229,1,0,0:0:0:0:
383,263,173300,1,0,0:0:0:0:
393,213,173372,1,0,0:0:0:0:
408,166,173444,2,0,L|418:124,1,44
327,35,173587,5,0,0:0:0:0:
293,27,173658,1,0,0:0:0:0:
259,24,173729,1,0,0:0:0:0:
225,27,173801,1,0,0:0:0:0:
190,34,173872,2,0,L|123:58,1,44
123,166,174015,5,0,0:0:0:0:
133,207,174086,1,0,0:0:0:0:
131,249,174157,1,0,0:0:0:0:
120,290,174229,1,0,0:0:0:0:
94,336,174301,2,0,B|144:360|144:360|195:339|195:339|261:353,1,142.99999345398
405,83,174587,6,0,P|327:33|269:30,1,142.99999345398
7,189,174872,1,0,0:0:0:0:
301,301,175015,1,0,0:0:0:0:
127,38,175158,1,0,0:0:0:0:
118,352,175301,2,0,L|263:378,1,142.99999345398
450,125,175587,1,0,0:0:0:0:
135,145,175730,6,0,P|145:226|193:269,1,142.99999345398
501,289,176015,1,0,0:0:0:0:
320,30,176158,1,0,0:0:0:0:
279,342,176301,1,0,0:0:0:0:
500,118,176444,2,0,L|396:13,1,142.99999345398
191,255,176730,1,0,0:0:0:0:
492,337,176872,6,0,P|509:257|485:201,1,142.99999345398
225,21,177158,1,0,0:0:0:0:
279,331,177301,1,0,0:0:0:0:
475,84,177444,2,0,B|343:7,1,142.99999345398
142,67,177730,5,0,0:0:0:0:
142,67,177801,1,0,0:0:0:0:
142,67,177872,2,0,L|89:77,1,44
199,140,178015,5,0,0:0:0:0:
199,140,178086,1,0,0:0:0:0:
199,140,178158,2,0,L|155:183,1,44
313,140,178301,5,0,0:0:0:0:
313,140,178372,1,0,0:0:0:0:
313,140,178444,2,0,L|360:184,1,44
370,67,178586,5,0,0:0:0:0:
370,67,178657,1,0,0:0:0:0:
370,67,178730,2,0,L|432:82,1,44
453,93,178872,6,0,P|497:172|479:247,1,142.99999345398
208,364,179158,1,0,0:0:0:0:
212,49,179301,1,0,0:0:0:0:
395,305,179444,1,0,0:0:0:0:
122,147,179587,2,0,L|92:4,1,142.99999345398
403,58,179872,1,0,0:0:0:0:
275,346,180015,6,0,P|204:353|132:311,1,142.99999345398
29,24,180301,1,0,0:0:0:0:
352,100,180444,1,0,0:0:0:0:
43,162,180587,1,0,0:0:0:0:
317,6,180730,1,0,0:0:0:0:
268,314,180872,2,0,L|109:322,1,142.99999345398
121,105,181158,5,0,0:0:0:0:
133,63,181229,1,0,0:0:0:0:
167,37,181300,1,0,0:0:0:0:
210,35,181372,1,0,0:0:0:0:
246,59,181443,1,0,0:0:0:0:
270,85,181515,1,0,0:0:0:0:
273,120,181586,1,0,0:0:0:0:
262,154,181657,1,0,0:0:0:0:
244,169,181730,5,0,0:0:0:0:
230,176,181801,1,0,0:0:0:0:
219,186,181872,1,0,0:0:0:0:
210,196,181944,1,0,0:0:0:0:
201,207,182015,1,0,0:0:0:0:
194,221,182087,1,0,0:0:0:0:
189,233,182158,1,0,0:0:0:0:
185,247,182230,1,0,0:0:0:0:
181,263,182301,5,0,0:0:0:0:
186,297,182372,1,0,0:0:0:0:
204,328,182443,1,0,0:0:0:0:
237,340,182515,1,0,0:0:0:0:
281,345,182586,1,0,0:0:0:0:
318,323,182658,1,0,0:0:0:0:
336,284,182729,1,0,0:0:0:0:
328,242,182800,1,0,0:0:0:0:
289,209,182872,5,0,0:0:0:0:
259,169,182943,1,0,0:0:0:0:
244,122,183014,1,0,0:0:0:0:
256,73,183086,1,0,0:0:0:0:
290,38,183157,1,0,0:0:0:0:
341,38,183230,1,0,0:0:0:0:
383,61,183301,1,0,0:0:0:0:
409,103,183372,1,0,0:0:0:0:
416,152,183444,6,0,P|384:226|328:242,1,142.99999345398
78,350,183730,1,0,0:0:0:0:
101,38,183872,1,0,0:0:0:0:
250,315,184015,1,0,0:0:0:0:
2,119,184158,1,0,0:0:0:0:
316,102,184301,1,0,0:0:0:0:
121,349,184444,1,0,0:0:0:0:
101,38,184587,6,0,P|186:26|243:54,1,142.99999345398
496,250,184872,1,0,0:0:0:0:
181,245,185015,1,0,0:0:0:0:
438,63,185158,1,0,0:0:0:0:
327,357,185301,1,0,0:0:0:0:
261,48,185444,1,0,0:0:0:0:
414,323,185587,1,0,0:0:0:0:
393,8,185730,6,0,P|467:85|464:177,1,142.99999345398
289,372,186015,1,0,0:0:0:0:
236,61,186158,1,0,0:0:0:0:
370,345,186301,1,0,0:0:0:0:
138,131,186444,1,0,0:0:0:0:
449,175,186587,2,0,L|489:327,1,142.99999345398
271,324,186872,5,0,0:0:0:0:
221,325,186943,1,0,0:0:0:0:
170,326,187015,2,0,L|96:326,1,49.4999984893799
15,166,187158,5,0,0:0:0:0:
65,167,187229,1,0,0:0:0:0:
116,168,187301,2,0,L|192:169,1,49.4999984893799
331,245,187444,5,0,0:0:0:0:
281,246,187515,1,0,0:0:0:0:
230,247,187587,2,0,L|151:247,1,49.4999984893799
75,87,187730,5,0,0:0:0:0:
125,88,187801,1,0,0:0:0:0:
176,89,187873,2,0,L|252:89,1,49.4999984893799
268,89,188015,6,0,B|393:89|393:89|358:145,1,142.99999345398
183,356,188301,1,0,0:0:0:0:
454,195,188444,1,0,0:0:0:0:
140,169,188587,1,0,0:0:0:0:
404,340,188730,1,0,0:0:0:0:
363,29,188872,1,0,0:0:0:0:
145,256,189015,1,0,0:0:0:0:
458,280,189158,6,0,P|461:201|433:113,1,142.99999345398
141,50,189444,1,0,0:0:0:0:
132,364,189587,1,0,0:0:0:0:
327,117,189730,1,0,0:0:0:0:
15,148,189872,1,0,0:0:0:0:
283,312,190015,1,0,0:0:0:0:
203,7,190158,1,0,0:0:0:0:
36,274,190301,6,0,P|81:330|160:344,1,142.99999345398
128,259,190587,2,0,P|198:261|260:208,1,142.99999345398
172,187,190872,2,0,P|230:104|208:39,1,142.99999345398
149,97,191158,2,0,P|119:40|42:18,1,142.99999345398
13,157,191444,5,0,0:0:0:0:
21,190,191515,1,0,0:0:0:0:
25,224,191586,1,0,0:0:0:0:
25,258,191658,1,0,0:0:0:0:
17,293,191730,1,0,0:0:0:0:
63,276,191801,1,0,0:0:0:0:
113,269,191872,1,0,0:0:0:0:
163,274,191944,1,0,0:0:0:0:
210,289,192015,5,0,0:0:0:0:
264,309,192087,1,0,0:0:0:0:
314,335,192158,1,0,0:0:0:0:
371,339,192229,1,0,0:0:0:0:
424,320,192301,1,0,0:0:0:0:
457,274,192372,1,0,0:0:0:0:
468,218,192443,1,0,0:0:0:0:
441,172,192514,1,0,0:0:0:0:
394,136,192587,6,0,P|314:115|244:132,1,142.99999345398
22,337,192872,1,0,0:0:0:0:
73,26,193015,1,0,0:0:0:0:
112,338,193158,1,0,0:0:0:0:
163,27,193301,1,0,0:0:0:0:
199,339,193444,1,0,0:0:0:0:
250,28,193587,1,0,0:0:0:0:
289,340,193730,1,0,0:0:0:0:
360,26,193872,1,0,0:0:0:0:
31,78,194015,1,0,0:0:0:0:
180,357,194159,1,0,0:0:0:0:
163,27,194301,1,0,0:0:0:0:
31,235,194444,1,0,0:0:0:0:
342,132,194586,1,0,0:0:0:0:
31,78,194730,1,0,0:0:0:0:
342,132,194872,6,0,P|416:78|451:3,1,142.99999345398
489,335,195158,1,0,0:0:0:0:
175,306,195301,1,0,0:0:0:0:
479,236,195444,1,0,0:0:0:0:
165,207,195587,1,0,0:0:0:0:
423,27,195730,2,0,L|475:162,1,142.99999345398
395,326,196015,5,0,0:0:0:0:
367,348,196086,1,0,0:0:0:0:
333,357,196157,1,0,0:0:0:0:
299,349,196229,1,0,0:0:0:0:
271,327,196300,1,0,0:0:0:0:
256,295,196372,1,0,0:0:0:0:
257,260,196443,1,0,0:0:0:0:
257,224,196515,1,0,0:0:0:0:
252,188,196586,5,0,0:0:0:0:
233,159,196657,1,0,0:0:0:0:
203,141,196729,1,0,0:0:0:0:
167,138,196800,1,0,0:0:0:0:
135,152,196872,1,0,0:0:0:0:
111,178,196943,1,0,0:0:0:0:
98,212,197015,1,0,0:0:0:0:
97,248,197087,1,0,0:0:0:0:
101,283,197158,6,0,P|118:332|236:345,1,142.99999345398
477,291,197444,1,0,0:0:0:0:
331,44,197587,1,0,0:0:0:0:
198,297,197730,1,0,0:0:0:0:
450,165,197872,1,0,0:0:0:0:
178,75,198015,2,0,L|25:26,1,142.99999345398
7,317,198301,1,0,0:0:0:0:
252,169,198444,6,0,P|254:62|219:0,1,142.99999345398
1,143,198730,1,0,0:0:0:0:
270,234,198872,1,0,0:0:0:0:
60,38,199015,1,0,0:0:0:0:
107,320,199158,2,0,L|261:357,1,142.99999345398
336,79,199444,6,0,P|368:157|359:217,1,142.99999345398
289,172,199730,2,0,P|264:248|198:291,1,142.99999345398
196,204,200015,2,0,P|108:223|51:184,1,142.99999345398
124,143,200301,2,0,P|61:96|44:27,1,142.99999345398
257,310,200587,6,0,B|284:202|284:202|246:213,1,142.99999345398
123,39,200872,2,0,B|219:93|219:93|179:109,1,142.99999345398
24,247,201158,2,0,L|161:190,1,142.99999345398
297,49,201444,2,0,P|339:100|345:213,1,142.99999345398
313,321,201730,5,0,0:0:0:0:
293,341,201801,1,0,0:0:0:0:
268,354,201872,1,0,0:0:0:0:
239,357,201944,1,0,0:0:0:0:
212,350,202015,1,0,0:0:0:0:
188,334,202087,1,0,0:0:0:0:
167,316,202158,1,0,0:0:0:0:
153,291,202229,1,0,0:0:0:0:
147,263,202300,5,0,0:0:0:0:
123,247,202372,1,0,0:0:0:0:
81,238,202443,1,0,0:0:0:0:
48,211,202514,1,0,0:0:0:0:
31,172,202586,1,0,0:0:0:0:
35,130,202657,1,0,0:0:0:0:
58,94,202729,1,0,0:0:0:0:
95,71,202801,1,0,0:0:0:0:
137,67,202872,5,0,0:0:0:0:
183,86,202944,1,0,0:0:0:0:
212,126,203015,1,0,0:0:0:0:
219,175,203087,1,0,0:0:0:0:
234,222,203158,1,0,0:0:0:0:
265,261,203229,1,0,0:0:0:0:
309,284,203301,1,0,0:0:0:0:
359,288,203372,1,0,0:0:0:0:
406,273,203444,5,0,0:0:0:0:
443,240,203515,1,0,0:0:0:0:
465,195,203587,1,0,0:0:0:0:
467,145,203658,1,0,0:0:0:0:
450,99,203729,1,0,0:0:0:0:
417,62,203801,1,0,0:0:0:0:
371,42,203872,1,0,0:0:0:0:
320,46,203944,1,0,0:0:0:0:
283,57,204015,6,0,B|199:80|199:80|221:97,1,110
256,255,204301,2,0,B|256:342|256:342|278:325,1,110
350,180,204587,2,0,B|437:179|437:179|420:157,1,110
283,71,204872,6,0,B|196:71|196:71|213:93,1,110
63,164,205158,2,0,P|18:215|115:325,2,220
63,164,206015,1,0,0:0:0:0:
386,231,206301,5,0,0:0:0:0:
314,282,206444,1,0,0:0:0:0:
225,283,206587,1,0,0:0:0:0:
175,210,206730,1,0,0:0:0:0:
183,122,206872,1,0,0:0:0:0:
241,55,207015,1,0,0:0:0:0:
386,231,207158,1,0,0:0:0:0:
