osu file format v14

[General]
AudioFilename: audio.mp3
AudioLeadIn: 0
PreviewTime: 65126
Countdown: 0
SampleSet: Soft
StackLeniency: 0.7
Mode: 0
LetterboxInBreaks: 0
WidescreenStoryboard: 1

[Editor]
Bookmarks: 177626
DistanceSpacing: 1.1
BeatDivisor: 4
GridSize: 16
TimelineZoom: 2.1

[Metadata]
Title:Victims of Contingency
TitleUnicode:Victims of Contingency
Artist:EPICA
ArtistUnicode:EPICA
Creator:DakiniBrave
Version:Remorse
Source:
Tags:Metal Symphonic The Quantum Enigma dutch english metal rock guitar drums orchestra fizz smug smug- lmt dereban dendy dendyhere
BeatmapID:1377957
BeatmapSetID:540457

[Difficulty]
HPDrainRate:6.8
CircleSize:4.5
OverallDifficulty:9.5
ApproachRate:9.8
SliderMultiplier:2.1
SliderTickRate:1

[Events]
//Background and Video events
0,0,"Thanks to everyone that has followed this map throughout its journey.jpg",0,0
//Break Periods
2,153416,154737
2,157987,159594
//Storyboard Layer 0 (Background)
//Storyboard Layer 1 (Fail)
//Storyboard Layer 2 (Pass)
//Storyboard Layer 3 (Foreground)
//Storyboard Sound Samples

[TimingPoints]
5777,285.714285714286,4,2,1,50,1,0
10348,-125,4,2,1,50,0,0
16634,-166.666666666667,4,2,1,50,0,0
17134,-166.666666666667,4,2,1,5,0,0
17205,-125,4,2,1,50,0,0
23491,-166.666666666667,4,2,1,50,0,0
23991,-166.666666666667,4,2,1,5,0,0
24062,-125,4,2,1,50,0,0
25562,-125,4,2,1,5,0,0
25634,-125,4,2,1,50,0,0
25848,-125,4,2,1,5,0,0
25919,-125,4,2,1,50,0,0
26277,-125,4,2,1,5,0,0
26348,-100,4,2,1,50,0,0
43890,352.941176470588,4,2,1,50,1,0
44066,285.714285714286,4,2,1,50,1,0
44566,-100,4,2,1,5,0,0
44626,285.714285714286,4,2,1,50,1,0
44626,-100,4,2,1,50,0,0
46268,-100,4,2,1,5,0,0
46340,-100,4,2,1,50,0,0
46554,-100,4,2,1,5,0,0
46626,-100,4,2,1,50,0,0
46840,-100,4,2,1,5,0,0
46931,285.714285714286,4,2,1,60,1,0
46931,-83.3333333333333,4,2,1,60,0,0
50359,-125,4,2,1,60,0,0
53788,-83.3333333333333,4,2,1,60,0,0
57216,-125,4,2,1,60,0,0
65216,-100,4,2,1,70,0,1
85788,-83.3333333333333,4,2,1,60,0,0
89216,-125,4,2,1,60,0,0
92645,-83.3333333333333,4,2,1,60,0,0
96073,-125,4,2,1,60,0,0
104073,-76.9230769230769,4,2,1,70,0,0
106359,-100,4,2,1,70,0,1
126931,-100,4,2,1,50,0,0
129216,-100,4,2,1,50,0,0
130502,-100,4,2,1,50,0,0
130931,-125,4,2,1,50,0,0
131431,-125,4,2,1,50,0,0
131502,-100,4,2,1,50,0,0
133359,-100,4,2,1,50,0,0
133788,-100,4,2,1,50,0,0
135145,-100,4,2,1,50,0,0
136073,-100,4,2,1,60,0,0
140216,-100,4,2,1,60,0,0
140645,-100,4,2,1,60,0,0
155216,-100,4,2,1,50,0,0
156645,-200,4,2,1,50,0,0
160073,-200,4,2,1,60,0,0
161216,-100,4,2,1,60,0,0
162359,-100,4,2,1,70,0,0
164645,-90.9090909090909,4,2,1,70,0,1
182931,-76.9230769230769,4,2,1,80,0,1
201216,-100,4,2,1,80,0,1
203502,-76.9230769230769,4,2,1,80,0,0
203645,-76.9230769230769,4,2,1,80,0,0
204073,-76.9230769230769,4,2,1,80,0,0
204216,-76.9230769230769,4,2,1,80,0,0
204645,-76.9230769230769,4,2,1,80,0,0
204788,-76.9230769230769,4,2,1,80,0,0
205216,-76.9230769230769,4,2,1,80,0,0
205359,-76.9230769230769,4,2,1,80,0,0
205788,-76.9230769230769,4,2,1,80,0,0
206931,-76.9230769230769,4,2,1,80,0,0
207216,-76.9230769230769,4,2,1,80,0,0
207502,-76.9230769230769,4,2,1,80,0,0
207788,-76.9230769230769,4,2,1,80,0,0
208073,-76.9230769230769,4,2,1,5,0,0

[Colours]
Combo1 : 0,64,128
Combo2 : 239,149,140
Combo3 : 230,75,45
Combo4 : 70,82,96

[HitObjects]
256,192,5776,12,0,10205,0:0:0:0:
102,61,10348,5,0,1:0:0:0:
103,81,10419,1,0,1:0:0:0:
105,102,10491,1,0,1:0:0:0:
107,123,10562,1,0,1:0:0:0:
108,144,10634,1,0,1:0:0:0:
192,197,10777,1,0,1:0:0:0:
194,218,10848,1,0,1:0:0:0:
195,239,10919,1,8,0:0:0:0:
119,299,11062,1,0,1:0:0:0:
121,320,11134,1,0,1:0:0:0:
122,341,11205,1,0,1:0:0:0:
192,197,11491,5,0,1:0:0:0:
215,187,11562,1,0,1:0:0:0:
240,184,11634,1,0,1:0:0:0:
264,188,11705,1,0,1:0:0:0:
289,199,11777,1,0,1:0:0:0:
312,207,11848,1,0,1:0:0:0:
337,212,11919,1,0,1:0:0:0:
363,212,11991,1,0,1:0:0:0:
387,206,12062,1,8,0:0:0:0:
481,140,12634,5,0,1:0:0:0:
489,159,12705,1,0,1:0:0:0:
492,179,12777,1,0,1:0:0:0:
491,200,12848,1,0,1:0:0:0:
486,221,12919,1,0,1:0:0:0:
343,133,13062,1,0,1:0:0:0:
361,123,13134,1,0,1:0:0:0:
382,117,13205,1,8,0:0:0:0:
414,320,13348,1,0,1:0:0:0:
396,309,13419,1,0,1:0:0:0:
380,294,13491,1,0,1:0:0:0:
142,208,13777,5,0,1:0:0:0:
134,227,13848,1,0,1:0:0:0:
131,247,13919,1,0,1:0:0:0:
132,268,13991,1,0,1:0:0:0:
137,289,14062,1,0,1:0:0:0:
291,272,14205,1,0,1:0:0:0:
273,262,14277,1,0,1:0:0:0:
252,256,14348,1,10,0:0:0:0:
345,384,14491,1,0,1:0:0:0:
363,373,14562,1,0,1:0:0:0:
379,358,14634,1,0,1:0:0:0:
499,188,14919,5,2,1:2:0:0:
478,186,14991,1,0,1:0:0:0:
457,184,15062,1,0,1:0:0:0:
436,182,15134,1,0,1:0:0:0:
415,180,15205,1,0,1:0:0:0:
394,178,15277,1,0,1:0:0:0:
373,177,15348,1,0,1:0:0:0:
352,175,15419,1,0,1:0:0:0:
331,173,15491,1,8,0:0:0:0:
189,36,15777,5,8,0:0:0:0:
159,262,15919,1,8,0:0:0:0:
143,323,16634,6,0,B|172:317|186:297|186:297|201:317|232:323|232:323|253:307|277:309|277:309|305:328|345:313,1,220.499993270874,10|0,2:0|0:0,0:0:0:0:
384,256,17205,5,4,1:0:0:0:
386,235,17277,1,0,1:0:0:0:
388,214,17348,1,0,1:0:0:0:
390,193,17419,1,0,1:0:0:0:
392,173,17491,1,0,1:0:0:0:
283,120,17634,1,0,1:0:0:0:
285,141,17705,1,0,1:0:0:0:
287,162,17777,1,8,0:0:0:0:
361,61,17919,1,0,1:0:0:0:
359,40,17991,1,0,1:0:0:0:
357,19,18062,1,0,1:0:0:0:
287,162,18348,5,0,1:0:0:0:
265,152,18419,1,0,1:0:0:0:
241,150,18491,1,0,1:0:0:0:
219,154,18562,1,0,1:0:0:0:
196,164,18634,1,0,1:0:0:0:
175,172,18705,1,0,1:0:0:0:
151,176,18777,1,0,1:0:0:0:
127,176,18848,1,0,1:0:0:0:
105,171,18919,1,8,0:0:0:0:
156,12,19491,5,0,1:0:0:0:
164,31,19562,1,0,1:0:0:0:
169,51,19634,1,0,1:0:0:0:
168,72,19705,1,0,1:0:0:0:
163,92,19777,1,0,1:0:0:0:
0,87,19919,1,0,1:0:0:0:
18,77,19991,1,0,1:0:0:0:
38,71,20062,1,8,0:0:0:0:
167,221,20205,1,0,1:0:0:0:
146,221,20277,1,0,1:0:0:0:
126,216,20348,1,0,1:0:0:0:
57,335,20634,5,0,1:0:0:0:
76,343,20705,1,0,1:0:0:0:
96,348,20777,1,0,1:0:0:0:
117,347,20848,1,0,1:0:0:0:
137,342,20919,1,0,1:0:0:0:
142,178,21062,1,0,1:0:0:0:
132,196,21134,1,0,1:0:0:0:
126,216,21205,1,8,0:0:0:0:
277,344,21348,1,0,1:0:0:0:
277,323,21419,1,0,1:0:0:0:
272,303,21491,1,0,1:0:0:0:
142,178,21777,5,0,1:0:0:0:
163,176,21848,1,0,1:0:0:0:
184,174,21919,1,0,1:0:0:0:
205,172,21991,1,0,1:0:0:0:
226,170,22062,1,0,1:0:0:0:
247,168,22134,1,0,1:0:0:0:
268,167,22205,1,0,1:0:0:0:
289,165,22277,1,0,1:0:0:0:
310,163,22348,1,8,0:0:0:0:
436,18,22634,5,8,0:0:0:0:
466,244,22777,1,8,0:0:0:0:
505,269,23491,6,0,B|476:263|461:244|461:244|447:263|417:269|417:269|396:253|372:255|372:255|345:274|306:259,1,220.499993270874,10|0,2:0|0:0,0:0:0:0:
240,238,24062,5,4,1:0:0:0:
238,217,24134,1,0,1:0:0:0:
236,196,24205,1,0,1:0:0:0:
235,175,24277,1,0,1:0:0:0:
233,154,24348,1,0,1:0:0:0:
232,133,24419,1,0,1:0:0:0:
230,113,24491,1,0,1:0:0:0:
228,92,24562,1,0,1:0:0:0:
227,71,24634,1,8,0:0:0:0:
235,62,24919,5,0,1:0:0:0:
82,172,25062,1,8,0:0:0:0:
393,367,25348,6,0,L|382:234,1,126,12|0,2:0|0:0,0:0:0:0:
512,119,25634,2,0,P|457:145|386:129,1,126,12|0,2:0|0:0,0:0:0:0:
287,42,25919,2,0,B|319:144|319:144|288:251,1,210,12|0,2:0|0:0,0:0:0:0:
242,301,26348,5,6,1:2:0:0:
217,309,26419,1,0,1:0:0:0:
191,310,26491,1,0,1:0:0:0:
166,302,26562,1,0,1:0:0:0:
144,287,26634,1,0,1:0:0:0:
129,266,26705,1,0,1:0:0:0:
121,241,26777,1,0,1:0:0:0:
121,215,26848,1,0,1:0:0:0:
129,190,26919,5,10,0:0:0:0:
137,165,26991,1,0,1:0:0:0:
137,139,27062,1,0,1:0:0:0:
129,114,27134,1,0,1:0:0:0:
114,93,27205,1,0,1:0:0:0:
92,78,27277,1,0,1:0:0:0:
67,70,27348,1,0,1:0:0:0:
41,71,27419,1,0,1:0:0:0:
17,80,27491,6,0,L|24:139,3,52.5,10|0|0|0,0:0|1:0|1:0|1:0,0:0:0:0:
127,267,27777,2,0,L|121:215,3,52.5,2|0|0|0,1:2|1:0|1:0|1:0,0:0:0:0:
284,78,28062,5,10,0:0:0:0:
284,78,28134,1,0,1:0:0:0:
284,78,28205,2,0,L|207:88,1,52.5,0|0,1:0|1:0,0:0:0:0:
322,234,28348,1,10,0:0:0:0:
322,234,28419,1,0,1:0:0:0:
322,234,28491,2,0,L|399:224,1,52.5,0|0,1:0|1:0,0:0:0:0:
473,57,28634,5,10,0:2:0:0:
472,83,28705,1,0,1:0:0:0:
471,109,28777,1,0,1:0:0:0:
470,135,28848,1,0,1:0:0:0:
469,161,28919,1,0,1:0:0:0:
468,188,28991,1,0,1:0:0:0:
468,214,29062,1,0,1:0:0:0:
467,240,29134,1,0,1:0:0:0:
466,266,29205,5,10,0:2:0:0:
447,248,29277,1,0,1:0:0:0:
422,239,29348,1,0,1:0:0:0:
396,242,29419,1,0,1:0:0:0:
374,255,29491,1,0,1:0:0:0:
359,276,29562,1,0,1:0:0:0:
354,302,29634,1,0,1:0:0:0:
360,327,29705,1,0,1:0:0:0:
377,347,29777,5,10,0:0:0:0:
377,327,29848,1,0,1:0:0:0:
378,307,29919,1,0,1:0:0:0:
379,288,29991,1,0,1:0:0:0:
380,268,30062,1,0,1:0:0:0:
381,248,30134,1,0,1:0:0:0:
382,229,30205,1,0,1:0:0:0:
383,209,30277,1,0,1:0:0:0:
384,189,30348,1,8,0:0:0:0:
385,168,30419,1,0,1:0:0:0:
386,148,30491,1,0,1:0:0:0:
387,129,30562,1,0,1:0:0:0:
388,109,30634,1,0,1:0:0:0:
389,89,30705,1,0,1:0:0:0:
390,70,30777,1,0,1:0:0:0:
391,50,30848,1,0,1:0:0:0:
390,30,30919,5,4,1:2:0:0:
372,49,30990,1,0,1:0:0:0:
350,63,31061,1,0,1:0:0:0:
325,71,31133,1,0,1:0:0:0:
299,72,31204,1,0,1:0:0:0:
176,45,31348,1,0,1:0:0:0:
195,62,31420,1,0,1:0:0:0:
209,84,31491,1,8,0:0:0:0:
254,222,31634,1,0,1:0:0:0:
259,197,31706,1,0,1:0:0:0:
271,173,31777,1,0,1:0:0:0:
25,318,32062,5,0,1:0:0:0:
51,316,32134,1,0,1:0:0:0:
77,314,32205,1,0,1:0:0:0:
103,312,32277,1,0,1:0:0:0:
130,310,32348,1,0,1:0:0:0:
156,308,32419,1,0,1:0:0:0:
181,306,32491,1,0,1:0:0:0:
207,304,32562,1,0,1:0:0:0:
233,302,32634,1,8,0:0:0:0:
473,360,33205,5,0,1:0:0:0:
471,329,33277,1,0,1:0:0:0:
469,298,33348,1,0,1:0:0:0:
467,267,33419,1,0,1:0:0:0:
465,236,33490,1,0,1:0:0:0:
348,162,33634,1,0,1:0:0:0:
350,193,33705,1,0,1:0:0:0:
352,224,33777,1,8,0:0:0:0:
493,115,33919,1,0,1:0:0:0:
491,84,33991,1,0,1:0:0:0:
489,53,34062,1,0,1:0:0:0:
263,125,34348,5,0,1:0:0:0:
292,99,34419,1,0,1:0:0:0:
329,86,34491,1,0,1:0:0:0:
368,87,34562,1,0,1:0:0:0:
405,102,34634,1,0,1:0:0:0:
269,266,34777,1,0,1:0:0:0:
269,266,34848,1,0,1:0:0:0:
269,266,34919,2,0,L|263:202,1,52.5,8|0,0:0|1:0,0:0:0:0:
157,63,35062,1,0,1:0:0:0:
188,61,35134,1,0,1:0:0:0:
219,59,35205,1,0,1:0:0:0:
146,362,35491,5,4,1:2:0:0:
121,352,35562,1,0,1:0:0:0:
101,336,35634,1,0,1:0:0:0:
86,314,35705,1,0,1:0:0:0:
80,289,35777,1,0,1:0:0:0:
81,263,35848,1,0,1:0:0:0:
91,239,35919,1,0,1:0:0:0:
108,219,35991,1,0,1:0:0:0:
131,205,36062,5,10,0:2:0:0:
153,191,36134,1,0,1:0:0:0:
170,171,36205,1,0,1:0:0:0:
180,147,36277,1,0,1:0:0:0:
181,121,36348,1,0,1:0:0:0:
175,96,36419,1,0,1:0:0:0:
161,74,36491,1,0,1:0:0:0:
140,57,36562,1,0,1:0:0:0:
116,48,36634,6,0,L|46:60,3,52.5,10|0|0|0,0:0|1:0|1:0|1:0,0:0:0:0:
262,110,36919,2,0,L|332:122,3,52.5,2|0|0|0,1:2|1:0|1:0|1:0,0:0:0:0:
92,187,37205,5,10,0:0:0:0:
92,187,37277,1,0,1:0:0:0:
92,187,37348,2,0,L|98:247,1,52.5,0|0,1:0|1:0,0:0:0:0:
263,308,37491,1,10,0:0:0:0:
263,308,37562,1,0,1:0:0:0:
263,308,37634,2,0,L|269:248,1,52.5,0|0,1:0|1:0,0:0:0:0:
184,122,37777,5,10,0:2:0:0:
201,102,37848,1,0,1:0:0:0:
224,89,37919,1,0,1:0:0:0:
249,82,37991,1,0,1:0:0:0:
275,83,38062,1,0,1:0:0:0:
300,91,38134,1,0,1:0:0:0:
322,106,38205,1,0,1:0:0:0:
338,126,38277,1,0,1:0:0:0:
348,150,38348,5,10,0:2:0:0:
358,174,38419,1,0,1:0:0:0:
374,194,38491,1,0,1:0:0:0:
396,208,38562,1,0,1:0:0:0:
421,217,38634,1,0,1:0:0:0:
447,217,38705,1,0,1:0:0:0:
472,211,38777,1,0,1:0:0:0:
495,197,38848,1,0,1:0:0:0:
510,177,38919,5,10,0:0:0:0:
490,175,38991,1,0,1:0:0:0:
470,174,39062,1,0,1:0:0:0:
451,173,39134,1,0,1:0:0:0:
431,172,39205,1,0,1:0:0:0:
411,171,39277,1,0,1:0:0:0:
392,170,39348,1,0,1:0:0:0:
372,169,39419,1,0,1:0:0:0:
352,168,39491,1,8,0:0:0:0:
333,167,39562,1,0,1:0:0:0:
313,165,39634,1,0,1:0:0:0:
293,164,39705,1,0,1:0:0:0:
274,163,39777,1,0,1:0:0:0:
254,162,39848,1,0,1:0:0:0:
234,161,39919,1,0,1:0:0:0:
215,160,39991,1,0,1:0:0:0:
195,159,40062,6,0,L|201:221,2,52.5,4|0|0,0:1|1:0|1:0,0:0:0:0:
94,36,40348,1,0,1:0:0:0:
62,33,40419,1,0,1:0:0:0:
31,38,40491,1,0,1:0:0:0:
85,297,40634,1,4,0:1:0:0:
195,159,40777,1,0,1:0:0:0:
163,156,40848,1,0,1:0:0:0:
132,161,40919,1,0,1:0:0:0:
315,344,41205,5,4,1:0:0:0:
312,312,41276,1,0,1:0:0:0:
317,281,41347,1,0,1:0:0:0:
392,131,41491,1,0,1:0:0:0:
397,162,41562,1,0,1:0:0:0:
394,194,41633,1,0,1:0:0:0:
452,351,41777,1,8,0:0:0:0:
483,149,42348,5,0,1:0:0:0:
483,149,42419,1,0,1:0:0:0:
483,149,42491,1,0,1:0:0:0:
483,149,42562,1,0,1:0:0:0:
483,149,42634,2,0,L|488:222,1,52.5,8|0,0:0|1:0,0:0:0:0:
249,303,42777,5,0,1:0:0:0:
249,303,42848,1,0,1:0:0:0:
249,303,42919,1,0,1:0:0:0:
249,303,42991,1,0,1:0:0:0:
249,303,43062,2,0,L|244:230,1,52.5,8|0,0:0|1:0,0:0:0:0:
379,78,43205,5,0,1:0:0:0:
379,78,43277,1,0,1:0:0:0:
379,78,43348,2,0,L|374:151,1,52.5,0|0,1:0|1:0,0:0:0:0:
371,322,43491,5,8,0:0:0:0:
136,106,43890,5,0,1:0:0:0:
136,106,43948,1,0,1:0:0:0:
136,106,44007,1,0,1:0:0:0:
136,106,44066,6,0,P|182:93|104:174,1,367.5,4|0,0:0|0:0,0:0:0:0:
179,167,44626,5,4,0:0:0:0:
65,41,46054,6,0,P|26:126|75:207,1,157.5,14|0,1:2|0:0,0:0:0:0:
264,141,46340,6,0,B|193:100|193:100|115:121,1,157.5,14|0,1:2|0:0,0:0:0:0:
167,244,46626,6,0,B|223:238|223:238|251:259|251:259|317:254,1,157.5,14|0,1:2|0:0,0:0:0:0:
416,196,46931,6,0,B|433:259|433:259|407:329,1,125.999996154785,12|0,0:0|1:0,0:0:0:0:
201,330,47216,1,8,0:0:0:0:
315,45,47359,2,0,B|319:91|319:91|336:121|336:121|341:178,1,125.999996154785,0|8,1:0|0:0,0:0:0:0:
311,324,47645,1,0,1:0:0:0:
138,148,47788,2,0,B|196:124|196:124|263:159,1,125.999996154785,8|0,0:0|1:0,0:0:0:0:
76,264,48073,5,8,0:0:0:0:
46,64,48216,1,0,1:0:0:0:
246,236,48359,5,8,0:0:0:0:
57,162,48502,1,0,1:0:0:0:
347,122,48645,5,8,0:0:0:0:
159,196,48788,1,0,1:0:0:0:
388,223,48931,5,8,0:0:0:0:
314,35,49073,1,0,1:0:0:0:
221,308,49216,6,0,B|254:307|254:307|283:323|283:323|329:283|329:283|382:319|382:319|409:303|409:303|446:305,1,251.999992309571,8|8,0:0|0:0,0:0:0:0:
502,107,49645,2,0,B|527:168|527:168|508:244,1,125.999996154785,0|8,1:0|0:0,0:0:0:0:
243,142,49931,1,0,1:0:0:0:
299,114,50002,1,0,1:0:0:0:
358,134,50073,1,8,0:0:0:0:
221,308,50216,1,8,0:0:0:0:
59,148,50359,6,0,P|54:100|90:44,1,84,2|0,1:2|1:0,0:0:0:0:
136,116,50645,1,8,0:0:0:0:
233,228,50931,6,0,P|237:271|204:322,1,84,2|0,1:2|1:0,0:0:0:0:
166,257,51216,1,8,0:0:0:0:
202,80,51502,6,0,L|292:84,1,84,2|0,1:2|1:0,0:0:0:0:
359,89,51788,1,8,0:0:0:0:
452,251,52073,6,0,L|362:255,1,84,2|0,1:2|1:0,0:0:0:0:
297,258,52359,1,8,0:0:0:0:
119,339,52645,6,0,P|93:304|95:235,1,84,10|0,0:0|1:0,0:0:0:0:
241,188,52931,2,0,P|234:229|209:262,1,84,10|0,0:0|0:0,0:0:0:0:
59,107,53216,5,2,1:2:0:0:
90,80,53288,1,0,1:0:0:0:
131,70,53359,1,0,1:0:0:0:
171,81,53431,1,0,1:0:0:0:
206,104,53502,1,2,1:2:0:0:
245,114,53573,1,0,1:0:0:0:
286,104,53645,1,0,1:0:0:0:
318,78,53716,1,0,1:0:0:0:
342,33,53788,6,0,B|363:92|363:92|329:184,1,125.999996154785,8|0,0:0|1:0,0:0:0:0:
253,264,54073,1,8,0:0:0:0:
466,237,54216,2,0,B|480:194|480:194|464:164|464:164|478:113,1,125.999996154785,0|8,1:0|0:0,0:0:0:0:
318,78,54502,1,0,1:0:0:0:
398,308,54645,2,0,B|450:341|450:341|511:322,1,125.999996154785,8|0,0:0|1:0,0:0:0:0:
184,77,54931,5,8,0:0:0:0:
214,277,55073,1,0,1:0:0:0:
295,96,55216,5,8,0:0:0:0:
106,170,55359,1,0,1:0:0:0:
406,241,55502,5,8,0:0:0:0:
218,167,55645,1,0,1:0:0:0:
334,320,55788,5,8,0:0:0:0:
408,132,55931,1,0,1:0:0:0:
137,127,56073,6,0,B|143:159|143:159|132:190|132:190|180:229|180:229|154:287|154:287|174:311|174:311|179:348,1,251.999992309571,8|8,0:0|0:0,0:0:0:0:
327,227,56502,1,0,1:0:0:0:
55,57,56645,1,8,0:0:0:0:
30,96,56716,1,0,1:0:0:0:
23,143,56788,1,0,1:0:0:0:
34,188,56859,1,0,1:0:0:0:
64,225,56931,1,8,0:0:0:0:
287,113,57073,1,8,0:0:0:0:
178,49,57216,6,0,P|159:88|164:130,1,84,2|0,1:2|1:0,0:0:0:0:
289,127,57502,1,8,0:0:0:0:
135,344,57788,6,0,P|139:302|120:265,1,84,2|0,1:2|1:0,0:0:0:0:
26,325,58073,1,8,0:0:0:0:
7,36,58359,5,2,1:2:0:0:
165,41,58502,1,0,1:0:0:0:
13,55,58645,1,8,0:0:0:0:
317,124,58931,5,2,1:2:0:0:
159,129,59073,1,0,1:0:0:0:
311,143,59216,1,8,0:0:0:0:
450,28,59502,5,2,1:2:0:0:
450,28,59573,1,0,1:0:0:0:
450,28,59645,2,0,L|455:101,1,42,0|0,1:0|1:0,0:0:0:0:
297,244,59788,5,10,0:2:0:0:
297,244,59859,1,0,1:0:0:0:
297,244,59931,2,0,L|292:171,1,42,0|0,1:0|1:0,0:0:0:0:
476,214,60073,5,10,0:2:0:0:
476,214,60145,1,0,1:0:0:0:
476,214,60216,2,0,L|403:219,1,42,0|0,1:0|1:0,0:0:0:0:
275,62,60359,5,10,0:2:0:0:
275,62,60431,1,0,1:0:0:0:
275,62,60502,2,0,L|348:57,1,42,0|0,1:0|1:0,0:0:0:0:
482,215,60645,5,14,1:2:0:0:
461,188,60716,1,0,1:0:0:0:
436,167,60788,1,8,1:2:0:0:
406,152,60859,1,0,1:0:0:0:
375,144,60931,1,8,1:2:0:0:
343,144,61002,1,0,1:0:0:0:
310,152,61073,1,8,1:2:0:0:
280,166,61145,1,0,1:0:0:0:
255,186,61216,1,8,1:2:0:0:
229,206,61288,1,0,1:0:0:0:
200,220,61359,1,8,1:2:0:0:
167,227,61431,1,0,1:0:0:0:
135,227,61502,1,10,1:2:0:0:
102,220,61573,1,0,1:0:0:0:
73,204,61645,1,8,1:2:0:0:
48,183,61716,1,0,1:0:0:0:
28,157,61788,5,10,1:2:0:0:
52,136,61859,1,0,1:0:0:0:
83,123,61931,1,8,1:2:0:0:
116,121,62002,1,0,1:0:0:0:
147,129,62073,1,8,1:2:0:0:
175,147,62145,1,0,1:0:0:0:
195,173,62216,1,8,1:2:0:0:
205,203,62288,1,0,1:0:0:0:
206,237,62359,1,10,1:2:0:0:
206,270,62431,1,0,1:0:0:0:
217,300,62502,1,8,1:2:0:0:
237,326,62573,1,0,1:0:0:0:
265,343,62645,1,10,1:2:0:0:
296,352,62716,1,0,1:0:0:0:
329,350,62788,1,8,1:2:0:0:
359,337,62859,1,0,1:0:0:0:
389,305,62931,5,10,1:2:0:0:
382,271,63002,1,0,1:0:0:0:
364,244,63073,1,8,1:2:0:0:
337,225,63145,1,0,1:0:0:0:
306,217,63216,1,8,1:2:0:0:
274,221,63288,1,0,1:0:0:0:
246,235,63359,1,8,1:2:0:0:
224,261,63431,1,0,1:0:0:0:
213,292,63502,1,10,1:2:0:0:
203,322,63573,1,0,1:0:0:0:
181,348,63645,1,8,1:2:0:0:
153,362,63716,1,0,1:0:0:0:
121,366,63788,1,8,1:2:0:0:
88,358,63859,1,0,1:0:0:0:
63,339,63931,1,8,1:2:0:0:
45,312,64002,1,0,1:0:0:0:
34,272,64073,5,8,0:0:0:0:
70,269,64145,1,8,0:0:0:0:
107,266,64216,1,8,0:0:0:0:
143,262,64288,1,8,0:0:0:0:
180,260,64359,1,8,0:0:0:0:
216,257,64431,1,8,0:0:0:0:
253,253,64502,1,8,0:0:0:0:
289,251,64573,1,8,0:0:0:0:
326,248,64645,1,12,0:0:0:0:
468,290,65216,6,0,P|422:267|370:276,1,105,4|0,1:0|1:0,0:0:0:0:
116,328,65502,2,0,B|170:305|216:337|216:337|263:369|316:346,1,210,10|0,0:0|1:0,0:0:0:0:
445,201,65931,1,0,1:0:0:0:
264,145,66073,2,0,L|274:259,1,105,10|0,0:0|1:0,0:0:0:0:
166,94,66359,6,0,P|251:40|370:112,1,210,2|8,1:2|0:0,0:0:0:0:
428,229,66788,1,2,1:2:0:0:
414,16,66931,1,0,1:0:0:0:
257,178,67073,1,0,1:0:0:0:
511,185,67216,2,0,P|468:144|400:139,1,105,10|0,0:2|1:0,0:0:0:0:
320,342,67502,6,0,B|289:293|314:243|314:243|354:200|333:144,1,210,2|8,1:2|0:0,0:0:0:0:
258,27,67931,1,2,1:2:0:0:
147,261,68073,1,0,1:0:0:0:
257,178,68216,1,0,1:0:0:0:
52,213,68359,2,0,P|38:266|83:342,1,105,10|0,0:2|1:0,0:0:0:0:
422,278,68645,5,10,0:2:0:0:
393,251,68716,1,0,1:0:0:0:
355,240,68788,1,0,1:0:0:0:
317,247,68859,1,0,1:0:0:0:
285,269,68931,1,8,0:0:0:0:
251,291,69002,1,0,1:0:0:0:
213,298,69073,1,2,1:2:0:0:
176,287,69145,1,0,1:0:0:0:
147,261,69216,5,8,0:0:0:0:
128,212,69288,1,0,1:0:0:0:
144,164,69359,1,0,1:0:0:0:
188,136,69431,1,0,1:0:0:0:
239,142,69502,1,10,0:2:0:0:
290,148,69573,1,0,1:0:0:0:
333,120,69645,1,0,1:0:0:0:
349,71,69716,1,0,1:0:0:0:
331,23,69788,5,4,1:0:0:0:
124,94,69931,1,0,1:0:0:0:
230,325,70073,2,0,B|225:279|251:252|251:252|214:211|214:211|241:186|238:141,1,210,10|0,0:2|1:0,0:0:0:0:
199,0,70502,1,0,1:0:0:0:
429,94,70645,2,0,L|297:82,1,105,10|0,0:2|1:0,0:0:0:0:
144,164,70859,1,0,1:0:0:0:
144,164,70931,6,0,P|198:138|312:225,1,210,2|8,1:2|0:0,0:0:0:0:
230,384,71359,1,0,1:0:0:0:
143,171,71502,1,0,1:0:0:0:
94,381,71645,1,0,1:0:0:0:
322,221,71788,2,0,L|339:337,1,105,8|0,0:0|1:0,0:0:0:0:
188,156,72073,6,0,P|202:97|163:36,1,105,2|0,1:2|1:0,0:0:0:0:
20,266,72359,2,0,P|6:325|45:386,1,105,8|0,0:0|1:0,0:0:0:0:
290,70,72645,2,0,L|169:55,1,105,0|0,1:0|1:0,0:0:0:0:
121,312,72931,1,10,0:0:0:0:
247,221,73073,1,0,1:0:0:0:
0,115,73216,5,10,0:0:0:0:
27,94,73288,1,0,1:0:0:0:
60,82,73359,1,0,1:0:0:0:
94,82,73431,1,0,1:0:0:0:
123,95,73502,2,0,P|147:113|162:141,1,52.5,0|0,1:0|1:0,0:0:0:0:
316,284,73645,5,10,0:0:0:0:
320,250,73716,1,0,1:0:0:0:
323,215,73788,1,0,1:0:0:0:
327,181,73859,1,0,1:0:0:0:
329,139,73931,2,0,L|335:82,1,52.5,0|0,1:0|1:0,0:0:0:0:
78,38,74073,5,10,0:0:0:0:
116,41,74145,1,0,1:0:0:0:
147,64,74216,2,0,P|158:91|158:122,1,52.5,0|0,1:0|1:0,0:0:0:0:
71,249,74359,6,0,P|57:302|86:364,1,105,4|0,1:0|1:0,0:0:0:0:
264,339,74645,2,0,B|220:298|168:317|168:317|132:361|72:348,1,210,10|0,0:0|1:0,0:0:0:0:
178,112,75073,1,0,1:0:0:0:
383,264,75216,2,0,P|398:319|377:371,1,105,10|0,0:0|1:0,0:0:0:0:
487,168,75502,6,0,P|406:108|281:169,1,210,2|8,1:2|0:0,0:0:0:0:
187,356,75931,1,2,1:2:0:0:
166,128,76073,1,0,1:0:0:0:
257,224,76216,1,0,1:0:0:0:
50,175,76359,2,0,P|47:118|61:63,1,105,10|0,0:2|1:0,0:0:0:0:
304,330,76645,6,0,B|347:234|347:234|301:112,1,210,2|8,1:2|0:0,0:0:0:0:
205,0,77073,1,2,1:2:0:0:
72,251,77216,2,0,P|117:278|199:249,1,105,0|0,1:0|1:0,0:0:0:0:
405,112,77502,2,0,P|354:108|310:135,1,105,10|0,0:0|1:0,0:0:0:0:
328,375,77788,5,10,0:0:0:0:
365,380,77859,1,0,1:0:0:0:
402,369,77931,1,0,1:0:0:0:
432,345,78002,1,0,1:0:0:0:
450,311,78073,1,8,0:0:0:0:
452,272,78145,1,0,1:0:0:0:
438,236,78216,1,2,1:2:0:0:
412,209,78288,1,0,1:0:0:0:
376,194,78359,5,8,0:0:0:0:
334,224,78431,1,0,1:0:0:0:
282,234,78502,1,0,1:0:0:0:
232,220,78573,1,0,1:0:0:0:
193,185,78645,1,10,0:2:0:0:
154,150,78716,1,0,1:0:0:0:
104,136,78788,1,0,1:0:0:0:
52,146,78859,1,0,1:0:0:0:
11,177,78931,6,0,L|0:64,1,105,4|0,1:0|1:0,0:0:0:0:
259,133,79216,2,0,B|291:182|264:232|264:232|232:284|273:368,1,210,10|0,0:2|1:0,0:0:0:0:
384,298,79645,1,0,1:0:0:0:
143,180,79788,1,10,0:0:0:0:
374,91,79931,1,0,1:0:0:0:
86,279,80073,6,0,P|51:120|105:74,1,210,2|8,1:2|0:0,0:0:0:0:
224,27,80502,1,2,1:2:0:0:
326,198,80645,2,0,P|285:223|222:217,1,105,0|0,1:0|1:0,0:0:0:0:
364,19,80931,1,10,0:0:0:0:
418,255,81073,1,0,1:0:0:0:
188,112,81216,5,10,1:2:0:0:
243,351,81359,1,0,1:0:0:0:
243,351,81431,1,0,1:0:0:0:
243,351,81502,1,8,0:0:0:0:
364,19,81645,1,0,1:0:0:0:
229,220,81788,5,8,1:2:0:0:
442,119,81931,1,0,1:0:0:0:
442,119,82002,1,0,1:0:0:0:
442,119,82073,1,10,0:0:0:0:
147,13,82216,1,0,1:0:0:0:
302,258,82359,5,10,0:0:0:0:
12,223,82502,1,0,1:0:0:0:
12,223,82573,1,0,1:0:0:0:
12,223,82645,1,8,1:2:0:0:
227,71,82788,1,10,0:0:0:0:
182,352,82931,5,0,1:0:0:0:
378,190,83073,1,0,1:0:0:0:
378,190,83145,1,0,1:0:0:0:
378,190,83216,2,0,P|326:160|241:183,1,105,10|0,0:0|1:0,0:0:0:0:
83,289,83502,5,2,1:2:0:0:
100,264,83573,1,0,1:0:0:0:
122,245,83645,1,0,1:0:0:0:
150,234,83716,1,0,1:0:0:0:
179,229,83788,1,0,1:0:0:0:
208,232,83859,1,0,1:0:0:0:
236,243,83931,1,0,1:0:0:0:
260,261,84002,1,0,1:0:0:0:
278,283,84073,1,0,1:0:0:0:
295,305,84145,1,0,1:0:0:0:
319,322,84216,1,0,1:0:0:0:
348,334,84288,1,0,1:0:0:0:
377,336,84359,1,0,1:0:0:0:
405,330,84431,1,0,1:0:0:0:
433,319,84502,1,0,1:0:0:0:
456,302,84573,1,0,1:0:0:0:
473,276,84645,5,8,1:2:0:0:
256,192,84716,12,0,85645,1:0:0:0:
128,43,85788,6,0,B|111:101|111:101|134:162,1,125.999996154785,12|0,0:0|0:0,0:0:0:0:
235,306,86073,1,8,0:0:0:0:
335,75,86216,2,0,B|289:79|289:79|259:96|259:96|202:101,1,125.999996154785,0|8,1:0|0:0,0:0:0:0:
30,202,86502,1,0,1:0:0:0:
345,287,86645,2,0,B|361:226|361:226|318:164,1,125.999996154785,8|0,0:0|1:0,0:0:0:0:
116,286,86931,5,8,0:0:0:0:
305,367,87073,1,0,1:0:0:0:
30,323,87216,5,8,0:0:0:0:
219,242,87359,1,0,1:0:0:0:
35,97,87502,5,8,0:0:0:0:
116,286,87645,1,0,1:0:0:0:
193,28,87788,5,8,0:0:0:0:
69,192,87931,1,0,1:0:0:0:
305,367,88073,6,0,B|308:334|308:334|295:303|295:303|339:261|339:261|308:205|308:205|326:180|326:180|327:143,1,251.999992309571,8|8,0:0|0:0,0:0:0:0:
89,248,88502,2,0,B|150:273|150:273|226:254,1,125.999996154785,0|8,1:0|0:0,0:0:0:0:
385,58,88788,1,0,1:0:0:0:
326,38,88859,1,0,1:0:0:0:
269,65,88931,1,8,0:0:0:0:
208,258,89073,1,8,0:0:0:0:
488,185,89216,6,0,L|382:174,1,84,2|0,1:2|1:0,0:0:0:0:
322,257,89502,1,8,0:0:0:0:
165,347,89788,6,0,L|249:339,1,84,2|0,1:2|1:0,0:0:0:0:
372,370,90073,1,8,0:0:0:0:
125,107,90359,6,0,P|110:150|141:214,1,84,2|0,1:2|1:0,0:0:0:0:
222,153,90645,1,8,0:0:0:0:
372,370,90931,6,0,P|379:329|365:291,1,84,2|0,1:2|1:0,0:0:0:0:
248,339,91216,1,8,0:0:0:0:
238,46,91502,5,2,1:2:0:0:
238,46,91573,1,0,1:0:0:0:
238,46,91645,2,0,L|231:120,1,42,0|0,1:0|1:0,0:0:0:0:
387,218,91788,5,10,1:2:0:0:
387,218,91859,1,0,1:0:0:0:
387,218,91931,2,0,L|393:143,1,42,0|0,1:0|1:0,0:0:0:0:
181,191,92073,5,2,1:2:0:0:
181,191,92145,1,0,1:0:0:0:
181,191,92216,2,0,L|255:197,1,42,0|0,1:0|1:0,0:0:0:0:
447,54,92359,5,10,1:2:0:0:
447,54,92431,1,0,1:0:0:0:
447,54,92502,2,0,L|372:47,1,42,0|0,1:0|1:0,0:0:0:0:
105,126,92645,6,0,B|84:185|84:185|118:277,1,125.999996154785,8|0,0:0|1:0,0:0:0:0:
257,319,92931,1,8,0:0:0:0:
360,98,93073,2,0,B|305:82|305:82|286:100|286:100|236:110,1,125.999996154785,0|8,1:0|0:0,0:0:0:0:
182,281,93359,1,0,1:0:0:0:
378,372,93502,2,0,B|397:311|397:311|364:259,1,125.999996154785,8|0,0:0|1:0,0:0:0:0:
226,95,93788,5,8,0:0:0:0:
416,171,93931,1,0,1:0:0:0:
191,9,94073,5,8,0:0:0:0:
267,198,94216,1,0,1:0:0:0:
35,171,94359,5,8,0:0:0:0:
226,95,94502,1,0,1:0:0:0:
98,331,94645,5,8,0:0:0:0:
126,128,94788,1,0,1:0:0:0:
406,333,94931,6,0,B|361:334|361:334|328:305|328:305|292:337|292:337|249:320|249:320|221:344|221:344|154:334,1,251.999992309571,8|8,0:0|0:0,0:0:0:0:
35,171,95359,1,0,1:0:0:0:
238,59,95502,1,8,0:0:0:0:
262,98,95573,1,0,1:0:0:0:
267,145,95645,1,0,1:0:0:0:
252,189,95716,1,0,1:0:0:0:
219,222,95788,1,8,0:0:0:0:
107,43,95931,1,8,0:0:0:0:
374,77,96073,6,0,P|390:123|367:187,1,84,2|0,1:2|1:0,0:0:0:0:
428,20,96359,1,8,0:0:0:0:
300,322,96645,6,0,P|316:276|293:212,1,84,2|0,1:2|1:0,0:0:0:0:
363,369,96931,1,8,0:0:0:0:
149,62,97216,5,2,1:2:0:0:
130,186,97359,1,0,1:0:0:0:
149,62,97502,1,8,0:0:0:0:
72,256,97788,5,2,1:2:0:0:
53,132,97931,1,0,1:0:0:0:
72,256,98073,1,8,0:0:0:0:
277,324,98359,5,2,1:2:0:0:
277,324,98431,1,0,1:0:0:0:
277,324,98502,2,0,L|201:320,1,42,0|0,1:0|1:0,0:0:0:0:
9,232,98645,5,10,0:2:0:0:
9,232,98716,1,0,1:0:0:0:
9,232,98788,2,0,L|85:228,1,42,0|0,1:0|1:0,0:0:0:0:
87,27,98931,5,10,0:2:0:0:
114,47,99002,1,0,1:0:0:0:
133,75,99073,1,0,1:0:0:0:
143,107,99145,1,0,1:0:0:0:
142,141,99216,1,10,0:2:0:0:
131,173,99288,1,0,1:0:0:0:
110,200,99359,1,0,1:0:0:0:
81,219,99431,1,0,1:0:0:0:
49,228,99502,5,10,1:2:0:0:
48,201,99573,1,0,1:0:0:0:
55,176,99645,1,8,1:2:0:0:
69,154,99716,1,0,1:0:0:0:
89,137,99788,1,8,1:2:0:0:
113,127,99859,1,0,1:0:0:0:
139,124,99931,1,8,1:2:0:0:
165,129,100002,1,0,1:0:0:0:
188,142,100073,1,8,1:2:0:0:
211,154,100145,1,0,1:0:0:0:
236,159,100216,1,8,1:2:0:0:
262,156,100288,1,0,1:0:0:0:
286,146,100359,1,10,1:2:0:0:
303,161,100431,1,0,1:0:0:0:
317,183,100502,1,8,1:2:0:0:
324,208,100573,1,0,1:0:0:0:
324,234,100645,5,10,1:2:0:0:
329,208,100716,1,0,1:0:0:0:
341,185,100788,1,8,1:2:0:0:
358,164,100859,1,0,1:0:0:0:
379,148,100931,1,8,1:2:0:0:
402,138,101002,1,0,1:0:0:0:
428,133,101073,1,8,1:2:0:0:
454,134,101145,1,0,1:0:0:0:
480,141,101216,1,10,1:2:0:0:
462,159,101288,1,0,1:0:0:0:
450,180,101359,1,8,1:2:0:0:
443,205,101431,1,0,1:0:0:0:
442,230,101502,1,10,1:2:0:0:
461,246,101573,1,0,1:0:0:0:
478,264,101645,1,8,1:2:0:0:
491,286,101716,1,0,1:0:0:0:
498,310,101788,5,10,1:2:0:0:
478,325,101859,1,0,1:0:0:0:
455,335,101931,1,8,1:2:0:0:
430,339,102002,1,0,1:0:0:0:
405,336,102073,1,8,1:2:0:0:
382,327,102145,1,0,1:0:0:0:
362,311,102216,1,10,1:2:0:0:
342,326,102288,1,0,1:0:0:0:
319,336,102359,1,8,1:2:0:0:
294,340,102431,1,0,1:0:0:0:
269,337,102502,1,8,1:2:0:0:
246,328,102573,1,0,1:0:0:0:
226,312,102645,1,10,1:2:0:0:
206,328,102716,1,0,1:0:0:0:
183,337,102788,1,8,1:2:0:0:
158,340,102859,1,0,1:0:0:0:
133,336,102931,5,8,1:2:0:0:
164,308,103002,1,8,0:0:0:0:
181,270,103073,1,8,1:2:0:0:
179,228,103145,1,8,0:0:0:0:
160,191,103216,1,10,1:2:0:0:
127,166,103288,1,8,0:0:0:0:
87,157,103359,1,8,1:2:0:0:
46,167,103431,1,8,0:0:0:0:
14,193,103502,1,12,1:2:0:0:
291,300,104073,5,0,1:0:0:0:
291,300,104145,1,0,1:0:0:0:
291,300,104216,1,0,1:0:0:0:
291,300,104288,1,0,1:0:0:0:
291,300,104359,2,0,L|180:280,1,68.2499968757631,12|0,0:0|1:0,0:0:0:0:
111,139,104502,5,0,1:0:0:0:
111,139,104573,1,0,1:0:0:0:
111,139,104645,1,0,1:0:0:0:
111,139,104716,1,0,1:0:0:0:
111,139,104788,2,0,L|150:245,1,68.2499968757631,12|0,0:0|1:0,0:0:0:0:
62,375,104931,5,0,1:0:0:0:
62,375,105002,1,0,1:0:0:0:
62,375,105073,1,0,1:0:0:0:
62,375,105145,1,0,1:0:0:0:
62,375,105216,6,0,L|135:288,1,68.2499968757631,12|0,0:0|1:0,0:0:0:0:
134,203,105359,2,0,L|111:139,1,68.2499968757631,0|0,1:0|1:0,0:0:0:0:
0,89,105502,5,8,0:0:0:0:
26,57,105573,1,8,0:0:0:0:
62,38,105645,1,8,0:0:0:0:
101,32,105716,1,8,0:0:0:0:
140,41,105788,1,8,0:0:0:0:
167,71,105859,1,8,0:0:0:0:
202,90,105931,1,8,0:0:0:0:
242,96,106002,1,8,0:0:0:0:
281,87,106073,1,8,0:0:0:0:
278,117,106145,1,8,0:0:0:0:
274,147,106216,1,8,0:0:0:0:
271,178,106288,1,8,0:0:0:0:
267,209,106359,6,0,P|327:206|401:251,1,105,4|0,1:0|1:0,0:0:0:0:
174,350,106645,2,0,B|169:304|195:277|195:277|158:236|158:236|185:211|182:166,1,210,10|0,0:0|1:0,0:0:0:0:
106,16,107073,1,0,1:0:0:0:
5,161,107216,2,0,P|52:184|124:168,1,105,10|0,0:0|1:0,0:0:0:0:
312,63,107502,6,0,B|353:107|334:159|334:159|290:195|303:255,1,210,2|8,1:2|0:0,0:0:0:0:
401,232,107931,1,2,1:2:0:0:
226,127,108073,1,0,1:0:0:0:
217,333,108216,1,0,1:0:0:0:
311,62,108359,2,0,P|274:27|223:17,1,105,10|0,0:2|1:0,0:0:0:0:
66,219,108645,6,0,B|114:193|166:222|166:222|216:252|274:220,1,210,2|8,1:2|0:0,0:0:0:0:
334,143,109073,1,2,1:2:0:0:
217,333,109216,1,0,1:0:0:0:
128,168,109359,1,0,1:0:0:0:
414,89,109502,2,0,P|431:142|410:196,1,105,10|0,0:2|1:0,0:0:0:0:
159,271,109788,5,10,0:2:0:0:
193,253,109859,1,0,1:0:0:0:
232,251,109931,1,0,1:0:0:0:
268,265,110002,1,0,1:0:0:0:
296,293,110073,1,8,0:0:0:0:
324,322,110145,1,0,1:0:0:0:
360,335,110216,1,2,1:2:0:0:
399,333,110288,1,0,1:0:0:0:
433,316,110359,5,8,0:0:0:0:
396,279,110431,1,0,1:0:0:0:
384,229,110502,1,0,1:0:0:0:
403,180,110573,1,0,1:0:0:0:
444,150,110645,1,10,0:2:0:0:
459,101,110716,1,0,1:0:0:0:
447,50,110788,1,0,1:0:0:0:
408,16,110859,1,0,1:0:0:0:
357,8,110931,6,0,P|311:38|240:29,1,105,4|0,1:0|1:0,0:0:0:0:
12,10,111216,2,0,B|48:54|28:109|28:109|-8:156|11:212,1,210,10|0,0:2|1:0,0:0:0:0:
72,333,111645,1,0,1:0:0:0:
235,129,111788,1,10,0:2:0:0:
117,178,111931,1,0,1:0:0:0:
244,319,112073,6,0,B|285:275|266:223|266:223|222:187|235:127,1,210,2|8,1:2|0:0,0:0:0:0:
372,156,112502,1,2,1:2:0:0:
167,249,112645,1,0,1:0:0:0:
188,24,112788,1,0,1:0:0:0:
339,294,112931,2,0,P|298:320|214:301,1,105,10|0,0:2|1:0,0:0:0:0:
102,203,113216,6,0,P|88:262|127:323,1,105,2|0,1:2|1:0,0:0:0:0:
278,112,113502,2,0,P|292:53|253:-8,1,105,8|0,0:0|1:0,0:0:0:0:
0,289,113788,2,0,L|121:304,1,105,0|0,1:0|1:0,0:0:0:0:
187,62,114073,1,10,0:0:0:0:
102,203,114216,1,0,1:0:0:0:
476,170,114359,5,10,0:0:0:0:
448,148,114431,1,0,1:0:0:0:
415,138,114502,1,0,1:0:0:0:
380,142,114573,1,0,1:0:0:0:
353,160,114645,2,0,B|341:244,1,52.5,0|0,1:0|1:0,0:0:0:0:
218,325,114788,5,10,0:0:0:0:
214,288,114859,1,0,1:0:0:0:
211,252,114931,1,0,1:0:0:0:
207,215,115002,1,0,1:0:0:0:
205,178,115073,2,0,L|198:100,1,52.5,0|0,1:0|1:0,0:0:0:0:
387,303,115216,5,10,0:0:0:0:
391,266,115287,1,0,1:0:0:0:
393,229,115359,2,0,L|400:151,1,52.5,0|0,1:0|1:0,0:0:0:0:
484,64,115502,6,0,P|433:47|373:64,1,105,4|0,1:0|1:0,0:0:0:0:
83,159,115788,2,0,B|131:124|182:152|182:152|234:184|299:143,1,210,10|0,0:0|1:0,0:0:0:0:
385,58,116216,1,0,1:0:0:0:
142,239,116359,2,0,L|159:346,1,105,10|0,0:0|1:0,0:0:0:0:
505,198,116645,6,0,P|405:181|327:257,1,210,2|8,1:2|0:0,0:0:0:0:
302,384,117073,1,2,1:2:0:0:
229,175,117216,1,0,1:0:0:0:
445,303,117359,1,0,1:0:0:0:
144,247,117502,2,0,P|115:195|127:127,1,105,10|0,0:2|1:0,0:0:0:0:
412,166,117788,6,0,B|369:159|339:187|339:187|298:150|298:150|273:177|228:174,1,210,2|8,1:2|0:0,0:0:0:0:
152,48,118216,1,2,1:2:0:0:
335,2,118359,2,0,P|361:46|357:98,1,105,0|0,1:0|1:0,0:0:0:0:
246,355,118645,2,0,P|245:297|281:251,1,105,10|0,0:0|1:0,0:0:0:0:
505,196,118931,5,10,0:0:0:0:
470,177,119002,1,0,1:0:0:0:
431,172,119073,1,0,1:0:0:0:
394,183,119145,1,0,1:0:0:0:
363,208,119216,1,8,0:0:0:0:
328,226,119288,1,0,1:0:0:0:
289,231,119359,1,2,1:2:0:0:
252,220,119431,1,0,1:0:0:0:
221,195,119502,5,8,0:0:0:0:
180,153,119573,1,0,1:0:0:0:
123,143,119645,1,0,1:0:0:0:
71,170,119716,1,0,1:0:0:0:
45,222,119788,1,10,0:2:0:0:
56,279,119859,1,0,1:0:0:0:
98,319,119931,1,0,1:0:0:0:
156,325,120002,1,0,1:0:0:0:
206,296,120073,6,0,P|257:287|306:304,1,105,4|0,1:0|1:0,0:0:0:0:
450,42,120359,2,0,B|419:90|445:142|445:142|469:194|440:243,1,210,10|0,0:2|1:0,0:0:0:0:
360,357,120788,1,0,1:0:0:0:
302,74,120931,1,10,0:0:0:0:
371,187,121073,1,0,1:0:0:0:
59,189,121216,6,0,P|156:161|232:226,1,210,2|8,1:2|0:0,0:0:0:0:
260,384,121645,1,2,1:2:0:0:
452,224,121788,2,0,P|460:176|432:120,1,105,0|0,1:0|1:0,0:0:0:0:
177,309,122073,1,10,0:0:0:0:
446,318,122216,1,0,1:0:0:0:
385,48,122359,5,10,1:2:0:0:
334,330,122502,1,0,1:0:0:0:
334,330,122573,1,0,1:0:0:0:
334,330,122645,1,8,0:0:0:0:
301,172,122788,1,0,1:0:0:0:
470,350,122931,5,8,1:2:0:0:
177,309,123073,1,0,1:0:0:0:
177,309,123145,1,0,1:0:0:0:
177,309,123216,1,10,0:0:0:0:
312,252,123359,1,0,1:0:0:0:
129,95,123502,5,10,0:0:0:0:
98,384,123645,1,0,1:0:0:0:
98,384,123716,1,0,1:0:0:0:
98,384,123788,1,8,1:2:0:0:
37,218,123931,1,10,0:0:0:0:
284,338,124073,5,0,1:0:0:0:
129,95,124216,1,0,1:0:0:0:
129,95,124288,1,0,1:0:0:0:
129,95,124359,2,0,L|137:228,1,105,10|0,0:0|1:0,0:0:0:0:
427,308,124645,5,2,1:2:0:0:
410,283,124716,1,0,1:0:0:0:
388,264,124788,1,0,1:0:0:0:
360,253,124859,1,0,1:0:0:0:
331,248,124931,1,0,1:0:0:0:
302,251,125002,1,0,1:0:0:0:
274,262,125073,1,0,1:0:0:0:
250,280,125145,1,0,1:0:0:0:
232,302,125216,1,0,1:0:0:0:
215,324,125288,1,0,1:0:0:0:
191,341,125359,1,0,1:0:0:0:
162,353,125431,1,0,1:0:0:0:
133,355,125502,1,0,1:0:0:0:
105,349,125573,1,0,1:0:0:0:
77,338,125645,1,0,1:0:0:0:
54,321,125716,1,0,1:0:0:0:
37,295,125788,5,8,1:2:0:0:
256,192,125859,12,0,126788,1:0:0:0:
371,147,126931,5,4,1:0:0:0:
376,172,127002,1,0,1:0:0:0:
371,198,127073,1,0,1:0:0:0:
312,82,127216,5,0,1:0:0:0:
287,73,127288,1,0,1:0:0:0:
267,57,127359,1,0,1:0:0:0:
461,125,127502,1,8,0:0:0:0:
397,63,127645,5,0,1:0:0:0:
418,46,127716,1,0,1:0:0:0:
441,36,127788,1,0,1:0:0:0:
164,151,128073,5,0,1:0:0:0:
162,124,128145,1,0,1:0:0:0:
161,98,128216,1,0,1:0:0:0:
260,194,128359,5,0,1:0:0:0:
258,220,128431,1,0,1:0:0:0:
257,246,128502,1,0,1:0:0:0:
136,278,128645,5,12,0:0:0:0:
136,278,129216,5,0,1:0:0:0:
141,252,129288,1,0,1:0:0:0:
136,227,129359,1,0,1:0:0:0:
32,137,129502,5,0,1:0:0:0:
52,153,129573,1,0,1:0:0:0:
77,162,129645,1,0,1:0:0:0:
226,205,129788,1,8,0:0:0:0:
206,116,129931,5,0,1:0:0:0:
183,126,130002,1,0,1:0:0:0:
162,143,130073,1,0,1:0:0:0:
226,205,130216,1,0,1:0:0:0:
106,70,130359,5,12,0:0:0:0:
403,29,130931,2,0,B|402:75|384:111|384:111|401:117|418:137|418:137|404:153|401:174|401:174|412:192|414:218|414:218|373:278|398:344,1,336,12|0,0:0|1:0,0:0:0:0:
420,333,131573,1,0,1:0:0:0:
446,334,131645,1,0,1:0:0:0:
296,264,131788,5,0,1:0:0:0:
270,266,131859,1,0,1:0:0:0:
244,269,131931,1,0,1:0:0:0:
178,362,132073,1,8,0:0:0:0:
70,279,132216,5,0,1:0:0:0:
72,305,132288,1,0,1:0:0:0:
75,331,132359,1,0,1:0:0:0:
14,92,132645,5,0,1:0:0:0:
12,118,132716,1,0,1:0:0:0:
9,144,132788,1,0,1:0:0:0:
126,86,132931,5,0,1:0:0:0:
124,60,133002,1,0,1:0:0:0:
121,34,133073,1,0,1:0:0:0:
100,177,133216,5,12,0:0:0:0:
419,86,133788,5,0,1:0:0:0:
417,125,133859,1,0,1:0:0:0:
415,167,133931,2,0,L|410:231,1,52.5,0|0,1:0|1:0,0:0:0:0:
179,131,134073,5,8,0:0:0:0:
213,113,134145,1,0,1:0:0:0:
252,108,134216,1,0,1:0:0:0:
291,116,134288,1,0,1:0:0:0:
324,137,134359,2,0,L|316:195,1,52.5,0|0,1:0|1:0,0:0:0:0:
70,192,134502,5,8,0:0:0:0:
52,157,134573,1,0,1:0:0:0:
47,118,134645,1,0,1:0:0:0:
55,79,134716,1,0,1:0:0:0:
76,46,134788,2,0,P|84:29|91:2,2,35,0|0|0,1:0|1:0|1:0,0:0:0:0:
14,240,134931,1,8,0:0:0:0:
205,186,136073,5,2,1:2:0:0:
217,291,136216,2,0,L|202:160,1,105,2|0,1:2|1:2,0:0:0:0:
402,72,136502,5,2,1:2:0:0:
390,177,136645,2,0,L|405:46,1,105,10|0,0:2|1:2,0:0:0:0:
219,24,136931,5,0,1:2:0:0:
329,64,137073,1,0,1:2:0:0:
107,64,137359,1,0,1:2:0:0:
219,24,137502,1,0,1:2:0:0:
109,169,137788,5,8,0:2:0:0:
221,128,137931,1,0,1:2:0:0:
0,128,138216,1,0,1:2:0:0:
109,169,138359,5,2,1:2:0:0:
94,272,138502,2,0,L|109:165,1,105,2|0,1:2|1:2,0:0:0:0:
243,258,138788,5,2,1:2:0:0:
258,361,138931,2,0,L|243:254,1,105,10|0,0:2|1:2,0:0:0:0:
389,247,139216,5,0,1:2:0:0:
429,358,139359,1,0,1:2:0:0:
429,135,139645,1,0,1:2:0:0:
389,247,139788,1,0,1:2:0:0:
349,0,140073,1,8,0:2:0:0:
27,170,140645,5,6,1:2:0:0:
39,65,140788,2,0,L|24:196,1,105,2|0,1:2|1:2,0:0:0:0:
223,283,141073,5,2,1:2:0:0:
212,179,141216,2,0,L|227:310,1,105,10|0,0:2|1:2,0:0:0:0:
309,89,141502,5,0,1:2:0:0:
428,45,141645,1,0,1:2:0:0:
189,45,141931,1,0,1:2:0:0:
309,89,142073,1,0,1:2:0:0:
31,245,142359,5,8,0:2:0:0:
17,136,142502,2,0,L|132:149,1,105,2|0,1:2|1:2,0:0:0:0:
134,351,142788,2,0,L|131:274,1,52.5,2|0,1:2|0:0,0:0:0:0:
264,141,142931,5,2,1:2:0:0:
257,246,143073,2,0,L|264:135,1,105,2|0,1:2|1:2,0:0:0:0:
413,246,143359,5,2,1:2:0:0:
420,351,143502,2,0,L|412:240,1,105,10|0,0:2|1:2,0:0:0:0:
311,0,143788,5,2,1:2:0:0:
272,150,143931,1,2,1:2:0:0:
486,159,144073,5,10,0:2:0:0:
453,136,144145,1,0,1:2:0:0:
413,128,144216,2,0,P|381:129|349:145,1,52.5,0|0,1:2|1:2,0:0:0:0:
311,0,144359,5,10,0:2:0:0:
275,17,144431,1,0,1:2:0:0:
248,47,144502,2,0,P|233:75|231:110,1,52.5,0|0,1:2|1:2,0:0:0:0:
86,72,144644,5,10,0:2:0:0:
83,111,144716,1,0,1:2:0:0:
96,150,144787,2,0,P|112:176|142:196,1,52.5,0|0,1:2|1:2,0:0:0:0:
36,302,144930,5,10,0:2:0:0:
69,324,145002,1,0,1:2:0:0:
109,333,145073,2,0,P|140:331|172:315,1,52.5,0|0,1:2|1:2,0:0:0:0:
303,268,145216,5,2,1:2:0:0:
79,228,145359,2,0,P|132:212|205:227,1,105,2|0,1:2|1:2,0:0:0:0:
303,268,145645,5,2,1:2:0:0:
0,198,145788,2,0,P|36:156|110:151,1,105,10|0,0:2|1:2,0:0:0:0:
276,138,146073,5,0,1:2:0:0:
205,344,146216,1,0,1:2:0:0:
419,303,146502,5,0,1:2:0:0:
276,138,146645,1,0,1:2:0:0:
512,100,146931,5,8,0:2:0:0:
361,212,147073,1,0,1:2:0:0:
380,80,147216,1,0,1:2:0:0:
493,231,147359,1,0,1:2:0:0:
304,369,147502,5,2,1:2:0:0:
264,145,147645,2,0,P|248:198|263:271,1,105,2|0,1:2|1:2,0:0:0:0:
304,369,147931,5,2,1:2:0:0:
234,66,148073,2,0,P|192:102|187:176,1,105,10|0,0:2|1:2,0:0:0:0:
367,216,148359,5,0,1:2:0:0:
138,275,148502,1,0,1:2:0:0:
367,334,148788,5,0,1:2:0:0:
138,275,148931,1,0,1:2:0:0:
138,275,149216,5,8,0:2:0:0:
138,275,149788,5,2,1:2:0:0:
57,91,149931,2,0,L|50:216,1,105,2|0,1:2|1:2,0:0:0:0:
138,275,150216,5,2,1:2:0:0:
151,25,150359,2,0,L|144:150,1,105,10|0,0:2|1:2,0:0:0:0:
302,226,150645,5,0,1:2:0:0:
241,92,150788,1,0,1:2:0:0:
302,226,151073,5,0,1:2:0:0:
350,76,151216,1,0,1:2:0:0:
254,376,151502,5,10,0:2:0:0:
302,226,151645,1,2,1:2:0:0:
204,276,151788,1,2,1:2:0:0:
353,325,151931,1,2,1:2:0:0:
476,195,152073,5,10,0:2:0:0:
443,218,152145,1,0,1:2:0:0:
403,226,152216,2,0,P|371:224|339:208,1,52.5,0|0,1:2|1:2,0:0:0:0:
301,354,152359,5,10,0:2:0:0:
265,337,152431,1,0,1:2:0:0:
238,307,152502,2,0,P|223:278|221:243,1,52.5,0|0,1:2|1:2,0:0:0:0:
76,282,152644,5,10,0:2:0:0:
73,243,152716,1,0,1:2:0:0:
86,204,152787,2,0,P|102:177|132:157,1,52.5,0|0,1:2|1:2,0:0:0:0:
26,52,152930,5,10,0:2:0:0:
59,30,153002,1,0,1:2:0:0:
99,21,153073,2,0,P|130:22|162:38,1,52.5,0|0,1:2|1:2,0:0:0:0:
277,205,153216,5,6,0:2:0:0:
255,251,155216,5,8,0:0:0:0:
266,94,155502,1,12,0:0:0:0:
264,93,156645,6,0,B|219:107|177:91|177:91|150:110|150:110|100:95|56:109,2,210,12|12|12,0:0|0:0|0:0,0:0:0:0:
445,163,160073,6,0,L|439:215,1,52.5,4|0,1:2|0:0,0:0:0:0:
300,262,160359,2,0,L|308:337,1,52.5,4|0,1:2|0:0,0:0:0:0:
352,169,160645,2,0,L|358:117,1,52.5,4|0,1:2|0:0,0:0:0:0:
396,301,160931,2,0,L|401:353,1,52.5,4|0,1:2|0:0,0:0:0:0:
507,110,161216,5,6,1:2:0:0:
480,91,161288,1,0,1:0:0:0:
448,83,161359,1,0,1:0:0:0:
416,87,161431,1,0,1:0:0:0:
387,102,161502,1,0,1:0:0:0:
358,116,161573,1,0,1:0:0:0:
326,119,161645,1,2,1:2:0:0:
294,112,161716,1,0,1:0:0:0:
268,93,161788,1,0,1:0:0:0:
241,112,161859,1,0,1:0:0:0:
210,119,161931,1,0,1:0:0:0:
177,116,162002,1,0,1:0:0:0:
148,102,162073,1,2,1:2:0:0:
120,88,162145,1,0,1:0:0:0:
87,85,162216,1,0,1:0:0:0:
56,92,162288,1,0,1:0:0:0:
30,113,162359,5,6,1:2:0:0:
68,128,162431,1,0,1:0:0:0:
100,160,162502,1,0,1:0:0:0:
120,201,162573,1,0,1:0:0:0:
126,245,162645,1,8,0:0:0:0:
116,288,162716,1,0,1:0:0:0:
93,326,162788,1,0,1:0:0:0:
58,356,162859,1,0,1:0:0:0:
12,363,162931,1,0,1:0:0:0:
5,322,163002,1,0,1:0:0:0:
17,278,163073,1,10,0:2:0:0:
43,241,163145,1,0,1:0:0:0:
78,213,163216,1,0,1:0:0:0:
120,201,163288,1,0,1:0:0:0:
164,201,163359,1,0,1:0:0:0:
208,217,163431,1,0,1:0:0:0:
237,262,163502,5,10,0:0:0:0:
194,271,163573,1,8,0:0:0:0:
148,264,163645,1,8,0:0:0:0:
109,244,163716,1,8,0:0:0:0:
78,213,163788,1,8,0:0:0:0:
60,172,163859,1,8,0:0:0:0:
54,127,163931,1,10,0:0:0:0:
64,83,164002,1,8,0:0:0:0:
93,42,164073,6,0,P|131:6|148:-2,1,52.5,8|8,0:0|0:0,0:0:0:0:
243,185,164216,2,0,P|193:169|176:158,1,52.5,8|8,0:0|0:0,0:0:0:0:
350,27,164359,2,0,P|361:77|360:97,1,52.5,10|8,0:0|0:0,0:0:0:0:
227,249,164502,2,0,P|230:222|238:198,1,52.5,8|8,0:0|0:0,0:0:0:0:
506,183,164645,6,0,P|439:174|389:197,1,115.50000352478,4|0,1:0|1:0,0:0:0:0:
282,384,164931,1,10,0:0:0:0:
90,236,165073,2,0,B|150:210|202:246|202:246|255:282|309:258,1,231.000007049561,0|0,1:0|1:0,0:0:0:0:
253,57,165502,2,0,L|265:196,1,115.50000352478,10|0,0:0|1:0,0:0:0:0:
51,43,165788,6,0,P|148:97|252:57,1,231.000007049561,2|8,1:2|0:0,0:0:0:0:
414,0,166216,1,2,1:2:0:0:
405,220,166359,1,0,1:0:0:0:
289,100,166502,1,0,1:0:0:0:
512,214,166645,2,0,P|510:273|466:325,1,115.50000352478,10|0,0:2|1:0,0:0:0:0:
185,209,166931,6,0,B|229:220|279:204|279:204|293:219|314:230|314:230|365:209|426:224,1,231.000007049561,2|8,1:2|0:0,0:0:0:0:
289,100,167359,1,2,1:2:0:0:
255,327,167502,1,0,1:0:0:0:
404,219,167645,1,0,1:0:0:0:
100,161,167788,2,0,P|86:214|126:293,1,115.50000352478,10|0,0:2|1:0,0:0:0:0:
369,367,168073,5,10,0:2:0:0:
393,331,168145,1,0,1:0:0:0:
402,289,168216,1,0,1:0:0:0:
394,247,168288,1,0,1:0:0:0:
370,212,168359,1,8,0:0:0:0:
345,177,168431,1,0,1:0:0:0:
337,135,168502,1,2,1:2:0:0:
346,93,168573,1,0,1:0:0:0:
359,61,168645,5,8,0:0:0:0:
395,96,168716,1,0,1:0:0:0:
405,146,168788,1,0,1:0:0:0:
394,197,168859,1,0,1:0:0:0:
364,238,168931,1,10,0:2:0:0:
323,269,169002,1,0,1:0:0:0:
273,278,169073,1,0,1:0:0:0:
222,268,169145,1,0,1:0:0:0:
181,237,169216,5,4,1:0:0:0:
260,133,169359,1,0,1:0:0:0:
47,131,169502,2,0,B|28:293|28:293|38:262|77:233,1,231.000007049561,10|0,0:2|1:0,0:0:0:0:
151,349,169931,1,0,1:0:0:0:
367,156,170073,2,0,P|313:129|226:150,1,115.50000352478,10|0,0:2|1:0,0:0:0:0:
408,321,170288,1,0,1:0:0:0:
408,321,170359,6,0,B|416:226|416:226|444:194|444:194|454:80,1,231.000007049561,2|8,1:2|0:0,0:0:0:0:
327,27,170788,1,2,1:2:0:0:
414,250,170931,1,0,1:0:0:0:
512,19,171073,1,0,1:0:0:0:
249,84,171216,1,10,0:2:0:0:
503,258,171359,1,0,1:0:0:0:
154,321,171502,6,0,B|145:267|145:267|164:191,1,115.50000352478,6|0,1:2|1:0,0:0:0:0:
327,27,171788,2,0,B|336:81|336:81|317:157,1,115.50000352478,8|0,0:0|1:0,0:0:0:0:
3,69,172073,2,0,L|124:54,1,115.50000352478,0|0,1:0|1:0,0:0:0:0:
247,271,172359,1,10,0:0:0:0:
53,207,172502,1,0,1:0:0:0:
364,177,172645,5,10,0:0:0:0:
390,203,172716,1,0,1:0:0:0:
409,240,172788,1,0,1:0:0:0:
414,280,172859,1,0,1:0:0:0:
407,319,172931,2,0,P|388:353|366:373,1,57.7500017623902,0|0,1:0|1:0,0:0:0:0:
116,235,173073,5,10,0:0:0:0:
150,239,173145,1,0,1:0:0:0:
185,242,173216,1,0,1:0:0:0:
219,245,173288,1,0,1:0:0:0:
254,248,173359,2,0,L|311:254,1,57.7500017623902,0|0,1:0|1:0,0:0:0:0:
483,321,173502,5,10,0:0:0:0:
498,285,173573,1,0,1:0:0:0:
498,246,173645,2,0,P|491:216|490:180,1,57.7500017623902,0|0,1:0|1:0,0:0:0:0:
391,53,173788,6,0,L|259:37,1,115.50000352478,4|0,1:0|1:0,0:0:0:0:
38,261,174073,2,0,B|86:215|144:236|144:236|183:285|250:270,1,231.000007049561,10|0,0:0|1:0,0:0:0:0:
228,155,174502,1,0,1:0:0:0:
203,360,174645,2,0,P|258:369|312:346,1,115.50000352478,10|0,0:0|1:0,0:0:0:0:
454,152,174931,6,0,B|360:147|360:147|324:164|324:164|227:154,1,231.000007049561,2|8,1:2|0:0,0:0:0:0:
25,133,175359,1,2,1:2:0:0:
266,25,175502,1,0,1:0:0:0:
197,276,175645,1,0,1:0:0:0:
111,11,175788,1,10,0:2:0:0:
42,262,175931,1,0,1:0:0:0:
324,336,176073,6,0,B|306:167|306:167|314:200|338:229,1,231.000007049561,6|8,1:2|0:0,0:0:0:0:
456,319,176502,1,2,1:2:0:0:
328,55,176645,2,0,P|269:49|219:80,1,115.50000352478,0|0,1:0|1:0,0:0:0:0:
324,336,176931,2,0,L|333:210,1,115.50000352478,10|0,0:0|1:0,0:0:0:0:
0,344,177216,5,10,0:0:0:0:
34,369,177288,1,0,1:0:0:0:
76,378,177359,1,0,1:0:0:0:
118,368,177431,1,0,1:0:0:0:
152,342,177502,1,8,0:0:0:0:
186,316,177573,1,0,1:0:0:0:
228,306,177645,1,2,1:2:0:0:
270,315,177716,1,0,1:0:0:0:
305,339,177788,5,12,1:2:0:0:
357,357,177859,1,0,1:0:0:0:
406,330,177930,1,0,1:0:0:0:
419,275,178002,1,0,1:0:0:0:
386,230,178073,1,10,0:0:0:0:
353,184,178145,1,0,1:0:0:0:
365,129,178217,1,0,1:0:0:0:
414,102,178288,1,0,1:0:0:0:
467,121,178359,6,0,P|478:184|475:247,1,115.50000352478,4|0,1:0|1:0,0:0:0:0:
223,233,178645,2,0,B|192:176|228:118|228:118|259:62|223:6,1,231.000007049561,10|0,0:2|1:0,0:0:0:0:
314,186,179073,1,0,1:0:0:0:
114,71,179216,1,10,0:0:0:0:
365,41,179359,1,0,1:0:0:0:
229,360,179502,6,0,B|184:363|150:334|150:334|106:373|106:373|88:345|20:355,1,231.000007049561,2|8,1:2|0:0,0:0:0:0:
0,142,179931,1,2,1:2:0:0:
260,28,180073,2,0,P|289:70|287:137,1,115.50000352478,0|0,1:0|1:0,0:0:0:0:
229,360,180359,1,10,0:0:0:0:
357,246,180502,1,0,1:0:0:0:
55,64,180645,5,14,1:2:0:0:
15,108,180716,1,0,1:2:0:0:
3,166,180787,1,0,1:2:0:0:
17,222,180859,1,0,1:2:0:0:
58,268,180930,1,8,1:2:0:0:
110,292,181002,1,0,1:2:0:0:
169,289,181073,1,0,1:2:0:0:
221,260,181145,1,0,1:2:0:0:
254,212,181216,1,8,1:2:0:0:
289,165,181288,1,0,1:2:0:0:
340,136,181360,1,0,1:2:0:0:
398,133,181431,1,0,1:2:0:0:
452,156,181503,1,10,1:2:0:0:
491,201,181574,1,0,1:2:0:0:
505,258,181646,1,0,1:2:0:0:
492,315,181717,1,0,1:2:0:0:
453,357,181788,5,8,0:2:0:0:
404,327,181859,1,0,1:2:0:0:
381,275,181930,1,0,1:2:0:0:
393,219,182002,1,0,1:2:0:0:
434,180,182073,1,8,0:2:0:0:
475,141,182145,1,0,1:2:0:0:
486,85,182217,1,0,1:2:0:0:
464,33,182288,1,0,1:2:0:0:
415,3,182359,1,8,0:2:0:0:
358,3,182430,1,0,1:2:0:0:
310,34,182501,1,0,1:2:0:0:
286,86,182573,1,0,1:2:0:0:
298,140,182644,1,8,0:2:0:0:
291,195,182716,1,0,1:2:0:0:
257,241,182788,1,0,1:2:0:0:
203,260,182859,1,0,1:2:0:0:
158,236,182931,6,0,P|128:175|136:108,1,136.499993751526,4|0,1:0|1:0,0:0:0:0:
353,18,183216,2,0,B|347:76|371:116|371:116|339:129|331:163|331:163|363:202|357:295,1,272.999987503052,10|0,0:0|1:0,0:0:0:0:
492,186,183645,1,0,1:0:0:0:
210,70,183788,1,10,0:2:0:0:
320,384,183931,1,0,1:0:0:0:
417,152,184073,6,0,B|360:111|285:139|285:139|235:195|148:163,1,272.999987503052,2|8,1:2|0:0,0:0:0:0:
384,18,184502,1,2,1:2:0:0:
298,273,184645,1,0,1:0:0:0:
202,80,184788,1,0,1:0:0:0:
180,384,184931,1,10,0:2:0:0:
404,154,185073,1,0,1:0:0:0:
72,31,185216,6,0,B|99:86|57:141|57:141|77:169|77:169|43:214|70:289,1,272.999987503052,6|8,1:2|0:0,0:0:0:0:
352,295,185645,1,2,1:2:0:0:
202,80,185788,1,0,1:2:0:0:
180,384,185931,1,0,1:0:0:0:
425,190,186073,2,0,P|370:169|280:192,1,136.499993751526,10|0,0:2|1:0,0:0:0:0:
115,341,186359,5,10,0:0:0:0:
115,341,186431,1,0,1:0:0:0:
115,341,186502,2,0,L|111:269,1,68.2499968757631,0|0,1:0|1:0,0:0:0:0:
234,48,186645,1,8,0:0:0:0:
234,48,186716,1,0,1:0:0:0:
234,48,186788,2,0,L|230:117,1,68.2499968757631,2|0,1:2|1:0,0:0:0:0:
244,271,186931,1,8,0:0:0:0:
178,289,187002,1,0,1:0:0:0:
112,273,187073,1,0,1:0:0:0:
61,225,187145,1,0,1:0:0:0:
46,160,187216,1,10,0:0:0:0:
65,94,187288,1,0,1:0:0:0:
114,47,187359,1,0,1:0:0:0:
180,32,187431,1,0,1:0:0:0:
241,55,187502,6,0,P|300:73|396:66,1,136.499993751526,4|0,0:0|1:0,0:0:0:0:
444,365,187788,1,8,1:2:0:0:
124,149,187931,1,0,1:0:0:0:
461,105,188073,5,8,0:0:0:0:
180,324,188216,1,0,1:0:0:0:
294,31,188359,5,8,0:0:0:0:
376,349,188502,1,0,1:0:0:0:
387,20,188645,5,8,0:0:0:0:
270,374,188788,1,0,1:0:0:0:
197,43,188931,5,8,0:0:0:0:
382,340,189073,1,0,1:0:0:0:
60,268,189216,5,8,0:0:0:0:
423,129,189359,1,0,1:0:0:0:
294,384,189502,5,8,0:0:0:0:
196,63,189645,1,0,1:0:0:0:
411,318,189788,5,4,1:2:0:0:
370,112,189931,1,0,1:0:0:0:
278,231,190073,1,8,0:0:0:0:
489,203,190216,1,0,1:0:0:0:
299,0,190359,1,0,1:0:0:0:
288,245,190502,1,0,1:0:0:0:
105,57,190645,2,0,L|118:212,1,136.499993751526,10|0,0:0|1:0,0:0:0:0:
399,296,190931,5,10,0:0:0:0:
367,268,191002,1,0,1:0:0:0:
329,250,191073,1,0,1:0:0:0:
288,245,191145,1,0,1:0:0:0:
246,251,191216,2,0,P|217:261|186:284,1,68.2499968757631,0|0,1:0|1:0,0:0:0:0:
25,38,191359,5,10,0:0:0:0:
64,53,191431,1,0,1:0:0:0:
105,57,191502,1,0,1:0:0:0:
146,48,191573,1,0,1:0:0:0:
184,28,191645,2,0,P|190:62|184:101,1,68.2499968757631,0|0,1:0|1:0,0:0:0:0:
219,362,191788,5,8,0:0:0:0:
219,362,191859,1,0,1:0:0:0:
219,362,191931,2,0,P|214:328|220:294,1,68.2499968757631,0|0,1:0|1:0,0:0:0:0:
0,196,192073,6,0,P|66:177|135:187,1,136.499993751526,4|0,1:0|1:0,0:0:0:0:
320,292,192359,2,0,B|335:201|316:107|316:107|305:160|268:193,1,272.999987503052,10|0,0:0|1:0,0:0:0:0:
177,25,192788,1,0,1:0:0:0:
439,122,192931,2,0,P|446:183|429:280,1,136.499993751526,10|0,0:0|1:0,0:0:0:0:
236,355,193216,6,0,B|297:320|362:355|362:355|422:389|498:358,1,272.999987503052,2|8,1:2|0:0,0:0:0:0:
385,52,193645,1,2,1:2:0:0:
323,294,193788,1,0,1:0:0:0:
269,75,193931,1,0,1:0:0:0:
368,369,194073,1,10,0:2:0:0:
429,196,194216,1,0,1:0:0:0:
77,163,194359,6,0,B|140:132|202:169|202:169|261:206|340:174,1,272.999987503052,6|8,1:2|0:0,0:0:0:0:
385,52,194788,1,2,1:2:0:0:
140,244,194931,2,0,L|157:383,1,136.499993751526,0|0,1:0|1:0,0:0:0:0:
329,167,195216,2,0,L|311:28,1,136.499993751526,10|0,0:2|1:0,0:0:0:0:
51,309,195502,5,8,0:0:0:0:
28,241,195573,1,8,0:0:0:0:
58,176,195645,1,8,0:0:0:0:
125,151,195716,1,8,0:0:0:0:
190,180,195788,1,8,0:0:0:0:
230,242,195859,1,8,0:0:0:0:
295,271,195931,1,8,0:0:0:0:
362,246,196002,1,8,0:0:0:0:
392,181,196073,5,8,0:0:0:0:
328,153,196145,1,8,0:0:0:0:
262,178,196216,1,8,0:0:0:0:
230,242,196288,1,8,0:0:0:0:
253,308,196359,1,8,0:0:0:0:
305,353,196431,1,8,0:0:0:0:
374,351,196502,1,8,0:0:0:0:
432,310,196573,1,8,0:0:0:0:
465,248,196645,6,0,P|480:186|457:113,1,136.499993751526,4|0,1:0|1:0,0:0:0:0:
125,91,196931,1,8,0:0:0:0:
392,181,197073,1,0,1:0:0:0:
226,0,197216,1,0,1:0:0:0:
274,283,197359,1,0,1:0:0:0:
304,53,197502,1,8,0:0:0:0:
176,306,197645,1,0,1:0:0:0:
384,126,197788,5,0,1:0:0:0:
83,184,197931,1,0,1:0:0:0:
438,283,198073,5,8,0:0:0:0:
125,112,198216,1,0,1:0:0:0:
408,18,198359,5,0,1:0:0:0:
272,331,198502,1,0,1:0:0:0:
201,58,198645,2,0,P|264:35|328:54,1,136.499993751526,8|0,0:0|1:0,0:0:0:0:
434,183,198931,5,8,0:0:0:0:
172,251,199073,1,0,1:0:0:0:
172,251,199145,1,0,1:0:0:0:
172,251,199216,1,8,0:0:0:0:
470,314,199359,1,0,1:0:0:0:
403,39,199502,5,8,0:0:0:0:
323,290,199645,1,0,1:0:0:0:
323,290,199716,1,0,1:0:0:0:
323,290,199788,1,10,0:2:0:0:
469,96,199931,1,0,1:0:0:0:
150,88,200073,5,10,0:0:0:0:
327,148,200216,1,0,1:0:0:0:
327,148,200288,1,0,1:0:0:0:
327,148,200359,1,8,0:0:0:0:
86,227,200502,1,2,1:2:0:0:
251,31,200645,5,8,0:0:0:0:
273,310,200788,1,0,1:0:0:0:
273,310,200859,1,0,1:0:0:0:
273,310,200931,1,10,0:2:0:0:
113,157,201073,1,8,0:0:0:0:
356,37,201216,5,10,0:0:0:0:
395,45,201288,1,0,1:0:0:0:
426,68,201359,1,0,1:0:0:0:
444,103,201431,1,0,1:0:0:0:
445,142,201502,1,0,1:0:0:0:
429,178,201573,1,0,1:0:0:0:
400,204,201645,1,0,1:0:0:0:
363,214,201716,1,0,1:0:0:0:
324,208,201788,1,0,1:0:0:0:
285,202,201859,1,0,1:0:0:0:
248,212,201931,1,0,1:0:0:0:
219,238,202002,1,0,1:0:0:0:
203,274,202073,1,2,1:2:0:0:
204,313,202145,1,0,1:0:0:0:
222,348,202216,1,0,1:0:0:0:
253,371,202288,1,0,1:0:0:0:
292,379,202359,5,10,0:0:0:0:
291,339,202431,1,0,1:0:0:0:
273,305,202502,1,0,1:0:0:0:
242,281,202573,1,0,1:0:0:0:
204,274,202645,1,0,1:0:0:0:
166,266,202716,1,0,1:0:0:0:
135,242,202788,1,2,1:2:0:0:
117,208,202859,1,0,1:0:0:0:
116,169,202931,1,8,0:0:0:0:
132,133,203002,1,0,1:0:0:0:
162,108,203073,1,0,1:0:0:0:
200,100,203145,1,0,1:0:0:0:
237,110,203216,1,2,1:2:0:0:
275,120,203288,1,0,1:0:0:0:
313,112,203359,1,0,1:0:0:0:
343,87,203431,1,0,1:0:0:0:
358,55,203502,6,0,L|371:201,1,136.499993751526,12|0,0:0|0:0,0:0:0:0:
65,17,204073,6,0,L|51:177,1,136.499993751526,12|0,0:0|0:0,0:0:0:0:
439,232,204645,6,0,L|273:217,1,136.499993751526,12|0,0:0|0:0,0:0:0:0:
43,327,205216,6,0,L|209:312,1,136.499993751526,12|0,0:0|0:0,0:0:0:0:
15,98,205788,5,0,1:0:0:0:
65,123,205859,1,0,1:0:0:0:
119,132,205931,1,0,1:0:0:0:
174,125,206002,1,0,1:0:0:0:
224,103,206073,1,0,1:0:0:0:
280,79,206145,1,0,1:0:0:0:
346,71,206216,1,0,1:0:0:0:
415,92,206288,1,0,1:0:0:0:
468,152,206359,5,10,0:0:0:0:
320,383,206502,1,10,0:0:0:0:
222,11,206645,1,10,0:0:0:0:
256,192,206716,12,0,208073,0:0:0:0:
