osu file format v14

[General]
AudioFilename: audio.mp3
AudioLeadIn: 0
PreviewTime: 65126
Countdown: 0
SampleSet: Soft
StackLeniency: 0.7
Mode: 0
LetterboxInBreaks: 0
WidescreenStoryboard: 1

[Editor]
Bookmarks: 65197,116625,149769,182911
DistanceSpacing: 1.4
BeatDivisor: 4
GridSize: 8
TimelineZoom: 2.6

[Metadata]
Title:Victims of Contingency
TitleUnicode:Victims of Contingency
Artist:EPICA
ArtistUnicode:EPICA
Creator:DakiniBrave
Version:LMT's Insane
Source:
Tags:Metal Symphonic The Quantum Enigma dutch english metal rock guitar drums orchestra fizz smug smug- lmt dereban dendy dendyhere
BeatmapID:2021990
BeatmapSetID:540457

[Difficulty]
HPDrainRate:5
CircleSize:4
OverallDifficulty:7.5
ApproachRate:9
SliderMultiplier:1.4
SliderTickRate:1

[Events]
//Background and Video events
0,0,"Thanks to everyone that has followed this map throughout its journey.jpg",0,0
//Break Periods
//Storyboard Layer 0 (Background)
//Storyboard Layer 1 (Fail)
//Storyboard Layer 2 (Pass)
//Storyboard Layer 3 (Foreground)
//Storyboard Sound Samples

[TimingPoints]
5777,285.714285714286,4,2,1,50,1,0
24063,-100,4,2,1,50,0,0
25205,-66.6666666666667,4,2,1,50,0,0
25919,-100,4,2,1,50,0,0
26348,-66.6666666666667,4,2,1,50,0,0
43890,352.941176470588,4,2,1,50,1,0
44066,285.714285714286,4,2,1,50,1,0
44626,285.714285714286,4,2,1,50,1,0
46931,285.714285714286,4,2,1,60,1,0
46931,-66.6666666666667,4,2,1,60,0,0
65216,-66.6666666666667,4,2,1,70,0,1
85788,-66.6666666666667,4,2,1,60,0,0
104073,-66.6666666666667,4,2,1,70,0,0
104359,-50,4,2,1,70,0,0
105502,-66.6666666666667,4,2,1,70,0,0
106359,-66.6666666666667,4,2,1,70,0,1
126931,-100,4,2,1,50,0,0
129216,-100,4,2,1,50,0,0
136073,-100,4,2,1,60,0,0
155216,-100,4,2,1,50,0,0
160073,-100,4,2,1,60,0,0
162359,-100,4,2,1,70,0,0
164645,-66.6666666666667,4,2,1,70,0,1
182931,-57.1428571428571,4,2,1,80,0,1
205788,-100,4,2,1,80,0,0
206931,-100,4,2,1,80,0,0
207216,-100,4,2,1,80,0,0
207502,-100,4,2,1,80,0,0
207788,-100,4,2,1,80,0,0
208073,-100,4,2,1,5,0,0

[Colours]
Combo1 : 0,64,128
Combo2 : 239,149,140
Combo3 : 230,75,45
Combo4 : 70,82,96

[HitObjects]
168,180,10348,6,0,L|113:173,4,35,0|0|0|0|0,1:0|1:0|1:0|1:0|1:0,0:0:0:0:
264,196,10777,1,0,1:0:0:0:
255,194,10848,1,0,1:0:0:0:
246,192,10919,1,8,0:0:0:0:
340,215,11062,2,0,L|392:226,2,35,0|0|0,1:0|1:0|1:0,0:0:0:0:
350,194,11491,6,0,L|402:205,2,35,0|0|0,1:0|1:0|1:0,0:0:0:0:
277,168,11777,1,0,1:0:0:0:
268,166,11848,1,0,1:0:0:0:
259,164,11919,1,0,1:0:0:0:
250,161,11991,1,0,1:0:0:0:
241,159,12062,1,8,0:0:0:0:
262,83,12634,6,0,L|272:26,4,35,0|0|0|0|0,1:0|1:0|1:0|1:0|1:0,0:0:0:0:
246,179,13062,1,0,1:0:0:0:
248,170,13134,1,0,1:0:0:0:
250,161,13205,1,8,0:0:0:0:
230,264,13348,2,0,L|219:316,2,35,0|0|0,1:0|1:0|1:0,0:0:0:0:
243,287,13777,5,0,1:0:0:0:
245,278,13848,1,0,1:0:0:0:
247,269,13919,1,0,1:0:0:0:
251,260,13991,1,0,1:0:0:0:
254,251,14062,1,0,1:0:0:0:
278,174,14205,1,0,1:0:0:0:
281,165,14277,1,0,1:0:0:0:
284,156,14348,6,0,L|433:140,1,140,10|0,0:0|1:0,0:0:0:0:
428,131,14919,5,2,1:2:0:0:
430,122,14991,1,0,1:0:0:0:
432,113,15062,1,0,1:0:0:0:
435,104,15134,1,0,1:0:0:0:
437,95,15205,1,0,1:0:0:0:
504,52,15348,2,0,L|511:17,2,35,0|0|8,1:0|1:0|0:0,0:0:0:0:
486,346,15777,5,8,0:0:0:0:
486,346,15919,1,8,0:0:0:0:
194,105,16634,6,0,L|404:102,1,210,10|0,2:0|0:0,0:0:0:0:
344,204,17205,6,0,L|399:211,4,35,4|0|0|0|0,1:0|1:0|1:0|1:0|1:0,0:0:0:0:
248,188,17634,1,0,1:0:0:0:
257,190,17705,1,0,1:0:0:0:
266,192,17777,1,8,0:0:0:0:
253,282,17919,2,0,L|201:271,2,35,0|0|0,1:0|1:0|1:0,0:0:0:0:
240,302,18348,6,0,L|188:291,2,35,0|0|0,1:0|1:0|1:0,0:0:0:0:
132,272,18634,1,0,1:0:0:0:
123,270,18705,1,0,1:0:0:0:
114,267,18777,1,0,1:0:0:0:
105,265,18848,1,0,1:0:0:0:
96,263,18919,1,8,0:0:0:0:
242,310,19491,6,0,L|249:365,4,35,0|0|0|0|0,1:0|1:0|1:0|1:0|1:0,0:0:0:0:
226,214,19919,1,0,1:0:0:0:
228,223,19991,1,0,1:0:0:0:
230,232,20062,1,8,0:0:0:0:
320,218,20205,2,0,L|309:166,2,35,0|0|0,1:0|1:0|1:0,0:0:0:0:
334,168,20634,5,0,1:0:0:0:
336,180,20705,1,0,1:0:0:0:
339,193,20776,1,0,1:0:0:0:
342,206,20848,1,0,1:0:0:0:
345,219,20919,1,0,1:0:0:0:
437,221,21062,2,0,L|447:282,2,35,0|0|8,1:0|1:0|0:0,0:0:0:0:
447,339,21348,1,0,1:0:0:0:
449,348,21419,1,0,1:0:0:0:
451,357,21491,1,0,1:0:0:0:
469,369,21777,5,0,1:0:0:0:
467,360,21848,1,0,1:0:0:0:
465,351,21919,1,0,1:0:0:0:
462,342,21991,1,0,1:0:0:0:
460,333,22062,1,0,1:0:0:0:
447,254,22205,2,0,L|440:219,2,35,0|0|8,1:0|1:0|0:0,0:0:0:0:
71,353,22634,5,8,0:0:0:0:
71,353,22777,1,8,0:0:0:0:
345,307,23491,6,0,L|132:273,1,210,10|0,2:0|0:0,0:0:0:0:
84,198,24062,6,0,L|38:212,2,35,4|0|0,1:0|1:0|1:0,0:0:0:0:
160,180,24348,1,0,1:0:0:0:
169,178,24419,1,0,1:0:0:0:
178,176,24491,1,0,1:0:0:0:
187,173,24562,1,0,1:0:0:0:
196,171,24634,1,8,0:0:0:0:
483,100,24919,5,0,1:0:0:0:
483,100,25062,1,8,0:0:0:0:
354,68,25348,6,0,B|378:92|378:92|397:205,1,105.000004005432,12|0,2:0|0:0,0:0:0:0:
290,250,25634,2,0,L|304:366,1,105.000004005432,12|0,2:0|0:0,0:0:0:0:
158,244,25919,6,0,L|142:89,1,140,12|0,2:0|0:0,0:0:0:0:
54,80,26348,6,0,L|-1:75,7,52.5000020027161,6|0|0|0|0|0|0|0,1:2|1:0|1:0|1:0|1:0|1:0|1:0|1:0,0:0:0:0:
138,24,26919,2,0,L|222:19,7,52.5000020027161,10|0|0|0|0|0|0|0,0:0|1:0|1:0|1:0|1:0|1:0|1:0|1:0,0:0:0:0:
267,78,27491,5,10,0:0:0:0:
269,87,27562,1,0,1:0:0:0:
271,96,27634,1,0,1:0:0:0:
292,7,27777,2,0,L|308:148,1,105.000004005432,2|0,1:2|1:0,0:0:0:0:
397,134,28062,1,10,0:0:0:0:
388,132,28134,1,0,1:0:0:0:
379,130,28205,1,0,1:0:0:0:
441,201,28348,2,0,L|494:217,2,52.5000020027161,10|0|0,0:0|1:0|1:0,0:0:0:0:
377,149,28634,6,0,L|448:172,7,52.5000020027161,10|0|0|0|0|0|0|0,0:2|1:0|1:0|1:0|1:0|1:0|1:0|1:0,0:0:0:0:
304,198,29205,2,0,L|233:221,7,52.5000020027161,10|0|0|0|0|0|0|0,0:2|1:0|1:0|1:0|1:0|1:0|1:0|1:0,0:0:0:0:
179,167,29777,5,10,0:0:0:0:
170,169,29848,1,0,1:0:0:0:
161,172,29919,1,0,1:0:0:0:
152,174,29991,1,0,1:0:0:0:
141,177,30062,2,0,L|18:207,1,105.000004005432,0|0,1:0|1:0,0:0:0:0:
78,73,30348,1,8,0:0:0:0:
80,82,30419,1,0,1:0:0:0:
83,91,30491,1,0,1:0:0:0:
85,100,30562,1,0,1:0:0:0:
88,111,30634,2,0,L|118:234,1,105.000004005432,0|0,1:0|1:0,0:0:0:0:
143,299,30919,5,4,1:2:0:0:
143,299,31062,1,0,1:0:0:0:
143,299,31205,2,0,L|255:311,1,105.000004005432,0|0,1:0|1:0,0:0:0:0:
339,324,31491,1,8,0:0:0:0:
359,232,31634,1,0,1:0:0:0:
361,223,31705,1,0,1:0:0:0:
363,214,31777,1,0,1:0:0:0:
370,246,32062,5,0,1:0:0:0:
372,237,32134,1,0,1:0:0:0:
374,228,32205,1,0,1:0:0:0:
461,192,32348,2,0,L|484:63,1,105.000004005432,0|0,1:0|1:0,0:0:0:0:
378,138,32634,1,8,0:0:0:0:
399,47,32777,1,0,1:0:0:0:
306,35,32919,1,0,1:0:0:0:
289,123,33062,1,0,1:0:0:0:
193,108,33205,6,0,L|177:194,2,52.5000020027161,0|0|0,1:0|1:0|1:0,0:0:0:0:
92,164,33491,2,0,L|112:296,1,105.000004005432,0|0,1:0|1:0,0:0:0:0:
17,288,33777,1,8,0:0:0:0:
45,374,33919,1,0,1:0:0:0:
54,372,33991,1,0,1:0:0:0:
63,370,34062,1,0,1:0:0:0:
25,368,34348,5,0,1:0:0:0:
34,366,34419,1,0,1:0:0:0:
43,363,34491,1,0,1:0:0:0:
52,361,34562,1,0,1:0:0:0:
63,358,34634,2,0,L|186:328,1,105.000004005432,0|0,1:0|1:0,0:0:0:0:
255,308,34919,2,0,L|363:279,1,105.000004005432,8|0,0:0|1:0,0:0:0:0:
356,280,35134,1,0,1:0:0:0:
356,280,35205,1,0,1:0:0:0:
237,160,35491,6,0,L|178:154,7,52.5000020027161,4|0|0|0|0|0|0|0,1:2|1:0|1:0|1:0|1:0|1:0|1:0|1:0,0:0:0:0:
303,111,36062,2,0,L|362:105,7,52.5000020027161,10|0|0|0|0|0|0|0,0:2|1:0|1:0|1:0|1:0|1:0|1:0|1:0,0:0:0:0:
310,209,36634,5,10,0:0:0:0:
312,200,36705,1,0,1:0:0:0:
314,191,36777,1,0,1:0:0:0:
358,276,36919,2,0,B|336:255|336:255|348:138,1,105.000004005432,2|0,1:2|1:0,0:0:0:0:
257,288,37205,1,10,0:0:0:0:
248,286,37277,1,0,1:0:0:0:
239,284,37348,1,0,1:0:0:0:
179,192,37491,2,0,L|235:205,2,52.5000020027161,10|0|0,0:0|1:0|1:0,0:0:0:0:
225,281,37777,6,0,L|202:352,7,52.5000020027161,10|0|0|0|0|0|0|0,0:2|1:0|1:0|1:0|1:0|1:0|1:0|1:0,0:0:0:0:
120,284,38348,2,0,L|97:213,6,52.5000020027161,10|0|0|0|0|0|0,0:2|1:0|1:0|1:0|1:0|1:0|1:0,0:0:0:0:
24,160,38919,5,10,0:0:0:0:
33,158,38991,1,0,1:0:0:0:
42,155,39062,1,0,1:0:0:0:
51,153,39134,1,0,1:0:0:0:
62,150,39205,2,0,L|185:120,1,105.000004005432,0|0,1:0|1:0,0:0:0:0:
56,171,39491,1,8,0:0:0:0:
54,162,39562,1,0,1:0:0:0:
51,153,39634,1,0,1:0:0:0:
49,144,39705,1,0,1:0:0:0:
46,135,39777,1,0,1:0:0:0:
317,21,40062,5,4,0:1:0:0:
332,109,40205,1,0,1:0:0:0:
233,48,40348,2,0,L|249:166,1,105.000004005432,0|0,1:0|1:0,0:0:0:0:
348,188,40634,2,0,L|338:301,1,105.000004005432,4|0,0:1|1:0,0:0:0:0:
338,292,40848,1,0,1:0:0:0:
338,292,40919,1,0,1:0:0:0:
375,279,41205,5,4,1:0:0:0:
374,287,41277,1,0,1:0:0:0:
374,296,41348,1,0,1:0:0:0:
458,243,41491,2,0,L|464:176,2,52.5000020027161,0|0|0,1:0|1:0|1:0,0:0:0:0:
408,117,41777,1,8,0:0:0:0:
55,308,42348,6,0,L|64:367,2,52.5000020027161,0|0|0,1:0|1:0|1:0,0:0:0:0:
139,261,42634,1,8,0:0:0:0:
138,269,42705,1,0,1:0:0:0:
138,278,42777,1,0,1:0:0:0:
64,315,42919,5,0,1:0:0:0:
139,288,43062,2,0,L|159:168,1,105.000004005432,8|0,0:0|1:0,0:0:0:0:
176,79,43348,1,0,1:0:0:0:
175,87,43419,1,0,1:0:0:0:
175,96,43491,1,8,0:0:0:0:
377,116,43890,5,0,1:0:0:0:
376,117,43948,1,0,1:0:0:0:
375,119,44007,1,0,1:0:0:0:
379,124,44066,6,0,L|348:357,1,210,4|0,0:0|0:0,0:0:0:0:
489,374,44626,5,4,0:0:0:0:
140,89,46054,5,14,1:2:0:0:
388,151,46340,1,14,1:2:0:0:
198,262,46626,1,14,1:2:0:0:
315,314,46931,6,0,B|314:244|314:244|362:195,1,105.000004005432,12|0,0:0|1:0,0:0:0:0:
234,358,47216,1,8,0:0:0:0:
396,327,47359,2,0,B|230:315|230:315|191:274,1,210.000008010865,0|0,1:0|1:0,0:0:0:0:
396,344,47788,2,0,L|505:350,1,105.000004005432,8|0,0:0|1:0,0:0:0:0:
451,233,48073,6,0,B|423:202|423:202|305:176|305:176|238:198,1,210.000008010865,8|8,0:0|0:0,0:0:0:0:
397,107,48502,2,0,B|349:259|349:259|291:285,1,210.000008010865,0|0,1:0|1:0,0:0:0:0:
259,200,48931,1,8,0:0:0:0:
452,244,49073,1,0,1:0:0:0:
301,289,49216,6,0,L|68:243,1,210.000008010865,8|8,0:0|0:0,0:0:0:0:
56,57,49645,2,0,L|72:198,1,105.000004005432,0|8,1:0|0:0,0:0:0:0:
176,153,49931,1,0,1:0:0:0:
167,162,50002,1,0,1:0:0:0:
158,171,50073,1,8,0:0:0:0:
249,96,50216,1,8,0:0:0:0:
317,41,50359,6,0,P|367:21|453:18,1,105.000004005432,2|0,1:2|1:0,0:0:0:0:
189,32,50645,2,0,P|245:96|378:118,1,210.000008010865,8|2,0:0|1:2,0:0:0:0:
173,145,51073,1,0,1:0:0:0:
190,244,51216,2,0,P|243:213|332:200,1,105.000004005432,8|0,0:0|0:0,0:0:0:0:
332,290,51502,6,0,P|282:310|196:313,1,105.000004005432,2|0,1:2|1:0,0:0:0:0:
460,299,51788,2,0,P|404:235|271:213,1,210.000008010865,8|2,0:0|1:2,0:0:0:0:
476,186,52216,1,0,1:0:0:0:
459,87,52359,2,0,P|406:118|317:131,1,105.000004005432,8|0,0:0|0:0,0:0:0:0:
149,50,52645,5,10,0:0:0:0:
158,144,52788,1,0,1:0:0:0:
235,88,52931,1,10,0:0:0:0:
146,351,53216,5,2,1:2:0:0:
125,256,53359,1,0,1:0:0:0:
62,320,53502,1,2,1:2:0:0:
208,291,53645,1,0,1:0:0:0:
208,291,53716,1,0,1:0:0:0:
208,291,53788,6,0,L|431:238,1,210.000008010865,8|8,0:0|0:0,0:0:0:0:
198,196,54216,2,0,B|266:180|266:180|310:141,1,105.000004005432,0|8,1:0|0:0,0:0:0:0:
332,351,54502,1,0,1:0:0:0:
411,233,54645,2,0,L|261:269,1,105.000004005432,8|0,0:0|1:0,0:0:0:0:
433,336,54931,6,0,B|454:183|454:183|505:152,1,210.000008010865,8|8,0:0|0:0,0:0:0:0:
501,154,55359,1,0,1:0:0:0:
350,14,55502,2,0,L|386:128,1,105.000004005432,8|0,0:0|1:0,0:0:0:0:
227,52,55788,2,0,L|263:166,1,105.000004005432,8|0,0:0|1:0,0:0:0:0:
129,299,56073,6,0,B|157:268|157:268|275:242|275:242|342:264,1,210.000008010865,8|8,0:0|0:0,0:0:0:0:
204,225,56502,1,0,1:0:0:0:
236,338,56645,5,8,0:0:0:0:
331,353,56788,1,0,1:0:0:0:
335,364,56860,1,0,1:0:0:0:
339,374,56931,1,8,0:0:0:0:
419,336,57073,1,8,0:0:0:0:
427,239,57216,6,0,P|435:142|450:115,1,105.000004005432,2|0,1:2|1:0,0:0:0:0:
211,51,57502,2,0,P|291:70|334:204,1,210.000008010865,8|2,0:0|1:2,0:0:0:0:
164,123,57931,1,0,1:0:0:0:
73,73,58073,2,0,P|79:140|87:209,1,105.000004005432,8|0,0:0|0:0,0:0:0:0:
46,372,58359,6,0,P|38:275|23:248,1,105.000004005432,2|0,1:2|1:0,0:0:0:0:
262,184,58645,2,0,P|182:203|139:337,1,210.000008010865,8|2,0:0|1:2,0:0:0:0:
309,256,59073,1,0,1:0:0:0:
400,206,59216,2,0,P|394:273|386:342,1,105.000004005432,8|0,0:0|0:0,0:0:0:0:
345,136,59502,5,2,1:2:0:0:
346,126,59573,1,0,1:0:0:0:
347,116,59645,1,0,1:0:0:0:
279,72,59788,2,0,L|267:15,2,52.5000020027161,10|0|0,0:2|1:0|1:0,0:0:0:0:
431,81,60073,5,10,0:2:0:0:
430,91,60145,1,0,1:0:0:0:
429,101,60216,1,0,1:0:0:0:
488,157,60359,2,0,L|500:214,2,52.5000020027161,10|0|0,0:2|1:0|1:0,0:0:0:0:
415,249,60645,5,14,1:2:0:0:
415,249,60788,1,8,1:2:0:0:
415,249,60931,1,8,1:2:0:0:
415,249,61073,1,8,1:2:0:0:
458,323,61216,2,0,B|429:287|429:287|236:259,1,210.000008010865,8|10,1:2|1:2,0:0:0:0:
171,249,61645,1,8,1:2:0:0:
104,168,61788,6,0,L|216:157,1,105.000004005432,10|8,1:2|1:2,0:0:0:0:
106,80,62073,1,8,1:2:0:0:
113,79,62145,1,0,1:0:0:0:
121,78,62216,1,8,1:2:0:0:
132,181,62359,2,0,L|254:168,1,105.000004005432,10|8,1:2|1:2,0:0:0:0:
119,87,62645,1,10,1:2:0:0:
126,86,62716,1,0,1:0:0:0:
134,85,62788,1,8,1:2:0:0:
87,161,62931,6,0,L|325:140,1,210.000008010865,10|8,1:2|1:2,0:0:0:0:
296,142,63288,1,0,1:0:0:0:
296,142,63359,1,8,1:2:0:0:
429,219,63502,2,0,L|294:235,1,105.000004005432,10|8,1:2|1:2,0:0:0:0:
482,145,63788,1,8,1:2:0:0:
475,144,63859,1,0,1:0:0:0:
467,143,63931,1,8,1:2:0:0:
430,62,64073,6,0,L|362:78,3,52.5000020027161,8|8|8|8,0:0|0:0|0:0|0:0,0:0:0:0:
354,59,64359,1,8,0:0:0:0:
333,52,64431,1,8,0:0:0:0:
312,43,64502,1,8,0:0:0:0:
292,35,64573,1,8,0:0:0:0:
270,27,64645,1,12,0:0:0:0:
68,331,65216,5,4,1:0:0:0:
68,331,65502,2,0,P|94:283|253:257,1,210.000008010865,10|0,0:0|1:0,0:0:0:0:
365,222,65931,2,0,P|347:267|329:341,1,105.000004005432,0|10,1:0|0:0,0:0:0:0:
285,182,66216,1,0,1:0:0:0:
457,188,66359,6,0,P|397:181|395:26,1,210.000008010865,2|8,1:2|0:0,0:0:0:0:
179,154,66788,2,0,P|229:112|299:94,1,105.000004005432,2|0,1:2|1:0,0:0:0:0:
0,140,67073,1,0,1:0:0:0:
76,28,67216,2,0,P|95:100|98:165,1,105.000004005432,10|0,0:2|1:0,0:0:0:0:
170,316,67502,6,0,P|147:241|8:227,1,210.000008010865,2|8,1:2|0:0,0:0:0:0:
285,242,67931,2,0,P|278:297|267:374,1,105.000004005432,2|0,1:2|1:0,0:0:0:0:
364,376,68216,1,0,1:0:0:0:
453,330,68359,1,10,0:2:0:0:
446,320,68645,5,10,0:2:0:0:
442,311,68716,1,0,1:0:0:0:
436,301,68788,1,0,1:0:0:0:
477,220,68931,2,0,P|485:186|496:143,2,52.5000020027161,8|0|2,0:0|1:0|1:2,0:0:0:0:
410,121,69216,1,8,0:0:0:0:
406,112,69288,1,0,1:0:0:0:
400,102,69359,1,0,1:0:0:0:
474,54,69502,2,0,P|482:20|493:-23,2,52.5000020027161,10|0|0,0:2|1:0|1:0,0:0:0:0:
311,62,69788,5,4,1:0:0:0:
311,62,70073,2,0,P|302:137|288:291,1,210.000008010865,10|0,0:2|1:0,0:0:0:0:
222,118,70502,1,0,1:0:0:0:
343,197,70645,2,0,P|274:196|196:198,1,105.000004005432,10|0,0:2|1:0,0:0:0:0:
56,204,70931,6,0,P|138:214|173:356,1,210.000008010865,2|8,1:2|0:0,0:0:0:0:
393,337,71359,2,0,P|345:346|263:363,1,105.000004005432,0|0,1:0|1:0,0:0:0:0:
488,251,71645,1,0,1:0:0:0:
487,355,71788,2,0,P|498:279|509:221,1,105.000004005432,8|0,0:0|1:0,0:0:0:0:
492,153,72073,5,2,1:2:0:0:
492,153,72216,1,0,1:0:0:0:
398,128,72359,1,8,0:0:0:0:
384,36,72502,1,0,1:0:0:0:
482,147,72645,2,0,P|388:133|265:116,1,210.000008010865,0|10,1:0|0:0,0:0:0:0:
36,320,73216,5,10,0:0:0:0:
40,311,73288,1,0,1:0:0:0:
46,301,73359,1,0,1:0:0:0:
135,275,73502,1,0,1:0:0:0:
226,255,73645,2,0,L|343:225,1,105.000004005432,10|0,0:0|1:0,0:0:0:0:
163,198,73931,1,0,1:0:0:0:
295,323,74073,2,0,B|380:328|380:328|417:358,1,105.000004005432,10|0,0:0|1:0,0:0:0:0:
486,219,74359,5,4,1:0:0:0:
486,219,74645,2,0,P|464:152|438:10,1,210.000008010865,10|0,0:0|1:0,0:0:0:0:
344,81,75073,2,0,P|362:126|380:200,1,105.000004005432,0|10,1:0|0:0,0:0:0:0:
304,240,75359,1,0,1:0:0:0:
211,210,75502,6,0,P|233:143|259:1,1,210.000008010865,2|8,1:2|0:0,0:0:0:0:
168,81,75931,2,0,P|150:126|132:200,1,105.000004005432,2|0,1:2|1:0,0:0:0:0:
96,30,76216,1,0,1:0:0:0:
29,101,76359,2,0,P|44:166|60:241,1,105.000004005432,10|0,0:2|1:0,0:0:0:0:
212,223,76645,6,0,P|189:298|50:312,1,210.000008010865,2|8,1:2|0:0,0:0:0:0:
209,331,77073,2,0,P|262:313|344:299,1,105.000004005432,2|0,1:2|1:0,0:0:0:0:
406,340,77359,1,0,1:0:0:0:
492,298,77502,1,10,0:0:0:0:
489,68,77788,5,10,0:0:0:0:
493,59,77859,1,0,1:0:0:0:
499,49,77931,1,0,1:0:0:0:
372,107,78073,2,0,P|364:73|353:30,2,52.5000020027161,8|0|2,0:0|1:0|1:2,0:0:0:0:
442,160,78359,1,8,0:0:0:0:
446,151,78431,1,0,1:0:0:0:
452,141,78502,1,0,1:0:0:0:
366,188,78645,2,0,P|372:213|378:239,2,52.5000020027161,10|0|0,0:2|1:0|1:0,0:0:0:0:
253,128,78931,5,4,1:0:0:0:
253,128,79216,2,0,P|178:137|24:150,1,210.000008010865,10|0,0:2|1:0,0:0:0:0:
159,61,79645,1,0,1:0:0:0:
136,220,79788,2,0,P|205:219|283:221,1,105.000004005432,10|0,0:0|1:0,0:0:0:0:
322,337,80073,6,0,P|354:241|452:220,1,210.000008010865,2|8,1:2|0:0,0:0:0:0:
208,330,80502,2,0,P|256:339|338:356,1,105.000004005432,2|0,1:2|1:0,0:0:0:0:
441,314,80788,1,0,1:0:0:0:
457,231,80931,2,0,P|446:155|435:97,1,105.000004005432,10|0,0:0|1:0,0:0:0:0:
391,47,81216,5,10,1:2:0:0:
314,96,81359,1,0,1:0:0:0:
312,103,81431,1,0,1:0:0:0:
312,110,81502,1,8,0:0:0:0:
387,41,81645,1,0,1:0:0:0:
298,16,81788,2,0,L|326:243,1,210.000008010865,8|10,1:2|0:0,0:0:0:0:
110,323,82359,5,10,0:0:0:0:
57,221,82502,1,0,1:0:0:0:
55,228,82573,1,0,1:0:0:0:
55,235,82645,1,8,1:2:0:0:
110,335,82788,2,0,B|133:257|133:257|176:235,1,105.000004005432,10|0,0:0|1:0,0:0:0:0:
214,321,83073,1,0,1:0:0:0:
126,168,83216,2,0,B|112:96|112:96|60:58,1,105.000004005432,10|0,0:0|1:0,0:0:0:0:
239,11,83502,6,0,L|252:81,11,52.5000020027161,2|0|0|0|0|0|0|0|0|0|0|0,1:2|1:0|1:0|1:0|1:0|1:0|1:0|1:0|1:0|1:0|1:0|1:0,0:0:0:0:
313,101,84359,1,0,1:0:0:0:
311,114,84430,1,0,1:0:0:0:
309,127,84502,1,0,1:0:0:0:
308,140,84573,1,0,1:0:0:0:
306,153,84645,1,8,1:2:0:0:
256,192,84716,12,0,85502,1:0:0:0:
416,168,85788,6,0,B|377:194|377:194|350:367,1,210.000008010865,12|8,0:0|0:0,0:0:0:0:
351,355,86216,1,0,1:0:0:0:
246,243,86359,2,0,L|261:358,1,105.000004005432,8|0,0:0|1:0,0:0:0:0:
467,263,86645,1,8,0:0:0:0:
446,357,86788,1,0,1:0:0:0:
356,219,86931,6,0,L|337:102,1,105.000004005432,8|0,0:0|1:0,0:0:0:0:
330,107,87145,2,0,L|320:29,1,52.5000020027161,2|8,0:2|0:0,0:0:0:0:
201,53,87359,2,0,B|246:80|246:80|268:251,1,210.000008010865,0|0,1:0|1:0,0:0:0:0:
172,260,87788,2,0,L|185:367,1,105.000004005432,8|0,0:0|1:0,0:0:0:0:
381,300,88073,6,0,L|449:69,1,210.000008010865,8|8,0:0|0:0,0:0:0:0:
475,285,88502,2,0,L|332:93,1,210.000008010865,0|0,1:0|1:0,0:0:0:0:
349,116,88859,1,0,1:0:0:0:
349,116,88931,1,8,0:0:0:0:
507,181,89073,1,8,0:0:0:0:
300,222,89216,6,0,P|241:154|195:162,1,105.000004005432,2|0,1:2|1:0,0:0:0:0:
112,69,89502,2,0,P|130:129|172:311,1,210.000008010865,8|2,0:0|1:2,0:0:0:0:
102,187,89931,1,0,1:0:0:0:
223,143,90073,2,0,P|233:65|248:12,1,105.000004005432,8|0,0:0|0:0,0:0:0:0:
306,234,90359,6,0,P|365:166|411:174,1,105.000004005432,2|0,1:2|1:0,0:0:0:0:
494,81,90645,2,0,P|476:141|434:323,1,210.000008010865,8|2,0:0|1:2,0:0:0:0:
504,199,91073,1,0,1:0:0:0:
383,155,91216,2,0,P|373:77|358:24,1,105.000004005432,8|0,0:0|0:0,0:0:0:0:
251,119,91502,5,2,1:2:0:0:
249,126,91573,1,0,1:0:0:0:
249,133,91645,1,0,1:0:0:0:
295,222,91788,2,0,P|298:254|301:303,2,52.5000020027161,10|0|0,1:2|1:0|1:0,0:0:0:0:
206,237,92073,1,2,1:2:0:0:
204,246,92145,1,0,1:0:0:0:
201,255,92216,1,0,1:0:0:0:
199,264,92288,1,0,1:0:0:0:
196,275,92359,2,0,P|180:325|166:398,1,105.000004005432,10|0,1:2|1:0,0:0:0:0:
111,268,92645,6,0,B|90:221|90:221|82:56,1,210.000008010865,8|8,0:0|0:0,0:0:0:0:
16,248,93073,2,0,B|48:193|48:193|223:152,1,210.000008010865,0|0,1:0|1:0,0:0:0:0:
0,133,93502,2,0,L|6:266,1,105.000004005432,8|0,0:0|1:0,0:0:0:0:
117,272,93788,6,0,B|257:247|257:247|311:289,1,210.000008010865,8|8,0:0|0:0,0:0:0:0:
315,296,94359,1,8,0:0:0:0:
376,357,94502,1,0,1:0:0:0:
444,292,94645,1,8,0:0:0:0:
376,228,94788,1,0,1:0:0:0:
372,351,94931,6,0,B|376:182|376:182|432:132,1,210.000008010865,8|8,0:0|0:0,0:0:0:0:
406,154,95359,1,0,1:0:0:0:
353,86,95502,6,0,L|286:110,1,52.5000020027161,8|0,0:0|1:0,0:0:0:0:
234,128,95645,1,0,1:0:0:0:
136,84,95788,2,0,L|57:59,2,52.5000020027161,8|0|8,0:0|0:0|0:0,0:0:0:0:
23,150,96073,6,0,P|78:173|95:229,1,105.000004005432,2|0,1:2|1:0,0:0:0:0:
284,239,96359,2,0,P|224:232|148:343,1,210.000008010865,8|2,0:0|1:2,0:0:0:0:
344,306,96788,1,0,1:0:0:0:
391,226,96931,2,0,P|400:164|409:111,1,105.000004005432,8|0,0:0|0:0,0:0:0:0:
417,356,97216,6,0,P|362:333|345:277,1,105.000004005432,2|0,1:2|1:0,0:0:0:0:
156,267,97502,2,0,P|216:274|292:163,1,210.000008010865,8|2,0:0|1:2,0:0:0:0:
96,200,97931,1,0,1:0:0:0:
49,280,98073,2,0,P|40:342|31:395,1,105.000004005432,8|0,0:0|0:0,0:0:0:0:
7,167,98359,5,2,1:2:0:0:
9,156,98431,1,0,1:0:0:0:
11,145,98502,1,0,1:0:0:0:
98,107,98645,2,0,L|104:32,2,52.5000020027161,10|0|0,0:2|1:0|1:0,0:0:0:0:
202,125,98931,5,10,0:2:0:0:
200,114,99002,1,0,1:0:0:0:
198,103,99073,1,0,1:0:0:0:
282,184,99216,5,10,0:2:0:0:
284,173,99288,1,0,1:0:0:0:
286,162,99359,1,0,1:0:0:0:
201,150,99502,6,0,L|267:139,10,52.5000020027161,10|0|8|0|8|0|8|0|8|0|8,1:2|1:0|1:2|1:0|1:2|1:0|1:2|1:0|1:2|1:0|1:2,0:0:0:0:
87,219,100359,1,10,1:2:0:0:
191,298,100502,1,8,1:2:0:0:
333,284,100645,6,0,L|399:273,6,52.5000020027161,10|0|8|0|8|0|8,1:2|1:0|1:2|1:0|1:2|1:0|1:2,0:0:0:0:
441,173,101216,2,0,L|507:162,2,52.5000020027161,10|0|8,1:2|1:0|1:2,0:0:0:0:
344,82,101502,1,10,1:2:0:0:
256,170,101645,1,8,1:2:0:0:
167,283,101788,6,0,L|101:272,4,52.5000020027161,10|0|8|0|8,1:2|1:0|1:2|1:0|1:2,0:0:0:0:
81,169,102216,2,0,L|15:158,4,52.5000020027161,10|0|8|0|8,1:2|1:0|1:2|1:0|1:2,0:0:0:0:
207,87,102645,2,0,L|141:76,2,52.5000020027161,10|0|8,1:2|1:0|1:2,0:0:0:0:
319,167,102931,5,8,1:2:0:0:
328,165,103002,1,8,0:0:0:0:
337,162,103073,1,8,1:2:0:0:
347,159,103145,1,8,0:0:0:0:
358,155,103216,1,10,1:2:0:0:
448,122,103359,1,8,1:2:0:0:
457,119,103431,1,8,0:0:0:0:
466,115,103502,1,12,1:2:0:0:
239,359,104073,5,0,1:0:0:0:
239,359,104216,1,0,1:0:0:0:
133,286,104359,2,0,L|110:123,1,140,12|0,0:0|1:0,0:0:0:0:
113,147,104573,1,0,1:0:0:0:
113,147,104645,1,0,1:0:0:0:
240,214,104788,2,0,L|263:51,1,140,12|0,0:0|1:0,0:0:0:0:
260,75,105002,1,0,1:0:0:0:
260,75,105073,1,0,1:0:0:0:
140,164,105216,2,0,L|117:1,1,140,12|0,0:0|1:0,0:0:0:0:
120,25,105431,1,0,1:0:0:0:
126,31,105502,6,0,L|59:26,2,52.5000020027161,8|8|8,0:0|0:0|0:0,0:0:0:0:
271,62,105788,2,0,L|204:57,2,52.5000020027161,8|8|8,0:0|0:0|0:0,0:0:0:0:
364,47,106073,1,8,0:0:0:0:
373,45,106145,1,8,0:0:0:0:
382,42,106216,1,8,0:0:0:0:
391,40,106288,1,8,0:0:0:0:
400,37,106359,5,4,1:0:0:0:
408,35,106645,2,0,P|408:121|416:274,1,210.000008010865,10|0,0:0|1:0,0:0:0:0:
275,102,107073,2,0,P|302:185|313:252,1,105.000004005432,0|10,1:0|0:0,0:0:0:0:
315,295,107359,1,0,1:0:0:0:
167,243,107502,6,0,P|227:250|229:405,1,210.000008010865,2|8,1:2|0:0,0:0:0:0:
119,161,107931,2,0,P|158:114|234:74,1,105.000004005432,2|0,1:2|1:0,0:0:0:0:
78,256,108216,1,0,1:0:0:0:
31,182,108359,2,0,P|12:110|9:45,1,105.000004005432,10|0,0:2|1:0,0:0:0:0:
0,320,108645,6,0,P|62:289|221:249,1,210.000008010865,2|8,1:2|0:0,0:0:0:0:
390,168,109073,2,0,P|323:175|242:170,1,105.000004005432,2|0,1:2|1:0,0:0:0:0:
263,349,109359,1,0,1:0:0:0:
335,270,109502,1,10,0:2:0:0:
160,49,109788,5,10,0:2:0:0:
156,56,109859,1,0,1:0:0:0:
152,63,109931,1,0,1:0:0:0:
248,65,110073,2,0,P|256:31|267:-12,2,52.5000020027161,8|0|2,0:0|1:0|1:2,0:0:0:0:
198,162,110359,1,8,0:0:0:0:
194,153,110431,1,0,1:0:0:0:
188,143,110502,1,0,1:0:0:0:
90,185,110645,2,0,P|98:151|109:108,2,52.5000020027161,10|0|0,0:2|1:0|1:0,0:0:0:0:
182,258,110931,5,4,1:0:0:0:
182,258,111216,2,0,P|257:267|411:281,1,210.000008010865,10|0,0:2|1:0,0:0:0:0:
239,352,111645,1,0,1:0:0:0:
135,339,111788,2,0,P|66:338|-12:340,1,105.000004005432,10|0,0:2|1:0,0:0:0:0:
316,151,112073,6,0,P|234:161|199:303,1,210.000008010865,2|8,1:2|0:0,0:0:0:0:
395,227,112502,2,0,P|347:236|265:253,1,105.000004005432,2|0,1:2|1:0,0:0:0:0:
475,160,112788,1,0,1:0:0:0:
476,260,112931,2,0,P|467:311|460:363,1,105.000004005432,10|0,0:2|1:0,0:0:0:0:
354,377,113216,5,2,1:2:0:0:
354,377,113359,1,0,1:0:0:0:
262,353,113502,1,8,0:0:0:0:
173,339,113645,1,0,1:0:0:0:
368,335,113788,2,0,P|274:349|151:366,1,210.000008010865,0|10,1:0|0:0,0:0:0:0:
73,68,114359,5,10,0:0:0:0:
77,77,114431,1,0,1:0:0:0:
83,87,114502,1,0,1:0:0:0:
181,57,114645,1,0,1:0:0:0:
155,158,114788,2,0,L|272:128,1,105.000004005432,10|0,0:0|1:0,0:0:0:0:
73,184,115073,1,0,1:0:0:0:
239,232,115216,2,0,B|324:227|324:227|361:197,1,105.000004005432,10|0,0:0|1:0,0:0:0:0:
467,155,115502,5,4,1:0:0:0:
467,155,115788,2,0,P|445:222|419:364,1,210.000008010865,10|0,0:0|1:0,0:0:0:0:
379,139,116216,2,0,P|365:88|346:39,1,105.000004005432,0|10,1:0|0:0,0:0:0:0:
350,225,116502,1,0,1:0:0:0:
226,262,116645,6,0,P|204:195|178:53,1,210.000008010865,2|8,1:2|0:0,0:0:0:0:
138,278,117073,2,0,P|124:328|105:377,1,105.000004005432,2|0,1:2|1:0,0:0:0:0:
109,192,117359,1,0,1:0:0:0:
45,129,117502,2,0,P|60:72|82:2,1,105.000004005432,10|0,0:2|1:0,0:0:0:0:
318,151,117788,6,0,P|295:76|156:62,1,210.000008010865,2|8,1:2|0:0,0:0:0:0:
385,62,118216,2,0,P|438:44|520:30,1,105.000004005432,2|0,1:2|1:0,0:0:0:0:
234,185,118502,1,0,1:0:0:0:
318,242,118645,1,10,0:0:0:0:
89,346,118931,5,10,0:0:0:0:
85,337,119002,1,0,1:0:0:0:
79,327,119073,1,0,1:0:0:0:
184,360,119216,2,0,P|176:326|165:283,2,52.5000020027161,8|0|2,0:0|1:0|1:2,0:0:0:0:
351,321,119502,1,8,0:0:0:0:
355,330,119573,1,0,1:0:0:0:
361,340,119645,1,0,1:0:0:0:
268,350,119788,2,0,P|262:325|256:299,2,52.5000020027161,10|0|0,0:2|1:0|1:0,0:0:0:0:
450,341,120073,5,4,1:0:0:0:
450,341,120359,2,0,P|439:266|424:112,1,210.000008010865,10|0,0:2|1:0,0:0:0:0:
482,265,120788,1,0,1:0:0:0:
353,241,120931,2,0,P|345:177|339:100,1,105.000004005432,10|0,0:0|1:0,0:0:0:0:
123,319,121216,6,0,P|155:223|253:202,1,210.000008010865,2|8,1:2|0:0,0:0:0:0:
9,207,121645,2,0,P|57:216|139:233,1,105.000004005432,2|0,1:2|1:0,0:0:0:0:
223,302,121931,1,0,1:0:0:0:
316,255,122073,2,0,P|324:306|331:358,1,105.000004005432,10|0,0:0|1:0,0:0:0:0:
475,237,122359,5,10,1:2:0:0:
395,179,122502,1,0,1:0:0:0:
393,186,122573,1,0,1:0:0:0:
393,193,122645,1,8,0:0:0:0:
387,99,122788,1,0,1:0:0:0:
463,41,122931,1,8,1:2:0:0:
469,128,123073,1,0,1:0:0:0:
478,126,123144,1,0,1:0:0:0:
484,125,123216,1,10,0:0:0:0:
309,26,123502,5,10,0:0:0:0:
228,80,123645,1,0,1:0:0:0:
226,87,123716,1,0,1:0:0:0:
226,94,123788,1,8,1:2:0:0:
282,203,123931,2,0,B|305:125|305:125|348:103,1,105.000004005432,10|0,0:0|1:0,0:0:0:0:
217,252,124216,1,0,1:0:0:0:
377,362,124359,2,0,B|363:290|363:290|311:252,1,105.000004005432,10|0,0:0|1:0,0:0:0:0:
172,381,124645,6,0,L|109:365,11,52.5000020027161,2|0|0|0|0|0|0|0|0|0|0|0,1:2|1:0|1:0|1:0|1:0|1:0|1:0|1:0|1:0|1:0|1:0|1:0,0:0:0:0:
66,308,125502,1,0,1:0:0:0:
78,304,125573,1,0,1:0:0:0:
91,301,125644,1,0,1:0:0:0:
104,298,125716,1,0,1:0:0:0:
116,294,125787,1,8,1:2:0:0:
256,192,125859,12,0,126788,1:0:0:0:
395,284,126931,5,4,1:0:0:0:
398,210,127073,1,0,1:0:0:0:
480,219,127216,1,0,1:0:0:0:
480,219,127288,1,0,1:0:0:0:
480,219,127359,1,0,1:0:0:0:
475,292,127502,1,8,0:0:0:0:
395,284,127645,1,0,1:0:0:0:
398,210,127788,1,0,1:0:0:0:
287,356,128073,5,0,1:0:0:0:
287,356,128145,1,0,1:0:0:0:
287,356,128216,1,0,1:0:0:0:
282,276,128359,1,0,1:0:0:0:
282,276,128431,1,0,1:0:0:0:
282,276,128502,1,0,1:0:0:0:
287,356,128645,1,12,0:0:0:0:
90,61,129216,5,0,1:0:0:0:
93,135,129359,1,0,1:0:0:0:
176,138,129502,1,0,1:0:0:0:
176,138,129573,1,0,1:0:0:0:
176,138,129645,1,0,1:0:0:0:
167,60,129788,1,8,0:0:0:0:
90,61,129931,1,0,1:0:0:0:
93,135,130073,1,0,1:0:0:0:
97,209,130216,1,0,1:0:0:0:
101,284,130359,1,12,0:0:0:0:
285,33,130931,6,0,L|275:259,1,210,12|0,0:0|0:0,0:0:0:0:
360,150,131502,5,0,1:0:0:0:
360,150,131573,1,0,1:0:0:0:
360,150,131645,1,0,1:0:0:0:
440,156,131788,1,0,1:0:0:0:
440,156,131859,1,0,1:0:0:0:
440,156,131931,1,0,1:0:0:0:
435,229,132073,1,8,0:0:0:0:
363,230,132216,1,0,1:0:0:0:
360,150,132359,1,0,1:0:0:0:
271,265,132645,5,0,1:0:0:0:
271,265,132716,1,0,1:0:0:0:
271,265,132788,1,0,1:0:0:0:
191,289,132931,1,0,1:0:0:0:
191,289,133002,1,0,1:0:0:0:
191,289,133073,1,0,1:0:0:0:
271,265,133216,1,12,0:0:0:0:
100,137,133788,5,0,1:0:0:0:
100,137,133859,1,0,1:0:0:0:
100,137,133931,1,0,1:0:0:0:
182,116,134073,5,8,0:0:0:0:
182,116,134145,1,0,1:0:0:0:
182,116,134216,1,0,1:0:0:0:
214,183,134359,1,0,1:0:0:0:
290,149,134502,5,8,0:0:0:0:
359,118,134645,1,0,1:0:0:0:
326,49,134788,1,0,1:0:0:0:
255,81,134931,1,8,0:0:0:0:
72,342,136073,5,2,1:2:0:0:
62,267,136216,1,2,1:2:0:0:
205,204,136502,1,2,1:2:0:0:
193,132,136645,1,10,0:2:0:0:
477,356,136931,5,0,1:2:0:0:
477,356,137073,1,0,1:2:0:0:
477,356,137359,5,0,1:2:0:0:
477,356,137502,1,0,1:2:0:0:
477,356,137788,5,8,0:2:0:0:
477,356,137931,1,0,1:2:0:0:
477,356,138216,1,0,1:2:0:0:
493,279,138359,5,2,1:2:0:0:
509,206,138502,1,2,1:2:0:0:
361,141,138788,1,2,1:2:0:0:
377,69,138931,1,10,0:2:0:0:
49,24,139216,5,0,1:2:0:0:
49,24,139359,1,0,1:2:0:0:
49,24,139645,5,0,1:2:0:0:
49,24,139788,1,0,1:2:0:0:
254,193,140073,5,8,0:2:0:0:
440,42,140645,5,6,1:2:0:0:
450,117,140788,1,2,1:2:0:0:
426,51,141073,1,2,1:2:0:0:
438,123,141216,1,10,0:2:0:0:
137,44,141502,5,0,1:2:0:0:
137,44,141645,1,0,1:2:0:0:
137,44,141931,5,0,1:2:0:0:
137,44,142073,1,0,1:2:0:0:
109,289,142359,5,8,0:2:0:0:
179,261,142502,1,2,1:2:0:0:
155,300,142645,1,0,1:2:0:0:
131,247,142788,1,2,1:2:0:0:
184,186,142931,5,2,1:2:0:0:
200,113,143073,1,2,1:2:0:0:
197,186,143359,1,2,1:2:0:0:
213,114,143502,1,10,0:2:0:0:
328,175,143788,6,0,L|312:271,1,70,2|2,1:2|1:2,0:0:0:0:
316,244,144002,1,0,1:0:0:0:
316,244,144073,1,10,0:2:0:0:
395,303,144216,1,0,1:2:0:0:
395,303,144288,1,0,1:2:0:0:
395,303,144359,1,10,0:2:0:0:
219,325,144645,5,10,0:2:0:0:
154,281,144788,1,0,1:2:0:0:
154,281,144859,1,0,1:2:0:0:
154,281,144931,1,10,0:2:0:0:
82,243,145073,1,0,1:2:0:0:
16,203,145216,5,2,1:2:0:0:
36,126,145359,1,2,1:2:0:0:
414,154,145645,5,2,1:2:0:0:
394,80,145788,1,10,0:2:0:0:
119,356,146073,5,0,1:2:0:0:
119,356,146216,1,0,1:2:0:0:
406,333,146502,5,0,1:2:0:0:
406,333,146645,1,0,1:2:0:0:
380,175,146931,5,8,0:2:0:0:
306,171,147073,1,0,1:2:0:0:
232,166,147216,1,0,1:2:0:0:
160,161,147359,1,0,1:2:0:0:
84,156,147502,5,2,1:2:0:0:
70,86,147645,1,2,1:2:0:0:
393,349,147931,5,2,1:2:0:0:
407,279,148073,1,10,0:2:0:0:
414,73,148359,5,0,1:2:0:0:
414,73,148502,1,0,1:2:0:0:
111,306,148788,5,0,1:2:0:0:
111,306,148931,1,0,1:2:0:0:
255,193,149216,5,8,0:2:0:0:
73,60,149788,5,2,1:2:0:0:
80,133,149931,1,2,1:2:0:0:
397,360,150216,5,2,1:2:0:0:
407,286,150359,1,10,0:2:0:0:
92,313,150645,5,0,1:2:0:0:
92,313,150788,1,0,1:2:0:0:
422,65,151073,5,0,1:2:0:0:
422,65,151216,1,0,1:2:0:0:
57,29,151502,5,10,0:2:0:0:
45,107,151645,1,2,1:2:0:0:
105,159,151788,1,2,1:2:0:0:
99,232,151931,1,2,1:2:0:0:
172,241,152073,6,0,L|227:250,2,35,10|0|0,0:2|1:2|1:2,0:0:0:0:
359,297,152359,6,0,L|303:291,2,35,10|0|0,0:2|1:2|1:2,0:0:0:0:
258,180,152645,5,10,0:2:0:0:
258,180,152716,1,0,1:2:0:0:
258,180,152788,1,0,1:2:0:0:
333,148,152931,5,10,0:2:0:0:
333,148,153002,1,0,1:2:0:0:
333,148,153073,1,0,1:2:0:0:
261,98,153216,5,6,0:2:0:0:
108,310,155216,5,8,0:0:0:0:
412,82,155502,1,12,0:0:0:0:
114,65,156645,6,0,L|135:299,1,210,12|0,0:0|0:0,0:0:0:0:
14,171,157216,2,0,L|253:145,1,210,12|0,0:0|0:0,0:0:0:0:
13,183,157788,1,12,0:0:0:0:
351,114,160073,5,4,1:2:0:0:
332,296,160359,1,4,1:2:0:0:
147,274,160645,1,4,1:2:0:0:
164,94,160931,1,4,1:2:0:0:
247,176,161216,6,0,L|234:242,4,35,6|0|0|0|0,1:2|1:0|1:0|1:0|1:0,0:0:0:0:
167,175,161645,2,0,L|116:169,4,35,2|0|0|0|0,1:2|1:0|1:0|1:0|1:0,0:0:0:0:
321,201,162073,2,0,L|365:208,2,35,2|0|0,1:2|1:0|1:0,0:0:0:0:
240,341,162359,5,6,1:2:0:0:
240,341,162645,5,8,0:0:0:0:
240,341,162716,1,0,1:0:0:0:
240,341,162788,1,0,1:0:0:0:
315,328,162931,5,0,1:0:0:0:
399,315,163073,5,10,0:2:0:0:
399,315,163145,1,0,1:0:0:0:
399,315,163216,1,0,1:0:0:0:
448,155,163502,5,10,0:0:0:0:
375,139,163645,5,0,1:0:0:0:
375,139,163716,1,0,1:0:0:0:
375,139,163788,1,8,0:0:0:0:
292,120,163931,5,10,0:0:0:0:
313,45,164073,1,8,0:0:0:0:
235,30,164216,1,8,0:0:0:0:
213,106,164359,1,10,0:0:0:0:
120,88,164502,1,8,0:0:0:0:
34,66,164645,5,4,1:0:0:0:
34,66,164931,1,10,0:0:0:0:
161,1,165073,2,0,P|143:35|105:221,1,210.000008010865,0|0,1:0|1:0,0:0:0:0:
0,209,165502,2,0,P|55:263|81:332,1,105.000004005432,10|0,0:0|1:0,0:0:0:0:
247,251,165788,6,0,P|187:258|185:413,1,210.000008010865,2|8,1:2|0:0,0:0:0:0:
315,315,166216,2,0,P|365:273|435:255,1,105.000004005432,2|0,1:2|1:0,0:0:0:0:
493,232,166502,1,0,1:0:0:0:
408,177,166645,2,0,P|336:156|271:152,1,105.000004005432,10|0,0:2|1:0,0:0:0:0:
162,125,166931,6,0,P|185:50|324:36,1,210.000008010865,2|8,1:2|0:0,0:0:0:0:
71,77,167359,2,0,P|78:132|89:209,1,105.000004005432,2|0,1:2|1:0,0:0:0:0:
166,217,167645,1,0,1:0:0:0:
155,315,167788,1,10,0:2:0:0:
161,327,168073,5,10,0:2:0:0:
157,336,168145,1,0,1:0:0:0:
151,346,168216,1,0,1:0:0:0:
244,369,168359,2,0,P|252:335|263:292,2,52.5000020027161,8|0|2,0:0|1:0|1:2,0:0:0:0:
319,260,168645,1,8,0:0:0:0:
315,251,168716,1,0,1:0:0:0:
309,241,168788,1,0,1:0:0:0:
393,187,168931,2,0,P|401:153|412:110,2,52.5000020027161,10|0|0,0:2|1:0|1:0,0:0:0:0:
345,62,169216,5,4,1:0:0:0:
345,62,169502,2,0,P|270:53|116:39,1,210.000008010865,10|0,0:2|1:0,0:0:0:0:
42,38,169931,1,0,1:0:0:0:
140,121,170073,2,0,P|71:122|-7:120,1,105.000004005432,10|0,0:2|1:0,0:0:0:0:
14,324,170359,6,0,P|46:228|144:207,1,210.000008010865,2|8,1:2|0:0,0:0:0:0:
198,352,170788,2,0,P|150:361|68:378,1,105.000004005432,2|0,1:2|1:0,0:0:0:0:
223,256,171073,1,0,1:0:0:0:
316,274,171216,2,0,P|392:285|450:296,1,105.000004005432,10|0,0:2|1:0,0:0:0:0:
494,216,171502,5,6,1:2:0:0:
494,216,171645,1,0,1:0:0:0:
483,111,171788,1,8,0:0:0:0:
419,186,171931,1,0,1:0:0:0:
499,196,172073,2,0,P|405:182|282:165,1,210.000008010865,0|10,1:0|0:0,0:0:0:0:
28,85,172645,5,10,0:0:0:0:
32,76,172716,1,0,1:0:0:0:
38,66,172788,1,0,1:0:0:0:
56,172,172931,1,0,1:0:0:0:
156,134,173073,2,0,L|126:251,1,105.000004005432,10|0,0:0|1:0,0:0:0:0:
50,184,173359,1,0,1:0:0:0:
218,239,173502,2,0,B|239:253|239:253|250:368,1,105.000004005432,10|0,0:0|1:0,0:0:0:0:
430,351,173788,5,4,1:0:0:0:
430,351,174073,2,0,P|452:284|478:142,1,210.000008010865,10|0,0:0|1:0,0:0:0:0:
345,93,174502,2,0,P|363:138|381:212,1,105.000004005432,0|10,1:0|0:0,0:0:0:0:
437,68,174788,1,0,1:0:0:0:
261,96,174931,6,0,P|239:163|213:305,1,210.000008010865,2|8,1:2|0:0,0:0:0:0:
346,354,175359,2,0,P|328:309|310:235,1,105.000004005432,2|0,1:2|1:0,0:0:0:0:
254,379,175645,1,0,1:0:0:0:
98,271,175788,2,0,P|130:338|142:382,1,105.000004005432,10|0,0:2|1:0,0:0:0:0:
141,131,176073,6,0,P|118:206|-21:220,1,210.000008010865,6|8,1:2|0:0,0:0:0:0:
127,118,176502,2,0,P|180:100|262:86,1,105.000004005432,2|0,1:2|1:0,0:0:0:0:
47,84,176788,1,0,1:0:0:0:
226,177,176931,1,10,0:0:0:0:
464,48,177216,5,10,0:0:0:0:
460,57,177288,1,0,1:0:0:0:
454,67,177359,1,0,1:0:0:0:
413,157,177502,2,0,P|405:191|394:234,2,52.5000020027161,8|0|2,0:0|1:0|1:2,0:0:0:0:
444,300,177788,1,12,1:2:0:0:
448,291,177859,1,0,1:0:0:0:
454,281,177931,1,0,1:0:0:0:
363,331,178073,2,0,P|369:356|375:382,2,52.5000020027161,10|0|0,0:0|1:0|1:0,0:0:0:0:
297,261,178359,5,4,1:0:0:0:
297,261,178645,2,0,P|288:186|275:32,1,210.000008010865,10|0,0:2|1:0,0:0:0:0:
199,177,179073,1,0,1:0:0:0:
377,82,179216,2,0,P|378:151|376:229,1,105.000004005432,10|0,0:0|1:0,0:0:0:0:
507,253,179502,6,0,P|411:285|390:383,1,210.000008010865,2|8,1:2|0:0,0:0:0:0:
225,305,179931,2,0,P|177:296|95:279,1,105.000004005432,2|0,1:2|1:0,0:0:0:0:
292,384,180216,1,0,1:0:0:0:
314,272,180359,2,0,P|303:196|292:138,1,105.000004005432,10|0,0:0|1:0,0:0:0:0:
391,47,180645,5,14,1:2:0:0:
379,49,180716,1,0,1:2:0:0:
367,52,180788,1,0,1:2:0:0:
272,27,180931,2,0,L|205:17,2,52.5000020027161,8|0|0,1:2|1:2|1:2,0:0:0:0:
150,66,181216,5,8,1:2:0:0:
140,70,181288,1,0,1:2:0:0:
129,73,181359,1,0,1:2:0:0:
119,77,181431,1,0,1:2:0:0:
109,80,181502,1,10,1:2:0:0:
35,232,181788,5,10,1:2:0:0:
101,292,181931,1,0,1:2:0:0:
114,287,182002,2,0,L|247:268,1,105.000004005432,0|0,1:2|1:2,0:0:0:0:
231,277,182216,1,2,1:2:0:0:
316,312,182359,2,0,L|397:331,2,52.5000020027161,8|0|0,1:2|1:2|1:2,0:0:0:0:
436,281,182645,1,10,1:2:0:0:
446,278,182716,1,0,1:2:0:0:
457,275,182788,1,0,1:2:0:0:
467,272,182859,1,0,1:2:0:0:
476,270,182931,5,4,1:0:0:0:
483,267,183216,2,0,P|490:169|368:119,1,245.000002336502,10|0,0:0|1:0,0:0:0:0:
172,57,183645,2,0,P|221:105|267:176,1,122.500001168251,0|10,1:0|0:2,0:0:0:0:
301,48,183931,1,0,1:0:0:0:
334,219,184073,6,0,P|265:186|91:129,1,245.000002336502,2|8,1:2|0:0,0:0:0:0:
231,270,184502,2,0,P|177:276|81:301,1,122.500001168251,2|0,1:2|1:0,0:0:0:0:
38,337,184788,1,0,1:0:0:0:
170,366,184931,2,0,P|233:374|301:384,1,122.500001168251,10|0,0:2|1:0,0:0:0:0:
382,86,185216,6,0,P|374:176|357:351,1,245.000002336502,6|8,1:2|0:0,0:0:0:0:
450,208,185645,2,0,P|359:194|293:184,1,122.500001168251,2|0,1:2|1:2,0:0:0:0:
227,179,185931,1,0,1:0:0:0:
458,193,186073,1,10,0:2:0:0:
464,180,186359,6,0,L|477:109,2,61.2500005841255,10|0|0,0:0|1:0|1:0,0:0:0:0:
381,80,186645,1,8,0:0:0:0:
375,55,186716,1,0,1:0:0:0:
367,30,186788,1,2,1:2:0:0:
266,69,186931,2,0,L|211:14,2,61.2500005841255,8|0|0,0:0|1:0|1:0,0:0:0:0:
151,87,187216,1,10,0:0:0:0:
125,79,187288,1,0,1:0:0:0:
99,73,187359,1,0,1:0:0:0:
0,195,187502,6,0,P|68:184|415:161,1,367.500003504753,4|0,0:0|1:0,0:0:0:0:
501,290,188073,6,0,B|457:255|457:255|323:276|323:276|274:345,1,245.000002336502,8|8,0:0|0:0,0:0:0:0:
406,348,188502,1,0,1:0:0:0:
496,300,188645,2,0,B|448:262|448:262|431:55,1,245.000002336502,8|8,0:0|0:0,0:0:0:0:
299,58,189073,1,0,1:0:0:0:
313,181,189216,1,8,0:0:0:0:
313,181,189288,1,0,1:0:0:0:
313,181,189359,1,0,1:0:0:0:
195,255,189502,2,0,L|179:118,1,122.500001168251,8|0,0:0|1:0,0:0:0:0:
47,65,189788,5,4,1:2:0:0:
47,65,189931,1,0,1:0:0:0:
169,16,190073,1,8,0:0:0:0:
169,16,190216,1,0,1:0:0:0:
287,61,190359,1,0,1:0:0:0:
287,61,190502,1,0,1:0:0:0:
412,15,190645,1,10,0:0:0:0:
424,31,190931,6,0,L|442:191,1,122.500001168251,10|0,0:0|1:0,0:0:0:0:
437,152,191145,1,0,1:0:0:0:
437,152,191216,1,0,1:0:0:0:
327,219,191359,2,0,L|309:379,1,122.500001168251,10|0,0:0|1:0,0:0:0:0:
314,340,191573,1,0,1:0:0:0:
314,340,191645,1,0,1:0:0:0:
411,288,191788,1,8,0:0:0:0:
227,229,191931,1,0,1:0:0:0:
218,205,192002,1,0,1:0:0:0:
211,178,192073,5,4,1:0:0:0:
214,185,192359,2,0,P|229:107|80:59,1,245.000002336502,10|0,0:0|1:0,0:0:0:0:
331,17,192788,2,0,P|321:79|314:171,1,122.500001168251,0|10,1:0|0:0,0:0:0:0:
305,227,193073,1,0,1:0:0:0:
397,345,193216,6,0,P|382:267|531:219,1,245.000002336502,2|8,1:2|0:0,0:0:0:0:
278,237,193645,2,0,P|288:299|295:391,1,122.500001168251,2|0,1:2|1:0,0:0:0:0:
401,360,193931,1,0,1:0:0:0:
211,369,194073,2,0,P|201:307|194:215,1,122.500001168251,10|0,0:2|1:0,0:0:0:0:
44,125,194359,6,0,P|89:206|221:144,1,245.000002336502,6|8,1:2|0:0,0:0:0:0:
300,27,194788,2,0,P|324:89|344:161,1,122.500001168251,2|0,1:2|1:0,0:0:0:0:
219,84,195073,1,0,1:0:0:0:
365,72,195216,1,10,0:2:0:0:
392,68,195288,1,0,1:0:0:0:
419,65,195359,1,0,1:0:0:0:
503,164,195502,6,0,P|445:185|377:358,1,245.000002336502,8|8,0:0|0:0,0:0:0:0:
232,260,195931,1,8,0:0:0:0:
253,277,196002,1,8,0:0:0:0:
264,298,196073,1,8,0:0:0:0:
176,198,196216,1,8,0:0:0:0:
186,189,196288,1,8,0:0:0:0:
192,179,196359,1,8,0:0:0:0:
148,282,196502,1,8,0:0:0:0:
83,211,196645,6,0,P|162:189|360:135,1,245.000002336502,4|8,1:0|0:0,0:0:0:0:
444,106,197073,1,0,1:0:0:0:
274,36,197216,6,0,B|310:53|310:53|332:154,1,122.500001168251,0|0,1:0|1:0,0:0:0:0:
503,233,197502,2,0,L|345:221,1,122.500001168251,8|0,0:0|1:0,0:0:0:0:
215,371,197788,2,0,B|173:338|173:338|228:216|228:216|309:228,1,245.000002336502,0|8,1:0|0:0,0:0:0:0:
315,318,198216,1,0,1:0:0:0:
104,249,198359,2,0,L|72:0,1,245.000002336502,0|8,1:0|0:0,0:0:0:0:
6,201,198788,1,0,1:0:0:0:
195,121,198931,6,0,L|347:99,1,122.500001168251,8|0,0:0|1:0,0:0:0:0:
316,103,199145,1,0,1:0:0:0:
316,103,199216,1,8,0:0:0:0:
265,34,199359,1,0,1:0:0:0:
332,117,199502,2,0,L|500:107,1,122.500001168251,8|0,0:0|1:0,0:0:0:0:
454,109,199716,1,0,1:0:0:0:
454,109,199788,1,10,0:2:0:0:
395,37,199931,1,0,1:0:0:0:
314,212,200073,6,0,L|172:229,1,122.500001168251,10|0,0:0|1:0,0:0:0:0:
192,226,200288,1,0,1:0:0:0:
192,226,200359,1,8,0:0:0:0:
165,343,200502,6,0,L|23:326,1,122.500001168251,2|8,1:2|0:0,0:0:0:0:
43,328,200716,1,0,1:0:0:0:
43,328,200788,1,0,1:0:0:0:
20,213,200931,1,10,0:2:0:0:
360,350,201216,6,0,L|436:368,10,61.2500005841255,10|0|0|0|0|0|0|0|0|0|0,0:0|1:0|1:0|1:0|1:0|1:0|1:0|1:0|1:0|1:0|1:0,0:0:0:0:
487,297,202073,1,2,1:2:0:0:
398,212,202216,1,0,1:0:0:0:
398,212,202288,1,0,1:0:0:0:
398,212,202359,6,0,L|297:228,2,61.2500005841255,10|0|0,0:0|1:0|1:0,0:0:0:0:
289,140,202645,1,0,1:0:0:0:
232,217,202788,1,2,1:2:0:0:
232,217,202859,1,0,1:0:0:0:
232,217,202931,2,0,L|160:239,2,61.2500005841255,8|0|0,0:0|1:0|1:0,0:0:0:0:
75,217,203216,1,2,1:2:0:0:
75,217,203288,1,0,1:0:0:0:
75,217,203359,1,0,1:0:0:0:
12,300,203502,5,12,0:0:0:0:
494,110,204073,1,12,0:0:0:0:
39,93,204645,1,12,0:0:0:0:
483,310,205216,1,12,0:0:0:0:
241,34,205788,5,0,1:0:0:0:
308,90,205931,1,0,1:0:0:0:
308,90,206002,1,0,1:0:0:0:
308,90,206073,1,0,1:0:0:0:
242,130,206216,1,0,1:0:0:0:
242,130,206288,1,0,1:0:0:0:
242,130,206359,5,10,0:0:0:0:
314,233,206502,1,10,0:0:0:0:
265,346,206645,1,10,0:0:0:0:
