osu file format v14

[General]
AudioFilename: audio.mp3
AudioLeadIn: 0
PreviewTime: 65126
Countdown: 0
SampleSet: Soft
StackLeniency: 0.7
Mode: 0
LetterboxInBreaks: 0
WidescreenStoryboard: 1

[Editor]
DistanceSpacing: 1.1
BeatDivisor: 4
GridSize: 16
TimelineZoom: 2.2

[Metadata]
Title:Victims of Contingency
TitleUnicode:Victims of Contingency
Artist:EPICA
ArtistUnicode:EPICA
Creator:DakiniBrave
Version:Dendy's Normal
Source:
Tags:Metal Symphonic The Quantum Enigma dutch english metal rock guitar drums orchestra fizz smug smug- lmt dereban dendy dendyhere
BeatmapID:1146664
BeatmapSetID:540457

[Difficulty]
HPDrainRate:3
CircleSize:3
OverallDifficulty:3.8
ApproachRate:6
SliderMultiplier:1
SliderTickRate:1

[Events]
//Background and Video events
0,0,"Thanks to everyone that has followed this map throughout its journey.jpg",0,0
//Break Periods
2,136073,143911
2,153416,154452
2,157988,159023
//Storyboard Layer 0 (Background)
//Storyboard Layer 1 (Fail)
//Storyboard Layer 2 (Pass)
//Storyboard Layer 3 (Foreground)
//Storyboard Sound Samples

[TimingPoints]
5777,285.714285714286,4,2,1,50,1,0
8062,-125,4,2,1,50,0,0
10348,-100,4,2,1,50,0,0
23991,-100,4,2,1,50,0,0
24063,-100,4,2,1,50,0,0
43890,352.941176470588,4,2,1,50,1,0
44066,285.714285714286,4,2,1,50,1,0
44626,285.714285714286,4,2,1,50,1,0
44626,-100,4,2,1,50,0,0
46931,285.714285714286,4,2,1,60,1,0
65216,-100,4,2,1,70,0,1
85788,-100,4,2,1,60,0,0
104073,-100,4,2,1,70,0,0
106359,-100,4,2,1,70,0,1
126931,-100,4,2,1,50,0,0
128859,-100,4,2,1,50,0,0
129216,-100,4,2,1,50,0,0
130502,-100,4,2,1,50,0,0
130931,-100,4,2,1,50,0,0
131431,-100,4,2,1,50,0,0
131502,-100,4,2,1,50,0,0
133359,-100,4,2,1,50,0,0
133787,-100,4,2,1,50,0,0
135145,-100,4,2,1,50,0,0
136073,-100,4,2,1,60,0,0
140216,-100,4,2,1,60,0,0
140645,-100,4,2,1,60,0,0
155216,-100,4,2,1,50,0,0
160073,-100,4,2,1,60,0,0
162359,-100,4,2,1,70,0,0
164645,-100,4,2,1,70,0,1
182931,-100,4,2,1,80,0,1
203502,-100,4,2,1,80,0,0
203645,-100,4,2,1,80,0,0
204073,-100,4,2,1,80,0,0
204216,-100,4,2,1,80,0,0
204645,-100,4,2,1,80,0,0
204787,-100,4,2,1,80,0,0
205216,-100,4,2,1,80,0,0
205359,-100,4,2,1,80,0,0
205787,-100,4,2,1,80,0,0
208073,-100,4,2,1,5,0,0

[Colours]
Combo1 : 0,64,128
Combo2 : 239,149,140
Combo3 : 230,75,45
Combo4 : 70,82,96

[HitObjects]
274,281,10348,6,0,P|228:296|175:279,2,100,0|0|8,1:0|1:0|0:0,0:0:0:0:
335,189,11205,1,0,1:0:0:0:
426,127,11491,2,0,B|479:228|390:228|437:332,1,200,0|8,1:0|0:0,0:0:0:0:
212,337,12634,6,0,P|163:335|115:295,1,100,0|0,1:0|1:0,0:0:0:0:
85,213,13205,2,0,P|96:171|95:103,1,100,8|0,0:0|1:0,0:0:0:0:
21,47,13777,2,0,P|62:18|128:20,2,100,0|0|10,1:0|1:0|0:0,0:0:0:0:
96,114,14634,1,0,1:0:0:0:
191,84,14919,6,0,B|273:85|273:85|309:108|309:108|398:107,1,200,2|8,1:2|0:0,0:0:0:0:
506,109,15777,1,8,0:0:0:0:
506,109,15919,1,8,0:0:0:0:
329,285,16634,2,0,B|304:279|304:279|282:288|282:288|258:280|258:280|234:285|234:285|205:279|205:279|172:286,1,150,10|0,2:0|0:0,0:0:0:0:
143,312,17205,6,0,P|127:290|125:201,1,100,4|0,1:0|1:0,0:0:0:0:
154,125,17777,2,0,P|164:84|147:17,1,100,8|0,0:0|1:0,0:0:0:0:
249,55,18348,2,0,L|358:42,2,100,0|0|8,1:0|1:0|0:0,0:0:0:0:
325,238,19491,6,0,P|270:233|225:249,1,100,0|0,1:0|1:0,0:0:0:0:
151,310,20062,2,0,P|117:318|41:296,1,100,8|0,0:0|1:0,0:0:0:0:
55,204,20634,2,0,P|101:187|163:204,1,100,0|0,1:0|1:0,0:0:0:0:
221,125,21205,2,0,P|272:120|329:142,1,100,8|0,0:0|1:0,0:0:0:0:
367,221,21777,6,0,B|420:252|468:219|468:219|415:194|406:134,1,200,0|8,1:0|0:0,0:0:0:0:
507,128,22634,1,8,0:0:0:0:
507,128,22777,1,8,0:0:0:0:
277,23,23491,2,0,P|203:40|143:113,1,150,10|0,2:0|0:0,0:0:0:0:
154,141,24062,6,0,P|108:110|43:114,1,100,4|0,1:0|1:0,0:0:0:0:
21,198,24634,2,0,P|25:228|14:261,1,50,8|0,0:0|0:0,0:0:0:0:
2,293,24919,1,0,1:0:0:0:
2,293,25062,1,8,0:0:0:0:
94,331,25348,2,0,B|126:317|126:317|196:333,2,100,12|12|12,2:0|2:0|2:0,0:0:0:0:
174,236,26348,6,0,P|200:239|283:264,1,100,6|0,1:2|1:0,0:0:0:0:
351,319,26919,2,0,P|373:318|447:294,1,100,10|0,0:0|1:0,0:0:0:0:
476,198,27491,2,0,L|484:93,2,100,10|2|10,0:0|1:2|0:0,0:0:0:0:
396,136,28348,1,10,0:0:0:0:
396,136,28634,6,0,P|360:136|294:106,1,100,10|0,0:2|1:0,0:0:0:0:
217,57,29205,2,0,P|172:78|122:81,1,100,10|0,0:2|1:0,0:0:0:0:
28,46,29777,2,0,B|-18:154|56:253|56:253|66:203|107:180,1,300,10|0,0:0|1:0,0:0:0:0:
153,268,30919,6,0,P|194:230|253:222,1,100,4|0,1:2|1:0,0:0:0:0:
334,237,31491,2,0,P|391:253|440:246,1,100,8|0,0:0|1:0,0:0:0:0:
455,205,31919,1,0,0:0:0:0:
455,205,32062,2,0,P|440:160|447:102,1,100,0|0,1:0|1:0,0:0:0:0:
475,12,32634,2,0,P|422:9|366:41,1,100,8|0,0:0|0:0,0:0:0:0:
344,63,33062,1,0,0:0:0:0:
344,63,33205,6,0,L|230:50,1,100,0|0,1:0|1:0,0:0:0:0:
170,119,33777,2,0,L|56:106,1,100,8|0,0:0|1:0,0:0:0:0:
14,190,34348,2,0,L|24:304,1,100,0|0,1:0|1:0,0:0:0:0:
31,339,34777,1,0,1:0:0:0:
31,339,34919,2,0,P|52:289|104:262,1,100,8|0,0:0|1:0,0:0:0:0:
180,308,35491,6,0,P|201:321|293:324,1,100,4|0,1:2|1:0,0:0:0:0:
373,346,36062,2,0,P|394:334|443:256,1,100,10|0,0:2|1:0,0:0:0:0:
380,193,36634,2,0,L|391:78,2,100,10|2|10,0:0|1:2|0:0,0:0:0:0:
286,228,37491,1,10,0:0:0:0:
286,228,37777,6,0,P|261:200|194:177,1,100,10|0,0:2|1:0,0:0:0:0:
129,243,38348,2,0,P|93:278|44:286,1,100,10|0,0:2|1:0,0:0:0:0:
51,186,38919,2,0,B|9:138|45:68|45:68|140:26|128:103|226:50,1,300,10|0,0:0|1:0,0:0:0:0:
305,23,40062,6,0,P|314:67|291:133,1,100,4|0,0:1|1:0,0:0:0:0:
275,163,40491,1,0,1:0:0:0:
275,163,40634,2,0,L|396:154,1,100,4|0,0:1|1:0,0:0:0:0:
374,255,41205,2,0,L|253:246,1,100,4|0,1:0|1:0,0:0:0:0:
233,277,41634,1,0,1:0:0:0:
233,277,41777,2,0,L|122:262,1,100,8|0,0:0|0:0,0:0:0:0:
50,319,42348,5,0,1:0:0:0:
15,225,42634,2,0,P|11:167|27:105,1,100,8|0,0:0|1:0,0:0:0:0:
48,86,43062,2,0,P|92:101|168:98,1,100,8|0,0:0|1:0,0:0:0:0:
183,69,43491,1,8,0:0:0:0:
376,4,44066,6,0,L|369:122,1,100,4|0,0:0|0:0,0:0:0:0:
404,197,44626,1,4,0:0:0:0:
391,293,46055,5,14,1:2:0:0:
404,193,46341,1,14,1:2:0:0:
420,94,46626,1,14,1:2:0:0:
326,129,46931,6,0,P|236:82|130:112,1,200,12|8,0:0|0:0,0:0:0:0:
125,201,47788,2,0,L|179:193,1,50,8|0,0:0|1:0,0:0:0:0:
203,234,48073,2,0,L|95:248,1,100,8|8,0:0|0:0,0:0:0:0:
56,262,48502,1,0,1:0:0:0:
56,262,48645,2,0,P|82:304|82:373,1,100,8|8,0:0|0:0,0:0:0:0:
184,331,49216,6,0,L|293:346,1,100,8|8,0:0|0:0,0:0:0:0:
333,351,49645,1,0,1:0:0:0:
333,351,49788,2,0,P|341:321|407:268,1,100,8|8,0:0|0:0,0:0:0:0:
464,339,50359,2,0,P|485:262|395:175,2,200,2|2|2,1:2|1:2|1:2,0:0:0:0:
313,207,52073,6,0,P|310:156|379:78,1,150,2|0,1:2|0:0,0:0:0:0:
417,68,52645,2,0,P|368:72|318:40,1,100,10|10,0:0|0:0,0:0:0:0:
228,75,53216,2,0,P|184:50|135:54,1,100,2|2,1:2|1:2,0:0:0:0:
59,120,53788,6,0,L|66:227,1,100,8|8,0:0|0:0,0:0:0:0:
71,269,54216,1,0,1:0:0:0:
71,269,54359,2,0,P|110:232|169:224,1,100,8|8,0:0|0:0,0:0:0:0:
212,303,54931,2,0,L|323:315,1,100,8|8,0:0|0:0,0:0:0:0:
385,246,55502,2,0,P|432:263|487:249,1,100,8|8,0:0|0:0,0:0:0:0:
435,163,56073,6,0,P|425:117|444:56,1,100,8|8,0:0|0:0,0:0:0:0:
465,24,56502,1,0,1:0:0:0:
465,24,56645,2,0,P|420:47|362:46,1,100,8|8,0:0|0:0,0:0:0:0:
278,86,57216,2,0,B|167:126|192:39|67:75,2,200,2|2|2,1:2|1:2|1:2,0:0:0:0:
114,200,58931,6,0,L|100:306,1,100,2|8,1:2|0:0,0:0:0:0:
180,359,59502,2,0,L|278:318,1,100,2|10,1:2|0:2,0:0:0:0:
280,221,60073,2,0,L|195:155,1,100,10|10,0:2|0:2,0:0:0:0:
114,200,60645,6,0,P|106:152|211:63,1,200,14|8,1:2|1:2,0:0:0:0:
297,110,61502,2,0,P|321:115|357:100,1,50,10|8,1:2|1:2,0:0:0:0:
392,89,61788,2,0,P|371:136|379:202,1,100,10|8,1:2|1:2,0:0:0:0:
442,254,62359,2,0,P|455:308|436:364,1,100,10|10,1:2|1:2,0:0:0:0:
355,303,62931,6,0,P|322:284|247:284,1,100,10|8,1:2|1:2,0:0:0:0:
223,313,63359,1,8,1:2:0:0:
223,313,63502,2,0,L|105:295,1,100,10|8,1:2|1:2,0:0:0:0:
67,215,64073,2,0,B|115:190|120:132|120:132|89:82|119:23,1,200,8|12,0:0|0:0,0:0:0:0:
309,71,65216,6,0,P|355:96|422:99,1,100,4|10,1:0|0:0,0:0:0:0:
450,88,65645,1,0,1:0:0:0:
450,88,65788,2,0,L|433:192,1,100,0|10,1:0|0:0,0:0:0:0:
404,282,66359,2,0,P|369:241|315:225,1,100,2|8,1:2|0:0,0:0:0:0:
278,241,66788,1,2,1:2:0:0:
278,241,66931,2,0,L|170:263,1,100,0|10,1:0|0:2,0:0:0:0:
105,189,67502,6,0,P|98:142|120:90,1,100,2|8,1:2|0:0,0:0:0:0:
154,60,67931,1,2,1:2:0:0:
154,60,68073,2,0,L|262:71,1,100,0|10,1:0|0:2,0:0:0:0:
330,134,68645,2,0,B|378:126|378:126|433:154,1,100,10|8,0:2|0:0,0:0:0:0:
411,248,69216,2,0,B|363:256|363:256|308:228,1,100,8|10,0:0|0:2,0:0:0:0:
228,279,69788,5,4,1:0:0:0:
228,279,70073,2,0,P|234:240|179:127,1,150,10|0,0:2|1:0,0:0:0:0:
150,115,70645,2,0,L|159:52,1,50,10|0,0:2|1:0,0:0:0:0:
120,31,70931,2,0,L|102:150,1,100,2|8,1:2|0:0,0:0:0:0:
63,165,71359,1,0,1:0:0:0:
63,165,71502,2,0,L|80:284,1,100,0|8,1:0|0:0,0:0:0:0:
58,372,72073,6,0,P|106:298|239:285,1,200,2|0,1:2|1:0,0:0:0:0:
289,352,72931,2,0,L|351:345,1,50,10|0,0:0|1:0,0:0:0:0:
392,356,73216,2,0,B|404:290|404:290|394:273|394:273|411:188,2,150,10|10|10,0:0|0:0|0:0,0:0:0:0:
494,315,74359,5,4,1:0:0:0:
494,315,74645,2,0,L|515:201,1,100,10|0,0:0|1:0,0:0:0:0:
481,110,75216,2,0,L|418:90,1,50,10|0,0:0|1:0,0:0:0:0:
388,119,75502,2,0,P|336:110|268:129,1,100,2|8,1:2|0:0,0:0:0:0:
246,143,75931,1,2,1:2:0:0:
246,143,76073,2,0,L|126:117,1,100,0|10,1:0|0:2,0:0:0:0:
61,70,76645,6,0,P|49:112|67:183,1,100,2|8,1:2|0:0,0:0:0:0:
93,202,77073,1,2,1:2:0:0:
93,202,77216,2,0,P|105:244|87:315,1,100,0|10,1:0|0:0,0:0:0:0:
187,338,77788,2,0,B|236:325|236:325|293:343,1,100,10|8,0:0|0:0,0:0:0:0:
348,264,78359,2,0,B|395:279|395:279|443:265,1,100,8|10,0:0|0:2,0:0:0:0:
498,181,78931,5,4,1:0:0:0:
498,181,79216,2,0,P|514:126|467:42,1,150,10|0,0:2|1:0,0:0:0:0:
426,31,79788,2,0,L|366:39,1,50,10|0,0:0|1:0,0:0:0:0:
337,69,80073,2,0,P|287:56|214:80,1,100,2|8,1:2|0:0,0:0:0:0:
198,92,80502,1,2,1:2:0:0:
198,92,80645,2,0,P|222:135|221:199,1,100,0|10,1:0|0:0,0:0:0:0:
142,262,81216,6,0,B|234:274|234:274|251:295|251:295|344:305,1,200,10|8,1:2|1:2,0:0:0:0:
384,216,82073,2,0,P|389:187|375:154,1,50,10|0,0:0|1:0,0:0:0:0:
368,119,82359,2,0,P|395:58|472:27,2,150,10|10|10,0:0|0:0|0:0,0:0:0:0:
291,54,83502,6,0,B|134:117|165:-33|1:28,1,300,2|0,1:2|1:0,0:0:0:0:
63,108,84645,6,0,L|43:255,2,125,8|8|0,1:2|0:0|1:0,0:0:0:0:
215,171,85788,6,0,L|413:192,1,200,12|8,0:0|0:0,0:0:0:0:
485,108,86645,2,0,P|458:100|425:100,1,50,8|0,0:0|1:0,0:0:0:0:
404,53,86931,2,0,P|354:57|295:38,1,100,8|8,0:0|0:0,0:0:0:0:
256,68,87359,1,0,1:0:0:0:
256,68,87502,2,0,P|208:54|153:71,1,100,8|8,0:0|0:0,0:0:0:0:
96,155,88073,6,0,P|147:179|205:170,1,100,8|8,0:0|0:0,0:0:0:0:
240,197,88502,1,0,1:0:0:0:
240,197,88645,2,0,P|219:249|224:298,1,100,8|8,0:0|0:0,0:0:0:0:
320,342,89216,2,0,P|409:315|516:372,2,200,2|2|2,1:2|1:2|1:2,0:0:0:0:
196,169,90931,6,0,L|29:134,1,150,2|0,1:2|0:0,0:0:0:0:
1,121,91502,2,0,P|25:77|77:56,1,100,2|10,1:2|1:2,0:0:0:0:
167,40,92073,2,0,P|211:65|260:61,1,100,2|10,1:2|1:2,0:0:0:0:
342,5,92645,6,0,L|349:112,1,100,8|8,0:0|0:0,0:0:0:0:
355,154,93073,1,0,1:0:0:0:
355,154,93216,2,0,P|394:117|453:109,1,100,8|8,0:0|0:0,0:0:0:0:
444,207,93788,2,0,L|434:315,1,100,8|8,0:0|0:0,0:0:0:0:
341,343,94359,2,0,P|294:360|239:346,1,100,8|8,0:0|0:0,0:0:0:0:
170,284,94931,6,0,P|160:238|179:177,1,100,8|8,0:0|0:0,0:0:0:0:
188,139,95359,1,0,1:0:0:0:
188,139,95502,2,0,P|143:162|85:161,1,100,8|8,0:0|0:0,0:0:0:0:
116,65,96073,2,0,B|165:19|231:42|231:42|260:75|319:72,2,200,2|2|2,1:2|1:2|1:2,0:0:0:0:
79,261,97788,6,0,P|58:308|65:367,1,100,2|8,1:2|0:0,0:0:0:0:
154,318,98359,2,0,P|191:284|252:277,1,100,2|10,1:2|0:2,0:0:0:0:
317,336,98931,2,0,P|368:355|425:346,1,100,10|10,0:2|0:2,0:0:0:0:
477,273,99502,6,0,B|482:235|515:215|515:215|489:75,1,200,10|8,1:2|1:2,0:0:0:0:
433,7,100359,2,0,P|412:19|388:46,1,50,10|8,1:2|1:2,0:0:0:0:
369,81,100645,2,0,P|314:87|260:61,1,100,10|8,1:2|1:2,0:0:0:0:
190,126,101216,2,0,L|78:145,1,100,10|10,1:2|1:2,0:0:0:0:
99,242,101788,6,0,L|197:259,1,100,10|8,1:2|1:2,0:0:0:0:
229,297,102216,1,10,1:2:0:0:
229,297,102359,2,0,P|277:278|327:281,1,100,8|10,1:2|1:2,0:0:0:0:
383,362,102931,2,0,B|429:339|429:278|429:278|429:167,1,200,8|12,1:2|1:2,0:0:0:0:
256,79,104073,5,0,1:0:0:0:
256,179,104359,2,0,P|210:167|170:120,1,100,12|0,0:0|1:0,0:0:0:0:
153,84,104788,2,0,P|100:70|47:94,1,100,12|0,0:0|1:0,0:0:0:0:
29,125,105216,1,12,0:0:0:0:
30,225,105502,2,0,P|81:210|113:166,2,100,8|8|8,0:0|0:0|0:0,0:0:0:0:
14,325,106359,6,0,P|60:350|127:353,1,100,4|10,1:0|0:0,0:0:0:0:
144,321,106788,1,0,1:0:0:0:
144,321,106931,2,0,L|262:304,1,100,0|10,1:0|0:0,0:0:0:0:
327,360,107502,2,0,L|346:259,1,100,2|8,1:2|0:0,0:0:0:0:
380,225,107931,1,2,1:2:0:0:
380,225,108073,2,0,L|396:124,1,100,0|10,1:0|0:2,0:0:0:0:
427,30,108645,6,0,P|369:27|321:54,1,100,2|8,1:2|0:0,0:0:0:0:
303,85,109073,1,2,1:2:0:0:
303,85,109216,2,0,L|195:74,1,100,0|10,1:0|0:2,0:0:0:0:
122,133,109788,2,0,B|72:133|72:133|99:176,1,100,10|8,0:2|0:0,0:0:0:0:
189,216,110359,2,0,B|239:216|239:216|212:173,1,100,8|10,0:0|0:2,0:0:0:0:
309,150,110931,5,4,1:0:0:0:
309,150,111216,2,0,P|336:228|299:297,1,150,10|0,0:2|1:0,0:0:0:0:
268,313,111788,2,0,P|244:304|207:299,1,50,10|0,0:2|1:0,0:0:0:0:
171,315,112073,2,0,P|123:312|71:283,1,100,2|8,1:2|0:0,0:0:0:0:
49,240,112502,1,2,1:2:0:0:
49,240,112645,2,0,P|69:194|61:132,1,100,0|10,1:0|0:2,0:0:0:0:
45,37,113216,6,0,P|126:80|251:71,1,200,2|0,1:2|1:0,0:0:0:0:
307,157,114073,2,0,L|369:150,1,50,10|0,0:0|1:0,0:0:0:0:
407,148,114359,2,0,B|420:110|404:70|404:70|439:53|459:21,2,150,10|10|10,0:0|0:0|0:0,0:0:0:0:
412,247,115502,5,4,1:0:0:0:
412,247,115788,2,0,L|296:260,1,100,10|0,0:0|1:0,0:0:0:0:
239,326,116359,2,0,L|176:306,1,50,10|0,0:0|1:0,0:0:0:0:
161,270,116645,2,0,P|109:261|41:280,1,100,2|8,1:2|0:0,0:0:0:0:
19,294,117073,1,2,1:2:0:0:
19,294,117216,2,0,L|39:181,1,100,0|10,1:0|0:2,0:0:0:0:
12,97,117788,6,0,P|61:95|109:128,1,100,2|8,1:2|0:0,0:0:0:0:
153,115,118216,1,2,1:2:0:0:
153,115,118359,2,0,P|165:157|147:228,1,100,0|10,1:0|0:0,0:0:0:0:
108,300,118931,2,0,B|130:290|130:290|207:306,1,100,10|8,0:0|0:0,0:0:0:0:
301,329,119502,2,0,B|378:343|378:343|397:329,1,100,8|10,0:0|0:2,0:0:0:0:
404,230,120073,5,4,1:0:0:0:
501,251,120359,2,0,P|513:195|490:101,1,150,10|0,0:2|1:0,0:0:0:0:
450,79,120931,2,0,P|427:89|390:87,1,50,10|0,0:0|1:0,0:0:0:0:
354,73,121216,2,0,P|303:52|249:65,1,100,2|8,1:2|0:0,0:0:0:0:
210,51,121645,1,2,1:2:0:0:
210,51,121788,2,0,L|180:154,1,100,0|10,1:0|0:0,0:0:0:0:
85,174,122359,6,0,P|165:244|261:208,1,200,10|8,1:2|1:2,0:0:0:0:
330,163,123216,2,0,L|337:212,1,50,10|0,0:0|1:0,0:0:0:0:
383,232,123502,2,0,P|460:209|531:252,2,150,10|10|10,0:0|0:0|0:0,0:0:0:0:
448,307,124645,6,0,B|385:351|318:304|318:304|297:314|297:314|225:270|159:306,1,300,2|0,1:2|1:0,0:0:0:0:
180,192,125788,6,0,P|114:195|49:172,2,125,8|8|0,1:2|0:0|1:0,0:0:0:0:
256,45,126931,6,0,P|307:33|359:50,2,100,4|0|8,1:0|1:0|0:0,0:0:0:0:
303,127,127788,1,0,1:0:0:0:
389,172,128073,2,0,B|386:257|386:257|368:279|368:279|370:373,1,200,0|12,1:0|0:0,0:0:0:0:
169,339,129216,6,0,P|120:334|72:297,1,100,0|0,1:0|1:0,0:0:0:0:
36,218,129788,2,0,P|52:171|46:108,1,100,8|0,0:0|1:0,0:0:0:0:
127,58,130359,2,0,P|175:43|208:90,1,100,12|0,0:0|0:0,0:0:0:0:
225,173,130931,6,0,B|310:212|310:212|374:194,1,150,12|0,0:0|0:0,0:0:0:0:
412,182,131502,2,0,L|392:290,1,100,0|0,1:0|1:0,0:0:0:0:
375,378,132073,2,0,P|345:358|273:343,1,100,8|0,0:0|1:0,0:0:0:0:
193,297,132645,2,0,L|82:309,1,100,0|0,1:0|1:0,0:0:0:0:
26,233,133216,1,12,0:0:0:0:
123,56,133788,2,0,L|177:68,1,50,0|0,1:0|1:0,0:0:0:0:
187,114,134073,2,0,L|84:87,1,100,8|0,0:0|1:0,0:0:0:0:
39,89,134502,1,8,0:0:0:0:
39,89,134645,2,0,P|62:136|57:200,1,100,0|8,1:0|0:0,0:0:0:0:
29,70,145216,6,0,L|140:57,1,100,2|0,1:2|1:2,0:0:0:0:
211,115,145788,2,0,L|322:102,1,100,10|0,0:2|1:2,0:0:0:0:
359,96,146216,1,0,1:2:0:0:
458,86,146502,1,0,1:2:0:0:
458,86,146645,2,0,P|438:128|442:191,1,100,0|8,1:2|0:2,0:0:0:0:
462,224,147073,2,0,P|469:276|446:332,1,100,0|0,1:2|1:2,0:0:0:0:
427,362,147502,6,0,P|411:347|325:322,1,100,2|0,1:2|1:2,0:0:0:0:
244,286,148073,2,0,P|205:309|137:306,1,100,10|0,0:2|1:2,0:0:0:0:
106,288,148502,1,0,1:2:0:0:
54,202,148788,1,0,1:2:0:0:
54,202,148931,2,0,L|75:89,1,100,0|8,1:2|0:2,0:0:0:0:
277,65,149788,6,0,P|326:45|388:52,1,100,2|0,1:2|1:2,0:0:0:0:
419,65,150216,1,2,1:2:0:0:
419,65,150359,2,0,L|401:171,1,100,10|0,0:2|1:2,0:0:0:0:
393,212,150788,1,0,1:2:0:0:
400,311,151073,1,0,1:2:0:0:
400,311,151216,2,0,P|355:286|290:287,1,100,0|10,1:2|0:2,0:0:0:0:
107,277,152073,6,0,P|79:323|16:344,1,100,10|10,0:2|0:2,0:0:0:0:
15,244,152645,2,0,P|43:198|106:177,1,100,10|10,0:2|0:2,0:0:0:0:
180,201,153216,1,6,0:2:0:0:
121,88,155502,5,12,0:0:0:0:
121,88,156645,5,12,0:0:0:0:
315,42,157216,1,12,0:0:0:0:
259,234,157788,1,12,0:0:0:0:
259,234,160073,6,0,P|308:222|354:178,1,100,4|4,1:2|1:2,0:0:0:0:
379,96,160645,2,0,L|487:114,1,100,4|4,1:2|1:2,0:0:0:0:
498,210,161216,2,0,P|462:213|410:260,1,100,6|0,1:2|1:0,0:0:0:0:
408,302,161645,1,2,1:2:0:0:
408,302,161788,2,0,P|361:288|301:288,1,100,0|2,1:0|1:2,0:0:0:0:
247,208,162359,6,0,P|144:183|209:296,1,300,6|0,1:2|1:0,0:0:0:0:
310,286,163502,2,0,P|360:287|408:302,1,100,10|8,0:0|0:0,0:0:0:0:
457,296,163931,2,0,P|456:254|487:193,1,100,10|8,0:0|0:0,0:0:0:0:
494,52,164645,6,0,P|448:31|391:38,1,100,4|10,1:0|0:0,0:0:0:0:
366,72,165073,1,0,1:0:0:0:
366,72,165216,2,0,L|267:57,1,100,0|10,1:0|0:0,0:0:0:0:
248,155,165788,2,0,L|356:172,1,100,2|8,1:2|0:0,0:0:0:0:
379,208,166216,1,2,1:2:0:0:
379,208,166359,2,0,P|347:248|345:317,1,100,0|10,1:0|0:2,0:0:0:0:
259,354,166931,6,0,P|221:352|165:319,1,100,2|8,1:2|0:0,0:0:0:0:
146,276,167359,1,2,1:2:0:0:
146,276,167502,2,0,L|38:265,1,100,0|10,1:0|0:2,0:0:0:0:
42,165,168073,2,0,B|96:171|96:171|141:140,1,100,10|8,0:2|0:0,0:0:0:0:
204,73,168645,2,0,B|249:47|249:47|311:71,1,100,8|10,0:0|0:2,0:0:0:0:
375,122,169216,5,4,1:0:0:0:
375,122,169502,2,0,P|402:200|365:269,1,150,10|0,0:2|1:0,0:0:0:0:
345,295,170073,2,0,P|321:286|284:281,1,50,10|0,0:2|1:0,0:0:0:0:
258,314,170359,2,0,P|210:311|158:282,1,100,2|8,1:2|0:0,0:0:0:0:
109,296,170788,1,2,1:2:0:0:
109,296,170931,2,0,P|102:250|128:190,1,100,0|10,1:0|0:2,0:0:0:0:
159,97,171502,6,0,B|248:85|248:85|267:96|267:96|363:84,1,200,6|0,1:2|1:0,0:0:0:0:
443,149,172359,2,0,P|422:164|407:200,1,50,10|0,0:0|1:0,0:0:0:0:
412,240,172645,2,0,P|361:199|263:203,2,150,10|10|10,0:0|0:0|0:0,0:0:0:0:
458,339,173788,5,4,1:0:0:0:
349,324,174073,2,0,P|325:307|241:286,1,100,10|0,0:0|1:0,0:0:0:0:
194,334,174645,2,0,L|131:314,1,50,10|0,0:0|1:0,0:0:0:0:
116,278,174931,2,0,P|64:270|-4:288,1,100,2|8,1:2|0:0,0:0:0:0:
25,228,175359,1,2,1:2:0:0:
25,228,175502,2,0,P|48:175|45:115,1,100,0|10,1:0|0:2,0:0:0:0:
25,35,176073,6,0,P|74:33|122:66,1,100,6|8,1:2|0:0,0:0:0:0:
147,98,176502,1,2,1:2:0:0:
147,98,176645,2,0,P|206:104|253:78,1,100,0|10,1:0|0:0,0:0:0:0:
331,42,177216,2,0,B|338:155,1,100,10|8,0:0|0:0,0:0:0:0:
324,237,177788,2,0,B|330:336,1,100,12|10,1:2|0:0,0:0:0:0:
230,327,178359,5,4,1:0:0:0:
230,327,178645,2,0,L|81:308,1,150,10|0,0:2|1:0,0:0:0:0:
33,290,179216,2,0,P|52:269|65:237,1,50,10|0,0:0|1:0,0:0:0:0:
65,199,179502,2,0,P|71:147|53:90,1,100,2|8,1:2|0:0,0:0:0:0:
48,52,179931,1,2,1:2:0:0:
48,52,180073,2,0,P|89:74|162:73,1,100,0|10,1:0|0:0,0:0:0:0:
236,47,180645,6,0,B|341:11|325:101|442:63,1,200,14|8,1:2|1:2,0:0:0:0:
483,151,181502,2,0,L|490:200,1,50,10|0,1:2|1:2,0:0:0:0:
496,250,181788,2,0,P|438:201|351:213,2,150,10|2|10,1:2|1:2|1:2,0:0:0:0:
491,349,182931,6,0,P|456:344|404:294,1,100,4|10,1:0|0:0,0:0:0:0:
358,297,183359,1,0,1:0:0:0:
358,297,183502,2,0,P|330:315|256:310,1,100,0|10,1:0|0:2,0:0:0:0:
188,262,184073,2,0,P|153:234|91:234,1,100,2|8,1:2|0:0,0:0:0:0:
51,247,184502,1,2,1:2:0:0:
51,247,184645,2,0,P|77:201|85:138,1,100,0|10,1:0|0:2,0:0:0:0:
69,53,185216,6,0,P|110:79|160:84,1,100,6|8,1:2|0:0,0:0:0:0:
203,59,185645,1,2,1:2:0:0:
203,59,185788,2,0,L|311:48,1,100,0|10,1:2|0:2,0:0:0:0:
395,12,186359,2,0,B|405:49|405:49|387:124,1,100,10|8,0:0|0:0,0:0:0:0:
338,194,186931,2,0,B|383:213|383:213|444:198,1,100,8|10,0:0|0:0,0:0:0:0:
465,290,187502,5,4,0:0:0:0:
465,290,187788,2,0,L|361:314,1,100,8|8,1:2|0:0,0:0:0:0:
271,341,188359,2,0,P|247:332|210:327,1,50,8|0,0:0|1:0,0:0:0:0:
179,352,188645,2,0,P|138:320|79:320,1,100,8|8,0:0|0:0,0:0:0:0:
2,362,189216,2,0,P|-9:318|15:256,1,100,8|8,0:0|0:0,0:0:0:0:
37,226,189645,1,0,1:0:0:0:
37,226,189788,6,0,B|102:211|102:211|167:239|167:239|242:215,1,200,4|0,1:2|1:0,0:0:0:0:
244,121,190645,2,0,P|273:127|306:152,1,50,10|0,0:0|1:0,0:0:0:0:
332,164,190931,2,0,B|319:77|319:77|350:4,2,150,10|10|8,0:0|0:0|0:0,0:0:0:0:
350,260,192073,5,4,1:0:0:0:
365,359,192359,2,0,P|325:356|268:316,1,100,10|0,0:0|1:0,0:0:0:0:
179,294,192931,2,0,L|113:314,1,50,10|0,0:0|1:0,0:0:0:0:
88,334,193216,2,0,P|105:287|99:234,1,100,2|8,1:2|0:0,0:0:0:0:
65,202,193645,1,2,1:2:0:0:
65,202,193788,2,0,P|61:153|85:89,1,100,0|10,1:0|0:2,0:0:0:0:
139,27,194359,6,0,P|174:51|236:58,1,100,6|8,1:2|0:0,0:0:0:0:
278,85,194788,1,2,1:2:0:0:
278,85,194931,2,0,P|320:64|384:65,1,100,0|10,1:0|0:2,0:0:0:0:
473,18,195502,2,0,P|476:68|458:127,1,100,8|8,0:0|0:0,0:0:0:0:
425,219,196073,2,0,P|420:252|431:318,1,100,8|8,0:0|0:0,0:0:0:0:
326,345,196645,5,4,1:0:0:0:
326,345,196931,2,0,L|188:328,1,100,8|0,0:0|1:0,0:0:0:0:
126,324,197502,2,0,P|128:300|121:267,1,50,8|0,0:0|1:0,0:0:0:0:
90,237,197788,2,0,P|78:187|83:128,1,100,0|8,1:0|0:0,0:0:0:0:
101,93,198216,1,0,1:0:0:0:
101,93,198359,2,0,P|142:115|215:114,1,100,0|8,1:0|0:0,0:0:0:0:
274,58,198931,6,0,B|329:44|329:44|471:100,1,200,8|8,0:0|0:0,0:0:0:0:
423,188,199788,2,0,L|430:237,1,50,10|0,0:2|1:0,0:0:0:0:
437,287,200073,2,0,P|374:236|292:250,2,150,10|2|10,0:0|1:2|0:2,0:0:0:0:
350,337,201216,6,0,P|251:326|249:157,1,300,10|2,0:0|1:2,0:0:0:0:
313,82,202359,2,0,P|237:60|161:118,2,150,10|2|2,0:0|1:2|1:2,0:0:0:0:
344,177,203502,6,0,B|381:191|381:191|456:188,1,100,12|0,0:0|0:0,0:0:0:0:
494,103,204073,1,12,0:0:0:0:
439,295,204645,1,12,0:0:0:0:
246,241,205216,1,12,0:0:0:0:
301,49,205788,2,0,P|272:83|206:95,1,100,0|0,1:0|1:0,0:0:0:0:
176,72,206216,1,0,1:0:0:0:
176,72,206359,2,0,L|70:82,1,100,10|10,0:0|0:0,0:0:0:0:
