osu file format v14

[General]
AudioFilename: audio.mp3
AudioLeadIn: 0
PreviewTime: 141559
Countdown: 0
SampleSet: Normal
StackLeniency: 0.7
Mode: 0
LetterboxInBreaks: 0
WidescreenStoryboard: 1

[Editor]
Bookmarks: 26008,42752,59496,63682,80426,97170,105542,108333,130658,141646,164146,182983,185773,208098,219086,241586,252749,275075,278214,284493,287633,300191,316935,325307,329493,333679,350423,361411,383736,396992
DistanceSpacing: 1.1
BeatDivisor: 4
GridSize: 4
TimelineZoom: 2.5

[Metadata]
Title:Universal Death Squad
TitleUnicode:Universal Death Squad
Artist:EPICA
ArtistUnicode:EPICA
Creator:Mao
Version:Elegy
Source:osu!
Tags:the holographic principle simone simons english symphonic metal marathon mg mpg mappers' guild fa featured artist
BeatmapID:2623756
BeatmapSetID:1262302

[Difficulty]
HPDrainRate:5.5
CircleSize:4.3
OverallDifficulty:9
ApproachRate:9.3
SliderMultiplier:2
SliderTickRate:1

[Events]
//Background and Video events
0,0,"deathsquad.jpg",0,0
//Break Periods
//Storyboard Layer 0 (Background)
//Storyboard Layer 1 (Fail)
//Storyboard Layer 2 (Pass)
//Storyboard Layer 3 (Foreground)
//Storyboard Layer 4 (Overlay)
//Storyboard Sound Samples

[TimingPoints]
1251,677.966101694915,4,2,1,80,1,0
3962,681.818181818182,4,2,1,80,1,0
6007,697.674418604651,4,2,1,80,1,8
6704,697.674418604651,4,2,1,80,1,0
8797,689.655172413793,4,2,1,80,1,8
9486,689.655172413793,4,2,1,80,1,0
11554,674.157303370787,4,2,1,80,1,8
12228,681.818181818182,4,2,1,80,1,0
14273,697.674418604651,4,2,1,80,1,8
14970,689.655172413793,4,2,1,80,1,0
16349,681.818181818182,4,2,1,80,1,8
17712,681.818181818182,4,2,1,80,1,0
18393,666.666666666667,4,2,1,80,1,8
19059,705.882352941176,4,2,1,80,1,8
19764,689.655172413793,4,2,1,80,1,8
20453,689.655172413793,4,2,1,80,1,0
21832,681.818181818182,4,2,1,80,1,8
22513,697.674418604651,4,2,1,80,1,8
23210,699.708454810496,4,2,1,80,1,0
26008,348.837209302326,3,1,1,80,1,0
34031,-50,3,1,1,80,0,0
34380,-100,3,1,1,80,0,0
41705,-66.6666666666667,3,1,1,80,0,0
42403,-50,3,1,1,80,0,0
42752,-100,3,1,1,80,0,0
58449,-66.6666666666667,3,1,1,80,0,0
59147,-50,3,1,1,80,0,0
65077,-50,3,1,1,80,0,0
66821,-100,3,1,1,80,0,0
67868,-50,3,1,1,80,0,0
69961,-133.333333333333,3,1,1,80,0,0
72054,-50,3,1,1,80,0,0
75194,-100,3,1,1,80,0,0
76240,-50,3,1,1,80,0,0
78333,-133.333333333333,3,1,1,80,0,0
80775,-200,3,1,1,80,0,0
81473,-100,3,1,1,80,0,0
81821,-50,3,1,1,80,0,0
82868,-200,3,1,1,80,0,0
83566,-100,3,1,1,80,0,0
84612,-50,3,1,1,80,0,0
84961,-200,3,1,1,80,0,0
85659,-100,3,1,1,80,0,0
86008,-50,3,1,1,80,0,0
86705,-133.333333333333,3,1,1,80,0,0
89147,-200,3,1,1,80,0,0
89845,-100,3,1,1,80,0,0
90194,-50,3,1,1,80,0,0
91240,-200,3,1,1,80,0,0
91938,-100,3,1,1,80,0,0
92984,-50,3,1,1,80,0,0
93333,-200,3,1,1,80,0,0
94031,-100,3,1,1,80,0,0
94380,-50,3,1,1,80,0,0
95077,-133.333333333333,3,1,1,80,0,0
97170,-100,3,1,1,90,0,0
105542,-500,3,2,1,90,0,0
105564,-500,3,2,0,50,0,0
106589,-250,3,2,1,50,0,0
107984,-142.857142857143,3,2,1,60,0,0
108333,348.837209302326,4,2,1,60,1,0
108333,-90.9090909090909,4,2,1,60,0,0
108681,-111.111111111111,4,2,1,60,0,0
130658,-66.6666666666667,4,2,1,70,0,0
135193,-100,4,2,1,70,0,0
136239,-66.6666666666667,4,2,1,70,0,0
139030,-40,4,1,1,90,0,1
140338,-40,4,1,1,90,0,0
140426,-66.6666666666667,4,1,1,90,0,1
140513,-66.6666666666667,4,1,1,90,0,0
140774,-66.6666666666667,4,1,1,90,0,1
140862,-66.6666666666667,4,1,1,90,0,0
141123,-66.6666666666667,4,1,1,90,0,1
141210,-66.6666666666667,4,1,1,90,0,0
141646,-111.111111111111,4,2,1,70,0,0
142170,-83.3333333333333,4,2,1,70,0,0
147228,-83.3333333333333,4,2,1,70,0,0
161356,-40,4,1,1,90,0,1
162751,-66.6666666666667,4,1,1,90,0,1
163449,-66.6666666666667,4,1,1,85,0,0
164146,348.837209302326,3,1,1,80,1,0
179843,-66.6666666666667,3,1,1,80,0,0
180541,-50,3,1,1,80,0,0
182983,-500,3,2,1,90,0,0
183005,-500,3,2,0,50,0,0
184029,-250,3,2,1,50,0,0
185425,-142.857142857143,3,2,1,60,0,0
185773,348.837209302326,4,2,1,60,1,0
185773,-90.9090909090909,4,2,1,60,0,0
186121,-111.111111111111,4,2,1,60,0,0
208098,-66.6666666666667,4,2,1,70,0,0
212633,-100,4,2,1,70,0,0
213679,-66.6666666666667,4,2,1,70,0,0
216470,-40,4,1,1,90,0,1
217778,-40,4,1,1,90,0,0
217866,-66.6666666666667,4,1,1,90,0,1
218040,-66.6666666666667,4,1,1,90,0,0
218214,-66.6666666666667,4,1,1,90,0,1
218389,-66.6666666666667,4,1,1,90,0,0
218563,-66.6666666666667,4,1,1,90,0,1
218650,-66.6666666666667,4,1,1,90,0,0
219086,-111.111111111111,4,2,1,70,0,0
219610,-83.3333333333333,4,2,1,70,0,0
238796,-40,4,1,1,90,0,1
240889,-40,4,1,1,75,0,0
241238,-200,4,2,1,60,0,0
244377,-166.666666666667,4,2,1,60,0,0
245773,-166.666666666667,4,2,1,80,0,0
247168,-142.857142857143,4,2,1,70,0,0
249959,-125,4,2,1,75,0,0
251354,-66.6666666666667,4,2,1,90,0,0
252749,-133.333333333333,4,2,1,70,0,0
258331,-117.647058823529,4,2,1,75,0,0
263912,-105.263157894737,4,2,1,80,0,0
269493,-95.238095238095,4,2,1,85,0,0
275075,348.837209302326,3,1,1,60,1,0
275075,-66.6666666666667,3,1,1,85,0,0
282400,-66.6666666666667,3,1,1,90,0,0
284144,-100,3,1,1,85,0,0
285191,-66.6666666666667,3,1,1,85,0,0
287633,-125,3,1,1,75,0,0
300191,-200,3,1,1,80,0,0
301237,-100,3,1,1,80,0,0
301586,-50,3,1,1,80,0,0
302284,-200,3,1,1,80,0,0
303330,-100,3,1,1,80,0,0
304377,-50,3,1,1,80,0,0
304726,-200,3,1,1,80,0,0
305423,-100,3,1,1,80,0,0
305772,-50,3,1,1,80,0,0
306470,-133.333333333333,3,1,1,80,0,0
308563,-200,3,1,1,80,0,0
309609,-100,3,1,1,80,0,0
309958,-50,3,1,1,80,0,0
311005,-200,3,1,1,80,0,0
311702,-100,3,1,1,80,0,0
312749,-50,3,1,1,80,0,0
313098,-200,3,1,1,80,0,0
313795,-100,3,1,1,80,0,0
314144,-50,3,1,1,80,0,0
315191,-133.333333333333,3,1,1,80,0,0
316935,-83.3333333333333,3,1,1,80,0,0
320423,-100,3,1,1,80,0,0
320772,-66.6666666666667,3,1,1,80,0,0
321121,-83.3333333333333,3,1,1,85,0,0
329493,-83.3333333333333,3,1,1,90,0,1
331499,-83.3333333333333,3,1,1,90,0,0
331586,-83.3333333333333,3,1,1,90,0,1
332022,-83.3333333333333,3,1,1,90,0,0
332109,-83.3333333333333,3,1,1,90,0,1
332545,-83.3333333333333,3,1,1,90,0,0
332633,-45.4545454545455,3,1,1,80,0,1
332981,-45.4545454545455,3,2,1,80,0,1
333069,-45.4545454545455,3,2,1,80,0,0
333679,-100,3,1,1,80,0,0
349377,-66.6666666666667,3,1,1,80,0,0
350075,-66.6666666666667,3,1,1,80,0,0
350249,-100,3,1,1,80,0,0
350423,348.837209302326,4,2,1,80,1,0
351818,-100,4,2,1,10,0,0
352516,-100,4,2,1,20,0,0
353126,-100,4,2,1,5,0,0
353213,-100,4,2,1,80,0,0
357399,-100,4,2,1,30,0,0
358097,-100,4,2,1,40,0,0
358707,-100,4,2,1,5,0,0
358795,-100,4,1,1,90,0,1
360888,-100,4,1,1,90,0,0
361411,-111.111111111111,4,2,1,70,0,0
361934,-83.3333333333333,4,2,1,70,0,0
381120,-40,4,1,1,90,0,1
383388,-100,4,1,1,90,0,1
383475,-100,4,1,1,70,0,0
394899,-50,4,1,1,70,0,0
395248,-50,4,1,1,90,0,1
395946,-50,4,1,1,70,0,0
396992,-50,4,1,1,100,0,0

[Colours]
Combo1 : 18,254,242
Combo2 : 163,175,188

[HitObjects]
21,71,26008,5,4,0:0:0:0:
120,94,26182,1,2,0:0:0:0:
130,82,26269,1,0,0:0:0:0:
130,65,26356,1,8,0:0:0:0:
136,270,26531,2,0,P|87:240|40:223,1,100,2|8,0:0|0:0,0:0:0:0:
167,384,26880,1,2,0:2:0:0:
182,354,26967,1,0,0:0:0:0:
214,346,27054,6,0,P|250:349|279:372,1,50,6|0,0:0|0:0,0:0:0:0:
393,299,27228,2,2,P|362:317|354:391,1,100,0|8,0:0|0:0,0:0:0:0:
503,168,27577,2,0,P|445:150|392:128,1,100,2|8,0:0|0:0,0:0:0:0:
200,101,27926,1,2,0:2:0:0:
189,84,28013,1,0,0:0:0:0:
197,67,28101,6,0,L|257:51,1,50,4|0,0:2|0:0,0:0:0:0:
114,35,28275,2,2,L|10:66,1,100,0|8,0:0|0:0,0:0:0:0:
228,211,28624,2,0,P|281:181|304:140,1,100,2|8,0:0|0:0,0:0:0:0:
29,170,28973,1,2,0:2:0:0:
58,189,29060,1,0,0:0:0:0:
67,221,29147,6,0,P|59:251|53:274,1,50,6|0,0:0|0:0,0:0:0:0:
131,373,29321,2,2,P|144:304|157:250,1,100,0|8,0:0|0:0,0:0:0:0:
341,248,29670,1,2,0:2:0:0:
350,258,29758,1,0,0:0:0:0:
361,270,29845,6,0,L|354:332,1,50,8|0,0:0|0:0,0:0:0:0:
279,358,30019,2,0,L|225:382,1,50,6|0,0:3|0:0,0:0:0:0:
419,371,30194,2,0,L|471:395,1,50,6|0,0:2|0:0,0:0:0:0:
377,172,30368,2,0,P|370:101|367:33,1,100,2|8,0:0|0:0,0:0:0:0:
455,242,30717,2,0,P|474:215|512:197,2,50,2|4|8,0:0|0:3|0:0,0:0:0:0:
293,224,31066,1,2,0:2:0:0:
277,196,31153,1,0,0:0:0:0:
243,193,31240,6,0,P|231:223|223:253,1,50,6|0,1:0|0:0,0:0:0:0:
163,366,31414,2,2,P|159:314|141:256,1,100,0|8,0:0|0:0,0:0:0:0:
40,380,31763,1,2,0:0:0:0:
58,368,31851,1,0,0:0:0:0:
60,346,31938,1,8,0:0:0:0:
1,197,32112,2,0,P|12:232|51:256,1,50,2|0,0:0|0:0,0:0:0:0:
169,73,32287,5,14,0:0:0:0:
143,88,32374,1,4,0:2:0:0:
115,99,32461,1,2,0:0:0:0:
85,102,32548,1,2,0:2:0:0:
56,93,32635,2,0,L|43:20,1,50,14|0,0:3|0:0,0:0:0:0:
122,9,32810,2,0,L|131:59,1,50,2|0,0:0|0:0,0:0:0:0:
159,173,32984,1,6,1:2:0:0:
159,173,33071,1,8,0:3:0:0:
307,74,33246,1,4,0:3:0:0:
307,74,33333,6,0,L|294:10,1,50,6|0,0:0|0:0,0:0:0:0:
298,148,33508,2,0,L|285:84,1,50,4|0,0:2|0:0,0:0:0:0:
437,92,33682,2,0,L|424:28,1,50,10|0,0:0|0:0,0:0:0:0:
403,234,33857,2,0,L|390:170,1,50,14|0,0:3|0:0,0:0:0:0:
491,360,34031,6,0,L|506:262,1,100,14|0,1:0|0:0,0:0:0:0:
400,359,34205,2,2,L|415:261,1,100,4|0,0:2|0:0,0:0:0:0:
209,193,34380,5,4,0:0:0:0:
264,268,34554,1,2,0:0:0:0:
279,262,34641,1,0,0:0:0:0:
286,247,34728,1,8,0:0:0:0:
146,366,34903,2,0,P|103:341|57:324,1,100,2|8,0:0|0:0,0:0:0:0:
11,116,35252,1,2,0:2:0:0:
41,125,35339,1,0,0:0:0:0:
56,150,35426,6,0,P|53:186|30:215,1,50,6|0,0:0|0:0,0:0:0:0:
82,47,35600,2,2,P|115:60|152:129,1,100,0|8,0:0|0:0,0:0:0:0:
364,18,35949,2,0,P|306:36|253:58,1,100,2|8,0:0|0:0,0:0:0:0:
465,169,36298,1,2,0:2:0:0:
456,153,36385,1,0,0:0:0:0:
463,139,36473,6,0,L|480:83,1,50,4|0,0:2|0:0,0:0:0:0:
363,122,36647,2,2,L|328:230,1,100,0|8,0:0|0:0,0:0:0:0:
488,374,36996,2,0,P|458:321|436:266,1,100,2|8,0:0|0:0,0:0:0:0:
240,350,37345,1,2,0:2:0:0:
258,320,37432,1,0,0:0:0:0:
293,314,37519,6,0,L|346:328,1,50,6|0,0:0|0:0,0:0:0:0:
239,231,37693,2,2,P|199:173|170:125,1,100,0|8,0:0|0:0,0:0:0:0:
10,343,38042,1,2,0:2:0:0:
20,352,38130,1,0,0:0:0:0:
32,363,38217,6,0,L|94:356,1,50,8|0,0:0|0:0,0:0:0:0:
122,285,38391,2,0,L|98:231,1,50,6|0,0:3|0:0,0:0:0:0:
34,90,38566,2,0,L|10:142,1,50,6|0,0:2|0:0,0:0:0:0:
193,19,38740,2,0,P|144:29|94:27,1,100,2|8,0:0|0:0,0:0:0:0:
286,49,39089,2,0,P|309:25|337:9,2,50,2|4|8,0:0|0:3|0:0,0:0:0:0:
455,140,39438,1,2,0:2:0:0:
456,104,39525,1,0,0:0:0:0:
424,88,39612,6,0,L|366:97,1,50,6|0,1:0|0:0,0:0:0:0:
276,250,39786,2,2,P|283:197|298:140,1,100,0|8,0:0|0:0,0:0:0:0:
474,272,40135,1,2,0:0:0:0:
478,250,40223,1,0,0:0:0:0:
464,233,40310,1,8,0:0:0:0:
380,369,40484,2,0,P|400:354|403:314,1,50,2|0,0:0|0:0,0:0:0:0:
206,313,40659,6,0,L|219:382,1,50,6|0,0:0|0:0,0:0:0:0:
121,272,40833,1,2,0:0:0:0:
81,302,40920,1,8,0:0:0:0:
68,300,41008,2,0,L|41:360,1,50,8|0,0:0|0:0,0:0:0:0:
56,172,41182,6,0,L|14:210,1,50,2|0,0:0|0:0,0:0:0:0:
60,40,41356,2,0,L|70:88,1,50,8|0,0:0|0:0,0:0:0:0:
180,154,41531,2,2,L|132:138,1,50,14|0,0:3|0:0,0:0:0:0:
285,30,41705,6,0,L|184:51,1,75.0000028610231,6|0,0:0|0:0,0:0:0:0:
379,155,41880,2,2,L|292:133,1,75.0000028610231,8|0,0:0|0:0,0:0:0:0:
488,23,42054,2,0,L|386:58,1,75.0000028610231,10|0,0:0|0:0,0:0:0:0:
430,235,42228,1,6,0:3:0:0:
372,258,42316,1,8,0:0:0:0:
317,280,42403,6,0,L|423:264,1,100,14|4,1:0|0:3,0:0:0:0:
492,349,42577,2,2,L|394:365,1,100,4|4,0:2|0:3,0:0:0:0:
160,249,42752,5,6,0:0:0:0:
196,234,42839,1,0,0:0:0:0:
235,240,42926,1,4,0:3:0:0:
264,266,43013,1,0,0:0:0:0:
280,302,43101,1,8,0:0:0:0:
271,340,43188,1,0,0:0:0:0:
241,366,43275,1,4,0:3:0:0:
202,374,43362,1,0,0:0:0:0:
164,359,43449,1,8,0:0:0:0:
131,335,43537,1,0,0:0:0:0:
94,318,43624,1,4,0:3:0:0:
54,318,43711,1,4,0:3:0:0:
61,337,43798,6,0,P|48:270|41:206,1,100,6|0,0:0|0:0,0:0:0:0:
112,18,44060,1,4,0:3:0:0:
112,18,44147,2,2,P|150:50|138:119,1,100,8|0,0:0|0:0,0:0:0:0:
99,162,44409,1,4,0:3:0:0:
99,162,44496,2,2,P|26:155|-49:155,1,100,8|2,0:0|0:3,0:0:0:0:
196,246,44845,5,6,0:0:0:0:
222,276,44932,1,0,0:0:0:0:
260,286,45019,1,4,0:3:0:0:
298,273,45106,1,0,0:0:0:0:
321,240,45194,1,8,0:0:0:0:
322,200,45281,1,0,0:0:0:0:
300,166,45368,1,4,0:3:0:0:
271,137,45455,1,0,0:0:0:0:
258,98,45542,1,8,0:0:0:0:
269,59,45630,1,0,0:0:0:0:
300,34,45717,1,4,0:3:0:0:
339,30,45804,1,4,0:3:0:0:
323,18,45891,6,0,P|341:68|357:117,1,100,6|0,0:0|0:0,0:0:0:0:
435,254,46240,2,2,P|451:207|468:160,1,100,8|0,0:0|0:0,0:0:0:0:
504,91,46502,1,4,0:3:0:0:
504,91,46589,2,2,P|473:37|408:37,1,100,8|2,0:0|0:3,0:0:0:0:
455,365,46938,5,6,0:0:0:0:
474,330,47025,1,0,0:0:0:0:
462,291,47112,1,4,0:3:0:0:
431,265,47199,1,0,0:0:0:0:
391,259,47287,1,8,0:0:0:0:
355,276,47374,1,0,0:0:0:0:
331,308,47461,1,4,0:3:0:0:
318,345,47548,1,0,0:0:0:0:
287,370,47635,1,8,0:0:0:0:
246,369,47723,1,0,0:0:0:0:
216,342,47810,1,4,0:3:0:0:
209,302,47897,1,4,0:3:0:0:
232,269,47984,1,6,0:2:0:0:
266,249,48071,1,0,0:0:0:0:
285,213,48159,1,4,0:3:0:0:
284,173,48246,1,2,0:3:0:0:
272,164,48333,6,2,P|310:132|298:63,1,100,8|0,0:0|0:0,0:0:0:0:
252,25,48595,1,4,0:3:0:0:
252,25,48682,2,2,P|179:18|104:18,1,100,8|2,0:0|0:3,0:0:0:0:
0,196,49031,6,0,L|60:206,1,50,14|0,0:0|0:0,0:0:0:0:
125,214,49205,2,0,L|57:228,1,50,2|0,0:0|0:0,0:0:0:0:
35,116,49380,2,0,L|94:128,1,50,10|0,0:2|0:0,0:0:0:0:
120,305,49554,1,2,0:0:0:0:
118,316,49641,1,0,0:0:0:0:
116,326,49728,1,8,0:0:0:0:
79,342,49816,1,0,0:0:0:0:
42,357,49903,1,4,0:3:0:0:
4,371,49990,1,4,0:3:0:0:
8,357,50077,6,0,L|67:378,1,50,6|0,0:0|0:0,0:0:0:0:
93,254,50252,2,0,L|113:299,1,50,2|0,0:2|0:0,0:0:0:0:
275,358,50426,6,0,L|289:295,1,50,14|0,0:0|0:0,0:0:0:0:
418,321,50601,2,0,L|388:282,1,50,2|0,0:2|0:0,0:0:0:0:
287,100,50775,5,14,0:3:0:0:
317,34,50862,1,4,0:3:0:0:
385,5,50949,1,14,0:3:0:0:
452,35,51037,1,4,0:3:0:0:
415,103,51124,5,6,0:0:0:0:
390,134,51211,1,0,0:0:0:0:
353,149,51298,1,4,0:3:0:0:
313,143,51385,1,0,0:0:0:0:
280,118,51473,1,8,0:0:0:0:
261,82,51560,1,0,0:0:0:0:
232,54,51647,1,4,0:3:0:0:
195,37,51734,1,0,0:0:0:0:
155,37,51821,1,8,0:0:0:0:
120,57,51909,1,0,0:0:0:0:
108,95,51996,1,4,0:3:0:0:
126,130,52083,1,4,0:3:0:0:
117,145,52170,6,0,P|165:158|205:128,1,100,6|0,0:0|0:0,0:0:0:0:
327,42,52432,1,4,0:3:0:0:
327,42,52519,2,2,P|305:82|301:143,1,100,8|0,0:0|0:0,0:0:0:0:
249,208,52781,1,4,0:3:0:0:
249,208,52868,2,2,P|242:281|242:356,1,100,8|2,0:0|0:3,0:0:0:0:
451,365,53217,5,6,0:0:0:0:
474,332,53304,1,0,0:0:0:0:
477,292,53391,1,4,0:3:0:0:
462,254,53478,1,0,0:0:0:0:
429,230,53566,1,8,0:0:0:0:
389,233,53653,1,0,0:0:0:0:
361,261,53740,1,4,0:3:0:0:
358,300,53827,1,0,0:0:0:0:
384,329,53914,1,8,0:0:0:0:
424,332,54002,1,0,0:0:0:0:
449,301,54089,1,4,0:3:0:0:
441,261,54176,1,4,0:3:0:0:
409,236,54263,1,6,0:2:0:0:
382,205,54350,1,0,0:0:0:0:
368,167,54438,1,4,0:3:0:0:
381,129,54525,1,2,0:3:0:0:
395,138,54612,6,2,P|443:135|474:98,1,100,8|0,0:0|0:0,0:0:0:0:
437,22,54874,1,4,0:3:0:0:
437,22,54961,2,2,P|364:15|289:15,1,100,8|2,0:0|0:3,0:0:0:0:
251,251,55310,1,0,0:0:0:0:
257,211,55397,1,0,0:0:0:0:
262,171,55484,1,0,0:0:0:0:
264,131,55571,1,0,0:0:0:0:
264,90,55659,1,0,0:0:0:0:
287,346,55833,2,0,P|315:326|327:299,2,50,2|4|8,0:0|0:3|0:0,0:0:0:0:
154,320,56182,1,2,0:2:0:0:
141,337,56269,1,0,0:0:0:0:
140,359,56356,6,0,L|200:379,1,50,6|0,1:0|0:0,0:0:0:0:
158,226,56530,2,2,P|151:173|136:116,1,100,0|8,0:0|0:0,0:0:0:0:
46,356,56879,1,2,0:0:0:0:
41,334,56967,1,0,0:0:0:0:
53,316,57054,1,8,0:0:0:0:
27,155,57228,2,0,P|42:175|47:200,1,50,2|0,0:0|0:0,0:0:0:0:
61,48,57403,6,0,L|2:29,1,50,6|0,0:0|0:0,0:0:0:0:
152,17,57577,1,2,0:0:0:0:
192,56,57664,1,8,0:0:0:0:
213,45,57752,2,0,L|266:60,1,50,8|0,0:0|0:0,0:0:0:0:
457,135,57926,6,0,L|403:151,1,50,2|0,0:0|0:0,0:0:0:0:
452,20,58101,2,0,L|492:58,1,50,8|0,0:0|0:0,0:0:0:0:
357,82,58275,2,2,L|370:27,1,50,14|0,0:3|0:0,0:0:0:0:
497,224,58449,6,0,L|398:252,1,75.0000028610231,6|0,0:0|0:0,0:0:0:0:
464,365,58624,2,2,L|369:356,1,75.0000028610231,8|0,0:0|0:0,0:0:0:0:
314,249,58798,2,0,L|243:316,1,75.0000028610231,10|0,0:0|0:0,0:0:0:0:
148,359,58972,1,6,0:3:0:0:
86,369,59060,1,8,0:0:0:0:
24,377,59147,6,0,L|128:351,1,100,14|4,1:0|0:3,0:0:0:0:
35,269,59321,2,2,L|143:245,1,100,4|4,0:2|0:3,0:0:0:0:
238,95,59496,5,4,0:0:0:0:
296,78,59583,1,0,0:0:0:0:
357,62,59670,1,0,0:0:0:0:
421,46,59758,1,0,0:0:0:0:
484,28,59845,1,4,0:3:0:0:
470,22,60019,1,4,0:3:0:0:
455,16,60194,1,4,0:3:0:0:
137,223,60542,5,0,0:0:0:0:
195,206,60629,1,0,0:0:0:0:
256,190,60716,1,0,0:0:0:0:
320,174,60804,1,0,0:0:0:0:
383,156,60891,1,4,0:3:0:0:
369,150,61065,1,4,0:3:0:0:
354,144,61240,1,4,0:3:0:0:
14,365,61589,5,0,0:0:0:0:
72,348,61676,1,0,0:0:0:0:
133,332,61763,1,0,0:0:0:0:
197,316,61851,1,0,0:0:0:0:
260,298,61938,1,4,0:3:0:0:
246,292,62112,1,4,0:3:0:0:
231,286,62287,1,4,0:3:0:0:
500,161,62635,5,4,0:0:0:0:
460,190,62723,1,0,0:0:0:0:
463,242,62810,1,4,0:3:0:0:
466,254,62868,1,4,0:3:0:0:
469,266,62926,1,4,0:3:0:0:
472,278,62984,1,4,0:3:0:0:
426,363,63159,1,0,0:0:0:0:
327,101,63333,1,8,0:0:0:0:
327,101,63682,5,4,0:0:0:0:
312,98,63769,1,0,0:0:0:0:
297,96,63856,1,0,0:0:0:0:
282,93,63943,1,0,0:0:0:0:
242,87,64031,1,2,0:2:0:0:
227,84,64118,1,0,0:0:0:0:
212,82,64205,1,0,0:0:0:0:
197,80,64292,1,0,0:0:0:0:
157,72,64380,1,2,0:2:0:0:
143,70,64467,1,0,0:0:0:0:
128,67,64554,1,0,0:0:0:0:
113,65,64641,1,0,0:0:0:0:
43,51,64728,1,14,0:2:0:0:
43,51,65077,6,2,B|-37:142|109:271|229:183|225:39|357:-37|509:-17|551:195|433:183,1,700,4|0,0:0|2:0,0:0:0:0:
394,240,65775,5,4,0:0:0:0:
379,237,65862,1,0,0:0:0:0:
364,235,65949,1,0,0:0:0:0:
349,232,66036,1,0,0:0:0:0:
309,226,66124,1,2,0:2:0:0:
294,223,66211,1,0,0:0:0:0:
279,221,66298,1,0,0:0:0:0:
264,219,66385,1,0,0:0:0:0:
224,211,66473,1,2,0:2:0:0:
210,209,66560,1,0,0:0:0:0:
195,206,66647,1,0,0:0:0:0:
180,204,66734,1,0,0:0:0:0:
110,190,66821,6,0,P|42:216|32:286,1,150,4|0,0:0|2:0,0:0:0:0:
211,383,67170,2,2,P|208:314|192:223,1,150,6|0,0:2|2:0,0:0:0:0:
276,34,67519,2,0,P|231:50|221:97,1,100,4|0,0:0|2:0,0:0:0:0:
278,147,67752,1,2,2:0:0:0:
282,139,67810,1,2,2:0:0:0:
286,131,67868,2,0,B|297:102|297:102|284:25,1,100,2|0,1:0|2:0,0:0:0:0:
437,362,68217,5,2,0:2:0:0:
440,347,68304,1,0,0:0:0:0:
442,332,68391,1,0,0:0:0:0:
444,317,68478,1,0,0:0:0:0:
452,277,68566,1,2,0:2:0:0:
454,263,68653,1,0,0:0:0:0:
457,248,68740,1,0,0:0:0:0:
459,233,68827,1,0,0:0:0:0:
473,163,68914,1,14,0:2:0:0:
473,163,69263,6,2,B|352:232|268:105|246:-74|41:-47|-89:55|31:264|152:257|199:150|154:118,1,700,4|0,0:0|2:0,0:0:0:0:
10,55,69961,6,2,P|73:55|355:244,1,412.500015735627,4|0,0:0|2:0,0:0:0:0:
349,317,71008,1,4,0:0:0:0:
337,242,71182,1,8,0:3:0:0:
188,298,71356,1,8,0:0:0:0:
167,371,71531,1,4,0:3:0:0:
7,259,71705,2,0,L|-2:211,1,37.5000014305115,8|0,0:0|2:0,0:0:0:0:
78,216,71880,2,0,L|70:176,1,37.5000014305115,14|0,3:0|2:0,0:0:0:0:
202,25,72054,5,4,0:0:0:0:
217,28,72141,1,0,0:0:0:0:
232,30,72228,1,0,0:0:0:0:
247,33,72315,1,0,0:0:0:0:
287,39,72403,1,2,0:2:0:0:
302,42,72490,1,0,0:0:0:0:
317,44,72577,1,0,0:0:0:0:
332,46,72664,1,0,0:0:0:0:
372,54,72752,1,2,0:2:0:0:
386,56,72839,1,0,0:0:0:0:
401,59,72926,1,0,0:0:0:0:
416,61,73013,1,0,0:0:0:0:
489,76,73100,1,14,0:2:0:0:
489,76,73449,6,2,B|533:224|331:319|163:169|239:22|36:-27|-46:115|18:197|76:172,1,700,4|0,0:0|2:0,0:0:0:0:
152,149,74147,5,4,0:0:0:0:
167,152,74234,1,0,0:0:0:0:
182,154,74321,1,0,0:0:0:0:
197,157,74408,1,0,0:0:0:0:
237,163,74496,1,2,0:2:0:0:
252,166,74583,1,0,0:0:0:0:
267,168,74670,1,0,0:0:0:0:
282,170,74757,1,0,0:0:0:0:
322,178,74845,1,2,0:2:0:0:
336,180,74932,1,0,0:0:0:0:
351,183,75019,1,0,0:0:0:0:
366,185,75106,1,0,0:0:0:0:
441,197,75194,6,0,P|475:260|487:359,1,150,4|0,0:0|2:0,0:0:0:0:
294,375,75542,2,2,P|350:346|386:266,1,150,6|0,0:2|2:0,0:0:0:0:
269,43,75891,2,0,P|321:58|348:118,1,100,4|0,0:0|2:0,0:0:0:0:
270,148,76124,1,2,2:0:0:0:
266,140,76182,1,2,2:0:0:0:
262,132,76240,2,0,B|251:103|251:103|264:26,1,100,2|0,1:0|2:0,0:0:0:0:
12,246,76589,5,2,0:2:0:0:
27,249,76676,1,0,0:0:0:0:
42,251,76763,1,0,0:0:0:0:
57,253,76850,1,0,0:0:0:0:
96,258,76938,1,2,0:2:0:0:
110,260,77025,1,0,0:0:0:0:
125,263,77112,1,0,0:0:0:0:
140,265,77199,1,0,0:0:0:0:
218,280,77287,1,14,0:2:0:0:
218,280,77635,6,2,B|204:240|312:181|394:239|372:491|205:488|29:380|110:246|139:74|2:53,1,700,4|0,0:0|2:0,0:0:0:0:
0,142,78333,6,2,P|63:142|329:239,1,337.500012874604,4|0,0:0|2:0,0:0:0:0:
343,303,79205,5,4,0:3:0:0:
341,312,79263,1,4,0:3:0:0:
339,321,79321,1,2,0:3:0:0:
337,330,79380,1,4,0:0:0:0:
399,384,79554,1,8,0:3:0:0:
512,222,79728,1,8,0:0:0:0:
448,265,79903,1,4,0:3:0:0:
371,82,80077,2,0,L|362:34,1,37.5000014305115,8|0,0:0|2:0,0:0:0:0:
446,52,80252,2,0,L|454:89,1,37.5000014305115,14|0,3:0|2:0,0:0:0:0:
206,181,80426,5,0,0:0:0:0:
224,182,80513,1,0,0:0:0:0:
242,184,80601,1,0,0:0:0:0:
260,185,80688,1,0,0:0:0:0:
336,192,80775,2,0,L|328:257,1,50,6|0,0:0|0:0,0:0:0:0:
237,370,81037,1,2,3:3:0:0:
237,370,81124,2,0,L|225:283,1,75,4|0,0:2|0:0,0:0:0:0:
74,207,81473,2,0,L|61:113,1,50,4|0,0:0|2:0,0:0:0:0:
60,164,81821,6,2,B|-32:160|-1:-35|150:-55|282:20|278:164|398:252|544:123|464:32,1,700,4|0,0:0|2:0,0:0:0:0:
423,106,82519,5,0,0:0:0:0:
424,124,82606,1,0,0:0:0:0:
426,142,82694,1,0,0:0:0:0:
427,160,82781,1,0,0:0:0:0:
434,236,82868,2,0,L|499:228,1,50,6|0,0:0|0:0,0:0:0:0:
380,303,83130,1,2,3:3:0:0:
380,303,83217,2,0,L|392:390,1,75,4|0,0:2|0:0,0:0:0:0:
303,177,83566,6,2,P|297:117|326:57,1,100,4|0,0:0|2:0,0:0:0:0:
269,284,83827,1,2,3:3:0:0:
269,284,83914,2,2,P|211:317|123:331,1,150,6|0,0:2|2:0,0:0:0:0:
17,169,84263,2,0,P|69:167|86:225,1,100,4|0,0:0|2:0,0:0:0:0:
19,266,84496,1,2,2:0:0:0:
23,258,84554,1,2,2:0:0:0:
27,250,84612,2,0,B|38:221|38:221|25:144,1,100,2|0,1:0|2:0,0:0:0:0:
164,19,84961,6,0,L|101:24,1,50,6|0,0:0|0:0,0:0:0:0:
258,146,85223,1,2,3:3:0:0:
258,146,85310,2,0,L|176:102,1,75,4|0,0:2|0:0,0:0:0:0:
479,79,85659,2,0,L|430:86,1,50,6|0,0:0|2:0,0:0:0:0:
424,94,86008,6,2,B|404:140|544:155|601:74|500:-156|343:-98|214:59|358:167|421:318|294:377,1,700,4|0,0:0|2:0,0:0:0:0:
425,356,86705,6,2,P|362:356|42:213,1,412.500015735627,4|0,0:0|2:0,0:0:0:0:
14,139,87752,1,4,0:0:0:0:
44,233,87926,1,8,0:3:0:0:
189,45,88100,1,8,0:0:0:0:
105,7,88275,1,4,0:3:0:0:
189,223,88449,2,0,L|180:175,1,37.5000014305115,8|0,0:0|2:0,0:0:0:0:
260,180,88624,2,0,L|252:140,1,37.5000014305115,14|0,3:0|2:0,0:0:0:0:
510,13,88798,5,0,0:0:0:0:
492,14,88885,1,0,0:0:0:0:
474,16,88973,1,0,0:0:0:0:
456,17,89060,1,0,0:0:0:0:
380,24,89147,2,0,L|371:84,1,50,6|0,0:0|0:0,0:0:0:0:
500,169,89409,1,2,3:3:0:0:
500,169,89496,2,0,L|489:94,1,75,4|0,0:2|0:0,0:0:0:0:
432,292,89845,2,0,L|425:341,1,50,4|0,0:0|2:0,0:0:0:0:
434,349,90194,6,2,B|492:374|556:292|474:150|271:199|347:346|179:496|-40:389|21:253,1,700,4|0,0:0|2:0,0:0:0:0:
133,204,90891,5,0,0:0:0:0:
132,222,90978,1,0,0:0:0:0:
130,240,91066,1,0,0:0:0:0:
129,258,91153,1,0,0:0:0:0:
121,337,91240,2,0,L|61:346,1,50,6|0,0:0|0:0,0:0:0:0:
270,323,91502,1,2,3:3:0:0:
270,323,91589,2,0,L|184:301,1,75,4|0,0:2|0:0,0:0:0:0:
340,283,91938,6,2,P|354:230|395:175,1,100,4|0,0:0|2:0,0:0:0:0:
266,23,92199,1,2,3:3:0:0:
266,23,92286,2,2,P|261:86|315:176,1,150,6|0,0:2|2:0,0:0:0:0:
479,88,92635,2,0,P|485:38|425:11,1,100,4|0,0:0|2:0,0:0:0:0:
471,97,92984,2,0,P|425:78|376:62,1,100,2|0,1:0|2:0,0:0:0:0:
72,62,93333,6,0,L|20:50,1,50,6|0,0:0|0:0,0:0:0:0:
58,148,93595,1,2,3:3:0:0:
58,148,93682,2,0,L|47:232,1,75,4|0,0:2|0:0,0:0:0:0:
182,122,94031,2,0,L|133:110,1,50,6|0,0:0|2:0,0:0:0:0:
129,116,94380,6,2,B|164:157|248:155|313:22|129:-145|-55:-6|-24:229|71:302,1,600,4|0,0:0|0:0,0:0:0:0:
75,293,94961,1,4,0:3:0:0:
88,291,95019,1,4,0:3:0:0:
100,289,95077,1,0,0:0:0:0:
496,364,95426,6,2,P|370:314|243:296,1,262.500010013581,4|0,1:0|2:0,0:0:0:0:
172,336,96124,1,6,0:0:0:0:
250,316,96298,1,8,0:3:0:0:
264,82,96472,1,8,0:0:0:0:
194,65,96647,1,4,0:3:0:0:
442,155,96821,2,0,L|490:164,1,37.5000014305115,8|0,0:0|2:0,0:0:0:0:
454,79,96996,2,0,L|494:87,1,37.5000014305115,14|0,3:0|2:0,0:0:0:0:
242,5,97170,5,14,0:0:0:0:
212,145,97345,1,4,0:3:0:0:
255,0,97519,2,0,L|314:13,1,50,10|0,0:0|0:0,0:0:0:0:
203,156,97694,2,0,L|155:146,1,50,10|0,0:2|0:0,0:0:0:0:
28,18,97868,1,10,0:0:0:0:
58,75,97955,1,2,0:2:0:0:
37,136,98042,1,6,0:3:0:0:
69,193,98130,1,0,0:0:0:0:
46,253,98217,5,4,0:2:0:0:
206,363,98391,1,2,0:2:0:0:
102,340,98566,1,8,0:0:0:0:
158,270,98740,1,2,0:2:0:0:
47,373,98914,2,0,L|98:352,1,50,10|0,0:0|0:0,0:0:0:0:
215,234,99089,2,0,L|169:254,1,50,10|0,0:2|0:0,0:0:0:0:
411,360,99263,5,14,0:0:0:0:
497,237,99438,1,4,0:3:0:0:
418,369,99612,2,0,L|397:312,1,50,10|0,0:0|0:0,0:0:0:0:
492,228,99787,2,0,L|440:238,1,50,10|0,0:2|0:0,0:0:0:0:
285,94,99961,1,10,0:0:0:0:
342,64,100048,1,2,0:2:0:0:
405,79,100135,1,6,0:3:0:0:
451,45,100223,1,0,0:0:0:0:
507,51,100310,1,4,0:2:0:0:
352,149,100484,5,2,0:2:0:0:
331,58,100571,1,0,0:0:0:0:
257,17,100659,1,8,0:0:0:0:
197,152,100833,5,2,0:2:0:0:
201,3,101007,2,0,L|248:23,1,50,10|0,0:0|0:0,0:0:0:0:
203,163,101182,2,0,L|156:182,1,50,10|0,0:2|0:0,0:0:0:0:
18,67,101356,5,14,0:0:0:0:
23,246,101531,1,4,0:3:0:0:
32,50,101705,2,0,L|19:109,1,50,10|0,0:0|0:0,0:0:0:0:
34,262,101880,2,0,L|44:213,1,50,10|0,0:2|0:0,0:0:0:0:
142,79,102054,1,10,0:0:0:0:
181,130,102141,1,2,0:2:0:0:
177,194,102228,1,6,0:3:0:0:
214,247,102316,1,0,0:0:0:0:
202,310,102403,5,4,0:2:0:0:
434,381,102577,1,2,0:2:0:0:
310,375,102752,1,8,0:0:0:0:
327,300,102926,1,2,0:2:0:0:
159,344,103100,2,0,L|210:323,1,50,10|0,0:0|0:0,0:0:0:0:
436,355,103275,2,0,L|487:334,1,50,10|0,0:2|0:0,0:0:0:0:
327,107,103449,5,14,0:0:0:0:
451,191,103624,1,4,0:3:0:0:
331,95,103798,2,0,L|313:26,1,50,10|0,0:0|0:0,0:0:0:0:
462,194,103973,2,0,L|531:176,1,50,10|0,0:2|0:0,0:0:0:0:
468,22,104147,1,10,0:0:0:0:
419,64,104234,1,2,0:2:0:0:
409,128,104321,1,6,0:3:0:0:
366,178,104409,1,0,0:0:0:0:
366,242,104496,5,4,0:2:0:0:
138,375,104670,1,2,0:2:0:0:
93,305,104758,1,0,0:0:0:0:
126,235,104845,1,8,0:0:0:0:
253,302,105019,5,2,0:2:0:0:
112,222,105193,2,0,L|163:201,1,50,10|0,0:0|0:0,0:0:0:0:
296,337,105368,2,0,L|249:317,1,50,10|0,0:2|0:0,0:0:0:0:
76,79,105542,6,0,P|70:54|61:40,2,40,4|0|0,1:0|0:0|0:0,0:0:0:0:
37,365,106589,2,0,P|56:339|115:323,1,80,4|0,1:0|0:0,0:0:0:0:
111,333,107287,5,12,0:3:0:0:
232,349,107462,1,12,0:3:0:0:
372,370,107635,2,0,P|353:371|324:389,1,40,4|0,1:0|0:0,0:0:0:0:
484,178,107984,2,0,P|510:214|470:279,1,104.999996795654,6|0,1:2|0:0,0:0:0:0:
409,287,108333,2,0,P|375:239|318:215,1,110.000003356934,6|0,0:3|0:0,0:0:0:0:
403,27,108681,6,0,P|404:81|409:125,1,89.9999972534181,2|0,0:0|0:0,0:0:0:0:
220,237,109030,2,0,P|223:173|221:90,1,134.999995880127,12|0,1:0|0:0,0:0:0:0:
181,29,109379,1,2,0:3:0:0:
22,203,109553,1,2,0:0:0:0:
22,203,109728,2,0,P|68:217|120:301,1,134.999995880127,6|0,0:3|0:0,0:0:0:0:
38,378,110077,2,0,P|27:344|41:288,1,89.9999972534181,2|0,0:0|0:0,0:0:0:0:
211,192,110426,1,8,1:0:0:0:
298,182,110600,1,2,0:0:0:0:
388,172,110774,1,2,0:0:0:0:
393,181,111123,6,2,B|291:179|331:106|238:108,1,179.999994506836,4|2,1:0|0:0,0:3:0:0:
197,181,111646,1,2,0:3:0:0:
332,294,111821,2,2,P|403:276|516:254,2,179.999994506836,8|2|6,1:0|0:0|0:3,0:3:0:0:
48,374,112867,1,2,0:0:0:0:
4,302,113042,1,2,0:0:0:0:
45,234,113216,1,8,1:0:0:0:
166,370,113565,1,2,0:0:0:0:
193,292,113739,2,0,P|168:245|145:191,1,89.9999972534181,2|2,0:0|3:0,0:0:0:0:
483,37,114263,6,0,P|429:38|385:43,1,89.9999972534181,2|0,0:0|0:0,0:0:0:0:
494,324,114612,2,0,P|506:261|495:177,1,134.999995880127,12|0,1:0|0:0,0:0:0:0:
447,121,114961,1,2,0:3:0:0:
304,368,115135,1,2,0:0:0:0:
304,368,115310,2,0,P|350:354|402:270,1,134.999995880127,6|0,0:3|0:0,0:0:0:0:
312,185,115659,2,0,P|300:227|311:270,1,89.9999972534181,2|0,0:0|0:0,0:0:0:0:
211,167,116008,1,8,1:0:0:0:
124,157,116182,1,2,0:0:0:0:
34,147,116356,1,2,0:0:0:0:
29,156,116705,6,2,B|131:154|91:81|184:83,1,179.999994506836,4|2,1:0|0:0,0:3:0:0:
225,156,117228,1,2,0:3:0:0:
173,233,117402,2,0,P|136:220|98:179,1,89.9999972534181,8|2,1:0|0:3,0:0:0:0:
305,0,117751,2,2,P|345:34|347:130,1,134.999995880127,2|0,0:0|0:0,0:3:0:0:
321,186,118100,5,2,1:2:0:0:
338,188,118187,1,0,1:0:0:0:
356,190,118274,1,0,1:0:0:0:
374,192,118362,1,0,1:0:0:0:
452,199,118448,1,6,1:2:0:0:
355,290,118798,5,2,1:2:0:0:
372,292,118885,1,0,1:0:0:0:
390,294,118972,1,0,1:0:0:0:
408,296,119060,1,0,1:0:0:0:
486,303,119146,1,6,1:2:0:0:
486,303,119495,1,14,3:0:0:0:
38,110,119844,6,0,P|32:64|33:20,1,89.9999972534181,2|0,0:0|0:0,0:0:0:0:
128,170,120193,2,0,P|105:229|101:314,1,134.999995880127,12|0,1:0|0:0,0:0:0:0:
131,383,120542,1,2,0:3:0:0:
303,233,120716,1,2,0:0:0:0:
303,233,120891,2,0,P|289:187|205:135,1,134.999995880127,6|0,0:3|0:0,0:0:0:0:
155,94,121240,2,0,P|143:51|154:8,1,89.9999972534181,2|0,0:0|0:0,0:0:0:0:
306,71,121589,1,8,1:0:0:0:
393,61,121763,1,2,0:0:0:0:
483,51,121937,1,2,0:0:0:0:
497,31,122286,6,2,B|404:29|441:112|342:104,1,179.999994506836,4|2,1:0|0:0,0:3:0:0:
310,187,122809,1,2,0:0:0:0:
369,265,122984,2,0,P|424:254|494:250,1,89.9999972534181,8|0,1:0|0:0,0:0:0:0:
218,180,123333,2,2,P|209:129|158:44,1,134.999995880127,4|0,0:0|0:0,0:3:0:0:
20,94,123681,6,2,B|122:92|82:19|175:21,1,179.999994506836,4|0,1:0|0:0,0:3:0:0:
239,92,124205,1,2,0:0:0:0:
209,171,124379,2,0,P|154:175|106:190,1,89.9999972534181,8|0,1:0|0:0,0:0:0:0:
435,361,124728,2,0,P|473:327|449:236,1,134.999995880127,2|0,0:0|0:0,0:3:0:0:
301,156,125077,6,2,B|403:158|363:231|456:229,1,179.999994506836,4|2,1:0|0:0,0:3:0:0:
389,134,125600,1,2,0:0:0:0:
189,282,125774,2,2,P|133:292|15:329,2,179.999994506836,12|2|4,1:0|0:0|0:3,0:3:0:0:
189,282,126646,1,10,0:3:0:0:
333,355,126821,2,2,P|399:359|477:382,1,134.999995880127,4|0,0:0|0:0,0:3:0:0:
512,316,127170,2,0,P|468:327|417:297,1,89.9999972534181,8|2,1:0|0:3,0:0:0:0:
362,124,127519,2,2,P|331:173|354:271,1,134.999995880127,4|0,0:0|0:0,0:3:0:0:
464,112,127867,6,2,B|371:114|411:41|309:39,1,179.999994506836,4|0,1:0|0:0,0:3:0:0:
408,31,128390,1,2,0:0:0:0:
219,90,128565,2,2,P|163:85|41:61,1,179.999994506836,12|2,1:0|0:0,0:3:0:0:
132,43,129088,1,2,1:2:0:0:
161,196,129263,5,0,1:0:0:0:
178,198,129350,1,0,1:0:0:0:
196,200,129437,1,6,1:2:0:0:
214,202,129525,1,0,1:0:0:0:
231,204,129612,1,4,1:3:0:0:
89,260,129786,1,2,1:2:0:0:
134,357,129960,5,0,1:0:0:0:
117,359,130047,1,0,1:0:0:0:
99,361,130134,1,6,1:2:0:0:
81,363,130222,1,4,1:3:0:0:
64,365,130309,1,4,1:3:0:0:
86,252,130483,1,14,3:0:0:0:
495,359,130658,6,2,B|467:343|467:343|269:330,1,225.000008583069,4|0,1:0|0:0,0:1:0:0:
272,356,131007,5,2,1:2:0:0:
212,274,131181,1,8,3:0:0:0:
294,214,131356,1,4,0:0:0:0:
354,296,131530,1,2,0:0:0:0:
498,158,131705,1,8,3:0:0:0:
482,239,131879,1,2,0:0:0:0:
498,158,132053,1,4,3:0:0:0:
433,96,132228,1,8,0:3:0:0:
293,231,132402,5,4,1:2:0:0:
357,279,132577,1,2,0:0:0:0:
253,18,132751,1,6,1:2:0:0:
169,77,132926,1,2,0:0:0:0:
253,18,133100,1,8,0:3:0:0:
310,104,133274,1,2,0:0:0:0:
1,146,133449,6,2,B|29:162|29:162|227:175,1,225.000008583069,4|0,1:0|0:0,0:1:0:0:
215,191,133798,5,2,1:2:0:0:
129,218,133972,1,8,3:0:0:0:
261,354,134146,1,4,0:0:0:0:
280,266,134320,1,2,0:0:0:0:
106,313,134495,1,8,3:0:0:0:
172,373,134669,1,2,0:0:0:0:
288,265,134844,5,8,1:0:0:0:
238,249,134931,1,2,0:0:0:0:
197,286,135019,1,4,0:0:0:0:
101,331,135193,2,0,L|40:349,1,50,4|0,0:3|0:0,0:0:0:0:
235,364,135367,2,0,L|178:368,1,50,8|0,0:3|0:0,0:0:0:0:
166,206,135542,2,0,L|116:240,1,50,4|0,0:3|0:0,0:0:0:0:
302,326,135716,2,0,L|233:357,1,50,8|0,0:3|0:0,0:0:0:0:
180,55,135891,2,0,L|157:124,1,50,12|0,3:0|0:0,0:0:0:0:
345,244,136065,2,0,L|310:304,1,50,12|0,0:3|0:0,0:0:0:0:
506,67,136239,6,2,B|493:30|493:30|295:7,1,225.000008583069,4|0,1:0|0:0,0:1:0:0:
297,24,136588,5,2,1:2:0:0:
317,198,136762,1,8,3:0:0:0:
347,105,136937,1,4,0:0:0:0:
269,115,137111,1,2,0:0:0:0:
391,283,137286,1,8,3:0:0:0:
426,180,137460,1,2,0:0:0:0:
391,283,137634,1,4,3:0:0:0:
471,360,137809,1,8,0:3:0:0:
282,292,137983,5,4,1:2:0:0:
354,376,138158,1,2,0:0:0:0:
248,170,138332,1,6,1:2:0:0:
92,151,138507,1,2,0:0:0:0:
248,170,138681,1,8,0:3:0:0:
156,295,138855,1,2,0:0:0:0:
0,68,139030,6,0,P|119:33|260:2,1,250,6|0,0:0|1:0,0:0:0:0:
421,43,139292,1,4,0:3:0:0:
414,53,139379,2,0,P|333:62|265:65,1,125,14|0,0:0|0:0,0:0:0:0:
156,208,139553,2,0,P|196:149|385:113,1,250,2|0,0:0|0:0,0:0:0:0:
409,170,139815,1,6,0:3:0:0:
409,170,139902,2,0,P|343:247|160:273,1,250,6|4,0:0|0:3,0:0:0:0:
121,284,140164,1,14,0:3:0:0:
71,215,140251,2,0,P|60:149|87:71,1,125,2|0,0:0|0:0,0:0:0:0:
74,355,140426,6,0,L|-16:385,1,75.0000028610231,6|0,0:0|2:0,0:0:0:0:
293,180,140774,2,0,L|221:203,1,75.0000028610231,6|0,0:0|2:0,0:0:0:0:
509,5,141123,2,0,L|419:35,1,75.0000028610231,6|0,0:0|2:0,0:0:0:0:
432,37,141646,6,0,P|491:71|491:201,1,179.999994506836,6|0,1:0|0:0,0:0:0:0:
188,376,142170,2,0,P|160:319|173:249,1,119.999996337891,8|0,1:0|0:0,0:0:0:0:
264,122,142519,1,2,0:0:0:0:
314,191,142693,2,2,P|307:264|302:329,1,119.999996337891,0|8,0:0|1:0,0:3:0:0:
40,266,143042,5,4,0:0:0:0:
7,190,143216,2,2,P|13:97|73:2,1,179.999994506836,2|0,0:0|0:0,0:3:0:0:
132,94,143565,2,2,P|70:125|28:101,1,119.999996337891,8|0,1:0|0:0,0:3:0:0:
345,114,143914,2,0,P|391:82|472:56,1,119.999996337891,2|0,0:0|0:0,0:0:0:0:
208,362,144263,2,0,P|204:278|241:155,1,179.999994506836,8|0,1:0|0:0,0:0:0:0:
449,371,144612,5,6,1:0:0:0:
385,328,144786,1,2,0:0:0:0:
341,267,144960,1,8,1:0:0:0:
328,192,145135,1,4,0:3:0:0:
171,361,145309,5,6,0:0:0:0:
216,292,145484,1,2,0:0:0:0:
245,214,145658,1,8,1:0:0:0:
261,128,145833,1,2,0:0:0:0:
486,165,146007,5,6,1:0:0:0:
381,163,146181,1,2,0:0:0:0:
278,135,146355,1,8,1:0:0:0:
204,41,146530,1,2,0:3:0:0:
54,259,146705,5,6,1:2:0:0:
69,255,146763,1,4,0:3:0:0:
84,249,146821,1,4,0:3:0:0:
97,240,146879,1,4,0:3:0:0:
109,229,146937,1,4,0:3:0:0:
118,216,146995,1,4,0:3:0:0:
124,201,147053,1,8,1:0:0:0:
29,373,147228,2,0,P|8:268|51:137,1,239.999992675781,6|4,1:0|0:3,0:0:0:0:
324,376,147751,6,0,P|333:313|299:250,1,119.999996337891,8|0,1:0|0:0,0:0:0:0:
191,114,148100,1,2,0:0:0:0:
153,197,148274,2,2,P|152:265|165:335,1,119.999996337891,0|8,0:0|1:0,0:3:0:0:
278,34,148623,2,2,P|279:93|270:153,1,119.999996337891,4|4,0:3|0:3,0:3:0:0:
425,98,148972,2,2,P|424:166|437:236,1,119.999996337891,2|8,0:0|1:0,0:3:0:0:
248,351,149321,2,2,P|160:330|60:307,1,179.999994506836,6|0,0:3|0:0,0:3:0:0:
135,352,149670,2,0,P|193:365|251:379,1,119.999996337891,2|8,1:2|1:0,0:0:0:0:
328,341,150019,1,4,0:0:0:0:
0,357,150193,5,4,1:0:0:0:
85,361,150367,1,4,0:3:0:0:
156,307,150542,1,2,1:2:0:0:
189,219,150716,1,4,0:3:0:0:
239,133,150891,1,2,1:2:0:0:
369,89,151065,1,4,0:3:0:0:
489,172,151239,1,2,1:2:0:0:
501,331,151414,1,8,0:3:0:0:
499,342,151472,1,8,0:3:0:0:
497,353,151530,1,8,0:3:0:0:
495,364,151588,1,8,0:3:0:0:
312,361,151763,5,8,0:3:0:0:
296,339,151850,1,8,0:3:0:0:
289,308,151937,1,8,0:3:0:0:
302,273,152024,1,8,0:3:0:0:
342,250,152112,1,10,0:3:0:0:
395,246,152199,1,8,0:3:0:0:
449,225,152286,1,4,0:3:0:0:
492,167,152373,1,4,0:3:0:0:
484,94,152460,1,6,0:3:0:0:
434,41,152548,1,4,0:3:0:0:
357,35,152635,1,6,0:3:0:0:
304,98,152722,1,14,0:3:0:0:
319,182,152809,2,0,P|379:206|426:72,1,239.999992675781,6|2,1:0|0:3,0:0:0:0:
186,7,153333,6,0,P|189:67|184:131,1,119.999996337891,12|0,1:0|0:0,0:0:0:0:
114,366,153682,1,2,0:0:0:0:
37,312,153856,2,2,P|32:252|26:192,1,119.999996337891,0|8,0:0|1:0,0:3:0:0:
221,215,154205,5,4,0:0:0:0:
294,268,154379,2,2,P|387:274|482:334,1,179.999994506836,2|0,0:0|0:0,0:3:0:0:
397,363,154728,2,2,P|366:301|390:259,1,119.999996337891,8|0,1:0|0:0,0:3:0:0:
211,298,155077,2,0,P|166:331|126:402,1,119.999996337891,2|0,0:0|0:0,0:0:0:0:
85,114,155426,2,0,P|167:141|220:214,1,179.999994506836,8|0,1:0|0:0,0:0:0:0:
482,17,155775,5,6,1:0:0:0:
392,42,155949,1,2,0:0:0:0:
329,107,156123,1,8,1:0:0:0:
322,181,156298,1,4,0:3:0:0:
352,230,156472,1,6,0:0:0:0:
395,252,156647,1,2,0:0:0:0:
277,321,156821,5,6,1:0:0:0:
379,372,156996,1,2,0:0:0:0:
500,150,157170,5,6,1:0:0:0:
395,155,157344,1,2,0:0:0:0:
286,226,157518,1,10,1:0:0:0:
213,346,157693,1,10,3:3:0:0:
199,351,157751,1,8,3:0:0:0:
186,347,157809,1,8,3:0:0:0:
175,336,157867,5,6,1:0:0:0:
97,94,158042,1,8,0:3:0:0:
339,16,158216,1,8,0:3:0:0:
492,249,158391,6,2,B|444:289|374:259|398:210|333:174|274:216,1,239.999992675781,4|0,1:0|0:0,0:3:0:0:
419,372,158914,1,8,1:0:0:0:
430,288,159088,1,4,0:3:0:0:
315,50,159263,6,2,P|337:97|367:211,1,119.999996337891,4|4,0:0|0:3,0:3:0:0:
103,211,159612,2,0,P|133:169|216:86,1,119.999996337891,8|4,1:0|0:3,0:0:0:0:
349,314,159960,2,2,P|297:309|184:278,1,119.999996337891,4|4,0:0|0:3,0:1:0:0:
315,35,160309,1,8,1:0:0:0:
375,161,160484,1,4,0:3:0:0:
209,380,160658,6,2,P|196:294|219:160,1,179.999994506836,4|0,1:0|0:0,0:3:0:0:
138,155,161007,2,0,P|82:137|12:134,1,119.999996337891,8|2,1:0|0:3,0:0:0:0:
60,361,161356,5,6,1:0:0:0:
135,343,161443,1,0,0:0:0:0:
211,319,161530,1,4,0:3:0:0:
288,296,161618,1,4,0:3:0:0:
297,312,161705,2,0,P|235:308|173:301,1,125,14|0,0:0|0:0,0:0:0:0:
398,373,161879,2,0,P|469:328|493:144,1,250,2|0,0:0|0:0,0:0:0:0:
430,33,162141,1,6,0:3:0:0:
430,33,162228,2,0,P|365:33|331:113,1,125,2|0,0:0|0:0,0:0:0:0:
331,194,162402,1,4,0:3:0:0:
345,248,162490,1,0,0:2:0:0:
392,277,162577,2,0,P|402:209|426:141,1,125,2|0,0:0|0:0,0:0:0:0:
438,355,162752,6,0,L|528:385,1,75.0000028610231,6|0,0:0|2:0,0:0:0:0:
251,305,162926,1,4,3:0:0:0:
241,255,163013,1,4,3:0:0:0:
235,203,163100,2,0,L|325:233,1,75.0000028610231,6|0,0:0|2:0,0:0:0:0:
134,174,163274,1,4,0:3:0:0:
129,139,163362,1,4,0:3:0:0:
124,103,163449,2,0,L|214:133,1,75.0000028610231,6|0,0:0|2:0,0:0:0:0:
21,71,163623,1,4,3:3:0:0:
20,58,163710,1,4,3:3:0:0:
19,48,163798,1,6,0:0:0:0:
90,69,163885,1,0,0:0:0:0:
161,90,163972,1,4,0:3:0:0:
232,112,164059,1,0,0:0:0:0:
256,108,164146,5,6,0:0:0:0:
213,133,164233,1,0,0:0:0:0:
185,174,164320,1,4,0:3:0:0:
182,223,164407,1,0,0:0:0:0:
204,268,164495,1,8,0:0:0:0:
219,315,164582,1,0,0:0:0:0:
202,362,164669,1,4,0:3:0:0:
154,376,164756,1,0,0:0:0:0:
113,346,164843,1,8,0:0:0:0:
106,295,164931,1,0,0:0:0:0:
139,258,165018,1,4,0:3:0:0:
188,249,165105,1,4,0:3:0:0:
207,262,165192,6,0,P|274:249|338:242,1,100,6|0,0:0|0:0,0:0:0:0:
445,305,165454,1,4,0:3:0:0:
445,305,165541,2,2,P|483:337|471:406,1,100,8|0,0:0|0:0,0:0:0:0:
387,248,165803,1,4,0:3:0:0:
387,248,165890,2,2,P|394:175|394:100,1,100,8|2,0:0|0:3,0:0:0:0:
172,14,166239,5,6,0:0:0:0:
216,36,166326,1,0,0:0:0:0:
260,58,166413,1,4,0:3:0:0:
306,75,166500,1,0,0:0:0:0:
355,84,166587,1,8,0:0:0:0:
405,90,166675,1,0,0:0:0:0:
454,86,166762,1,4,0:3:0:0:
495,59,166849,1,0,0:0:0:0:
461,21,166936,1,8,0:0:0:0:
410,19,167024,1,0,0:0:0:0:
373,52,167111,1,4,0:3:0:0:
375,101,167198,1,4,0:3:0:0:
360,104,167285,6,0,P|367:153|377:202,1,100,6|0,0:0|0:0,0:0:0:0:
400,356,167547,1,4,0:3:0:0:
400,356,167634,2,2,P|438:324|426:255,1,100,8|0,0:0|0:0,0:0:0:0:
323,272,167896,1,4,0:3:0:0:
323,272,167983,2,2,P|250:265|175:265,1,100,8|2,0:0|0:3,0:0:0:0:
12,369,168332,5,6,0:0:0:0:
44,331,168419,1,0,0:0:0:0:
91,315,168506,1,4,0:3:0:0:
140,309,168593,1,0,0:0:0:0:
190,302,168681,1,8,0:0:0:0:
235,281,168768,1,0,0:0:0:0:
268,244,168855,1,4,0:3:0:0:
275,194,168942,1,0,0:0:0:0:
251,149,169029,1,8,0:0:0:0:
202,136,169117,1,0,0:0:0:0:
160,163,169204,1,4,0:3:0:0:
151,212,169291,1,4,0:3:0:0:
184,248,169378,1,6,0:2:0:0:
233,245,169465,1,0,0:0:0:0:
243,195,169553,1,4,0:3:0:0:
197,175,169640,1,2,0:3:0:0:
190,190,169727,6,2,P|228:222|216:291,1,100,8|0,0:0|0:0,0:0:0:0:
321,360,169989,1,4,0:3:0:0:
321,360,170076,2,2,P|248:353|173:353,1,100,8|2,0:0|0:3,0:0:0:0:
20,314,170425,6,0,L|33:381,1,50,14|0,0:0|0:0,0:0:0:0:
87,313,170599,2,0,L|12:275,1,50,2|0,0:0|0:0,0:0:0:0:
97,162,170774,2,0,L|86:240,1,50,10|0,0:2|0:0,0:0:0:0:
14,34,170948,1,2,0:0:0:0:
14,34,171035,1,0,0:0:0:0:
14,34,171122,1,8,0:0:0:0:
58,57,171210,1,0,0:0:0:0:
105,72,171297,1,4,0:3:0:0:
154,77,171384,1,4,0:3:0:0:
201,61,171471,6,0,L|198:-1,1,50,6|0,0:0|0:0,0:0:0:0:
289,89,171646,2,0,L|316:47,1,50,2|0,0:2|0:0,0:0:0:0:
319,270,171820,2,0,L|331:198,1,50,14|0,0:0|0:0,0:0:0:0:
220,298,171994,2,0,L|176:245,1,50,2|0,0:2|0:0,0:0:0:0:
417,369,172169,5,14,0:3:0:0:
483,339,172256,1,4,0:3:0:0:
512,271,172343,1,14,0:3:0:0:
482,204,172431,1,4,0:3:0:0:
415,233,172518,5,6,0:0:0:0:
463,232,172605,1,0,0:0:0:0:
502,201,172692,1,4,0:3:0:0:
504,151,172779,1,0,0:0:0:0:
477,106,172867,1,8,0:0:0:0:
425,98,172954,1,0,0:0:0:0:
382,124,173041,1,4,0:3:0:0:
369,172,173128,1,0,0:0:0:0:
387,218,173215,1,8,0:0:0:0:
413,260,173303,1,0,0:0:0:0:
414,309,173390,1,4,0:3:0:0:
386,350,173477,1,4,0:3:0:0:
376,362,173564,6,0,P|357:308|321:282,1,100,6|0,0:0|0:0,0:0:0:0:
226,357,173826,1,4,0:3:0:0:
226,357,173913,2,2,P|180:356|126:369,1,100,8|0,0:0|0:0,0:0:0:0:
251,278,174175,1,4,0:3:0:0:
251,278,174262,2,2,P|219:234|204:189,1,100,8|2,0:0|0:3,0:0:0:0:
7,56,174611,5,6,0:0:0:0:
56,68,174698,1,0,0:0:0:0:
106,62,174785,1,4,0:3:0:0:
149,35,174872,1,0,0:0:0:0:
197,17,174960,1,8,0:0:0:0:
245,33,175047,1,0,0:0:0:0:
266,78,175134,1,4,0:3:0:0:
247,123,175221,1,0,0:0:0:0:
202,142,175308,1,8,0:0:0:0:
155,124,175396,1,0,0:0:0:0:
107,112,175483,1,4,0:3:0:0:
58,119,175570,1,4,0:3:0:0:
17,147,175657,1,6,0:2:0:0:
5,195,175744,1,0,0:0:0:0:
32,237,175832,1,4,0:3:0:0:
78,252,175919,1,2,0:3:0:0:
87,264,176006,6,2,P|109:208|71:176,1,100,8|0,0:0|0:0,0:0:0:0:
99,352,176268,1,4,0:3:0:0:
99,352,176355,2,2,P|26:359|-49:359,1,100,8|2,0:0|0:3,0:0:0:0:
226,234,176704,5,6,0:0:0:0:
289,219,176791,1,0,0:0:0:0:
349,242,176878,1,0,0:0:0:0:
382,297,176965,1,0,0:0:0:0:
408,356,177052,1,8,0:0:0:0:
470,373,177140,1,0,0:0:0:0:
510,320,177227,2,0,P|493:263|461:204,2,100,2|8|0,0:0|0:0|0:0,0:0:0:0:
421,169,177663,1,0,0:0:0:0:
421,169,177750,6,0,P|402:108|396:41,1,100,6|2,0:0|0:0,0:0:0:0:
426,6,178012,1,0,0:0:0:0:
426,6,178099,1,8,0:0:0:0:
308,215,178273,2,0,P|304:264|304:314,1,100,2|8,0:0|0:0,0:0:0:0:
245,361,178535,1,0,0:0:0:0:
200,297,178622,2,0,P|203:272|217:251,1,50,2|0,0:0|0:0,0:0:0:0:
57,375,178797,6,0,L|-9:369,1,50,6|0,0:0|0:0,0:0:0:0:
12,263,178971,1,2,0:0:0:0:
53,292,179058,1,8,0:0:0:0:
63,284,179146,2,0,L|129:290,1,50,8|0,0:0|0:0,0:0:0:0:
8,101,179320,2,0,L|74:107,1,50,2|0,0:0|0:0,0:0:0:0:
142,50,179494,2,0,L|100:18,1,50,8|0,0:0|0:0,0:0:0:0:
121,182,179669,2,2,L|150:142,1,50,14|0,0:3|0:0,0:0:0:0:
302,56,179843,6,0,L|210:95,1,75.0000028610231,6|0,0:0|0:0,0:0:0:0:
469,42,180018,2,2,L|386:104,1,75.0000028610231,8|0,0:0|0:0,0:0:0:0:
307,185,180192,2,0,L|227:239,1,75.0000028610231,10|0,0:0|0:0,0:0:0:0:
501,195,180366,1,6,0:3:0:0:
463,253,180454,1,8,0:0:0:0:
421,314,180541,6,0,L|402:215,1,100,14|4,1:0|0:3,0:0:0:0:
251,327,180715,2,2,L|344:367,1,100,4|4,0:2|0:3,0:0:0:0:
302,161,180890,5,6,0:0:0:0:
251,167,180977,1,0,0:0:0:0:
212,203,181064,1,2,0:0:0:0:
200,254,181151,1,0,0:0:0:0:
206,306,181239,1,14,0:3:0:0:
181,359,181326,1,0,0:0:0:0:
128,383,181413,1,14,0:3:0:0:
70,379,181500,1,0,0:0:0:0:
30,334,181587,5,6,0:0:0:0:
31,275,181675,1,0,0:0:0:0:
76,233,181762,1,2,0:0:0:0:
139,231,181849,1,0,0:0:0:0:
192,262,181936,1,14,0:3:0:0:
237,314,182023,1,0,0:0:0:0:
295,357,182111,1,14,0:3:0:0:
366,368,182198,1,0,0:0:0:0:
436,350,182285,5,6,0:0:0:0:
480,292,182372,1,0,0:0:0:0:
482,219,182459,1,14,0:3:0:0:
447,155,182547,1,0,0:0:0:0:
380,118,182634,5,6,0:0:0:0:
303,130,182721,1,0,0:0:0:0:
237,185,182808,1,2,0:0:0:0:
156,220,182896,1,4,0:3:0:0:
73,185,182983,6,0,P|56:165|50:149,2,40,4|0|0,1:0|0:0|0:0,0:0:0:0:
402,104,184030,2,0,P|411:65|399:28,1,80,4|0,1:0|0:0,0:0:0:0:
390,28,184728,5,12,0:3:0:0:
406,149,184901,1,12,0:3:0:0:
427,289,185076,2,0,L|439:233,1,40,4|0,1:0|0:0,0:0:0:0:
279,338,185425,2,0,P|324:341|382:385,1,104.999996795654,6|0,1:2|0:0,0:0:0:0:
265,182,185773,2,0,P|221:221|213:276,1,110.000003356934,6|0,0:3|0:0,0:0:0:0:
36,380,186122,6,0,P|24:327|11:284,1,89.9999972534181,2|0,0:0|0:0,0:0:0:0:
95,44,186471,2,0,P|107:107|96:191,1,134.999995880127,12|0,1:0|0:0,0:0:0:0:
32,216,186820,1,2,0:3:0:0:
195,86,186994,1,2,0:0:0:0:
195,86,187169,2,0,P|245:74|342:52,1,134.999995880127,6|0,0:3|0:0,0:0:0:0:
387,10,187518,2,0,P|375:52|387:96,1,89.9999972534181,2|0,0:0|0:0,0:0:0:0:
420,365,187867,1,8,1:0:0:0:
430,278,188041,1,2,0:0:0:0:
440,188,188215,1,2,0:0:0:0:
431,183,188564,6,2,B|433:285|506:245|504:338,1,179.999994506836,4|2,1:0|0:0,0:3:0:0:
433,374,189087,1,2,0:3:0:0:
339,173,189262,2,2,P|321:244|299:357,2,179.999994506836,8|2|6,1:0|0:0|0:3,0:3:0:0:
48,374,190308,1,2,0:0:0:0:
132,349,190483,1,2,0:0:0:0:
48,374,190657,1,8,1:0:0:0:
31,167,191006,1,2,0:0:0:0:
20,273,191180,2,0,P|70:266|108:236,1,89.9999972534181,2|2,0:0|3:0,0:0:0:0:
476,33,191704,6,0,P|422:34|397:70,1,89.9999972534181,2|0,0:0|0:0,0:0:0:0:
279,239,192053,2,0,P|272:172|285:106,1,134.999995880127,12|0,1:0|0:0,0:0:0:0:
326,30,192400,1,2,0:3:0:0:
501,318,192576,1,2,0:0:0:0:
501,318,192749,2,0,P|506:270|449:189,1,134.999995880127,6|0,0:3|0:0,0:0:0:0:
397,236,193098,2,0,P|398:280|423:317,1,89.9999972534181,2|0,0:0|0:0,0:0:0:0:
212,310,193447,1,8,1:0:0:0:
125,300,193621,1,2,0:0:0:0:
35,290,193797,1,2,0:0:0:0:
30,299,194146,6,2,B|132:297|92:224|185:226,1,179.999994506836,4|2,1:0|0:0,0:3:0:0:
239,297,194669,1,2,0:3:0:0:
299,367,194843,2,0,P|336:354|374:313,1,89.9999972534181,8|2,1:0|0:3,0:0:0:0:
322,12,195192,2,2,P|272:30|237:120,1,134.999995880127,2|0,0:0|0:0,0:3:0:0:
165,133,195540,5,2,1:2:0:0:
148,135,195627,1,0,1:0:0:0:
130,137,195714,1,0,1:0:0:0:
112,139,195802,1,0,1:0:0:0:
40,148,195889,1,6,1:2:0:0:
141,335,196238,5,2,1:2:0:0:
124,337,196325,1,0,1:0:0:0:
106,339,196412,1,0,1:0:0:0:
88,341,196500,1,0,1:0:0:0:
16,350,196587,1,6,1:2:0:0:
16,350,196935,2,2,L|-19:355,2,29.9999990844727,6|2|2,3:0|0:0|0:0,0:0:0:0:
288,358,197285,6,0,P|342:359|386:364,1,89.9999972534181,2|0,0:0|0:0,0:0:0:0:
231,276,197634,2,0,P|228:211|198:132,1,134.999995880127,12|0,1:0|0:0,0:0:0:0:
148,91,197983,1,2,0:3:0:0:
447,64,198157,1,2,0:0:0:0:
447,64,198332,2,0,P|433:110|349:162,1,134.999995880127,6|0,0:3|0:0,0:0:0:0:
294,45,198679,2,0,P|283:79|297:135,1,89.9999972534181,2|0,0:0|0:0,0:0:0:0:
469,380,199028,1,8,1:0:0:0:
479,293,199204,1,2,0:0:0:0:
489,203,199378,1,2,0:0:0:0:
488,218,199727,6,2,B|426:258|398:180|311:224,1,179.999994506836,4|2,1:0|0:0,0:3:0:0:
324,322,200250,1,2,0:0:0:0:
418,358,200425,2,0,P|413:313|404:270,1,89.9999972534181,8|0,1:0|0:0,0:0:0:0:
249,10,200774,2,2,P|240:61|258:158,1,134.999995880127,4|0,0:0|0:0,0:3:0:0:
83,72,201122,6,2,B|185:70|145:-3|238:-1,1,179.999994506836,4|0,1:0|0:0,0:3:0:0:
164,76,201646,1,2,0:0:0:0:
101,164,201820,2,0,P|49:179|0:193,1,89.9999972534181,8|0,1:0|0:0,0:0:0:0:
341,340,202169,2,0,P|393:341|502:363,1,134.999995880127,2|0,0:0|0:0,0:3:0:0:
337,354,202518,6,2,B|439:352|399:279|492:281,1,179.999994506836,4|2,1:0|0:0,0:3:0:0:
438,192,203041,1,2,0:0:0:0:
235,325,203215,2,2,P|173:339|57:354,2,179.999994506836,12|2|4,1:0|0:0|0:3,0:3:0:0:
156,374,204087,1,10,0:3:0:0:
291,257,204262,2,2,P|309:192|314:125,1,134.999995880127,4|0,0:0|0:0,0:3:0:0:
245,10,204611,2,0,P|227:51|239:94,1,89.9999972534181,8|2,1:0|0:3,0:0:0:0:
479,147,204960,2,2,P|488:81|455:24,1,134.999995880127,4|0,0:0|0:0,0:3:0:0:
317,99,205308,6,2,B|419:101|379:174|472:172,1,179.999994506836,4|0,1:0|0:0,0:3:0:0:
401,93,205831,1,2,0:0:0:0:
354,370,206005,2,2,P|349:314|325:192,1,179.999994506836,12|2,1:0|0:0,0:3:0:0:
103,348,206703,5,2,1:2:0:0:
120,350,206790,1,0,1:0:0:0:
138,352,206877,1,0,1:0:0:0:
156,354,206965,1,0,1:0:0:0:
173,356,207052,1,6,1:2:0:0:
27,383,207226,1,2,1:2:0:0:
91,225,207400,5,8,1:0:0:0:
74,227,207487,1,0,1:0:0:0:
56,229,207574,1,6,1:2:0:0:
38,231,207662,1,4,0:3:0:0:
21,233,207749,1,4,0:3:0:0:
164,266,207923,1,14,3:0:0:0:
372,0,208099,6,2,B|391:20|391:20|352:187|352:187|371:211,1,225.000008583069,4|0,1:0|0:0,0:1:0:0:
439,225,208448,5,2,1:2:0:0:
375,161,208622,1,8,3:0:0:0:
336,304,208797,1,4,0:0:0:0:
403,361,208971,1,2,0:0:0:0:
163,313,209146,1,8,3:0:0:0:
116,384,209320,1,2,0:0:0:0:
163,313,209494,1,4,3:0:0:0:
242,348,209669,1,8,0:3:0:0:
123,74,209843,5,4,1:2:0:0:
48,102,210018,1,2,0:0:0:0:
87,277,210192,1,6,1:2:0:0:
194,233,210367,1,2,0:0:0:0:
87,277,210541,1,8,0:3:0:0:
109,163,210715,1,2,0:0:0:0:
496,338,210889,6,2,B|479:317|479:317|518:150|518:150|499:130,1,225.000008583069,4|0,1:0|0:0,0:1:0:0:
436,165,211238,5,2,1:2:0:0:
467,261,211412,1,8,3:0:0:0:
254,231,211586,1,4,0:0:0:0:
322,155,211760,1,2,0:0:0:0:
395,346,211935,1,8,3:0:0:0:
296,325,212109,1,2,0:0:0:0:
318,147,212284,5,8,1:0:0:0:
366,184,212371,1,2,0:0:0:0:
360,244,212459,1,4,0:0:0:0:
207,76,212634,2,0,L|222:25,1,50,4|0,0:3|0:0,0:0:0:0:
294,133,212807,2,0,L|331:99,1,50,8|0,0:3|0:0,0:0:0:0:
140,125,212982,2,0,L|156:68,1,50,4|0,0:3|0:0,0:0:0:0:
213,247,213157,2,0,L|291:226,1,50,8|0,0:3|0:0,0:0:0:0:
78,176,213332,2,0,L|95:110,1,50,12|0,3:0|0:0,0:0:0:0:
115,344,213506,2,0,L|198:364,1,50,12|0,0:3|0:0,0:0:0:0:
41,39,213679,6,2,B|59:58|59:58|20:225|20:225|37:246,1,225.000008583069,4|0,1:0|0:0,0:1:0:0:
17,319,214029,5,2,1:2:0:0:
72,255,214203,1,8,3:0:0:0:
202,380,214378,1,4,0:0:0:0:
153,244,214552,1,2,0:0:0:0:
301,278,214727,1,8,3:0:0:0:
348,170,214901,1,2,0:0:0:0:
301,278,215075,1,4,3:0:0:0:
399,356,215250,1,8,0:3:0:0:
220,300,215424,5,4,1:2:0:0:
379,247,215599,1,2,0:0:0:0:
213,40,215773,1,6,1:2:0:0:
263,169,215948,1,2,0:0:0:0:
297,13,216122,1,8,0:3:0:0:
263,169,216296,1,2,0:0:0:0:
0,68,216470,6,0,P|119:33|260:2,1,250,6|4,1:0|0:3,0:0:0:0:
171,166,216732,1,4,0:3:0:0:
161,159,216819,2,2,P|152:78|149:10,1,125,4|0,1:0|0:0,0:0:0:0:
275,85,216993,2,0,P|334:125|370:314,1,250,2|4,0:0|0:3,0:0:0:0:
313,338,217255,1,4,0:3:0:0:
313,338,217342,2,0,P|236:272|210:89,1,250,6|4,0:0|0:3,0:0:0:0:
356,99,217604,1,4,0:3:0:0:
406,168,217691,2,0,P|417:234|390:312,1,125,2|0,0:0|0:0,0:0:0:0:
202,360,217866,6,0,L|130:336,1,75.0000028610231,6|0,0:0|2:0,0:0:0:0:
121,345,218040,1,0,0:0:0:0:
428,154,218214,2,0,L|443:228,1,75.0000028610231,6|0,0:0|2:0,0:0:0:0:
454,232,218388,1,0,0:0:0:0:
137,61,218563,2,0,L|193:11,1,75.0000028610231,6|0,0:0|2:0,0:0:0:0:
199,18,219087,6,0,P|148:89|62:94,1,179.999994506836,6|0,1:0|0:0,0:0:0:0:
459,63,219611,2,0,P|399:55|340:53,1,119.999996337891,8|0,1:0|0:0,0:0:0:0:
419,370,219960,1,2,0:0:0:0:
487,313,220134,2,2,P|500:253|497:193,1,119.999996337891,0|8,0:0|1:0,0:3:0:0:
218,144,220483,5,4,0:0:0:0:
211,229,220657,2,2,P|255:306|328:357,1,179.999994506836,2|0,0:0|0:0,0:3:0:0:
363,254,221006,2,2,P|318:243|274:296,1,119.999996337891,8|0,1:0|0:0,0:3:0:0:
120,273,221355,2,0,P|152:319|178:400,1,119.999996337891,2|0,0:0|0:0,0:0:0:0:
42,218,221704,2,0,P|3:140|2:12,1,179.999994506836,8|0,1:0|0:0,0:0:0:0:
248,9,222053,5,6,1:0:0:0:
184,52,222227,1,2,0:0:0:0:
140,113,222401,1,8,1:0:0:0:
127,188,222576,1,4,0:3:0:0:
306,372,222750,5,6,0:0:0:0:
246,311,222925,1,2,0:0:0:0:
222,230,223099,1,8,1:0:0:0:
240,147,223274,1,2,0:0:0:0:
467,6,223448,5,6,1:0:0:0:
383,65,223622,1,2,0:0:0:0:
341,164,223796,1,8,1:0:0:0:
356,281,223971,1,2,0:3:0:0:
512,146,224146,5,6,1:2:0:0:
497,150,224204,1,4,0:3:0:0:
482,156,224262,1,4,0:3:0:0:
469,165,224320,1,4,0:3:0:0:
457,176,224378,1,4,0:3:0:0:
448,189,224436,1,4,0:3:0:0:
442,204,224494,1,8,1:0:0:0:
422,373,224669,2,0,P|401:268|457:143,1,239.999992675781,6|4,1:0|0:3,0:0:0:0:
239,350,225192,6,0,P|267:293|254:223,1,119.999996337891,8|0,1:0|0:0,0:0:0:0:
34,173,225541,1,2,0:0:0:0:
11,255,225715,2,2,P|18:328|23:393,1,119.999996337891,0|8,0:0|1:0,0:3:0:0:
150,154,226063,2,2,P|143:227|138:292,1,119.999996337891,4|4,0:3|0:3,0:3:0:0:
269,18,226412,2,2,P|276:91|281:156,1,119.999996337891,2|8,0:0|1:0,0:3:0:0:
482,346,226762,2,2,P|394:325|305:312,1,179.999994506836,6|0,0:3|0:0,0:3:0:0:
403,384,227111,2,0,P|389:308|374:232,1,119.999996337891,2|8,1:2|1:0,0:0:0:0:
471,260,227460,1,4,0:0:0:0:
226,11,227634,5,4,1:0:0:0:
312,21,227808,1,4,0:3:0:0:
368,93,227983,1,2,1:2:0:0:
331,179,228157,1,4,0:3:0:0:
208,144,228332,1,2,1:2:0:0:
116,241,228506,1,4,0:3:0:0:
200,374,228680,1,2,1:2:0:0:
349,267,228855,1,8,0:3:0:0:
333,270,228913,1,8,0:3:0:0:
317,274,228971,1,8,0:3:0:0:
301,278,229029,1,8,0:3:0:0:
26,366,229204,5,8,0:3:0:0:
52,341,229291,1,8,0:3:0:0:
93,317,229378,1,8,0:3:0:0:
143,303,229465,1,8,0:3:0:0:
199,299,229552,1,10,0:3:0:0:
256,312,229640,1,8,0:3:0:0:
322,340,229727,1,4,0:3:0:0:
392,358,229814,1,4,0:3:0:0:
462,331,229901,1,6,0:3:0:0:
490,265,229989,1,4,0:3:0:0:
454,200,230076,1,6,0:3:0:0:
374,185,230163,1,14,0:3:0:0:
326,254,230250,2,0,B|372:278|440:200|402:176|454:95|495:123,1,239.999992675781,6|2,1:0|0:3,0:0:0:0:
300,139,230774,6,0,P|272:82|285:12,1,119.999996337891,12|0,1:0|0:0,0:0:0:0:
252,211,231121,1,2,0:0:0:0:
326,254,231297,2,2,P|325:330|363:378,1,119.999996337891,0|8,0:0|1:0,0:3:0:0:
224,214,231646,5,4,0:0:0:0:
143,180,231820,2,2,P|77:113|47:5,1,179.999994506836,2|0,0:0|0:0,0:3:0:0:
130,3,232169,2,2,P|152:62|113:101,1,119.999996337891,8|0,1:0|0:0,0:3:0:0:
45,321,232518,2,0,P|91:289|172:263,1,119.999996337891,2|0,0:0|0:0,0:0:0:0:
392,151,232867,2,0,P|305:129|216:132,1,179.999994506836,8|0,1:0|0:0,0:0:0:0:
310,373,233214,5,6,1:0:0:0:
412,362,233390,1,2,0:0:0:0:
479,310,233564,1,8,1:0:0:0:
509,236,233739,1,4,0:3:0:0:
504,160,233913,1,6,0:0:0:0:
458,101,234086,1,2,0:0:0:0:
304,258,234262,5,6,1:0:0:0:
385,281,234435,1,2,0:0:0:0:
340,23,234611,5,6,1:0:0:0:
235,75,234785,1,2,0:0:0:0:
165,191,234959,1,10,1:0:0:0:
179,352,235134,1,10,3:3:0:0:
193,359,235192,1,8,3:0:0:0:
207,366,235250,1,8,3:0:0:0:
221,373,235308,5,6,1:0:0:0:
403,194,235483,1,8,0:3:0:0:
217,24,235657,1,8,0:3:0:0:
45,333,235831,2,2,B|93:373|163:343|139:294|204:258|263:300,1,239.999992675781,4|0,1:0|0:0,0:3:0:0:
503,280,236355,5,8,1:0:0:0:
476,361,236529,1,4,0:3:0:0:
338,215,236704,2,2,P|320:157|295:103,1,119.999996337891,4|4,0:0|0:3,0:3:0:0:
324,366,237053,2,0,P|363:313|431:299,1,119.999996337891,8|4,1:0|0:3,0:0:0:0:
473,7,237401,2,2,P|388:22|312:26,1,119.999996337891,4|4,0:0|0:3,0:1:0:0:
462,204,237750,1,8,1:0:0:0:
488,114,237925,1,4,0:3:0:0:
81,23,238099,2,2,P|167:10|301:33,1,179.999994506836,4|0,1:0|0:0,0:3:0:0:
209,165,238448,2,0,P|177:88|188:39,1,119.999996337891,8|2,1:0|0:3,0:0:0:0:
136,225,238796,6,0,L|6:244,1,125,6|0,1:0|0:0,0:0:0:0:
91,331,238971,1,4,0:3:0:0:
97,339,239058,1,4,0:3:0:0:
104,350,239145,2,2,P|163:352|239:367,1,125,4|0,1:0|0:0,0:0:0:0:
323,165,239319,2,0,L|178:138,1,125,2|0,0:0|0:0,0:0:0:0:
304,299,239493,1,4,0:3:0:0:
313,319,239580,1,4,0:3:0:0:
322,336,239667,2,0,P|384:350|457:353,1,125,6|0,0:0|0:0,0:0:0:0:
508,219,239843,1,4,0:3:0:0:
495,164,239930,1,4,0:3:0:0:
486,112,240017,2,0,L|335:40,1,125,2|0,0:0|0:0,0:0:0:0:
296,22,240191,5,6,1:0:0:0:
185,57,240366,1,14,0:3:0:0:
189,45,240453,1,8,0:3:0:0:
15,19,240627,1,0,0:0:0:0:
47,26,240714,1,0,0:0:0:0:
89,52,240802,1,0,0:0:0:0:
125,111,240889,1,10,0:0:0:0:
100,152,240976,1,0,0:0:0:0:
124,197,241063,1,2,0:2:0:0:
104,224,241150,1,0,0:0:0:0:
109,251,241238,6,0,L|104:287,1,25,6|0,1:2|0:0,0:0:0:0:
49,339,241412,2,0,L|54:370,1,25,2|0,1:2|0:0,0:0:0:0:
219,309,241586,6,0,P|210:260|201:211,1,100,6|2,1:0|0:0,0:0:0:0:
327,377,242110,1,2,0:0:0:0:
327,377,242284,2,0,P|298:376|281:363,1,50,8|0,1:0|0:0,0:0:0:0:
298,286,242633,2,0,P|327:287|344:300,1,50,2|0,0:0|0:0,0:0:0:0:
475,382,242982,2,0,P|457:357|446:273,1,100,6|2,0:3|0:0,0:0:0:0:
497,352,243505,5,4,3:0:0:0:
487,348,243563,1,4,3:0:0:0:
477,340,243621,1,4,3:0:0:0:
472,328,243679,1,6,1:2:0:0:
486,219,243854,1,4,3:0:0:0:
443,103,244028,1,4,3:0:0:0:
329,40,244203,1,4,3:0:0:0:
271,172,244377,6,0,P|301:171|330:163,1,59.9999981689454,6|0,1:0|0:0,0:0:0:0:
203,127,244726,2,0,P|231:136|261:137,1,59.9999981689454,2|0,0:0|0:0,0:0:0:0:
57,169,245075,2,0,P|83:183|112:189,1,59.9999981689454,8|0,1:0|0:0,0:0:0:0:
0,42,245424,2,0,P|20:64|45:80,1,59.9999981689454,2|0,0:0|0:0,0:0:0:0:
245,371,245773,5,6,1:0:0:0:
209,343,245860,1,0,1:0:0:0:
164,334,245947,1,6,1:3:0:0:
119,340,246034,1,0,1:0:0:0:
79,360,246121,1,2,1:0:0:0:
34,368,246209,1,0,1:0:0:0:
30,358,246296,5,6,1:0:0:0:
70,326,246383,1,0,1:0:0:0:
122,316,246470,1,4,1:3:0:0:
173,322,246557,1,0,1:0:0:0:
218,345,246644,1,2,1:3:0:0:
269,354,246732,1,0,1:0:0:0:
281,364,246819,5,6,1:0:0:0:
261,282,246906,1,0,1:0:0:0:
208,217,246993,1,2,1:3:0:0:
133,174,247081,1,0,1:0:0:0:
119,181,247168,6,0,P|108:146|107:112,1,69.9999978637696,6|0,1:0|0:0,0:0:0:0:
193,16,247517,2,0,P|183:59|185:103,1,69.9999978637696,2|0,0:0|0:0,0:0:0:0:
26,140,247866,2,0,P|70:119|94:93,1,69.9999978637696,8|0,1:0|0:0,0:0:0:0:
331,28,248214,1,6,0:0:0:0:
264,68,248389,1,2,0:0:0:0:
436,153,248563,2,0,P|484:135|502:45,1,139.999995727539,6|2,1:3|0:0,0:0:0:0:
330,139,249086,5,4,3:0:0:0:
321,153,249145,1,4,3:0:0:0:
318,171,249203,1,4,3:0:0:0:
324,189,249261,1,14,1:2:0:0:
351,381,249435,1,4,3:0:0:0:
406,229,249610,1,4,3:0:0:0:
270,344,249784,1,4,3:0:0:0:
30,140,249959,6,2,P|39:177|47:240,1,80,6|0,1:0|0:0,0:1:0:0:
73,60,250307,2,0,P|108:77|155:118,1,80,6|0,0:3|0:0,0:0:0:0:
255,298,250656,2,0,P|246:335|238:398,1,80,8|0,1:0|0:0,0:0:0:0:
212,218,251004,2,0,P|174:235|129:276,1,80,2|8,0:0|1:0,0:0:0:0:
512,65,251354,6,0,L|502:169,1,75.0000028610231,6|0,1:0|0:0,0:0:0:0:
433,19,251528,2,2,L|427:104,1,75.0000028610231,14|0,1:3|0:0,0:3:0:0:
441,254,251703,1,0,1:0:0:0:
399,229,251790,1,0,1:0:0:0:
358,203,251877,2,0,L|352:288,1,75.0000028610231,6|0,1:0|0:0,0:0:0:0:
346,368,252052,2,0,L|340:293,1,75.0000028610231,2|0,1:3|0:0,0:0:0:0:
249,66,252226,1,0,1:0:0:0:
207,41,252313,1,0,1:0:0:0:
166,15,252400,2,0,L|160:100,1,75.0000028610231,6|0,1:0|0:0,0:0:0:0:
53,79,252575,2,0,L|47:164,1,75.0000028610231,2|0,1:3|0:0,0:0:0:0:
27,359,252749,6,0,L|130:348,1,75.0000028610231,4|0,1:0|0:0,0:0:0:0:
186,214,253098,2,0,L|160:297,1,75.0000028610231,6|0,3:0|0:0,0:0:0:0:
282,380,253447,2,0,L|242:297,1,75.0000028610231,8|0,1:0|0:0,0:0:0:0:
510,116,253796,2,0,B|496:156|496:156|470:226|470:226|462:284,1,150.000005722046,6|2,1:2|0:0,0:0:0:0:
31,27,254493,2,2,B|66:29|66:29|109:42|109:42|209:51,2,150.000005722046,4|8|14,1:0|1:0|1:3,0:3:0:0:
284,361,255540,6,0,B|329:353|329:353|387:350,1,75.0000028610231,4|0,1:0|0:0,0:0:0:0:
270,206,255889,2,0,B|259:256|259:256|244:289,1,75.0000028610231,6|0,3:0|0:0,0:0:0:0:
376,193,256238,2,0,B|350:146|350:146|336:110,1,75.0000028610231,8|0,1:0|0:0,0:0:0:0:
106,344,256587,2,0,B|102:313|102:313|69:238,1,112.500004291535,6|2,1:2|0:0,0:0:0:0:
0,41,256935,5,4,1:0:0:0:
58,26,257023,1,0,1:0:0:0:
112,50,257110,1,2,1:2:0:0:
143,100,257197,1,0,1:0:0:0:
131,158,257284,1,2,1:2:0:0:
86,198,257371,1,0,1:0:0:0:
78,192,257459,5,4,1:0:0:0:
138,171,257546,1,0,1:0:0:0:
200,183,257633,1,2,1:3:0:0:
253,216,257720,1,0,1:0:0:0:
279,273,257807,1,2,1:3:0:0:
275,337,257895,1,0,1:0:0:0:
262,342,257982,5,4,1:0:0:0:
299,295,258069,1,0,1:0:0:0:
355,275,258156,1,4,1:3:0:0:
414,277,258243,1,4,1:3:0:0:
465,364,258331,6,0,B|446:361|446:361|381:371,1,85.0000016212464,4|0,1:0|0:0,0:0:0:0:
499,241,258680,2,0,B|481:224|481:224|452:165|452:165|394:108,1,170.000003242493,6|8,3:0|1:0,0:0:0:0:
392,118,259377,5,6,1:3:0:0:
290,99,259552,1,2,0:0:0:0:
192,80,259726,2,0,B|165:26|165:26|193:7,1,85.0000016212464,4|0,0:0|0:0,0:0:0:0:
25,169,260075,2,2,L|183:195,1,127.50000243187,2|0,1:3|0:0,0:3:0:0:
237,191,260424,2,0,B|209:200|209:200|144:176,1,85.0000016212464,8|0,1:0|0:0,0:0:0:0:
22,254,260773,2,0,B|57:259|57:259|93:322,1,85.0000016212464,14|0,3:0|0:0,0:0:0:0:
313,337,261122,6,2,B|272:339|272:339|153:354|153:354|17:366,1,297.500005674362,4|0,1:0|0:0,0:3:0:0:
201,381,261820,2,0,B|191:328|191:328|160:274,1,85.0000016212464,8|0,1:0|0:0,0:0:0:0:
449,0,262169,2,0,B|445:51|445:51|446:59|446:59|437:81|437:81|440:146,1,127.50000243187,6|2,1:2|0:0,0:0:0:0:
451,281,262517,5,6,1:0:0:0:
464,228,262604,1,0,1:0:0:0:
444,178,262691,1,2,1:2:0:0:
397,155,262778,1,0,1:0:0:0:
344,163,262865,1,2,1:0:0:0:
308,204,262953,1,0,1:0:0:0:
287,193,263041,5,6,1:0:0:0:
307,249,263128,1,0,1:0:0:0:
295,308,263215,1,2,1:3:0:0:
264,358,263302,1,0,1:0:0:0:
209,383,263389,1,2,1:3:0:0:
149,379,263477,1,0,1:0:0:0:
157,368,263564,5,6,1:0:0:0:
198,317,263651,1,0,1:0:0:0:
259,295,263738,1,4,1:3:0:0:
324,297,263825,1,4,1:3:0:0:
378,355,263912,6,0,B|407:361|407:361|498:346,1,94.9999974632264,4|0,1:0|0:0,0:0:0:0:
323,124,264261,2,0,B|308:165|308:165|295:177|295:177|294:210,1,94.9999974632264,6|0,3:0|0:0,0:0:0:0:
478,247,264610,2,0,B|426:191|426:191|396:181,1,94.9999974632264,8|0,1:0|0:0,0:0:0:0:
206,151,264959,2,0,B|103:127|103:127|76:112|76:112|21:98,1,189.999994926453,6|2,1:2|0:0,0:0:0:0:
505,11,265656,2,2,B|453:20|453:20|426:16|426:16|361:42|361:42|307:42,2,189.999994926453,4|8|14,1:0|1:0|1:3,0:3:0:0:
283,366,266703,6,2,B|299:358|299:358|391:357,1,94.9999974632264,4|0,1:0|0:0,0:3:0:0:
236,212,267052,2,0,B|214:245|214:245|216:255|216:255|195:298,1,94.9999974632264,6|0,3:0|0:0,0:0:0:0:
58,384,267401,2,0,B|63:373|63:373|24:322|24:322|20:293,1,94.9999974632264,8|0,1:0|0:0,0:0:0:0:
128,19,267750,2,0,B|143:76|143:76|142:82|142:82|149:143|149:143|165:185,1,142.49999619484,6|2,1:2|0:0,0:0:0:0:
143,293,268098,5,4,1:0:0:0:
173,344,268186,1,0,1:0:0:0:
228,365,268273,1,2,1:2:0:0:
285,352,268360,1,0,1:0:0:0:
318,302,268447,1,2,1:2:0:0:
314,242,268534,1,0,1:0:0:0:
301,249,268622,5,4,1:0:0:0:
280,189,268709,1,0,1:0:0:0:
292,127,268796,1,2,1:3:0:0:
325,74,268883,1,0,1:0:0:0:
382,48,268970,1,2,1:3:0:0:
446,52,269058,1,0,1:0:0:0:
433,40,269145,5,4,1:0:0:0:
418,96,269232,1,0,1:0:0:0:
426,156,269319,1,4,1:3:0:0:
464,202,269406,1,4,1:3:0:0:
502,129,269494,6,2,B|446:139|446:139|432:149|432:149|398:147,1,104.999996795654,4|0,1:0|0:0,0:3:0:0:
280,375,269843,2,2,B|319:355|319:355|330:358|330:358|339:349|339:349|437:306|437:306|492:311,1,209.999993591309,6|8,3:0|1:0,0:3:0:0:
480,326,270540,5,6,1:3:0:0:
356,308,270715,1,2,0:0:0:0:
230,290,270889,2,0,B|211:217|211:217|248:214,1,104.999996795654,4|0,0:0|0:0,0:0:0:0:
31,343,271238,2,2,B|120:366|120:366|133:363|133:363|203:373,1,157.499995193482,2|0,1:3|0:0,0:3:0:0:
80,226,271587,2,0,B|100:247|100:247|119:321,1,104.999996795654,8|0,1:0|0:0,0:0:0:0:
189,123,271936,2,0,L|312:122,1,104.999996795654,14|0,3:0|0:0,0:0:0:0:
0,41,272285,6,2,B|46:33|46:33|56:36|56:36|97:14|97:14|192:4,1,157.499995193482,4|0,1:0|0:0,0:3:0:0:
318,103,272633,2,2,B|258:103|258:103|243:113|243:113|161:105,1,157.499995193482,6|0,1:3|0:0,0:3:0:0:
352,37,272983,2,0,L|387:137,1,104.999996795654,8|0,1:0|0:0,0:0:0:0:
159,356,273332,2,0,B|198:354|198:354|206:350|206:350|260:360|260:360|317:349,1,157.499995193482,6|2,1:2|0:0,0:0:0:0:
494,340,273679,5,6,1:0:0:0:
507,287,273766,1,0,1:0:0:0:
487,237,273853,1,2,1:2:0:0:
440,214,273940,1,0,1:0:0:0:
387,222,274027,1,2,1:0:0:0:
351,263,274115,1,0,1:0:0:0:
354,279,274203,5,6,1:0:0:0:
374,223,274290,1,0,1:0:0:0:
362,164,274377,1,2,1:3:0:0:
331,114,274464,1,0,1:0:0:0:
276,89,274551,1,2,1:3:0:0:
216,93,274639,1,0,1:0:0:0:
224,110,274726,5,6,1:0:0:0:
159,112,274813,1,0,1:0:0:0:
98,90,274900,1,4,1:3:0:0:
57,39,274987,1,4,1:3:0:0:
54,59,275075,5,4,0:0:0:0:
111,41,275162,1,0,0:0:0:0:
170,51,275249,1,6,0:3:0:0:
219,85,275336,1,0,0:0:0:0:
250,135,275423,1,8,0:0:0:0:
269,192,275511,1,0,0:0:0:0:
273,251,275598,1,6,0:3:0:0:
259,309,275685,1,0,0:0:0:0:
218,346,275772,2,0,L|125:377,1,75.0000028610231,8|0,0:0|0:0,0:0:0:0:
42,323,275947,2,0,L|134:287,1,75.0000028610231,6|0,0:3|0:0,0:0:0:0:
170,183,276121,5,4,0:0:0:0:
227,167,276208,1,0,0:0:0:0:
285,177,276295,1,6,0:3:0:0:
332,213,276382,1,0,0:0:0:0:
358,266,276469,1,8,0:0:0:0:
378,322,276557,1,0,0:0:0:0:
424,359,276644,1,6,0:3:0:0:
483,349,276731,1,8,0:0:0:0:
510,298,276818,2,0,L|494:212,1,75.0000028610231,8|0,0:0|0:0,0:0:0:0:
477,138,276993,2,0,L|464:58,1,75.0000028610231,6|0,0:3|0:0,0:0:0:0:
350,9,277168,5,6,0:0:0:0:
291,31,277255,1,0,0:0:0:0:
256,83,277342,1,2,0:0:0:0:
249,147,277429,1,0,0:0:0:0:
270,206,277516,1,8,0:0:0:0:
311,255,277604,1,0,0:0:0:0:
314,318,277691,1,2,0:0:0:0:
280,371,277778,1,0,0:0:0:0:
213,383,277865,1,8,0:0:0:0:
157,345,277952,1,0,0:0:0:0:
141,278,278040,1,8,0:0:0:0:
181,216,278127,1,8,0:0:0:0:
231,293,278214,5,6,0:0:0:0:
64,331,278388,1,2,0:2:0:0:
18,138,278563,1,2,0:0:0:0:
127,210,278737,1,2,0:2:0:0:
185,100,278912,1,2,0:0:0:0:
127,210,279086,1,2,0:2:0:0:
243,331,279261,5,6,0:0:0:0:
451,378,279435,1,2,0:2:0:0:
509,137,279610,1,2,0:0:0:0:
373,227,279784,1,2,0:2:0:0:
300,89,279959,1,2,0:0:0:0:
373,227,280133,1,2,0:2:0:0:
282,310,280307,5,6,0:0:0:0:
69,358,280481,1,2,0:2:0:0:
11,112,280656,1,2,0:0:0:0:
149,204,280830,1,2,0:2:0:0:
223,64,281005,1,2,0:0:0:0:
149,204,281179,1,2,0:2:0:0:
36,27,281354,5,6,0:0:0:0:
159,3,281528,1,2,0:2:0:0:
298,332,281702,1,2,0:0:0:0:
59,376,281877,1,2,0:2:0:0:
86,217,282051,5,4,0:3:0:0:
101,206,282109,1,4,0:3:0:0:
118,202,282167,1,4,0:3:0:0:
137,202,282225,1,4,0:3:0:0:
156,205,282283,1,4,0:3:0:0:
174,204,282341,1,4,0:3:0:0:
191,197,282399,1,6,1:0:0:0:
462,23,282575,1,6,1:0:0:0:
493,354,282749,5,4,0:3:0:0:
479,354,282807,1,4,0:3:0:0:
467,346,282865,1,4,0:3:0:0:
461,336,282923,1,6,1:0:0:0:
382,0,283098,1,6,1:0:0:0:
363,194,283272,5,4,0:3:0:0:
356,179,283330,1,4,0:3:0:0:
369,173,283388,1,4,0:3:0:0:
376,187,283447,1,6,1:2:0:0:
475,114,283621,5,6,0:3:0:0:
475,114,283708,1,6,0:3:0:0:
316,59,283883,1,4,0:3:0:0:
316,59,283970,1,2,0:0:0:0:
299,257,284144,2,0,L|227:258,1,50,4|0,0:3|0:0,0:0:0:0:
393,289,284319,2,0,L|441:326,1,50,6|0,0:2|0:0,0:0:0:0:
26,63,284493,5,4,0:0:0:0:
72,25,284580,1,0,0:0:0:0:
131,25,284667,1,6,0:3:0:0:
169,70,284754,1,0,0:0:0:0:
166,129,284841,1,8,0:0:0:0:
117,164,284929,1,0,0:0:0:0:
69,200,285016,1,6,0:3:0:0:
58,258,285103,1,0,0:0:0:0:
89,304,285191,2,0,L|102:377,1,75.0000028610231,8|0,0:0|0:0,0:0:0:0:
166,254,285365,2,0,L|182:328,1,75.0000028610231,6|0,0:3|0:0,0:0:0:0:
275,329,285540,5,4,0:0:0:0:
321,367,285627,1,0,0:0:0:0:
380,367,285714,1,6,0:3:0:0:
418,322,285801,1,0,0:0:0:0:
415,263,285888,1,8,0:0:0:0:
366,228,285976,1,0,0:0:0:0:
318,192,286063,1,6,0:3:0:0:
307,134,286150,1,8,0:0:0:0:
338,88,286238,2,0,L|351:14,1,75.0000028610231,8|0,0:0|0:0,0:0:0:0:
416,138,286412,2,0,L|431:64,1,75.0000028610231,6|0,0:3|0:0,0:0:0:0:
496,195,286586,5,6,0:0:0:0:
428,189,286673,1,0,0:0:0:0:
369,222,286760,1,2,0:0:0:0:
332,278,286847,1,0,0:0:0:0:
301,337,286934,1,8,0:0:0:0:
240,367,287022,1,0,0:0:0:0:
178,340,287109,1,2,0:0:0:0:
156,275,287196,1,0,0:0:0:0:
190,219,287283,1,8,0:0:0:0:
256,192,287370,1,0,0:0:0:0:
319,144,287458,1,8,0:0:0:0:
328,62,287545,1,8,0:0:0:0:
263,0,287633,6,0,L|186:19,1,80,4|0,1:0|0:0,0:0:0:0:
110,65,287981,2,0,L|11:88,1,80,2|0,0:2|0:0,0:0:0:0:
384,131,288330,1,0,0:0:0:0:
356,124,288418,1,0,0:0:0:0:
328,116,288505,1,0,0:0:0:0:
301,107,288592,1,0,0:0:0:0:
273,100,288679,6,0,L|188:117,1,80,8|0,0:0|0:0,0:0:0:0:
324,289,289028,1,2,0:0:0:0:
350,213,289202,1,0,0:0:0:0:
166,248,289377,1,2,0:0:0:0:
218,330,289551,1,0,0:0:0:0:
99,166,289726,6,2,L|4:153,1,80,4|0,0:0|0:0,0:0:0:0:
165,96,290075,2,0,L|150:2,1,80,2|0,0:2|0:0,0:0:0:0:
114,362,290423,1,2,0:0:0:0:
89,347,290511,1,0,0:0:0:0:
77,321,290598,1,0,0:0:0:0:
80,293,290685,1,0,0:0:0:0:
97,271,290772,6,0,L|174:239,1,80,8|0,0:0|0:0,0:0:0:0:
295,370,291121,2,0,L|273:283,1,80,2|0,0:2|0:0,0:0:0:0:
267,60,291470,2,2,P|265:119|259:179,1,120,2|0,0:3|2:0,0:0:0:0:
329,226,291819,6,0,L|428:249,1,80,4|0,1:0|0:0,0:0:0:0:
427,338,292167,2,0,L|526:361,1,80,2|0,0:2|0:0,0:0:0:0:
502,107,292516,1,0,0:0:0:0:
474,114,292604,1,0,0:0:0:0:
446,122,292691,1,0,0:0:0:0:
419,131,292778,1,0,0:0:0:0:
391,138,292865,6,0,L|306:121,1,80,8|0,0:0|0:0,0:0:0:0:
210,250,293214,1,2,0:0:0:0:
227,173,293388,1,0,0:0:0:0:
412,314,293563,1,2,0:0:0:0:
307,353,293737,1,0,0:0:0:0:
179,202,293912,6,2,L|257:223,1,80,4|0,0:0|0:0,0:0:0:0:
130,364,294261,2,0,L|108:278,1,80,2|0,0:2|0:0,0:0:0:0:
58,16,294609,1,2,0:0:0:0:
33,31,294697,1,0,0:0:0:0:
21,57,294784,1,0,0:0:0:0:
24,85,294871,1,0,0:0:0:0:
41,107,294958,6,0,P|82:115|122:130,1,80,8|0,0:0|0:0,0:0:0:0:
369,28,295307,2,0,P|331:42|294:56,1,80,2|0,0:2|0:0,0:0:0:0:
287,365,295656,1,10,1:0:0:0:
248,314,295743,1,8,3:0:0:0:
248,250,295830,1,8,3:0:0:0:
295,206,295918,1,8,3:0:0:0:
291,221,296005,6,2,L|377:250,1,80,4|0,1:0|0:0,0:3:0:0:
406,328,296353,2,0,L|484:298,1,80,2|0,0:2|0:0,0:0:0:0:
403,119,296702,1,0,0:0:0:0:
375,108,296790,1,0,0:0:0:0:
348,99,296877,1,0,0:0:0:0:
321,89,296964,1,0,0:0:0:0:
293,80,297051,6,0,L|202:51,1,80,8|0,0:0|0:0,0:0:0:0:
104,236,297400,1,2,0:0:0:0:
179,199,297574,1,0,0:0:0:0:
129,1,297749,1,2,0:0:0:0:
0,58,297923,1,0,0:0:0:0:
133,198,298098,6,2,L|99:117,1,80,4|0,0:0|0:0,0:0:0:0:
43,311,298447,2,0,L|8:220,1,80,2|0,0:2|0:0,0:0:0:0:
207,376,298795,1,2,0:0:0:0:
242,356,298883,1,0,0:0:0:0:
258,319,298970,1,0,0:0:0:0:
247,280,299057,1,0,0:0:0:0:
229,273,299144,5,14,0:0:0:0:
230,336,299231,1,0,0:0:0:0:
279,377,299319,1,0,0:0:0:0:
342,373,299406,1,0,0:0:0:0:
378,320,299493,1,4,0:3:0:0:
360,258,299580,1,4,0:3:0:0:
305,223,299668,1,4,0:3:0:0:
270,169,299755,1,0,0:0:0:0:
282,106,299842,1,14,0:3:0:0:
336,72,299929,1,4,0:3:0:0:
395,96,300016,1,6,0:3:0:0:
452,66,300104,1,6,0:3:0:0:
512,113,300191,5,6,0:0:0:0:
511,131,300278,1,0,0:0:0:0:
509,149,300366,1,0,0:0:0:0:
508,167,300453,1,0,0:0:0:0:
501,243,300540,2,0,L|436:235,1,50,6|0,0:0|0:0,0:0:0:0:
464,321,300802,1,2,3:3:0:0:
464,321,300889,2,0,L|455:388,1,50,4|0,0:2|0:0,0:0:0:0:
380,180,301150,1,0,0:0:0:0:
380,180,301238,2,0,L|367:86,1,50,4|0,0:0|2:0,0:0:0:0:
363,123,301586,6,2,B|395:212|541:150|538:-1|336:-84|169:36|368:265|257:364|90:94|-7:222,1,700,4|0,0:0|2:0,0:0:0:0:
25,301,302284,5,0,0:0:0:0:
43,300,302371,1,0,0:0:0:0:
61,298,302459,1,0,0:0:0:0:
79,297,302546,1,0,0:0:0:0:
155,290,302633,2,0,L|147:225,1,50,6|0,0:0|0:0,0:0:0:0:
258,378,302895,1,2,3:3:0:0:
258,378,302982,2,0,L|197:351,1,50,4|0,0:2|0:0,0:0:0:0:
317,230,303243,1,0,0:0:0:0:
317,230,303331,6,2,P|355:191|418:163,1,100,4|0,0:0|2:0,0:0:0:0:
224,126,303592,1,2,3:3:0:0:
224,126,303679,2,2,P|230:200|241:275,1,150,6|0,0:2|2:0,0:0:0:0:
464,311,304028,2,0,P|428:272|375:301,1,100,4|0,0:0|2:0,0:0:0:0:
393,378,304261,1,2,2:0:0:0:
396,369,304319,1,2,2:0:0:0:
399,361,304377,2,0,B|411:332|411:332|475:287,1,100,2|0,1:0|2:0,0:0:0:0:
37,23,304726,6,0,L|42:86,1,50,6|0,0:0|0:0,0:0:0:0:
84,154,304988,1,2,3:3:0:0:
84,154,305075,2,0,L|78:219,1,50,4|0,0:2|0:0,0:0:0:0:
221,129,305336,1,0,0:0:0:0:
221,129,305424,2,0,L|208:35,1,50,6|0,0:0|2:0,0:0:0:0:
216,67,305772,6,2,B|176:2|-49:-10|-80:246|241:322|298:113|175:3|347:-114|474:-11|444:87|381:85,1,700,4|0,0:0|2:0,0:0:0:0:
505,0,306470,6,2,P|397:171|368:373,1,412.500015735627,4|0,0:0|2:0,0:0:0:0:
472,302,307517,1,4,0:0:0:0:
388,283,307691,1,8,0:3:0:0:
212,367,307865,1,8,0:0:0:0:
282,350,308040,1,4,0:3:0:0:
74,219,308214,2,0,L|65:267,1,37.5000014305115,8|0,0:0|2:0,0:0:0:0:
145,262,308389,2,0,L|137:302,1,37.5000014305115,14|0,3:0|2:0,0:0:0:0:
11,78,308563,5,0,0:0:0:0:
29,77,308650,1,0,0:0:0:0:
47,75,308738,1,0,0:0:0:0:
65,74,308825,1,0,0:0:0:0:
141,67,308912,2,0,L|133:2,1,50,6|0,0:0|0:0,0:0:0:0:
207,122,309174,1,2,3:3:0:0:
207,122,309261,2,0,L|275:131,1,50,4|0,0:2|0:0,0:0:0:0:
476,89,309522,1,0,0:0:0:0:
476,89,309610,2,0,L|382:102,1,50,4|0,0:0|2:0,0:0:0:0:
424,106,309959,6,2,B|367:118|312:29|357:-61|609:-79|631:85|552:275|408:216|234:214|233:353,1,700,4|0,0:0|2:0,0:0:0:0:
301,303,310656,5,0,0:0:0:0:
319,304,310743,1,0,0:0:0:0:
337,306,310831,1,0,0:0:0:0:
355,307,310918,1,0,0:0:0:0:
431,314,311005,2,0,L|423:379,1,50,6|0,0:0|0:0,0:0:0:0:
492,212,311267,1,2,3:3:0:0:
492,212,311354,2,0,L|498:279,1,50,4|0,0:2|0:0,0:0:0:0:
308,192,311615,1,0,0:0:0:0:
308,192,311703,6,2,P|361:206|416:247,1,100,4|0,0:0|2:0,0:0:0:0:
462,12,311964,1,2,3:3:0:0:
462,12,312051,2,2,P|426:76|429:150,1,150,6|0,0:2|2:0,0:0:0:0:
226,34,312400,2,0,P|273:25|303:63,1,100,4|0,0:0|2:0,0:0:0:0:
238,113,312749,2,0,B|250:84|250:84|314:39,1,100,2|0,1:0|2:0,0:0:0:0:
63,363,313098,6,0,L|0:368,1,50,6|0,0:0|0:0,0:0:0:0:
200,322,313360,1,2,3:3:0:0:
200,322,313447,2,0,L|132:313,1,50,4|0,0:2|0:0,0:0:0:0:
21,182,313708,1,0,0:0:0:0:
21,182,313796,2,0,L|8:88,1,50,6|0,0:0|2:0,0:0:0:0:
22,125,314145,6,2,B|102:184|-29:235|-107:171|-68:-78|117:-2|265:57|72:181|68:321|177:354,1,600,4|0,0:0|0:0,0:0:0:0:
181,348,314726,1,4,0:3:0:0:
194,345,314784,1,4,0:3:0:0:
206,341,314842,1,0,0:0:0:0:
480,23,315191,6,2,P|392:67|370:187,1,225.000008583069,4|0,1:0|0:0,0:0:0:0:
375,197,315772,1,0,0:3:0:0:
380,210,315830,1,0,0:3:0:0:
386,223,315889,1,6,0:0:0:0:
452,168,316063,1,8,0:3:0:0:
251,9,316237,1,8,0:0:0:0:
222,97,316412,1,4,0:3:0:0:
407,370,316586,2,0,L|398:322,1,37.5000014305115,8|0,0:0|2:0,0:0:0:0:
477,316,316761,2,0,L|469:276,1,37.5000014305115,14|0,3:0|2:0,0:0:0:0:
59,89,316935,6,2,B|109:89|136:78|136:78|136:93|136:93|183:94|226:122,1,179.999994506836,4|0,0:0|0:0,0:0:0:0:
153,178,317284,2,2,P|111:230|108:301,1,119.999996337891,4|0,0:3|0:0,0:3:0:0:
294,382,317633,1,4,0:2:0:0:
302,334,317720,1,0,0:0:0:0:
298,286,317807,1,4,0:3:0:0:
283,240,317894,1,4,0:3:0:0:
252,202,317981,5,4,0:0:0:0:
223,304,318156,1,2,0:0:0:0:
396,334,318330,1,4,0:3:0:0:
422,231,318505,1,2,0:0:0:0:
422,231,318592,1,0,0:0:0:0:
422,231,318679,1,2,0:0:0:0:
326,265,318854,1,4,0:3:0:0:
404,65,319028,5,6,0:0:0:0:
472,41,319202,1,2,0:2:0:0:
403,90,319377,1,6,0:3:0:0:
324,119,319551,1,2,0:2:0:0:
84,14,319726,1,2,0:0:0:0:
130,24,319813,1,0,0:0:0:0:
167,53,319900,1,4,0:3:0:0:
185,97,319987,1,6,0:3:0:0:
182,145,320075,5,4,0:0:0:0:
47,182,320249,1,2,0:2:0:0:
137,338,320423,2,0,L|145:283,1,50,2|0,0:0|2:0,0:0:0:0:
210,364,320598,2,0,L|220:300,1,50,2|0,0:3|2:0,0:0:0:0:
338,154,320772,2,0,L|353:240,1,75.0000028610231,2|0,0:0|2:0,0:0:0:0:
425,53,320947,2,0,L|441:132,1,75.0000028610231,2|0,0:0|2:0,0:0:0:0:
8,82,321121,6,2,B|72:86|101:43|101:43|107:55|107:55|148:9|235:16,1,239.999992675781,4|4,0:0|0:3,0:0:0:0:
438,272,321644,2,2,P|370:276|342:229,1,119.999996337891,6|0,0:2|0:0,0:0:0:0:
386,23,321906,1,4,0:3:0:0:
423,34,321993,1,4,0:3:0:0:
457,45,322080,1,4,0:3:0:0:
492,59,322168,6,2,B|497:140|465:166|465:166|472:179|472:179|442:222|453:296,1,239.999992675781,4|4,0:0|0:3,0:0:0:0:
60,375,322691,2,2,B|195:378|153:314|295:318,1,239.999992675781,6|0,0:2|0:0,0:0:0:0:
75,252,323214,5,6,0:0:0:0:
7,169,323388,1,4,0:3:0:0:
58,74,323563,1,2,0:3:0:0:
236,159,323737,2,2,P|156:174|108:142,1,119.999996337891,4|0,0:0|0:0,0:0:0:0:
262,73,323999,1,4,0:3:0:0:
248,118,324086,1,4,0:3:0:0:
205,140,324173,1,4,0:3:0:0:
158,132,324261,1,6,0:0:0:0:
218,3,324435,1,4,0:3:0:0:
328,137,324609,1,6,0:2:0:0:
180,339,324784,5,8,0:3:0:0:
234,356,324871,1,8,0:3:0:0:
293,371,324958,1,8,0:3:0:0:
307,368,325045,1,8,0:3:0:0:
320,364,325133,1,8,0:3:0:0:
338,361,325220,1,8,0:3:0:0:
365,382,325307,5,6,0:0:0:0:
375,335,325394,1,0,0:0:0:0:
406,299,325481,1,4,0:3:0:0:
451,282,325569,1,0,0:0:0:0:
477,242,325656,1,4,0:3:0:0:
468,194,325743,1,0,0:0:0:0:
428,166,325830,1,2,0:0:0:0:
379,171,325918,1,0,0:0:0:0:
348,207,326005,1,4,0:3:0:0:
328,261,326092,1,4,0:3:0:0:
278,289,326179,1,4,0:3:0:0:
221,292,326266,1,2,0:3:0:0:
204,302,326354,5,6,0:0:0:0:
211,242,326441,1,2,0:0:0:0:
240,189,326528,1,6,0:3:0:0:
285,149,326615,1,0,0:0:0:0:
340,125,326702,1,2,0:0:0:0:
396,103,326790,1,0,0:0:0:0:
439,62,326877,1,2,0:0:0:0:
379,63,326964,1,0,0:0:0:0:
321,44,327051,1,6,0:3:0:0:
268,15,327138,1,4,0:3:0:0:
207,12,327226,1,4,0:3:0:0:
153,38,327313,1,4,0:3:0:0:
166,61,327400,5,6,0:0:0:0:
124,36,327487,1,0,0:0:0:0:
81,59,327575,1,2,0:0:0:0:
85,106,327662,1,0,0:0:0:0:
127,128,327749,1,4,0:3:0:0:
169,105,327836,1,0,0:0:0:0:
208,132,327923,1,2,0:0:0:0:
205,180,328011,1,0,0:0:0:0:
163,203,328098,1,4,0:3:0:0:
126,172,328185,1,0,0:0:0:0:
86,198,328272,1,6,0:3:0:0:
88,245,328359,1,4,0:3:0:0:
95,254,328447,5,14,0:0:0:0:
39,277,328534,1,0,0:0:0:0:
37,336,328621,1,4,0:3:0:0:
85,371,328708,1,0,0:0:0:0:
142,353,328795,1,14,0:3:0:0:
176,303,328883,1,0,0:0:0:0:
196,246,328970,1,4,0:3:0:0:
196,186,329057,1,0,0:0:0:0:
184,127,329144,1,2,0:0:0:0:
184,67,329231,1,0,0:0:0:0:
222,19,329319,1,2,0:0:0:0:
284,13,329406,1,0,0:0:0:0:
348,59,329493,5,14,0:0:0:0:
303,123,329580,1,8,0:0:0:0:
287,200,329668,1,8,0:0:0:0:
283,277,329755,1,8,0:0:0:0:
313,348,329842,5,10,0:0:0:0:
327,358,329929,1,0,0:0:0:0:
369,329,330016,1,10,0:0:0:0:
369,347,330104,1,0,0:0:0:0:
418,296,330191,1,10,0:0:0:0:
428,313,330278,1,0,0:0:0:0:
465,286,330365,1,2,0:0:0:0:
470,274,330452,1,0,0:0:0:0:
508,268,330540,5,14,0:0:0:0:
439,233,330627,1,8,0:0:0:0:
384,176,330715,1,8,0:0:0:0:
354,103,330802,1,8,0:0:0:0:
366,26,330889,5,10,0:0:0:0:
378,52,330976,1,0,0:0:0:0:
422,49,331063,1,10,0:0:0:0:
409,76,331150,1,0,0:0:0:0:
454,90,331237,1,10,0:0:0:0:
426,111,331325,1,0,0:0:0:0:
446,126,331412,1,2,0:0:0:0:
433,132,331499,1,0,0:0:0:0:
421,203,331586,5,6,0:0:0:0:
353,219,331673,1,0,0:0:0:0:
302,270,331761,1,4,0:3:0:0:
235,285,331848,1,2,0:3:0:0:
187,333,331935,1,2,0:0:0:0:
114,338,332022,1,0,0:0:0:0:
52,375,332109,5,6,0:0:0:0:
122,354,332197,1,0,0:0:0:0:
191,318,332284,1,4,0:3:0:0:
267,304,332371,1,2,0:3:0:0:
340,261,332458,1,2,0:0:0:0:
424,259,332545,1,0,0:0:0:0:
484,206,332633,6,2,B|464:201|464:201|416:232|416:232|351:230|351:230|313:259|313:259|256:243|256:243|195:310|195:310|112:292|112:292|71:325|71:325|-3:337,1,550.000016784668,4|0,0:0|2:0,0:0:0:0:
477,21,333679,5,6,0:0:0:0:
437,13,333766,1,0,0:0:0:0:
397,20,333853,1,4,0:3:0:0:
370,49,333940,1,0,0:0:0:0:
358,87,334028,1,8,0:0:0:0:
367,125,334115,1,0,0:0:0:0:
392,155,334202,1,4,0:3:0:0:
430,166,334289,1,0,0:0:0:0:
468,156,334376,1,8,0:0:0:0:
489,121,334464,1,0,0:0:0:0:
475,83,334551,1,4,0:3:0:0:
439,64,334638,1,4,0:3:0:0:
432,77,334725,6,0,P|382:84|333:94,1,100,6|0,0:0|0:0,0:0:0:0:
196,10,334987,1,4,0:3:0:0:
196,10,335074,2,2,P|234:42|222:111,1,100,8|0,0:0|0:0,0:0:0:0:
168,153,335336,1,4,0:3:0:0:
168,153,335423,2,2,P|95:146|20:146,1,100,8|2,0:0|0:3,0:0:0:0:
37,370,335772,5,6,0:0:0:0:
20,333,335859,1,0,0:0:0:0:
27,293,335946,1,4,0:3:0:0:
55,265,336033,1,0,0:0:0:0:
95,260,336121,1,8,0:0:0:0:
131,275,336208,1,0,0:0:0:0:
154,307,336295,1,4,0:3:0:0:
183,333,336382,1,0,0:0:0:0:
222,338,336469,1,8,0:0:0:0:
256,317,336557,1,0,0:0:0:0:
267,278,336644,1,4,0:3:0:0:
244,244,336731,1,4,0:3:0:0:
235,259,336818,6,0,P|222:192|215:128,1,100,6|0,0:0|0:0,0:0:0:0:
270,6,337080,1,4,0:3:0:0:
270,6,337167,2,2,P|308:38|296:107,1,100,8|0,0:0|0:0,0:0:0:0:
384,121,337429,1,4,0:3:0:0:
384,121,337516,2,2,P|311:114|236:114,1,100,8|2,0:0|0:3,0:0:0:0:
496,36,337865,5,6,0:0:0:0:
456,42,337952,1,0,0:0:0:0:
429,71,338039,1,4,0:3:0:0:
416,108,338126,1,0,0:0:0:0:
426,146,338214,1,8,0:0:0:0:
448,179,338301,1,0,0:0:0:0:
482,199,338388,1,4,0:3:0:0:
500,234,338475,1,0,0:0:0:0:
492,273,338562,1,8,0:0:0:0:
456,292,338650,1,0,0:0:0:0:
421,271,338737,1,4,0:3:0:0:
383,283,338824,1,4,0:3:0:0:
377,322,338911,1,6,0:2:0:0:
340,338,338998,1,0,0:0:0:0:
307,313,339086,1,4,0:3:0:0:
269,327,339173,1,2,0:3:0:0:
267,341,339260,6,2,P|235:303|166:315,1,100,8|0,0:0|0:0,0:0:0:0:
154,371,339522,1,4,0:3:0:0:
154,371,339609,2,2,P|81:364|6:364,1,100,8|2,0:0|0:3,0:0:0:0:
29,68,339958,6,0,L|89:78,1,50,14|0,0:0|0:0,0:0:0:0:
162,99,340132,2,0,L|94:113,1,50,2|0,0:0|0:0,0:0:0:0:
217,37,340307,2,0,L|281:20,1,50,10|0,0:2|0:0,0:0:0:0:
49,194,340481,1,2,0:0:0:0:
49,194,340568,1,0,0:0:0:0:
49,194,340655,1,8,0:0:0:0:
79,220,340743,1,0,0:0:0:0:
116,233,340830,1,4,0:3:0:0:
79,249,340917,1,4,0:3:0:0:
59,284,341004,6,0,L|62:346,1,50,6|0,0:0|0:0,0:0:0:0:
172,327,341179,2,0,L|136:372,1,50,2|0,0:2|0:0,0:0:0:0:
352,190,341353,2,0,L|303:203,1,50,14|0,0:0|0:0,0:0:0:0:
182,111,341528,2,0,L|207:154,1,50,2|0,0:2|0:0,0:0:0:0:
367,366,341702,1,14,0:3:0:0:
442,376,341789,1,4,0:3:0:0:
495,319,341876,1,14,0:3:0:0:
485,244,341964,1,4,0:3:0:0:
416,293,342051,5,6,0:0:0:0:
385,318,342138,1,0,0:0:0:0:
345,321,342225,1,4,0:3:0:0:
310,301,342312,1,0,0:0:0:0:
288,266,342400,1,8,0:0:0:0:
284,226,342487,1,0,0:0:0:0:
301,190,342574,1,4,0:3:0:0:
332,166,342661,1,0,0:0:0:0:
361,139,342748,1,8,0:0:0:0:
362,98,342836,1,0,0:0:0:0:
335,68,342923,1,4,0:3:0:0:
295,60,343010,1,4,0:3:0:0:
306,50,343097,6,0,P|293:117|286:181,1,100,6|0,0:0|0:0,0:0:0:0:
140,41,343359,1,4,0:3:0:0:
140,41,343446,2,2,P|172:3|241:15,1,100,8|0,0:0|0:0,0:0:0:0:
157,140,343708,1,4,0:3:0:0:
157,140,343795,2,2,P|84:147|9:147,1,100,8|2,0:0|0:3,0:0:0:0:
10,354,344144,5,6,0:0:0:0:
45,371,344231,1,0,0:0:0:0:
84,371,344318,1,4,0:3:0:0:
116,348,344405,1,0,0:0:0:0:
131,310,344493,1,8,0:0:0:0:
140,271,344580,1,0,0:0:0:0:
164,239,344667,1,4,0:3:0:0:
199,221,344754,1,0,0:0:0:0:
238,216,344841,1,8,0:0:0:0:
274,233,344929,1,0,0:0:0:0:
294,267,345016,1,4,0:3:0:0:
284,305,345103,1,4,0:3:0:0:
248,322,345190,1,6,0:2:0:0:
213,302,345277,1,0,0:0:0:0:
213,261,345365,1,4,0:3:0:0:
251,248,345452,1,2,0:3:0:0:
252,262,345539,6,2,P|214:230|226:161,1,100,8|0,0:0|0:0,0:0:0:0:
241,105,345801,1,4,0:3:0:0:
241,105,345888,2,2,P|168:112|93:112,1,100,8|2,0:0|0:3,0:0:0:0:
484,5,346237,5,6,0:0:0:0:
434,5,346324,1,0,0:0:0:0:
404,44,346411,1,0,0:0:0:0:
410,93,346498,1,0,0:0:0:0:
449,123,346585,1,8,0:0:0:0:
481,161,346673,1,0,0:0:0:0:
490,210,346760,2,0,P|473:267|441:326,2,100,2|8|0,0:0|0:0|0:0,0:0:0:0:
395,178,347196,1,0,0:0:0:0:
395,178,347283,6,0,P|376:239|370:306,1,100,6|2,0:0|0:0,0:0:0:0:
388,362,347545,1,0,0:0:0:0:
388,362,347632,1,8,0:0:0:0:
148,369,347806,2,0,P|224:327|256:323,1,100,2|8,0:0|0:0,0:0:0:0:
289,263,348068,1,0,0:0:0:0:
273,190,348155,2,0,P|274:226|246:262,1,50,2|0,0:0|0:0,0:0:0:0:
164,163,348330,6,0,L|98:157,1,50,6|0,0:0|0:0,0:0:0:0:
75,229,348504,1,2,0:0:0:0:
98,266,348591,1,8,0:0:0:0:
98,266,348679,2,0,L|32:260,1,50,8|0,0:0|0:0,0:0:0:0:
4,97,348854,2,0,L|54:102,1,50,2|0,0:0|0:0,0:0:0:0:
290,64,349027,2,0,L|291:5,1,50,8|0,0:0|0:0,0:0:0:0:
178,58,349202,2,2,L|226:104,1,50,14|0,0:3|0:0,0:0:0:0:
483,79,349377,6,0,L|381:88,1,75.0000028610231,6|0,0:0|0:0,0:0:0:0:
332,179,349551,2,2,L|232:212,1,75.0000028610231,8|0,0:0|0:0,0:0:0:0:
512,204,349725,2,0,L|426:244,1,75.0000028610231,10|0,0:0|0:0,0:0:0:0:
313,368,349899,1,6,0:3:0:0:
238,357,349987,1,8,0:0:0:0:
162,352,350075,6,0,L|262:337,1,75.0000028610231,14|4,1:0|0:3,0:0:0:0:
68,332,350249,2,2,L|164:316,1,50,4|0,0:2|0:0,0:0:0:0:
17,325,350423,5,4,1:0:0:0:
256,192,351818,12,0,353126,0:0:0:0:
495,59,353213,5,4,1:0:0:0:
132,224,354434,5,4,0:3:0:0:
141,234,354492,1,4,0:3:0:0:
143,247,354550,1,4,0:3:0:0:
137,258,354609,5,2,1:0:0:0:
100,271,354696,1,2,0:3:0:0:
62,259,354783,1,4,3:0:0:0:
38,227,354870,1,4,3:0:0:0:
37,187,354957,1,4,3:0:0:0:
73,113,355132,1,6,3:0:0:0:
166,72,355306,1,12,3:0:0:0:
275,118,355481,1,14,3:0:0:0:
321,237,355655,1,8,0:3:0:0:
305,276,355742,1,4,3:0:0:0:
279,244,355829,1,12,0:3:0:0:
461,32,356004,5,4,1:0:0:0:
256,192,357399,12,0,358707,0:0:0:0:
3,114,358795,5,6,0:0:0:0:
46,172,358882,1,0,0:0:0:0:
117,188,358969,1,0,0:0:0:0:
186,165,359056,1,0,0:0:0:0:
179,142,359143,5,6,0:0:0:0:
186,129,359231,1,0,0:0:0:0:
269,186,359318,5,6,0:0:0:0:
271,146,359405,1,0,0:0:0:0:
303,111,359492,1,0,0:0:0:0:
347,102,359579,1,0,0:0:0:0:
412,40,359667,5,6,0:0:0:0:
419,102,359754,1,0,0:0:0:0:
430,161,359841,1,0,0:0:0:0:
450,216,359928,1,0,0:0:0:0:
390,255,360016,5,6,0:0:0:0:
385,301,360103,1,0,0:0:0:0:
377,375,360190,5,6,0:0:0:0:
344,182,360364,1,4,0:3:0:0:
512,270,360539,5,6,0:0:0:0:
228,297,360713,1,4,0:3:0:0:
462,1,360888,5,6,0:0:0:0:
451,8,361411,6,0,P|468:72|495:197,1,179.999994506836,6|0,1:0|0:0,0:0:0:0:
188,376,361935,2,0,P|160:319|173:249,1,119.999996337891,8|0,1:0|0:0,0:0:0:0:
318,138,362284,1,2,0:0:0:0:
357,220,362458,2,2,P|284:213|219:208,1,119.999996337891,0|8,0:0|1:0,0:3:0:0:
71,347,362807,5,4,0:0:0:0:
18,270,362981,2,2,P|56:185|146:118,1,179.999994506836,2|0,0:0|0:0,0:3:0:0:
163,57,363330,2,2,P|101:88|59:64,1,119.999996337891,8|0,1:0|0:0,0:3:0:0:
425,64,363679,2,0,P|379:32|298:6,1,119.999996337891,2|0,0:0|0:0,0:0:0:0:
283,277,364028,2,0,P|287:193|250:70,1,179.999994506836,8|0,1:0|0:0,0:0:0:0:
323,360,364377,5,6,1:0:0:0:
366,296,364551,1,2,0:0:0:0:
427,252,364725,1,8,1:0:0:0:
502,239,364900,1,4,0:3:0:0:
239,33,365074,5,6,0:0:0:0:
308,78,365249,1,2,0:0:0:0:
386,107,365423,1,8,1:0:0:0:
472,123,365598,1,2,0:0:0:0:
65,322,365772,5,6,1:0:0:0:
140,249,365946,1,2,0:0:0:0:
233,196,366120,1,8,1:0:0:0:
352,210,366295,1,2,0:3:0:0:
115,71,366470,5,6,1:2:0:0:
113,86,366528,1,4,0:3:0:0:
114,102,366586,1,4,0:3:0:0:
118,117,366644,1,4,0:3:0:0:
124,132,366702,1,4,0:3:0:0:
133,145,366760,1,4,0:3:0:0:
145,156,366818,1,8,1:0:0:0:
16,9,366993,2,0,P|121:25|230:110,1,239.999992675781,6|4,1:0|0:3,0:0:0:0:
416,378,367516,6,0,P|435:317|429:251,1,119.999996337891,8|0,1:0|0:0,0:0:0:0:
287,39,367865,1,2,0:0:0:0:
318,129,368039,2,2,P|331:191|330:267,1,119.999996337891,0|8,0:0|1:0,0:3:0:0:
501,59,368388,2,2,P|441:66|382:62,1,119.999996337891,4|4,0:3|0:3,0:3:0:0:
512,252,368737,2,2,P|484:200|430:179,1,119.999996337891,2|8,0:0|1:0,0:3:0:0:
190,377,369086,2,2,P|200:307|226:191,1,179.999994506836,6|0,0:3|0:0,0:3:0:0:
260,276,369435,2,0,P|191:281|134:309,1,119.999996337891,2|8,1:2|1:0,0:0:0:0:
86,370,369784,1,4,0:0:0:0:
4,44,369958,5,4,1:0:0:0:
81,26,370132,1,4,0:3:0:0:
171,52,370307,1,2,1:2:0:0:
229,145,370481,1,4,0:3:0:0:
248,257,370656,1,2,1:2:0:0:
313,360,370830,1,4,0:3:0:0:
438,382,371004,1,2,1:2:0:0:
510,250,371178,1,8,0:3:0:0:
494,253,371236,1,8,0:3:0:0:
478,257,371294,1,8,0:3:0:0:
462,261,371352,1,8,0:3:0:0:
485,24,371528,5,8,0:3:0:0:
448,13,371615,1,8,0:3:0:0:
412,22,371702,1,8,0:3:0:0:
387,55,371789,1,8,0:3:0:0:
386,103,371877,1,10,0:3:0:0:
404,153,371964,1,8,0:3:0:0:
395,213,372051,1,4,0:3:0:0:
358,263,372138,1,4,0:3:0:0:
296,293,372225,1,6,0:3:0:0:
229,271,372313,1,4,0:3:0:0:
194,203,372400,1,6,0:3:0:0:
215,130,372487,1,14,0:3:0:0:
293,108,372574,2,0,B|247:153|178:113|205:66|129:38|75:77,1,239.999992675781,6|2,1:0|0:3,0:0:0:0:
302,354,373098,6,0,P|307:281|319:214,1,119.999996337891,12|0,1:0|0:0,0:0:0:0:
46,155,373446,1,2,0:0:0:0:
13,239,373621,2,2,P|73:244|119:198,1,119.999996337891,0|8,0:0|1:0,0:3:0:0:
282,140,373970,5,4,0:0:0:0:
312,62,374144,2,2,P|233:20|144:16,1,179.999994506836,2|0,0:0|0:0,0:3:0:0:
153,113,374493,2,2,P|218:91|231:44,1,119.999996337891,8|0,1:0|0:0,0:3:0:0:
473,180,374842,2,0,P|427:148|346:122,1,119.999996337891,2|0,0:0|0:0,0:0:0:0:
349,384,375191,2,0,P|385:308|499:252,1,179.999994506836,8|0,1:0|0:0,0:0:0:0:
434,32,375540,5,6,1:0:0:0:
330,83,375714,1,2,0:0:0:0:
281,164,375888,1,8,1:0:0:0:
267,239,376063,1,4,0:3:0:0:
278,290,376237,1,6,0:0:0:0:
303,322,376412,1,2,0:0:0:0:
405,106,376586,5,6,1:0:0:0:
362,11,376761,1,2,0:0:0:0:
169,151,376935,5,6,1:0:0:0:
252,239,377109,1,2,0:0:0:0:
388,270,377283,1,10,1:0:0:0:
500,197,377458,1,10,3:3:0:0:
496,177,377516,1,8,3:0:0:0:
490,157,377574,1,8,3:0:0:0:
482,138,377632,5,6,1:0:0:0:
232,21,377807,1,8,0:3:0:0:
100,262,377981,1,8,0:3:0:0:
447,314,378155,2,2,B|416:368|340:365|345:311|271:300|231:361,1,239.999992675781,4|0,1:0|0:0,0:3:0:0:
510,249,378679,5,8,1:0:0:0:
431,225,378853,1,4,0:3:0:0:
335,356,379028,2,2,P|317:298|292:244,1,119.999996337891,4|4,0:0|0:3,0:3:0:0:
409,142,379377,2,0,P|448:89|516:75,1,119.999996337891,8|4,1:0|0:3,0:0:0:0:
228,384,379725,2,2,P|213:299|209:223,1,119.999996337891,4|4,0:0|0:3,0:1:0:0:
339,31,380074,1,8,1:0:0:0:
261,5,380249,1,4,0:3:0:0:
2,123,380423,2,2,P|88:110|222:133,1,179.999994506836,4|0,1:0|0:0,0:3:0:0:
100,157,380772,2,0,P|80:78|65:28,1,119.999996337891,8|2,1:0|0:3,0:0:0:0:
22,258,381120,5,6,1:0:0:0:
34,331,381207,1,0,0:0:0:0:
97,373,381295,1,4,0:3:0:0:
173,371,381382,1,4,0:3:0:0:
184,361,381469,5,6,1:0:0:0:
172,352,381556,1,0,0:0:0:0:
255,374,381643,5,6,1:0:0:0:
282,361,381731,1,0,0:0:0:0:
308,349,381818,1,4,0:3:0:0:
337,334,381905,1,4,0:3:0:0:
285,268,381992,5,6,0:0:0:0:
239,254,382080,1,0,0:0:0:0:
195,245,382167,1,4,0:3:0:0:
148,230,382254,1,4,0:3:0:0:
170,152,382341,5,2,0:0:0:0:
183,148,382428,1,0,0:0:0:0:
233,89,382516,5,6,1:0:0:0:
274,139,382603,1,0,0:0:0:0:
292,195,382690,1,4,0:3:0:0:
292,259,382777,1,4,0:3:0:0:
361,298,382864,5,6,0:0:0:0:
386,301,382952,1,0,0:0:0:0:
410,294,383039,1,4,0:3:0:0:
428,277,383126,1,4,0:3:0:0:
381,213,383213,6,0,L|247:195,1,125,6|0,0:0|0:0,0:0:0:0:
511,156,383388,2,0,L|443:164,1,50,6|0,0:0|0:0,0:0:0:0:
32,48,383736,5,6,0:0:0:0:
43,48,383823,1,0,0:0:0:0:
55,49,383910,1,0,0:0:0:0:
67,50,383997,1,0,0:0:0:0:
78,51,384084,1,4,0:3:0:0:
90,52,384172,1,4,0:3:0:0:
102,52,384259,1,8,0:0:0:0:
114,53,384346,1,4,0:3:0:0:
126,55,384433,1,4,0:3:0:0:
138,56,384520,1,0,0:0:0:0:
149,57,384608,1,8,0:0:0:0:
162,57,384695,1,0,0:0:0:0:
173,58,384782,1,2,0:2:0:0:
185,59,384869,1,0,0:0:0:0:
197,60,384956,1,6,0:3:0:0:
208,61,385044,1,0,0:0:0:0:
221,62,385131,1,2,0:0:0:0:
232,63,385218,1,0,0:0:0:0:
244,64,385305,1,6,0:0:0:0:
256,65,385392,1,0,0:0:0:0:
268,66,385480,1,2,0:0:0:0:
279,66,385567,1,0,0:0:0:0:
292,68,385654,1,6,0:3:0:0:
303,69,385741,1,0,0:0:0:0:
315,70,385829,1,2,0:0:0:0:
327,71,385916,1,0,0:0:0:0:
338,71,386003,1,8,0:0:0:0:
423,79,386178,1,6,0:3:0:0:
510,87,386353,1,6,0:3:0:0:
480,336,386527,5,6,0:0:0:0:
469,336,386614,1,0,0:0:0:0:
457,335,386701,1,0,0:0:0:0:
445,334,386788,1,0,0:0:0:0:
434,333,386875,1,4,0:3:0:0:
422,332,386963,1,4,0:3:0:0:
410,332,387050,1,8,0:0:0:0:
398,331,387137,1,4,0:3:0:0:
386,329,387224,1,4,0:3:0:0:
374,328,387311,1,0,0:0:0:0:
363,327,387399,1,8,0:0:0:0:
350,327,387486,1,0,0:0:0:0:
339,326,387573,1,2,0:2:0:0:
327,325,387660,1,0,0:0:0:0:
315,324,387747,1,6,0:3:0:0:
304,323,387835,1,0,0:0:0:0:
291,322,387922,1,2,0:0:0:0:
280,321,388009,1,0,0:0:0:0:
237,361,388097,5,6,1:0:0:0:
261,323,388184,1,0,1:0:0:0:
265,278,388271,1,6,1:3:0:0:
254,234,388358,1,0,1:0:0:0:
234,193,388445,1,2,1:0:0:0:
235,147,388533,1,0,1:0:0:0:
232,88,388620,5,6,1:0:0:0:
263,126,388707,1,0,1:0:0:0:
277,173,388794,1,4,1:3:0:0:
279,222,388881,1,0,1:0:0:0:
255,266,388969,1,2,1:3:0:0:
238,313,389056,1,0,1:0:0:0:
250,361,389143,5,6,1:0:0:0:
96,48,389318,5,6,0:0:0:0:
96,59,389405,1,0,0:0:0:0:
95,71,389492,1,0,0:0:0:0:
94,83,389579,1,0,0:0:0:0:
93,94,389666,1,4,0:3:0:0:
92,106,389754,1,4,0:3:0:0:
92,118,389841,1,8,0:0:0:0:
91,130,389928,1,4,0:3:0:0:
89,142,390015,1,4,0:3:0:0:
88,154,390102,1,0,0:0:0:0:
87,165,390190,1,8,0:0:0:0:
87,178,390277,1,0,0:0:0:0:
86,189,390364,1,2,0:2:0:0:
85,201,390451,1,0,0:0:0:0:
84,213,390538,1,6,0:3:0:0:
83,224,390626,1,0,0:0:0:0:
82,237,390713,1,2,0:0:0:0:
81,248,390800,1,0,0:0:0:0:
80,260,390887,1,6,0:0:0:0:
79,272,390974,1,0,0:0:0:0:
78,284,391062,1,2,0:0:0:0:
78,295,391149,1,0,0:0:0:0:
76,308,391236,1,6,0:3:0:0:
75,319,391323,1,0,0:0:0:0:
74,331,391411,1,2,0:0:0:0:
73,343,391498,1,0,0:0:0:0:
73,354,391585,1,8,0:0:0:0:
0,315,391760,1,6,0:3:0:0:
150,331,391935,1,6,0:3:0:0:
415,359,392109,5,6,0:0:0:0:
415,348,392196,1,0,0:0:0:0:
416,336,392283,1,0,0:0:0:0:
416,325,392370,1,0,0:0:0:0:
417,313,392457,1,4,0:3:0:0:
418,301,392544,1,4,0:3:0:0:
419,290,392631,1,8,0:0:0:0:
420,278,392719,1,4,0:3:0:0:
420,266,392806,1,4,0:3:0:0:
421,254,392893,1,0,0:0:0:0:
423,242,392980,1,8,0:0:0:0:
424,230,393067,1,0,0:0:0:0:
425,219,393155,1,2,0:2:0:0:
425,206,393242,1,0,0:0:0:0:
426,195,393329,1,6,0:3:0:0:
427,183,393416,1,0,0:0:0:0:
428,171,393503,1,2,0:0:0:0:
429,160,393591,1,0,0:0:0:0:
476,126,393678,5,6,1:0:0:0:
459,79,393765,1,0,1:0:0:0:
451,30,393852,1,6,1:3:0:0:
415,65,393939,1,0,1:0:0:0:
370,88,394026,1,2,1:0:0:0:
320,96,394114,1,0,1:0:0:0:
362,62,394201,5,6,1:0:0:0:
341,113,394288,1,0,1:0:0:0:
305,155,394375,1,4,1:3:0:0:
273,201,394463,1,0,1:0:0:0:
246,250,394550,1,2,1:3:0:0:
238,305,394637,1,0,1:0:0:0:
263,354,394724,5,6,1:0:0:0:
365,210,394899,2,0,B|321:191|279:197|279:197|273:189|273:189|235:194|176:164,1,200,6|0,0:0|0:0,0:0:0:0:
315,374,395248,5,6,1:3:0:0:
101,304,395423,1,2,0:0:0:0:
101,79,395597,1,6,0:2:0:0:
194,0,395684,1,8,0:0:0:0:
315,9,395771,1,8,0:0:0:0:
447,192,395946,1,6,1:0:0:0:
256,192,396295,5,2,0:3:0:0:
180,146,396469,5,6,0:3:0:0:
301,116,396643,1,4,0:3:0:0:
210,267,396818,1,14,1:3:0:0:
331,237,396992,1,4,0:0:0:0:
