osu file format v14

[General]
AudioFilename: audio.mp3
AudioLeadIn: 0
PreviewTime: 48031
Countdown: 0
SampleSet: None
StackLeniency: 0.7
Mode: 0
LetterboxInBreaks: 0
WidescreenStoryboard: 1

[Editor]
DistanceSpacing: 0.9
BeatDivisor: 6
GridSize: 32
TimelineZoom: 1.5

[Metadata]
Title:
TitleUnicode:
Artist:EPIC
ArtistUnicode:EPIC
Creator:bite you death
Version:kutafix confirmed for season 1
Source:
Tags:Dino Merlin Love in Rewind
BeatmapID:1847141
BeatmapSetID:883636

[Difficulty]
HPDrainRate:6
CircleSize:3.6
OverallDifficulty:8
ApproachRate:9
SliderMultiplier:3.59999990463257
SliderTickRate:1

[Events]
//Background and Video events
//Break Periods
2,1884,10355
//Storyboard Layer 0 (Background)
//Storyboard Layer 1 (Fail)
//Storyboard Layer 2 (Pass)
//Storyboard Layer 3 (Foreground)
//Storyboard Sound Samples

[TimingPoints]
10955,713.097218920846,4,2,2,50,1,0
10955,-166.666666666667,4,2,2,50,0,0
22369,-142.857142857143,4,2,2,50,0,0
22726,-125,4,2,2,50,0,0
50888,-90.9090909090909,4,2,2,50,0,1
68002,-1000,4,2,2,50,0,1
71568,-58.8235294117647,4,2,2,50,0,1
100082,709.555345316935,4,2,2,50,1,0
117108,709.639266706091,4,2,2,50,1,0
128422,712.589073634204,4,2,2,50,1,0
134122,750,4,2,2,50,1,0
137822,710.479573712256,4,2,2,50,1,0

[Colours]
Combo1 : 255,255,191
Combo2 : 147,255,255
Combo3 : 255,176,176
Combo4 : 151,255,151
SliderBorder : 179,217,255
SliderTrackOverride : 100,100,100

[HitObjects]
127,136,971,1,0,0:0:0:0:
290,166,1090,1,0,0:0:0:0:
267,76,1447,1,0,0:0:0:0:
227,163,1565,1,0,0:0:0:0:
273,280,1684,1,0,0:0:0:0:
168,118,10955,6,0,B|201:137|201:137|236:332|134:290|79:187|34:53|142:17|142:17|340:131|456:75|401:-10|306:-6|306:-6|275:107|360:246|360:246|418:218|432:144|490:146|490:146|587:204|485:286|452:273|417:184|417:184|394:144|274:135|221:227|227:308|227:308|271:396|381:393|367:277|228:307|228:307|171:359|68:324|68:324|46:252|-19:176|-19:176|-34:57|16:5,5,2627.99985018159
143,25,54453,1,0,0:0:0:0:
278,143,54810,6,0,P|258:60|369:57,4,198.000000797272
379,305,56593,2,0,B|449:270|636:58|179:11|187:132|237:243|237:243|391:209|370:-16|370:-16|220:-33|96:75|96:75|54:188|116:195|228:169|128:25|130:25|57:-5|-36:129|-36:129|49:284|120:251|120:251|193:265|202:348|202:348|120:375|61:338,1,2046.00000823848
78,168,60515,2,0,P|181:138|198:148,1,132.000000531515
279,198,60871,1,0,0:0:0:0:
334,52,61229,1,0,0:0:0:0:
177,261,61584,2,0,L|247:282,1,66.0000002657573
252,87,61822,2,0,L|191:128,1,66.0000002657573
278,186,62061,2,0,L|335:230,1,66.0000002657573
438,149,62297,1,0,0:0:0:0:
378,124,62535,6,0,B|326:176|314:244|391:343,2,198.000000797272
441,44,63367,1,0,0:0:0:0:
265,173,63605,2,0,B|182:132|111:185|111:185|-13:-59|283:5|337:79|337:79|351:76,1,594.000002391816
265,108,65150,5,14,1:2:0:0:
132,285,65507,2,0,P|221:215|295:205,1,132.000000531515
162,230,65863,2,0,P|185:340|162:411,1,132.000000531515,0|0,0:3|0:3,0:3:0:0:
295,288,66220,1,0,0:0:0:0:
291,115,66457,2,0,P|376:109|385:117,2,66.0000002657573
338,126,66814,1,0,0:0:0:0:
317,100,66933,2,0,P|340:34|360:88,1,132.000000531515
310,123,67289,2,0,P|231:71|350:57,1,264.000001063029
352,235,68002,2,0,P|333:271|210:274,1,173.999995390574
215,136,71568,2,0,P|141:279|155:350,1,203.999998486837
206,70,71924,2,0,B|331:36|394:61|401:81,1,203.999998486837
271,200,72281,2,0,B|311:190|311:190|330:193|336:215|336:215|333:306,5,101.999999243418
128,353,72994,2,0,B|100:297|134:234|221:284|221:284|299:249,1,203.999998486837
142,113,73351,2,0,P|216:232|327:197,1,203.999998486837
410,46,73707,1,0,0:0:0:0:
369,46,73796,1,0,0:0:0:0:
332,62,73885,1,0,0:0:0:0:
303,91,73975,1,0,0:0:0:0:
287,128,74064,1,0,0:0:0:0:
286,169,74153,1,0,0:0:0:0:
300,207,74242,1,0,0:0:0:0:
327,236,74331,1,0,0:0:0:0:
364,254,74420,1,0,0:0:0:0:
404,257,74509,1,0,0:0:0:0:
443,244,74599,1,0,0:0:0:0:
474,218,74688,1,0,0:0:0:0:
492,178,74777,2,0,B|515:104|461:125|455:97,3,101.999999243418
270,262,75490,2,0,P|176:185|332:139,1,305.999997730255
261,196,76084,1,0,0:0:0:0:
300,155,76203,2,0,P|131:122|127:121,1,101.999999243418
206,43,76441,2,0,P|232:76|227:159,1,101.999999243418
150,253,76678,1,0,0:0:0:0:
13,201,76797,2,0,B|153:152|261:348|262:348|493:251,1,509.999996217092
438,101,77510,2,0,B|390:69|390:69|226:98|399:250|481:246|512:171|512:171|492:90,2,407.999996973674
