osu file format v14

[General]
AudioFilename: audio.mp3
AudioLeadIn: 0
PreviewTime: 89574
Countdown: 0
SampleSet: Normal
StackLeniency: 0.7
Mode: 3
LetterboxInBreaks: 0
SpecialStyle: 0
WidescreenStoryboard: 0

[Editor]
Bookmarks: 48120,89574,122301,131029,139756,152847
DistanceSpacing: 2
BeatDivisor: 8
GridSize: 32
TimelineZoom: 3.699999

[Metadata]
Title:Nightfall
TitleUnicode:Nightfall
Artist:ENNNN
ArtistUnicode:ENNNN
Creator:Mat
Version:Eclipse
Source:Yurichuu
Tags:
BeatmapID:1248954
BeatmapSetID:590060

[Difficulty]
HPDrainRate:7.6
CircleSize:4
OverallDifficulty:8.2
ApproachRate:5
SliderMultiplier:1.4
SliderTickRate:1

[Events]
//Background and Video events
0,0,"bg.png",0,0
//Break Periods
//Storyboard Layer 0 (Background)
//Storyboard Layer 1 (Fail)
//Storyboard Layer 2 (Pass)
//Storyboard Layer 3 (Foreground)
//Storyboard Sound Samples

[TimingPoints]
120,272.727272727273,4,1,0,25,1,0
120,-100,4,1,0,25,0,0
121,-66.6666666666667,4,1,0,25,0,0
188,-10000,4,1,0,25,0,0
256,-83.3333333333333,4,1,0,25,0,0
324,-10000,4,1,0,25,0,0
392,-66.6666666666667,4,1,0,25,0,0
460,-10000,4,1,0,25,0,0
529,-100,4,1,0,25,0,0
2301,-66.6666666666667,4,1,0,25,0,0
2370,-10000,4,1,0,25,0,30120
2438,-83.3333333333333,4,1,0,25,0,0
2506,-10000,4,1,0,25,0,0
2574,-66.6666666666667,4,1,0,25,0,0
2642,-10000,4,1,0,25,0,0
2710,-100,4,1,0,25,0,0
4483,-66.6666666666667,4,1,0,25,0,0
4551,-10000,4,1,0,25,0,0
4620,-83.3333333333333,4,1,0,25,0,0
4688,-10000,4,1,0,25,0,0
4756,-66.6666666666667,4,1,0,25,0,0
4824,-10000,4,1,0,25,0,0
4892,-100,4,1,0,25,0,87392
6665,-50,4,1,0,25,0,0
6733,-10000,4,1,0,25,0,0
6801,-200,4,1,0,25,0,0
6870,-133.333333333333,4,1,0,25,0,0
6938,-66.6666666666667,4,1,0,25,0,11028
7006,-10000,4,1,0,25,0,8983
7074,-40,4,1,0,25,0,0
7142,-10000,4,1,0,25,0,0
7347,-66.6666666666667,4,1,0,25,0,0
7415,-10000,4,1,0,25,0,0
7483,-100,4,1,0,25,0,0
8847,-33.3333333333333,4,1,0,25,0,0
8915,-10000,4,1,0,25,0,0
8983,-294.117647058824,4,1,0,15,0,0
9051,-149.253731343284,4,1,0,15,0,0
9120,-100,4,1,0,25,0,0
11029,-33.3333333333333,4,1,0,25,0,0
11097,-10000,4,1,0,25,0,0
11165,-294.117647058824,4,1,0,15,0,0
11233,-149.253731343284,4,1,0,15,0,0
11301,-100,4,1,0,25,0,0
13210,-33.3333333333333,4,1,0,25,0,0
13279,-10000,4,1,0,25,0,0
13347,-294.117647058824,4,1,0,25,0,0
13415,-149.253731343284,4,1,0,25,0,0
13483,-100,4,1,0,25,0,0
15392,-33.3333333333333,4,1,0,25,0,0
15460,-10000,4,1,0,25,0,0
15529,-294.117647058824,4,1,0,25,0,0
15597,-149.253731343284,4,1,0,25,0,0
15665,-50,4,1,0,25,0,0
15733,-2000,4,1,0,25,0,0
15801,-33.3333333333333,4,1,0,25,0,0
15870,-10000,4,1,0,25,0,0
15938,-294.117647058824,4,1,0,25,0,0
16006,-149.253731343284,4,1,0,25,0,0
16074,-50,4,1,0,25,0,0
16142,-2000,4,1,0,25,0,0
16210,-40,4,1,0,25,0,0
16279,-10000,4,1,0,25,0,0
16347,-294.117647058824,4,1,0,25,0,0
16415,-149.253731343284,4,1,0,25,0,0
16483,-100,4,1,0,25,0,0
19756,-100,4,1,0,25,0,1
29574,-333.333333333333,4,1,0,25,0,0
30174.5,-270.27027027027,4,1,0,15,0,0
30229,-227.272727272727,4,1,0,15,0,0
30283.5,-196.078431372549,4,1,0,15,0,0
30338,-172.413793103448,4,1,0,15,0,0
30392.5,-153.846153846154,4,1,0,15,0,0
30447,-138.888888888889,4,1,0,15,0,0
30501.5,-126.582278481013,4,1,0,15,0,0
30556,-116.279069767442,4,1,0,15,0,0
30610.5,-107.52688172043,4,1,0,15,0,0
30665,-100,4,1,0,15,0,0
48120,-100,4,1,0,25,0,1
56165,-33.3333333333333,4,1,0,25,0,0
56199,-10000,4,1,0,25,0,0
56233,-294.117647058824,4,1,0,25,0,0
56267,-149.253731343284,4,1,0,25,0,0
56301,-33.3333333333333,4,1,0,25,0,0
56335,-10000,4,1,0,25,0,0
56370,-294.117647058824,4,1,0,25,0,0
56404,-149.253731343284,4,1,0,25,0,0
56438,-33.3333333333333,4,1,0,25,0,0
56472,-10000,4,1,0,25,0,0
56506,-294.117647058824,4,1,0,25,0,0
56540,-149.253731343284,4,1,0,25,0,0
56574,-100,4,1,0,25,0,0
56847,-100,4,1,0,25,0,1
61142,-100,4,1,0,25,0,0
78665,-100,4,1,0,25,0,1
87392,-166.666666666667,4,1,0,25,0,0
87631,-151.515151515152,4,1,0,25,0,0
87870,-138.888888888889,4,1,0,15,0,0
88108,-128.205128205128,4,1,0,15,0,0
88347,-119.047619047619,4,1,0,15,0,0
88585,-111.111111111111,4,1,0,15,0,0
88824,-104.166666666667,4,1,0,15,0,0
89029,-50,4,1,0,15,0,0
89097,-100,4,1,0,15,0,0
89301,-50,4,1,0,15,0,0
89370,-100,4,1,0,15,0,0
89574,-100,4,1,0,25,0,1
104301,-50,4,1,0,25,0,1
104335,-500,4,1,0,25,0,1
104370,-50,4,1,0,25,0,1
104404,-500,4,1,0,25,0,1
104438,-50,4,1,0,25,0,1
104472,-500,4,1,0,25,0,1
104506,-50,4,1,0,25,0,1
104540,-500,4,1,0,25,0,1
104574,-50,4,1,0,25,0,1
104591,-1000,4,1,0,25,0,1
104608,-50,4,1,0,25,0,1
104625,-1000,4,1,0,25,0,1
104642,-50,4,1,0,25,0,1
104659,-1000,4,1,0,25,0,1
104676,-50,4,1,0,25,0,1
104693,-1000,4,1,0,25,0,1
104710,-50,4,1,0,25,0,1
104727,-1000,4,1,0,25,0,1
104745,-50,4,1,0,25,0,1
104762,-1000,4,1,0,25,0,1
104779,-50,4,1,0,25,0,1
104796,-1000,4,1,0,25,0,1
104813,-50,4,1,0,25,0,1
104830,-1000,4,1,0,25,0,1
104847,-100,4,1,0,25,0,0
104881,-400,4,1,0,25,0,0
104915,-200,4,1,0,25,0,0
104949,-133.333333333333,4,1,0,25,0,0
104983,-100,4,1,0,25,0,0
118347,-97.5609756097561,4,1,0,25,0,0
118756,-94.3396226415094,4,1,0,25,0,0
119029,-90.9090909090909,4,1,0,25,0,0
119438,-88.4955752212389,4,1,0,25,0,0
119847,-86.2068965517241,4,1,0,25,0,0
120120,-83.3333333333333,4,1,0,25,0,0
120529,-81.3008130081301,4,1,0,25,0,0
120938,-79.3650793650794,4,1,0,25,0,0
121210,-76.9230769230769,4,1,0,25,0,0
121347,-83.3333333333333,4,1,0,25,0,0
121620,-90.9090909090909,4,1,0,25,0,0
121892,-100,4,1,0,25,0,0
122029,-111.111111111111,4,1,0,25,0,0
122165,-125,4,1,0,25,0,0
122301,-100,4,1,0,25,0,0
131029,-100,4,1,0,25,0,1
139756,-100,4,1,0,25,0,0
146301,-66.6666666666667,4,1,0,25,0,0
146370,-133.333333333333,4,1,0,25,0,0
146438,-100,4,1,0,25,0,0
148483,-66.6666666666667,4,1,0,25,0,0
148551,-133.333333333333,4,1,0,25,0,0
148620,-100,4,1,0,25,0,0
150665,-66.6666666666667,4,1,0,25,0,0
150733,-133.333333333333,4,1,0,25,0,0
150801,-100,4,1,0,25,0,0
152847,-100,4,1,0,25,0,1
165938,-100,4,1,0,25,0,0

[HitObjects]
320,192,120,5,0,0:0:0:0:
448,192,120,1,0,0:0:0:0:
64,192,120,1,0,0:0:0:0:
64,192,256,1,0,0:0:0:0:
192,192,392,1,0,0:0:0:0:
448,192,392,128,0,665:0:0:0:0:
320,192,392,1,0,0:0:0:0:
320,192,665,128,0,938:0:0:0:0:
192,192,938,128,0,1210:0:0:0:0:
64,192,1483,128,0,1756:0:0:0:0:
192,192,1756,128,0,2029:0:0:0:0:
320,192,2029,128,0,2301:0:0:0:0:
64,192,2301,1,0,0:0:0:0:
448,192,2301,1,0,0:0:0:0:
192,192,2301,1,0,0:0:0:0:
448,192,2438,1,0,0:0:0:0:
192,192,2574,1,0,0:0:0:0:
320,192,2574,128,0,2847:0:0:0:0:
64,192,2574,1,0,0:0:0:0:
192,192,2847,128,0,3120:0:0:0:0:
64,192,3120,128,0,3392:0:0:0:0:
192,192,3665,128,0,3938:0:0:0:0:
320,192,3938,128,0,4210:0:0:0:0:
448,192,4210,128,0,4483:0:0:0:0:
64,192,4483,1,0,0:0:0:0:
320,192,4483,1,0,0:0:0:0:
192,192,4483,1,0,0:0:0:0:
192,192,4620,1,0,0:0:0:0:
64,192,4756,1,0,0:0:0:0:
448,192,4756,128,0,5029:0:0:0:0:
320,192,4756,1,0,0:0:0:0:
192,192,5029,128,0,5301:0:0:0:0:
64,192,5301,128,0,5574:0:0:0:0:
64,192,5847,128,0,6120:0:0:0:0:
320,192,6120,128,0,6392:0:0:0:0:
448,192,6392,128,0,6665:0:0:0:0:
192,192,6665,1,0,0:0:0:0:
320,192,6665,1,0,0:0:0:0:
64,192,6665,1,0,0:0:0:0:
192,192,6938,1,0,0:0:0:0:
320,192,6938,1,0,0:0:0:0:
448,192,6938,1,0,0:0:0:0:
448,192,7074,1,0,0:0:0:0:
320,192,7074,1,0,0:0:0:0:
64,192,7074,1,0,0:0:0:0:
64,192,7347,1,0,0:0:0:0:
192,192,7347,1,0,0:0:0:0:
320,192,7347,1,0,0:0:0:0:
448,192,7483,1,0,0:0:0:0:
320,192,7483,1,0,0:0:0:0:
64,192,7483,1,0,0:0:0:0:
192,192,7756,128,0,8029:0:0:0:0:
320,192,8165,128,0,8301:0:0:0:0:
448,192,8301,128,0,8574:0:0:0:0:
64,192,8574,128,0,8847:0:0:0:0:
448,192,8847,1,0,0:0:0:0:
192,192,8847,1,0,0:0:0:0:
320,192,8847,1,0,0:0:0:0:
192,192,9120,1,0,0:0:0:0:
64,192,9120,1,0,0:0:0:0:
448,192,9120,1,0,0:0:0:0:
448,192,9392,1,0,0:0:0:0:
320,192,9392,1,0,0:0:0:0:
64,192,9392,1,0,0:0:0:0:
320,192,9529,1,0,0:0:0:0:
192,192,9665,1,0,0:0:0:0:
64,192,9665,1,0,0:0:0:0:
448,192,9801,1,0,0:0:0:0:
192,192,9801,1,0,0:0:0:0:
448,192,9938,1,0,0:0:0:0:
320,192,9938,1,0,0:0:0:0:
64,192,10074,1,0,0:0:0:0:
320,192,10074,1,0,0:0:0:0:
192,192,10210,1,0,0:0:0:0:
64,192,10210,1,0,0:0:0:0:
448,192,10347,1,0,0:0:0:0:
320,192,10483,1,0,0:0:0:0:
64,192,10483,1,0,0:0:0:0:
192,192,10483,1,0,0:0:0:0:
192,192,10620,1,0,0:0:0:0:
320,192,10756,1,0,0:0:0:0:
448,192,10756,1,0,0:0:0:0:
64,192,10756,1,0,0:0:0:0:
320,192,10892,1,0,0:0:0:0:
192,192,10892,1,0,0:0:0:0:
64,192,11029,1,0,0:0:0:0:
448,192,11029,1,0,0:0:0:0:
192,192,11029,1,0,0:0:0:0:
320,192,11029,1,0,0:0:0:0:
64,192,11301,1,0,0:0:0:0:
192,192,11301,1,0,0:0:0:0:
320,192,11301,1,0,0:0:0:0:
320,192,11574,5,0,0:0:0:0:
448,192,11574,1,0,0:0:0:0:
192,192,11574,1,0,0:0:0:0:
448,192,11710,1,0,0:0:0:0:
64,192,11847,1,0,0:0:0:0:
192,192,11847,1,0,0:0:0:0:
320,192,11847,1,0,0:0:0:0:
192,192,11983,1,0,0:0:0:0:
64,192,11983,1,0,0:0:0:0:
448,192,12120,1,0,0:0:0:0:
320,192,12120,1,0,0:0:0:0:
64,192,12256,1,0,0:0:0:0:
448,192,12256,1,0,0:0:0:0:
192,192,12392,1,0,0:0:0:0:
64,192,12392,1,0,0:0:0:0:
320,192,12529,1,0,0:0:0:0:
448,192,12665,1,0,0:0:0:0:
192,192,12665,1,0,0:0:0:0:
64,192,12665,1,0,0:0:0:0:
64,192,12801,1,0,0:0:0:0:
192,192,12938,1,0,0:0:0:0:
320,192,12938,1,0,0:0:0:0:
448,192,12938,1,0,0:0:0:0:
192,192,13074,1,0,0:0:0:0:
448,192,13074,1,0,0:0:0:0:
64,192,13210,1,0,0:0:0:0:
192,192,13210,1,0,0:0:0:0:
320,192,13210,1,0,0:0:0:0:
448,192,13210,1,0,0:0:0:0:
64,192,13483,1,0,0:0:0:0:
448,192,13483,1,0,0:0:0:0:
320,192,13483,1,0,0:0:0:0:
448,192,13756,5,0,0:0:0:0:
64,192,13756,1,0,0:0:0:0:
192,192,13756,1,0,0:0:0:0:
192,192,13892,1,0,0:0:0:0:
64,192,14029,1,0,0:0:0:0:
320,192,14029,1,0,0:0:0:0:
448,192,14029,1,0,0:0:0:0:
448,192,14165,1,0,0:0:0:0:
192,192,14165,1,0,0:0:0:0:
64,192,14301,1,0,0:0:0:0:
192,192,14301,1,0,0:0:0:0:
64,192,14438,1,0,0:0:0:0:
448,192,14438,1,0,0:0:0:0:
192,192,14574,1,0,0:0:0:0:
448,192,14574,1,0,0:0:0:0:
320,192,14710,1,0,0:0:0:0:
448,192,14847,1,0,0:0:0:0:
192,192,14847,1,0,0:0:0:0:
64,192,14847,1,0,0:0:0:0:
64,192,14983,1,0,0:0:0:0:
192,192,15120,1,0,0:0:0:0:
320,192,15120,1,0,0:0:0:0:
448,192,15120,1,0,0:0:0:0:
320,192,15256,1,0,0:0:0:0:
448,192,15256,1,0,0:0:0:0:
64,192,15392,1,0,0:0:0:0:
192,192,15392,1,0,0:0:0:0:
320,192,15392,1,0,0:0:0:0:
448,192,15392,1,0,0:0:0:0:
64,192,15665,1,0,0:0:0:0:
192,192,15665,1,0,0:0:0:0:
320,192,15665,1,0,0:0:0:0:
448,192,15801,1,0,0:0:0:0:
320,192,15801,1,0,0:0:0:0:
192,192,15801,1,0,0:0:0:0:
64,192,15801,1,0,0:0:0:0:
320,192,16074,1,0,0:0:0:0:
448,192,16074,1,0,0:0:0:0:
64,192,16074,1,0,0:0:0:0:
192,192,16210,1,0,0:0:0:0:
320,192,16210,1,0,0:0:0:0:
448,192,16210,1,0,0:0:0:0:
64,192,16210,1,0,0:0:0:0:
448,192,16483,1,0,0:0:0:0:
192,192,16483,1,0,0:0:0:0:
64,192,16620,1,0,0:0:0:0:
192,192,16620,1,0,0:0:0:0:
448,192,16756,1,0,0:0:0:0:
320,192,16756,1,0,0:0:0:0:
64,192,16892,1,0,0:0:0:0:
448,192,16892,1,0,0:0:0:0:
192,192,17029,1,0,0:0:0:0:
320,192,17029,1,0,0:0:0:0:
448,192,17165,1,0,0:0:0:0:
64,192,17165,1,0,0:0:0:0:
192,192,17301,1,0,0:0:0:0:
320,192,17438,1,0,0:0:0:0:
448,192,17438,1,0,0:0:0:0:
64,192,17574,1,0,0:0:0:0:
192,192,17608,1,0,0:0:0:0:
320,192,17642,1,0,0:0:0:0:
448,192,17676,1,0,0:0:0:0:
192,192,17710,1,0,0:0:0:0:
64,192,17745,1,0,0:0:0:0:
448,192,17779,1,0,0:0:0:0:
320,192,17813,1,0,0:0:0:0:
64,192,17847,1,0,0:0:0:0:
192,192,17881,1,0,0:0:0:0:
320,192,17915,1,0,0:0:0:0:
448,192,17949,1,0,0:0:0:0:
192,192,17983,1,0,0:0:0:0:
64,192,17983,1,0,0:0:0:0:
320,192,18017,1,0,0:0:0:0:
448,192,18051,1,0,0:0:0:0:
64,192,18085,1,0,0:0:0:0:
192,192,18120,1,0,0:0:0:0:
320,192,18154,1,0,0:0:0:0:
448,192,18188,1,0,0:0:0:0:
192,192,18222,1,0,0:0:0:0:
64,192,18256,1,0,0:0:0:0:
320,192,18290,1,0,0:0:0:0:
448,192,18324,1,0,0:0:0:0:
64,192,18358,1,0,0:0:0:0:
192,192,18392,1,0,0:0:0:0:
320,192,18392,1,0,0:0:0:0:
448,192,18460,1,0,0:0:0:0:
320,192,18495,1,0,0:0:0:0:
192,192,18529,1,0,0:0:0:0:
64,192,18563,1,0,0:0:0:0:
448,192,18597,1,0,0:0:0:0:
320,192,18631,1,0,0:0:0:0:
192,192,18665,1,0,0:0:0:0:
64,192,18665,1,0,0:0:0:0:
320,192,18733,1,0,0:0:0:0:
448,192,18767,1,0,0:0:0:0:
64,192,18801,1,0,0:0:0:0:
192,192,18835,1,0,0:0:0:0:
320,192,18870,1,0,0:0:0:0:
448,192,18904,1,0,0:0:0:0:
64,192,18938,1,0,0:0:0:0:
192,192,18972,1,0,0:0:0:0:
320,192,19006,1,0,0:0:0:0:
448,192,19040,1,0,0:0:0:0:
192,192,19074,1,0,0:0:0:0:
64,192,19074,1,0,0:0:0:0:
448,192,19142,1,0,0:0:0:0:
320,192,19176,1,0,0:0:0:0:
192,192,19210,1,0,0:0:0:0:
64,192,19245,1,0,0:0:0:0:
448,192,19279,1,0,0:0:0:0:
320,192,19313,1,0,0:0:0:0:
192,192,19347,1,0,0:0:0:0:
64,192,19347,1,0,0:0:0:0:
320,192,19381,1,0,0:0:0:0:
448,192,19415,1,0,0:0:0:0:
192,192,19483,1,0,0:0:0:0:
64,192,19483,1,0,0:0:0:0:
448,192,19551,1,0,0:0:0:0:
320,192,19585,1,0,0:0:0:0:
64,192,19620,1,0,0:0:0:0:
192,192,19654,1,0,0:0:0:0:
448,192,19688,1,0,0:0:0:0:
320,192,19722,1,0,0:0:0:0:
192,192,19756,1,0,0:0:0:0:
64,192,19756,1,0,0:0:0:0:
448,192,19824,1,0,0:0:0:0:
320,192,19858,1,0,0:0:0:0:
192,192,19892,1,0,0:0:0:0:
64,192,19926,1,0,0:0:0:0:
320,192,19960,1,0,0:0:0:0:
448,192,19995,1,0,0:0:0:0:
192,192,20029,1,0,0:0:0:0:
64,192,20029,1,0,0:0:0:0:
320,192,20097,1,0,0:0:0:0:
448,192,20165,1,0,0:0:0:0:
64,192,20165,1,0,0:0:0:0:
192,192,20233,1,0,0:0:0:0:
448,192,20301,1,0,0:0:0:0:
64,192,20301,1,0,0:0:0:0:
320,192,20370,1,0,0:0:0:0:
448,192,20438,1,0,0:0:0:0:
64,192,20506,1,0,0:0:0:0:
192,192,20574,1,0,0:0:0:0:
320,192,20574,1,0,0:0:0:0:
448,192,20642,1,0,0:0:0:0:
64,192,20710,1,0,0:0:0:0:
192,192,20710,1,0,0:0:0:0:
448,192,20779,1,0,0:0:0:0:
320,192,20801,1,0,0:0:0:0:
192,192,20824,1,0,0:0:0:0:
64,192,20847,1,0,0:0:0:0:
448,192,20915,1,0,0:0:0:0:
320,192,20938,1,0,0:0:0:0:
192,192,20960,1,0,0:0:0:0:
64,192,20983,1,0,0:0:0:0:
192,192,21120,1,0,0:0:0:0:
320,192,21120,1,0,0:0:0:0:
64,192,21188,1,0,0:0:0:0:
320,192,21256,1,0,0:0:0:0:
448,192,21256,1,0,0:0:0:0:
64,192,21324,1,0,0:0:0:0:
192,192,21347,1,0,0:0:0:0:
320,192,21370,1,0,0:0:0:0:
448,192,21392,1,0,0:0:0:0:
64,192,21529,1,0,0:0:0:0:
192,192,21529,1,0,0:0:0:0:
320,192,21529,1,0,0:0:0:0:
448,192,21665,1,0,0:0:0:0:
64,192,21665,1,0,0:0:0:0:
192,192,21665,1,0,0:0:0:0:
320,192,21801,1,0,0:0:0:0:
192,192,21870,1,0,0:0:0:0:
448,192,21938,1,0,0:0:0:0:
64,192,21938,1,0,0:0:0:0:
320,192,22006,1,0,0:0:0:0:
64,192,22074,1,0,0:0:0:0:
192,192,22108,1,0,0:0:0:0:
448,192,22142,1,0,0:0:0:0:
320,192,22176,1,0,0:0:0:0:
64,192,22210,1,0,0:0:0:0:
192,192,22210,1,0,0:0:0:0:
448,192,22279,1,0,0:0:0:0:
320,192,22347,1,0,0:0:0:0:
64,192,22347,1,0,0:0:0:0:
192,192,22415,1,0,0:0:0:0:
320,192,22483,1,0,0:0:0:0:
448,192,22483,1,0,0:0:0:0:
64,192,22551,1,0,0:0:0:0:
192,192,22551,1,0,0:0:0:0:
320,192,22620,1,0,0:0:0:0:
448,192,22620,1,0,0:0:0:0:
64,192,22688,1,0,0:0:0:0:
448,192,22756,1,0,0:0:0:0:
192,192,22756,1,0,0:0:0:0:
320,192,22824,1,0,0:0:0:0:
192,192,22892,1,0,0:0:0:0:
64,192,22892,1,0,0:0:0:0:
320,192,23029,1,0,0:0:0:0:
448,192,23029,1,0,0:0:0:0:
64,192,23097,1,0,0:0:0:0:
192,192,23131,1,0,0:0:0:0:
320,192,23165,1,0,0:0:0:0:
448,192,23199,1,0,0:0:0:0:
192,192,23233,1,0,0:0:0:0:
64,192,23233,1,0,0:0:0:0:
448,192,23301,1,0,0:0:0:0:
320,192,23335,1,0,0:0:0:0:
192,192,23370,1,0,0:0:0:0:
64,192,23404,1,0,0:0:0:0:
320,192,23438,1,0,0:0:0:0:
448,192,23438,1,0,0:0:0:0:
192,192,23506,1,0,0:0:0:0:
64,192,23574,1,0,0:0:0:0:
448,192,23574,1,0,0:0:0:0:
320,192,23642,1,0,0:0:0:0:
192,192,23676,1,0,0:0:0:0:
64,192,23710,1,0,0:0:0:0:
448,192,23745,1,0,0:0:0:0:
320,192,23779,1,0,0:0:0:0:
192,192,23813,1,0,0:0:0:0:
64,192,23847,1,0,0:0:0:0:
448,192,23881,1,0,0:0:0:0:
320,192,23915,1,0,0:0:0:0:
64,192,23949,1,0,0:0:0:0:
192,192,23983,1,0,0:0:0:0:
448,192,23983,1,0,0:0:0:0:
320,192,24017,1,0,0:0:0:0:
64,192,24051,1,0,0:0:0:0:
192,192,24085,1,0,0:0:0:0:
320,192,24120,1,0,0:0:0:0:
448,192,24120,1,0,0:0:0:0:
64,192,24188,1,0,0:0:0:0:
192,192,24222,1,0,0:0:0:0:
320,192,24256,1,0,0:0:0:0:
448,192,24256,1,0,0:0:0:0:
64,192,24290,1,0,0:0:0:0:
192,192,24324,1,0,0:0:0:0:
320,192,24358,1,0,0:0:0:0:
448,192,24392,1,0,0:0:0:0:
64,192,24392,1,0,0:0:0:0:
192,192,24460,1,0,0:0:0:0:
448,192,24529,1,0,0:0:0:0:
320,192,24529,1,0,0:0:0:0:
64,192,24597,1,0,0:0:0:0:
192,192,24631,1,0,0:0:0:0:
320,192,24665,1,0,0:0:0:0:
448,192,24665,1,0,0:0:0:0:
192,192,24699,1,0,0:0:0:0:
64,192,24733,1,0,0:0:0:0:
448,192,24767,1,0,0:0:0:0:
192,192,24801,1,0,0:0:0:0:
320,192,24801,1,0,0:0:0:0:
64,192,24870,1,0,0:0:0:0:
448,192,24938,1,0,0:0:0:0:
320,192,24938,1,0,0:0:0:0:
192,192,25074,1,0,0:0:0:0:
64,192,25074,1,0,0:0:0:0:
448,192,25142,1,0,0:0:0:0:
64,192,25210,1,0,0:0:0:0:
192,192,25210,1,0,0:0:0:0:
320,192,25245,1,0,0:0:0:0:
448,192,25279,1,0,0:0:0:0:
64,192,25313,1,0,0:0:0:0:
320,192,25347,1,0,0:0:0:0:
192,192,25347,1,0,0:0:0:0:
448,192,25483,1,0,0:0:0:0:
64,192,25483,1,0,0:0:0:0:
192,192,25483,1,0,0:0:0:0:
320,192,25620,1,0,0:0:0:0:
448,192,25620,1,0,0:0:0:0:
192,192,25654,1,0,0:0:0:0:
64,192,25688,1,0,0:0:0:0:
448,192,25722,1,0,0:0:0:0:
192,192,25756,1,0,0:0:0:0:
320,192,25756,1,0,0:0:0:0:
448,192,25892,1,0,0:0:0:0:
320,192,25892,1,0,0:0:0:0:
192,192,25892,1,0,0:0:0:0:
64,192,26029,1,0,0:0:0:0:
320,192,26029,1,0,0:0:0:0:
192,192,26063,1,0,0:0:0:0:
448,192,26097,1,0,0:0:0:0:
320,192,26131,1,0,0:0:0:0:
64,192,26165,1,0,0:0:0:0:
192,192,26165,1,0,0:0:0:0:
448,192,26301,1,0,0:0:0:0:
192,192,26301,1,0,0:0:0:0:
320,192,26335,1,0,0:0:0:0:
64,192,26370,1,0,0:0:0:0:
192,192,26404,1,0,0:0:0:0:
320,192,26438,1,0,0:0:0:0:
448,192,26438,1,0,0:0:0:0:
64,192,26574,1,0,0:0:0:0:
192,192,26574,1,0,0:0:0:0:
320,192,26574,1,0,0:0:0:0:
64,192,26710,1,0,0:0:0:0:
192,192,26710,1,0,0:0:0:0:
448,192,26745,1,0,0:0:0:0:
320,192,26779,1,0,0:0:0:0:
64,192,26813,1,0,0:0:0:0:
192,192,26847,1,0,0:0:0:0:
448,192,26847,1,0,0:0:0:0:
192,192,26983,1,0,0:0:0:0:
320,192,26983,1,0,0:0:0:0:
64,192,26983,1,0,0:0:0:0:
448,192,27120,1,0,0:0:0:0:
320,192,27120,1,0,0:0:0:0:
64,192,27154,1,0,0:0:0:0:
192,192,27188,1,0,0:0:0:0:
448,192,27222,1,0,0:0:0:0:
320,192,27256,1,0,0:0:0:0:
64,192,27256,1,0,0:0:0:0:
448,192,27392,1,0,0:0:0:0:
320,192,27392,1,0,0:0:0:0:
64,192,27443,1,0,0:0:0:0:
192,192,27460,1,0,0:0:0:0:
320,192,27477,1,0,0:0:0:0:
448,192,27495,1,0,0:0:0:0:
64,192,27529,1,0,0:0:0:0:
192,192,27529,1,0,0:0:0:0:
448,192,27580,1,0,0:0:0:0:
320,192,27597,1,0,0:0:0:0:
192,192,27614,1,0,0:0:0:0:
64,192,27631,1,0,0:0:0:0:
320,192,27665,1,0,0:0:0:0:
448,192,27665,1,0,0:0:0:0:
192,192,27801,1,0,0:0:0:0:
64,192,27801,1,0,0:0:0:0:
448,192,27852,1,0,0:0:0:0:
320,192,27870,1,0,0:0:0:0:
192,192,27887,1,0,0:0:0:0:
64,192,27904,1,0,0:0:0:0:
320,192,27938,1,0,0:0:0:0:
448,192,27938,1,0,0:0:0:0:
64,192,27989,1,0,0:0:0:0:
192,192,28006,1,0,0:0:0:0:
320,192,28023,1,0,0:0:0:0:
448,192,28040,1,0,0:0:0:0:
192,192,28074,1,0,0:0:0:0:
64,192,28074,1,0,0:0:0:0:
448,192,28210,1,0,0:0:0:0:
320,192,28210,1,0,0:0:0:0:
64,192,28262,1,0,0:0:0:0:
192,192,28279,1,0,0:0:0:0:
448,192,28296,1,0,0:0:0:0:
320,192,28313,1,0,0:0:0:0:
64,192,28347,1,0,0:0:0:0:
192,192,28347,1,0,0:0:0:0:
448,192,28398,1,0,0:0:0:0:
320,192,28415,1,0,0:0:0:0:
64,192,28432,1,0,0:0:0:0:
192,192,28449,1,0,0:0:0:0:
448,192,28483,1,0,0:0:0:0:
320,192,28483,1,0,0:0:0:0:
64,192,28517,1,0,0:0:0:0:
192,192,28551,1,0,0:0:0:0:
448,192,28585,1,0,0:0:0:0:
320,192,28620,1,0,0:0:0:0:
64,192,28756,1,0,0:0:0:0:
192,192,28756,1,0,0:0:0:0:
448,192,28756,1,0,0:0:0:0:
448,192,28892,1,0,0:0:0:0:
320,192,28892,1,0,0:0:0:0:
192,192,28926,1,0,0:0:0:0:
64,192,28960,1,0,0:0:0:0:
320,192,28995,1,0,0:0:0:0:
448,192,29029,1,0,0:0:0:0:
64,192,29165,1,0,0:0:0:0:
192,192,29165,1,0,0:0:0:0:
320,192,29165,1,0,0:0:0:0:
448,192,29301,1,0,0:0:0:0:
320,192,29301,1,0,0:0:0:0:
192,192,29335,1,0,0:0:0:0:
64,192,29370,1,0,0:0:0:0:
320,192,29404,1,0,0:0:0:0:
448,192,29438,1,0,0:0:0:0:
64,192,29472,1,0,0:0:0:0:
192,192,29506,1,0,0:0:0:0:
192,192,30665,1,0,0:0:0:0:
64,192,30665,1,0,0:0:0:0:
448,192,30665,128,0,30733:0:0:0:0:
64,192,30801,128,0,30870:0:0:0:0:
320,192,30801,1,0,0:0:0:0:
64,192,30938,1,0,0:0:0:0:
192,192,30938,128,0,31006:0:0:0:0:
448,192,30938,1,0,0:0:0:0:
448,192,31074,1,0,0:0:0:0:
320,192,31074,128,0,31142:0:0:0:0:
64,192,31074,1,0,0:0:0:0:
64,192,31210,1,0,0:0:0:0:
192,192,31210,1,0,0:0:0:0:
448,192,31210,128,0,31279:0:0:0:0:
320,192,31347,1,0,0:0:0:0:
64,192,31347,128,0,31415:0:0:0:0:
320,192,31483,1,0,0:0:0:0:
448,192,31483,1,0,0:0:0:0:
192,192,31483,128,0,31551:0:0:0:0:
320,192,31620,128,0,31688:0:0:0:0:
64,192,31620,1,0,0:0:0:0:
64,192,31756,1,0,0:0:0:0:
192,192,31756,1,0,0:0:0:0:
448,192,31756,128,0,31824:0:0:0:0:
320,192,31892,1,0,0:0:0:0:
64,192,31892,128,0,31960:0:0:0:0:
64,192,32029,1,0,0:0:0:0:
192,192,32029,128,0,32097:0:0:0:0:
448,192,32029,1,0,0:0:0:0:
448,192,32165,1,0,0:0:0:0:
320,192,32165,128,0,32233:0:0:0:0:
192,192,32165,1,0,0:0:0:0:
64,192,32301,1,0,0:0:0:0:
192,192,32301,1,0,0:0:0:0:
448,192,32301,128,0,32370:0:0:0:0:
320,192,32438,1,0,0:0:0:0:
448,192,32438,1,0,0:0:0:0:
192,192,32438,128,0,32506:0:0:0:0:
448,192,32574,128,0,32642:0:0:0:0:
64,192,32574,1,0,0:0:0:0:
320,192,32574,1,0,0:0:0:0:
192,192,32710,1,0,0:0:0:0:
320,192,32710,128,0,32779:0:0:0:0:
64,192,32710,1,0,0:0:0:0:
448,192,32847,128,0,32915:0:0:0:0:
192,192,32847,1,0,0:0:0:0:
64,192,32847,1,0,0:0:0:0:
64,192,32983,128,0,33051:0:0:0:0:
320,192,32983,1,0,0:0:0:0:
192,192,33120,128,0,33188:0:0:0:0:
320,192,33120,1,0,0:0:0:0:
448,192,33120,1,0,0:0:0:0:
320,192,33256,128,0,33324:0:0:0:0:
64,192,33256,1,0,0:0:0:0:
192,192,33256,1,0,0:0:0:0:
448,192,33392,128,0,33460:0:0:0:0:
64,192,33392,1,0,0:0:0:0:
64,192,33529,128,0,33597:0:0:0:0:
320,192,33529,1,0,0:0:0:0:
192,192,33529,1,0,0:0:0:0:
192,192,33665,128,0,33733:0:0:0:0:
448,192,33665,1,0,0:0:0:0:
320,192,33665,1,0,0:0:0:0:
320,192,33801,128,0,33870:0:0:0:0:
64,192,33801,1,0,0:0:0:0:
448,192,33938,128,0,34006:0:0:0:0:
192,192,33938,1,0,0:0:0:0:
64,192,33938,1,0,0:0:0:0:
64,192,34074,128,0,34142:0:0:0:0:
192,192,34074,1,0,0:0:0:0:
320,192,34142,1,0,0:0:0:0:
448,192,34142,1,0,0:0:0:0:
192,192,34210,128,0,34279:0:0:0:0:
64,192,34210,1,0,0:0:0:0:
320,192,34347,128,0,34415:0:0:0:0:
448,192,34347,1,0,0:0:0:0:
64,192,34347,1,0,0:0:0:0:
448,192,34483,128,0,34551:0:0:0:0:
192,192,34483,1,0,0:0:0:0:
64,192,34620,128,0,34688:0:0:0:0:
320,192,34620,1,0,0:0:0:0:
192,192,34756,128,0,34824:0:0:0:0:
448,192,34756,1,0,0:0:0:0:
320,192,34756,1,0,0:0:0:0:
320,192,34892,128,0,34960:0:0:0:0:
64,192,34892,1,0,0:0:0:0:
448,192,35029,128,0,35097:0:0:0:0:
192,192,35029,1,0,0:0:0:0:
320,192,35029,1,0,0:0:0:0:
64,192,35165,128,0,35233:0:0:0:0:
192,192,35165,1,0,0:0:0:0:
192,192,35301,128,0,35370:0:0:0:0:
448,192,35301,1,0,0:0:0:0:
320,192,35301,1,0,0:0:0:0:
64,192,35370,1,0,0:0:0:0:
320,192,35438,128,0,35506:0:0:0:0:
448,192,35438,1,0,0:0:0:0:
192,192,35438,1,0,0:0:0:0:
64,192,35506,1,0,0:0:0:0:
448,192,35574,128,0,35642:0:0:0:0:
192,192,35574,1,0,0:0:0:0:
64,192,35710,128,0,35779:0:0:0:0:
320,192,35710,1,0,0:0:0:0:
192,192,35710,1,0,0:0:0:0:
448,192,35779,1,0,0:0:0:0:
192,192,35847,128,0,35915:0:0:0:0:
320,192,35847,1,0,0:0:0:0:
64,192,35847,1,0,0:0:0:0:
320,192,35983,128,0,36051:0:0:0:0:
448,192,35983,1,0,0:0:0:0:
64,192,36051,1,0,0:0:0:0:
192,192,36051,1,0,0:0:0:0:
448,192,36120,128,0,36188:0:0:0:0:
64,192,36120,1,0,0:0:0:0:
320,192,36188,1,0,0:0:0:0:
64,192,36256,128,0,36324:0:0:0:0:
192,192,36256,1,0,0:0:0:0:
320,192,36324,1,0,0:0:0:0:
448,192,36324,1,0,0:0:0:0:
192,192,36392,128,0,36460:0:0:0:0:
64,192,36392,1,0,0:0:0:0:
448,192,36392,1,0,0:0:0:0:
320,192,36529,128,0,36597:0:0:0:0:
448,192,36529,1,0,0:0:0:0:
64,192,36529,1,0,0:0:0:0:
192,192,36597,1,0,0:0:0:0:
448,192,36665,128,0,36733:0:0:0:0:
64,192,36665,1,0,0:0:0:0:
192,192,36665,1,0,0:0:0:0:
64,192,36801,128,0,36870:0:0:0:0:
320,192,36801,1,0,0:0:0:0:
448,192,36801,1,0,0:0:0:0:
192,192,36938,128,0,37006:0:0:0:0:
320,192,36938,1,0,0:0:0:0:
64,192,36938,1,0,0:0:0:0:
320,192,37074,128,0,37142:0:0:0:0:
448,192,37074,1,0,0:0:0:0:
64,192,37074,1,0,0:0:0:0:
448,192,37210,128,0,37279:0:0:0:0:
320,192,37210,1,0,0:0:0:0:
192,192,37210,1,0,0:0:0:0:
64,192,37279,128,0,37347:0:0:0:0:
448,192,37347,128,0,37415:0:0:0:0:
320,192,37347,1,0,0:0:0:0:
192,192,37483,128,0,37551:0:0:0:0:
64,192,37483,1,0,0:0:0:0:
320,192,37483,1,0,0:0:0:0:
320,192,37620,128,0,37688:0:0:0:0:
448,192,37620,1,0,0:0:0:0:
64,192,37620,1,0,0:0:0:0:
448,192,37756,128,0,37824:0:0:0:0:
192,192,37756,1,0,0:0:0:0:
64,192,37756,1,0,0:0:0:0:
64,192,37892,128,0,37960:0:0:0:0:
192,192,37892,1,0,0:0:0:0:
320,192,37960,1,0,0:0:0:0:
448,192,37960,1,0,0:0:0:0:
192,192,38029,128,0,38097:0:0:0:0:
64,192,38029,1,0,0:0:0:0:
320,192,38097,1,0,0:0:0:0:
448,192,38097,1,0,0:0:0:0:
320,192,38165,128,0,38233:0:0:0:0:
64,192,38165,1,0,0:0:0:0:
192,192,38233,1,0,0:0:0:0:
448,192,38301,128,0,38370:0:0:0:0:
64,192,38301,1,0,0:0:0:0:
64,192,38438,128,0,38506:0:0:0:0:
192,192,38438,1,0,0:0:0:0:
320,192,38438,1,0,0:0:0:0:
448,192,38574,128,0,38642:0:0:0:0:
64,192,38574,1,0,0:0:0:0:
192,192,38642,1,0,0:0:0:0:
320,192,38710,128,0,38779:0:0:0:0:
64,192,38710,1,0,0:0:0:0:
448,192,38710,1,0,0:0:0:0:
192,192,38779,1,0,0:0:0:0:
448,192,38847,128,0,38915:0:0:0:0:
320,192,38847,1,0,0:0:0:0:
64,192,38915,1,0,0:0:0:0:
192,192,38915,1,0,0:0:0:0:
64,192,38983,128,0,39051:0:0:0:0:
320,192,38983,1,0,0:0:0:0:
448,192,38983,1,0,0:0:0:0:
192,192,39120,128,0,39188:0:0:0:0:
320,192,39120,1,0,0:0:0:0:
448,192,39120,1,0,0:0:0:0:
320,192,39256,128,0,39324:0:0:0:0:
64,192,39256,1,0,0:0:0:0:
448,192,39392,128,0,39460:0:0:0:0:
192,192,39392,1,0,0:0:0:0:
64,192,39392,1,0,0:0:0:0:
64,192,39529,128,0,39597:0:0:0:0:
320,192,39529,1,0,0:0:0:0:
192,192,39665,128,0,39733:0:0:0:0:
448,192,39665,1,0,0:0:0:0:
64,192,39665,1,0,0:0:0:0:
320,192,39801,128,0,39870:0:0:0:0:
448,192,39801,1,0,0:0:0:0:
64,192,39801,1,0,0:0:0:0:
448,192,39938,128,0,40006:0:0:0:0:
192,192,39938,1,0,0:0:0:0:
64,192,40074,128,0,40142:0:0:0:0:
320,192,40074,1,0,0:0:0:0:
192,192,40074,1,0,0:0:0:0:
192,192,40210,128,0,40279:0:0:0:0:
448,192,40210,1,0,0:0:0:0:
320,192,40210,1,0,0:0:0:0:
320,192,40347,128,0,40415:0:0:0:0:
64,192,40347,1,0,0:0:0:0:
192,192,40415,1,0,0:0:0:0:
448,192,40483,128,0,40551:0:0:0:0:
64,192,40483,1,0,0:0:0:0:
320,192,40483,1,0,0:0:0:0:
64,192,40620,128,0,40688:0:0:0:0:
192,192,40620,1,0,0:0:0:0:
320,192,40688,1,0,0:0:0:0:
448,192,40688,1,0,0:0:0:0:
192,192,40756,128,0,40824:0:0:0:0:
64,192,40756,1,0,0:0:0:0:
448,192,40824,1,0,0:0:0:0:
320,192,40892,128,0,40960:0:0:0:0:
64,192,40892,1,0,0:0:0:0:
192,192,40960,1,0,0:0:0:0:
448,192,41029,128,0,41097:0:0:0:0:
64,192,41029,1,0,0:0:0:0:
320,192,41029,1,0,0:0:0:0:
64,192,41165,128,0,41233:0:0:0:0:
192,192,41165,1,0,0:0:0:0:
320,192,41165,1,0,0:0:0:0:
192,192,41301,128,0,41370:0:0:0:0:
448,192,41301,1,0,0:0:0:0:
320,192,41301,1,0,0:0:0:0:
320,192,41438,128,0,41506:0:0:0:0:
64,192,41438,1,0,0:0:0:0:
192,192,41438,1,0,0:0:0:0:
448,192,41574,128,0,41642:0:0:0:0:
192,192,41574,1,0,0:0:0:0:
64,192,41574,1,0,0:0:0:0:
64,192,41710,128,0,41779:0:0:0:0:
320,192,41710,1,0,0:0:0:0:
192,192,41847,128,0,41915:0:0:0:0:
448,192,41847,1,0,0:0:0:0:
320,192,41847,1,0,0:0:0:0:
64,192,41915,1,0,0:0:0:0:
320,192,41983,128,0,42051:0:0:0:0:
448,192,41983,1,0,0:0:0:0:
192,192,41983,1,0,0:0:0:0:
448,192,42120,128,0,42188:0:0:0:0:
64,192,42120,1,0,0:0:0:0:
192,192,42120,1,0,0:0:0:0:
320,192,42188,1,0,0:0:0:0:
64,192,42256,128,0,42324:0:0:0:0:
192,192,42256,1,0,0:0:0:0:
448,192,42256,1,0,0:0:0:0:
192,192,42392,128,0,42460:0:0:0:0:
320,192,42392,1,0,0:0:0:0:
448,192,42392,1,0,0:0:0:0:
64,192,42460,1,0,0:0:0:0:
320,192,42529,128,0,42597:0:0:0:0:
448,192,42529,1,0,0:0:0:0:
192,192,42529,1,0,0:0:0:0:
448,192,42665,128,0,42733:0:0:0:0:
64,192,42665,1,0,0:0:0:0:
192,192,42665,1,0,0:0:0:0:
64,192,42801,128,0,42870:0:0:0:0:
320,192,42801,1,0,0:0:0:0:
192,192,42801,1,0,0:0:0:0:
192,192,42938,128,0,43006:0:0:0:0:
320,192,42938,1,0,0:0:0:0:
448,192,43006,1,0,0:0:0:0:
320,192,43074,128,0,43142:0:0:0:0:
64,192,43074,1,0,0:0:0:0:
192,192,43074,1,0,0:0:0:0:
448,192,43210,128,0,43279:0:0:0:0:
192,192,43210,1,0,0:0:0:0:
64,192,43347,128,0,43415:0:0:0:0:
320,192,43347,1,0,0:0:0:0:
448,192,43347,1,0,0:0:0:0:
192,192,43483,128,0,43551:0:0:0:0:
320,192,43483,1,0,0:0:0:0:
64,192,43483,1,0,0:0:0:0:
320,192,43620,128,0,43688:0:0:0:0:
448,192,43620,1,0,0:0:0:0:
64,192,43688,1,0,0:0:0:0:
448,192,43756,1,0,0:0:0:0:
192,192,43756,1,0,0:0:0:0:
320,192,43756,1,0,0:0:0:0:
64,192,43824,1,0,0:0:0:0:
192,192,43892,1,0,0:0:0:0:
320,192,43892,1,0,0:0:0:0:
448,192,44029,1,0,0:0:0:0:
192,192,44029,1,0,0:0:0:0:
64,192,44029,1,0,0:0:0:0:
320,192,44097,1,0,0:0:0:0:
192,192,44165,1,0,0:0:0:0:
64,192,44165,1,0,0:0:0:0:
320,192,44301,1,0,0:0:0:0:
448,192,44301,1,0,0:0:0:0:
64,192,44301,1,0,0:0:0:0:
192,192,44370,1,0,0:0:0:0:
320,192,44438,1,0,0:0:0:0:
448,192,44438,1,0,0:0:0:0:
64,192,44574,1,0,0:0:0:0:
320,192,44574,1,0,0:0:0:0:
192,192,44574,1,0,0:0:0:0:
448,192,44642,1,0,0:0:0:0:
192,192,44710,1,0,0:0:0:0:
64,192,44710,1,0,0:0:0:0:
320,192,44847,1,0,0:0:0:0:
64,192,44847,1,0,0:0:0:0:
448,192,44847,1,0,0:0:0:0:
192,192,44915,1,0,0:0:0:0:
448,192,44983,1,0,0:0:0:0:
64,192,44983,1,0,0:0:0:0:
64,192,45120,1,0,0:0:0:0:
192,192,45120,1,0,0:0:0:0:
448,192,45120,1,0,0:0:0:0:
320,192,45188,1,0,0:0:0:0:
64,192,45256,1,0,0:0:0:0:
448,192,45256,1,0,0:0:0:0:
64,192,45392,1,0,0:0:0:0:
448,192,45392,1,0,0:0:0:0:
320,192,45392,1,0,0:0:0:0:
192,192,45460,1,0,0:0:0:0:
320,192,45529,1,0,0:0:0:0:
64,192,45529,1,0,0:0:0:0:
448,192,45529,1,0,0:0:0:0:
192,192,45597,1,0,0:0:0:0:
64,192,45665,1,0,0:0:0:0:
320,192,45665,1,0,0:0:0:0:
448,192,45665,1,0,0:0:0:0:
192,192,45733,1,0,0:0:0:0:
64,192,45801,1,0,0:0:0:0:
320,192,45801,1,0,0:0:0:0:
448,192,45801,1,0,0:0:0:0:
192,192,45870,1,0,0:0:0:0:
448,192,45938,1,0,0:0:0:0:
320,192,45972,1,0,0:0:0:0:
192,192,46006,1,0,0:0:0:0:
64,192,46040,1,0,0:0:0:0:
448,192,46074,1,0,0:0:0:0:
320,192,46108,1,0,0:0:0:0:
192,192,46142,1,0,0:0:0:0:
64,192,46176,1,0,0:0:0:0:
448,192,46210,1,0,0:0:0:0:
320,192,46245,1,0,0:0:0:0:
192,192,46279,1,0,0:0:0:0:
64,192,46313,1,0,0:0:0:0:
448,192,46347,1,0,0:0:0:0:
320,192,46381,1,0,0:0:0:0:
192,192,46415,1,0,0:0:0:0:
64,192,46449,1,0,0:0:0:0:
448,192,46483,1,0,0:0:0:0:
320,192,46517,1,0,0:0:0:0:
192,192,46551,1,0,0:0:0:0:
64,192,46585,1,0,0:0:0:0:
448,192,46620,1,0,0:0:0:0:
320,192,46654,1,0,0:0:0:0:
192,192,46688,1,0,0:0:0:0:
64,192,46722,1,0,0:0:0:0:
448,192,46756,1,0,0:0:0:0:
320,192,46790,1,0,0:0:0:0:
192,192,46824,1,0,0:0:0:0:
64,192,46858,1,0,0:0:0:0:
448,192,46892,1,0,0:0:0:0:
320,192,46926,1,0,0:0:0:0:
192,192,46960,1,0,0:0:0:0:
64,192,46995,1,0,0:0:0:0:
448,192,47029,128,0,47131:0:0:0:0:
320,192,47063,1,0,0:0:0:0:
192,192,47097,1,0,0:0:0:0:
64,192,47131,1,0,0:0:0:0:
320,192,47165,128,0,47267:0:0:0:0:
192,192,47199,1,0,0:0:0:0:
64,192,47233,1,0,0:0:0:0:
448,192,47301,128,0,47404:0:0:0:0:
64,192,47438,128,0,47540:0:0:0:0:
448,192,47574,128,0,47847:0:0:0:0:
320,192,47574,1,0,0:0:0:0:
192,192,47710,1,0,0:0:0:0:
64,192,47847,1,0,0:0:0:0:
192,192,47847,1,0,0:0:0:0:
320,192,47847,128,0,47983:0:0:0:0:
64,192,48120,1,0,0:0:0:0:
192,192,48120,1,0,0:0:0:0:
320,192,48120,1,0,0:0:0:0:
448,192,48188,1,0,0:0:0:0:
320,192,48222,1,0,0:0:0:0:
192,192,48256,1,0,0:0:0:0:
64,192,48256,1,0,0:0:0:0:
448,192,48290,1,0,0:0:0:0:
320,192,48324,1,0,0:0:0:0:
192,192,48358,1,0,0:0:0:0:
64,192,48392,1,0,0:0:0:0:
448,192,48392,1,0,0:0:0:0:
448,192,48529,1,0,0:0:0:0:
320,192,48529,1,0,0:0:0:0:
64,192,48597,1,0,0:0:0:0:
192,192,48631,1,0,0:0:0:0:
320,192,48665,1,0,0:0:0:0:
448,192,48665,1,0,0:0:0:0:
64,192,48699,1,0,0:0:0:0:
192,192,48733,1,0,0:0:0:0:
320,192,48767,1,0,0:0:0:0:
448,192,48801,1,0,0:0:0:0:
64,192,48801,1,0,0:0:0:0:
448,192,48938,1,0,0:0:0:0:
320,192,48938,1,0,0:0:0:0:
64,192,48938,1,0,0:0:0:0:
192,192,49006,1,0,0:0:0:0:
320,192,49074,1,0,0:0:0:0:
448,192,49074,1,0,0:0:0:0:
64,192,49074,1,0,0:0:0:0:
64,192,49210,1,0,0:0:0:0:
192,192,49210,1,0,0:0:0:0:
448,192,49279,1,0,0:0:0:0:
320,192,49301,1,0,0:0:0:0:
192,192,49324,1,0,0:0:0:0:
64,192,49347,1,0,0:0:0:0:
448,192,49370,1,0,0:0:0:0:
320,192,49392,1,0,0:0:0:0:
192,192,49415,1,0,0:0:0:0:
64,192,49438,1,0,0:0:0:0:
448,192,49460,1,0,0:0:0:0:
320,192,49483,1,0,0:0:0:0:
64,192,49551,1,0,0:0:0:0:
320,192,49620,1,0,0:0:0:0:
448,192,49620,1,0,0:0:0:0:
64,192,49756,1,0,0:0:0:0:
192,192,49756,1,0,0:0:0:0:
320,192,49790,1,0,0:0:0:0:
448,192,49824,1,0,0:0:0:0:
64,192,49858,1,0,0:0:0:0:
192,192,49892,1,0,0:0:0:0:
448,192,49926,1,0,0:0:0:0:
320,192,49960,1,0,0:0:0:0:
192,192,49995,1,0,0:0:0:0:
448,192,50029,1,0,0:0:0:0:
64,192,50029,1,0,0:0:0:0:
320,192,50097,1,0,0:0:0:0:
64,192,50165,1,0,0:0:0:0:
192,192,50165,1,0,0:0:0:0:
448,192,50301,1,0,0:0:0:0:
320,192,50301,1,0,0:0:0:0:
64,192,50370,1,0,0:0:0:0:
192,192,50404,1,0,0:0:0:0:
448,192,50438,1,0,0:0:0:0:
320,192,50472,1,0,0:0:0:0:
192,192,50506,1,0,0:0:0:0:
64,192,50540,1,0,0:0:0:0:
320,192,50574,1,0,0:0:0:0:
448,192,50574,1,0,0:0:0:0:
64,192,50710,1,0,0:0:0:0:
192,192,50710,1,0,0:0:0:0:
448,192,50779,1,0,0:0:0:0:
320,192,50813,1,0,0:0:0:0:
64,192,50847,1,0,0:0:0:0:
192,192,50847,1,0,0:0:0:0:
64,192,50915,1,0,0:0:0:0:
192,192,50949,1,0,0:0:0:0:
320,192,50983,1,0,0:0:0:0:
448,192,50983,1,0,0:0:0:0:
64,192,51051,1,0,0:0:0:0:
192,192,51085,1,0,0:0:0:0:
320,192,51120,1,0,0:0:0:0:
448,192,51120,1,0,0:0:0:0:
64,192,51256,1,0,0:0:0:0:
448,192,51256,1,0,0:0:0:0:
320,192,51392,1,0,0:0:0:0:
448,192,51392,1,0,0:0:0:0:
64,192,51460,1,0,0:0:0:0:
192,192,51483,1,0,0:0:0:0:
320,192,51506,1,0,0:0:0:0:
448,192,51529,1,0,0:0:0:0:
64,192,51551,1,0,0:0:0:0:
192,192,51574,1,0,0:0:0:0:
448,192,51665,1,0,0:0:0:0:
64,192,51665,1,0,0:0:0:0:
192,192,51688,1,0,0:0:0:0:
320,192,51710,1,0,0:0:0:0:
448,192,51801,1,0,0:0:0:0:
320,192,51824,1,0,0:0:0:0:
192,192,51847,1,0,0:0:0:0:
64,192,51870,1,0,0:0:0:0:
448,192,51938,1,0,0:0:0:0:
320,192,51938,1,0,0:0:0:0:
192,192,51938,1,0,0:0:0:0:
64,192,52074,1,0,0:0:0:0:
192,192,52097,1,0,0:0:0:0:
320,192,52120,1,0,0:0:0:0:
448,192,52142,1,0,0:0:0:0:
192,192,52210,1,0,0:0:0:0:
64,192,52210,1,0,0:0:0:0:
320,192,52245,1,0,0:0:0:0:
448,192,52279,1,0,0:0:0:0:
64,192,52347,1,0,0:0:0:0:
320,192,52415,1,0,0:0:0:0:
192,192,52483,1,0,0:0:0:0:
64,192,52483,1,0,0:0:0:0:
448,192,52551,1,0,0:0:0:0:
320,192,52585,1,0,0:0:0:0:
192,192,52620,1,0,0:0:0:0:
64,192,52654,1,0,0:0:0:0:
320,192,52688,1,0,0:0:0:0:
448,192,52722,1,0,0:0:0:0:
64,192,52756,1,0,0:0:0:0:
192,192,52756,1,0,0:0:0:0:
320,192,52892,1,0,0:0:0:0:
448,192,52892,1,0,0:0:0:0:
64,192,52892,1,0,0:0:0:0:
192,192,53029,1,0,0:0:0:0:
64,192,53029,1,0,0:0:0:0:
320,192,53029,1,0,0:0:0:0:
448,192,53165,1,0,0:0:0:0:
320,192,53199,1,0,0:0:0:0:
64,192,53233,1,0,0:0:0:0:
192,192,53267,1,0,0:0:0:0:
320,192,53301,1,0,0:0:0:0:
448,192,53301,1,0,0:0:0:0:
64,192,53370,1,0,0:0:0:0:
320,192,53438,1,0,0:0:0:0:
448,192,53438,1,0,0:0:0:0:
448,192,53506,1,0,0:0:0:0:
320,192,53506,1,0,0:0:0:0:
192,192,53574,1,0,0:0:0:0:
64,192,53574,1,0,0:0:0:0:
448,192,53642,1,0,0:0:0:0:
320,192,53642,1,0,0:0:0:0:
192,192,53676,1,0,0:0:0:0:
64,192,53710,1,0,0:0:0:0:
448,192,53710,1,0,0:0:0:0:
320,192,53745,1,0,0:0:0:0:
192,192,53779,1,0,0:0:0:0:
448,192,53847,1,0,0:0:0:0:
320,192,53847,1,0,0:0:0:0:
64,192,53983,1,0,0:0:0:0:
192,192,53983,1,0,0:0:0:0:
320,192,53983,1,0,0:0:0:0:
448,192,54051,1,0,0:0:0:0:
320,192,54085,1,0,0:0:0:0:
192,192,54120,1,0,0:0:0:0:
64,192,54120,1,0,0:0:0:0:
320,192,54154,1,0,0:0:0:0:
448,192,54188,1,0,0:0:0:0:
64,192,54222,1,0,0:0:0:0:
192,192,54256,1,0,0:0:0:0:
320,192,54256,1,0,0:0:0:0:
448,192,54324,1,0,0:0:0:0:
64,192,54392,1,0,0:0:0:0:
192,192,54392,1,0,0:0:0:0:
448,192,54460,1,0,0:0:0:0:
320,192,54495,1,0,0:0:0:0:
64,192,54529,1,0,0:0:0:0:
192,192,54563,1,0,0:0:0:0:
320,192,54597,1,0,0:0:0:0:
448,192,54631,1,0,0:0:0:0:
64,192,54665,1,0,0:0:0:0:
192,192,54665,1,0,0:0:0:0:
448,192,54733,1,0,0:0:0:0:
320,192,54767,1,0,0:0:0:0:
192,192,54801,1,0,0:0:0:0:
64,192,54835,1,0,0:0:0:0:
320,192,54870,1,0,0:0:0:0:
448,192,54904,1,0,0:0:0:0:
64,192,54938,1,0,0:0:0:0:
192,192,54960,1,0,0:0:0:0:
320,192,54983,1,0,0:0:0:0:
448,192,55006,1,0,0:0:0:0:
64,192,55074,1,0,0:0:0:0:
192,192,55074,1,0,0:0:0:0:
320,192,55142,1,0,0:0:0:0:
448,192,55176,1,0,0:0:0:0:
192,192,55210,1,0,0:0:0:0:
64,192,55245,1,0,0:0:0:0:
320,192,55279,1,0,0:0:0:0:
448,192,55313,1,0,0:0:0:0:
64,192,55347,1,0,0:0:0:0:
192,192,55370,1,0,0:0:0:0:
320,192,55392,1,0,0:0:0:0:
448,192,55415,1,0,0:0:0:0:
64,192,55483,1,0,0:0:0:0:
192,192,55483,1,0,0:0:0:0:
320,192,55620,1,0,0:0:0:0:
448,192,55620,1,0,0:0:0:0:
64,192,55688,1,0,0:0:0:0:
448,192,55756,1,0,0:0:0:0:
320,192,55756,1,0,0:0:0:0:
64,192,55824,1,0,0:0:0:0:
192,192,55858,1,0,0:0:0:0:
320,192,55892,1,0,0:0:0:0:
448,192,55926,1,0,0:0:0:0:
64,192,55960,1,0,0:0:0:0:
192,192,55995,1,0,0:0:0:0:
320,192,56029,1,0,0:0:0:0:
448,192,56029,1,0,0:0:0:0:
64,192,56165,1,0,0:0:0:0:
192,192,56165,1,0,0:0:0:0:
448,192,56165,1,0,0:0:0:0:
192,192,56301,1,0,0:0:0:0:
64,192,56301,1,0,0:0:0:0:
320,192,56301,1,0,0:0:0:0:
448,192,56438,1,0,0:0:0:0:
320,192,56438,1,0,0:0:0:0:
64,192,56438,1,0,0:0:0:0:
192,192,56574,1,0,0:0:0:0:
320,192,56574,1,0,0:0:0:0:
448,192,56574,1,0,0:0:0:0:
64,192,56710,1,0,0:0:0:0:
192,192,56710,1,0,0:0:0:0:
320,192,56847,1,0,0:0:0:0:
448,192,56847,1,0,0:0:0:0:
64,192,56915,1,0,0:0:0:0:
192,192,56949,1,0,0:0:0:0:
448,192,56983,1,0,0:0:0:0:
320,192,57017,1,0,0:0:0:0:
64,192,57051,1,0,0:0:0:0:
192,192,57085,1,0,0:0:0:0:
320,192,57120,1,0,0:0:0:0:
448,192,57120,1,0,0:0:0:0:
64,192,57256,1,0,0:0:0:0:
192,192,57256,1,0,0:0:0:0:
320,192,57392,1,0,0:0:0:0:
64,192,57392,1,0,0:0:0:0:
448,192,57392,1,0,0:0:0:0:
192,192,57529,1,0,0:0:0:0:
320,192,57529,1,0,0:0:0:0:
64,192,57665,1,0,0:0:0:0:
192,192,57665,1,0,0:0:0:0:
320,192,57733,1,0,0:0:0:0:
448,192,57801,1,0,0:0:0:0:
64,192,57801,1,0,0:0:0:0:
192,192,57938,1,0,0:0:0:0:
320,192,57938,1,0,0:0:0:0:
448,192,57938,1,0,0:0:0:0:
64,192,58074,1,0,0:0:0:0:
192,192,58074,1,0,0:0:0:0:
320,192,58108,1,0,0:0:0:0:
448,192,58142,1,0,0:0:0:0:
192,192,58176,1,0,0:0:0:0:
64,192,58210,1,0,0:0:0:0:
448,192,58210,1,0,0:0:0:0:
320,192,58210,1,0,0:0:0:0:
192,192,58347,1,0,0:0:0:0:
448,192,58347,1,0,0:0:0:0:
320,192,58347,1,0,0:0:0:0:
64,192,58483,1,0,0:0:0:0:
192,192,58483,1,0,0:0:0:0:
320,192,58517,1,0,0:0:0:0:
448,192,58551,1,0,0:0:0:0:
64,192,58585,1,0,0:0:0:0:
192,192,58620,1,0,0:0:0:0:
320,192,58620,1,0,0:0:0:0:
192,192,58756,1,0,0:0:0:0:
64,192,58756,1,0,0:0:0:0:
320,192,58756,1,0,0:0:0:0:
64,192,58892,1,0,0:0:0:0:
192,192,58960,1,0,0:0:0:0:
448,192,59029,1,0,0:0:0:0:
320,192,59029,1,0,0:0:0:0:
192,192,59063,1,0,0:0:0:0:
64,192,59097,1,0,0:0:0:0:
448,192,59131,1,0,0:0:0:0:
320,192,59165,1,0,0:0:0:0:
192,192,59199,1,0,0:0:0:0:
64,192,59233,1,0,0:0:0:0:
448,192,59267,1,0,0:0:0:0:
192,192,59301,1,0,0:0:0:0:
320,192,59301,1,0,0:0:0:0:
64,192,59370,1,0,0:0:0:0:
448,192,59438,1,0,0:0:0:0:
192,192,59438,1,0,0:0:0:0:
320,192,59506,1,0,0:0:0:0:
64,192,59574,1,0,0:0:0:0:
192,192,59574,1,0,0:0:0:0:
320,192,59642,1,0,0:0:0:0:
448,192,59676,1,0,0:0:0:0:
64,192,59710,1,0,0:0:0:0:
192,192,59710,1,0,0:0:0:0:
320,192,59745,1,0,0:0:0:0:
448,192,59779,1,0,0:0:0:0:
64,192,59813,1,0,0:0:0:0:
320,192,59847,1,0,0:0:0:0:
192,192,59847,1,0,0:0:0:0:
64,192,59915,1,0,0:0:0:0:
448,192,59983,1,0,0:0:0:0:
320,192,59983,1,0,0:0:0:0:
64,192,60051,1,0,0:0:0:0:
192,192,60051,1,0,0:0:0:0:
320,192,60120,1,0,0:0:0:0:
448,192,60120,1,0,0:0:0:0:
64,192,60188,1,0,0:0:0:0:
192,192,60222,1,0,0:0:0:0:
320,192,60256,1,0,0:0:0:0:
448,192,60256,1,0,0:0:0:0:
64,192,60290,1,0,0:0:0:0:
192,192,60324,1,0,0:0:0:0:
320,192,60324,1,0,0:0:0:0:
448,192,60358,1,0,0:0:0:0:
64,192,60392,1,0,0:0:0:0:
192,192,60392,1,0,0:0:0:0:
448,192,60460,1,0,0:0:0:0:
320,192,60495,1,0,0:0:0:0:
192,192,60529,1,0,0:0:0:0:
64,192,60529,1,0,0:0:0:0:
448,192,60563,1,0,0:0:0:0:
320,192,60597,1,0,0:0:0:0:
64,192,60631,1,0,0:0:0:0:
320,192,60665,1,0,0:0:0:0:
448,192,60665,1,0,0:0:0:0:
192,192,60733,1,0,0:0:0:0:
64,192,60767,1,0,0:0:0:0:
448,192,60801,1,0,0:0:0:0:
320,192,60801,1,0,0:0:0:0:
192,192,60835,1,0,0:0:0:0:
64,192,60870,1,0,0:0:0:0:
448,192,60904,1,0,0:0:0:0:
320,192,60938,1,0,0:0:0:0:
192,192,60938,1,0,0:0:0:0:
448,192,61006,1,0,0:0:0:0:
64,192,61006,1,0,0:0:0:0:
320,192,61074,1,0,0:0:0:0:
192,192,61074,1,0,0:0:0:0:
448,192,61142,1,0,0:0:0:0:
64,192,61142,1,0,0:0:0:0:
64,192,61756,128,0,62029:0:0:0:0:
192,192,62029,128,0,62301:0:0:0:0:
448,192,62301,128,0,62574:0:0:0:0:
320,192,62574,128,0,62745:0:0:0:0:
192,192,62745,128,0,63017:0:0:0:0:
64,192,63017,128,0,63290:0:0:0:0:
192,192,63256,1,0,0:0:0:0:
320,192,63290,128,0,63904:0:0:0:0:
448,192,63392,1,0,0:0:0:0:
192,192,63665,1,0,0:0:0:0:
64,192,63904,128,0,64210:0:0:0:0:
448,192,63938,1,0,0:0:0:0:
320,192,64210,128,0,64483:0:0:0:0:
448,192,64210,1,0,0:0:0:0:
64,192,64347,1,0,0:0:0:0:
448,192,64483,128,0,64756:0:0:0:0:
192,192,64483,1,0,0:0:0:0:
64,192,64620,1,0,0:0:0:0:
192,192,64756,128,0,64892:0:0:0:0:
320,192,64756,1,0,0:0:0:0:
320,192,64892,128,0,65131:0:0:0:0:
448,192,64892,1,0,0:0:0:0:
64,192,65029,1,0,0:0:0:0:
192,192,65131,128,0,65472:0:0:0:0:
448,192,65165,1,0,0:0:0:0:
320,192,65301,1,0,0:0:0:0:
448,192,65438,1,0,0:0:0:0:
64,192,65472,128,0,66256:0:0:0:0:
320,192,65574,1,0,0:0:0:0:
448,192,65574,1,0,0:0:0:0:
192,192,65710,1,0,0:0:0:0:
448,192,65847,1,0,0:0:0:0:
320,192,65847,1,0,0:0:0:0:
192,192,65983,1,0,0:0:0:0:
448,192,66120,1,0,0:0:0:0:
320,192,66256,1,0,0:0:0:0:
448,192,66392,1,0,0:0:0:0:
192,192,66392,1,0,0:0:0:0:
448,192,66529,1,0,0:0:0:0:
320,192,66529,1,0,0:0:0:0:
192,192,66665,128,0,66938:0:0:0:0:
64,192,66665,1,0,0:0:0:0:
448,192,66801,1,0,0:0:0:0:
320,192,66938,128,0,67074:0:0:0:0:
64,192,66938,1,0,0:0:0:0:
448,192,67074,128,0,67347:0:0:0:0:
192,192,67074,1,0,0:0:0:0:
320,192,67210,1,0,0:0:0:0:
64,192,67347,128,0,67756:0:0:0:0:
192,192,67347,1,0,0:0:0:0:
320,192,67483,1,0,0:0:0:0:
448,192,67483,1,0,0:0:0:0:
192,192,67620,1,0,0:0:0:0:
448,192,67756,128,0,68301:0:0:0:0:
320,192,67756,1,0,0:0:0:0:
192,192,67756,1,0,0:0:0:0:
64,192,67892,1,0,0:0:0:0:
192,192,68029,1,0,0:0:0:0:
320,192,68029,1,0,0:0:0:0:
192,192,68165,1,0,0:0:0:0:
320,192,68301,128,0,68847:0:0:0:0:
64,192,68301,1,0,0:0:0:0:
448,192,68438,1,0,0:0:0:0:
192,192,68574,1,0,0:0:0:0:
64,192,68574,1,0,0:0:0:0:
64,192,68710,1,0,0:0:0:0:
448,192,68710,1,0,0:0:0:0:
192,192,68847,128,0,69392:0:0:0:0:
448,192,68847,1,0,0:0:0:0:
64,192,68983,1,0,0:0:0:0:
320,192,68983,1,0,0:0:0:0:
320,192,69120,1,0,0:0:0:0:
448,192,69120,1,0,0:0:0:0:
448,192,69256,1,0,0:0:0:0:
64,192,69392,128,0,69938:0:0:0:0:
320,192,69392,1,0,0:0:0:0:
448,192,69392,1,0,0:0:0:0:
192,192,69529,1,0,0:0:0:0:
320,192,69665,1,0,0:0:0:0:
448,192,69665,1,0,0:0:0:0:
192,192,69801,1,0,0:0:0:0:
448,192,69938,1,0,0:0:0:0:
320,192,69938,1,0,0:0:0:0:
192,192,69972,1,0,0:0:0:0:
64,192,70006,1,0,0:0:0:0:
448,192,70040,1,0,0:0:0:0:
320,192,70074,1,0,0:0:0:0:
192,192,70074,1,0,0:0:0:0:
64,192,70108,1,0,0:0:0:0:
448,192,70142,1,0,0:0:0:0:
320,192,70176,1,0,0:0:0:0:
64,192,70210,1,0,0:0:0:0:
192,192,70210,1,0,0:0:0:0:
320,192,70279,1,0,0:0:0:0:
64,192,70347,1,0,0:0:0:0:
448,192,70347,1,0,0:0:0:0:
192,192,70381,1,0,0:0:0:0:
320,192,70415,1,0,0:0:0:0:
64,192,70449,1,0,0:0:0:0:
448,192,70483,1,0,0:0:0:0:
192,192,70483,1,0,0:0:0:0:
320,192,70551,1,0,0:0:0:0:
64,192,70620,1,0,0:0:0:0:
192,192,70654,1,0,0:0:0:0:
320,192,70688,1,0,0:0:0:0:
448,192,70722,1,0,0:0:0:0:
64,192,70756,1,0,0:0:0:0:
192,192,70756,1,0,0:0:0:0:
320,192,70892,1,0,0:0:0:0:
448,192,70892,1,0,0:0:0:0:
64,192,70892,1,0,0:0:0:0:
448,192,71029,1,0,0:0:0:0:
320,192,71029,1,0,0:0:0:0:
64,192,71097,1,0,0:0:0:0:
192,192,71131,1,0,0:0:0:0:
448,192,71165,1,0,0:0:0:0:
320,192,71199,1,0,0:0:0:0:
64,192,71233,1,0,0:0:0:0:
192,192,71267,1,0,0:0:0:0:
320,192,71301,1,0,0:0:0:0:
448,192,71301,1,0,0:0:0:0:
192,192,71370,1,0,0:0:0:0:
448,192,71438,1,0,0:0:0:0:
64,192,71438,1,0,0:0:0:0:
320,192,71506,1,0,0:0:0:0:
64,192,71574,1,0,0:0:0:0:
448,192,71574,1,0,0:0:0:0:
192,192,71574,1,0,0:0:0:0:
192,192,71710,1,0,0:0:0:0:
64,192,71710,1,0,0:0:0:0:
320,192,71710,1,0,0:0:0:0:
448,192,71847,1,0,0:0:0:0:
192,192,71847,1,0,0:0:0:0:
448,192,71983,1,0,0:0:0:0:
320,192,71983,1,0,0:0:0:0:
64,192,72051,1,0,0:0:0:0:
192,192,72051,1,0,0:0:0:0:
448,192,72120,1,0,0:0:0:0:
64,192,72120,1,0,0:0:0:0:
192,192,72120,1,0,0:0:0:0:
320,192,72256,1,0,0:0:0:0:
320,192,72392,1,0,0:0:0:0:
448,192,72392,1,0,0:0:0:0:
64,192,72426,1,0,0:0:0:0:
192,192,72460,1,0,0:0:0:0:
448,192,72495,1,0,0:0:0:0:
320,192,72529,1,0,0:0:0:0:
64,192,72529,1,0,0:0:0:0:
192,192,72563,1,0,0:0:0:0:
448,192,72597,1,0,0:0:0:0:
320,192,72631,1,0,0:0:0:0:
64,192,72665,1,0,0:0:0:0:
192,192,72665,1,0,0:0:0:0:
320,192,72733,1,0,0:0:0:0:
448,192,72801,1,0,0:0:0:0:
64,192,72801,1,0,0:0:0:0:
192,192,72801,1,0,0:0:0:0:
320,192,72938,1,0,0:0:0:0:
192,192,72938,1,0,0:0:0:0:
64,192,72938,1,0,0:0:0:0:
448,192,73074,1,0,0:0:0:0:
320,192,73074,1,0,0:0:0:0:
192,192,73074,1,0,0:0:0:0:
64,192,73210,1,0,0:0:0:0:
192,192,73210,1,0,0:0:0:0:
448,192,73279,1,0,0:0:0:0:
320,192,73313,1,0,0:0:0:0:
64,192,73347,1,0,0:0:0:0:
192,192,73381,1,0,0:0:0:0:
320,192,73415,1,0,0:0:0:0:
448,192,73449,1,0,0:0:0:0:
192,192,73483,1,0,0:0:0:0:
64,192,73483,1,0,0:0:0:0:
64,192,73620,1,0,0:0:0:0:
320,192,73620,1,0,0:0:0:0:
448,192,73620,1,0,0:0:0:0:
192,192,73756,1,0,0:0:0:0:
320,192,73756,1,0,0:0:0:0:
448,192,73892,1,0,0:0:0:0:
320,192,73892,1,0,0:0:0:0:
64,192,73892,1,0,0:0:0:0:
64,192,74029,1,0,0:0:0:0:
192,192,74029,1,0,0:0:0:0:
320,192,74165,1,0,0:0:0:0:
448,192,74165,1,0,0:0:0:0:
64,192,74233,1,0,0:0:0:0:
192,192,74233,1,0,0:0:0:0:
320,192,74301,1,0,0:0:0:0:
448,192,74301,1,0,0:0:0:0:
192,192,74335,1,0,0:0:0:0:
64,192,74370,1,0,0:0:0:0:
448,192,74404,1,0,0:0:0:0:
320,192,74438,1,0,0:0:0:0:
192,192,74472,1,0,0:0:0:0:
64,192,74506,1,0,0:0:0:0:
448,192,74540,1,0,0:0:0:0:
320,192,74574,1,0,0:0:0:0:
192,192,74574,1,0,0:0:0:0:
64,192,74710,1,0,0:0:0:0:
320,192,74710,1,0,0:0:0:0:
448,192,74710,1,0,0:0:0:0:
448,192,74779,1,0,0:0:0:0:
64,192,74847,1,0,0:0:0:0:
192,192,74847,1,0,0:0:0:0:
320,192,74847,1,0,0:0:0:0:
448,192,74983,1,0,0:0:0:0:
64,192,74983,1,0,0:0:0:0:
320,192,75051,1,0,0:0:0:0:
192,192,75120,1,0,0:0:0:0:
64,192,75120,1,0,0:0:0:0:
448,192,75188,1,0,0:0:0:0:
64,192,75256,1,0,0:0:0:0:
320,192,75256,1,0,0:0:0:0:
64,192,75324,1,0,0:0:0:0:
192,192,75324,1,0,0:0:0:0:
320,192,75392,1,0,0:0:0:0:
448,192,75392,1,0,0:0:0:0:
64,192,75460,1,0,0:0:0:0:
192,192,75460,1,0,0:0:0:0:
320,192,75529,1,0,0:0:0:0:
448,192,75529,1,0,0:0:0:0:
192,192,75597,1,0,0:0:0:0:
320,192,75665,1,0,0:0:0:0:
448,192,75665,1,0,0:0:0:0:
64,192,75665,1,0,0:0:0:0:
192,192,75801,1,0,0:0:0:0:
64,192,75801,1,0,0:0:0:0:
320,192,75801,1,0,0:0:0:0:
448,192,75938,1,0,0:0:0:0:
320,192,75938,1,0,0:0:0:0:
320,192,76006,1,0,0:0:0:0:
448,192,76006,1,0,0:0:0:0:
64,192,76074,1,0,0:0:0:0:
192,192,76074,1,0,0:0:0:0:
448,192,76210,1,0,0:0:0:0:
64,192,76210,1,0,0:0:0:0:
320,192,76210,1,0,0:0:0:0:
192,192,76347,1,0,0:0:0:0:
64,192,76347,1,0,0:0:0:0:
320,192,76415,1,0,0:0:0:0:
448,192,76483,1,0,0:0:0:0:
64,192,76483,1,0,0:0:0:0:
192,192,76517,1,0,0:0:0:0:
320,192,76551,1,0,0:0:0:0:
448,192,76585,1,0,0:0:0:0:
192,192,76620,1,0,0:0:0:0:
64,192,76654,1,0,0:0:0:0:
448,192,76688,1,0,0:0:0:0:
320,192,76722,1,0,0:0:0:0:
192,192,76756,1,0,0:0:0:0:
64,192,76756,1,0,0:0:0:0:
448,192,76892,1,0,0:0:0:0:
320,192,76892,1,0,0:0:0:0:
192,192,76960,1,0,0:0:0:0:
64,192,77029,1,0,0:0:0:0:
448,192,77029,1,0,0:0:0:0:
320,192,77063,1,0,0:0:0:0:
192,192,77097,1,0,0:0:0:0:
64,192,77131,1,0,0:0:0:0:
448,192,77165,1,0,0:0:0:0:
320,192,77165,1,0,0:0:0:0:
192,192,77301,1,0,0:0:0:0:
64,192,77301,1,0,0:0:0:0:
448,192,77370,1,0,0:0:0:0:
320,192,77438,1,0,0:0:0:0:
64,192,77438,1,0,0:0:0:0:
192,192,77438,1,0,0:0:0:0:
320,192,77574,1,0,0:0:0:0:
448,192,77574,1,0,0:0:0:0:
64,192,77710,1,0,0:0:0:0:
448,192,77710,1,0,0:0:0:0:
192,192,77779,1,0,0:0:0:0:
64,192,77779,1,0,0:0:0:0:
320,192,77847,1,0,0:0:0:0:
448,192,77847,1,0,0:0:0:0:
192,192,77915,1,0,0:0:0:0:
320,192,77983,1,0,0:0:0:0:
448,192,77983,1,0,0:0:0:0:
192,192,78051,1,0,0:0:0:0:
64,192,78051,1,0,0:0:0:0:
320,192,78120,1,0,0:0:0:0:
448,192,78120,1,0,0:0:0:0:
64,192,78256,1,0,0:0:0:0:
192,192,78256,1,0,0:0:0:0:
448,192,78324,1,0,0:0:0:0:
192,192,78392,1,0,0:0:0:0:
320,192,78392,1,0,0:0:0:0:
64,192,78392,1,0,0:0:0:0:
448,192,78529,1,0,0:0:0:0:
320,192,78529,1,0,0:0:0:0:
64,192,78529,1,0,0:0:0:0:
192,192,78597,1,0,0:0:0:0:
448,192,78665,1,0,0:0:0:0:
320,192,78665,1,0,0:0:0:0:
64,192,78733,1,0,0:0:0:0:
192,192,78767,1,0,0:0:0:0:
320,192,78801,1,0,0:0:0:0:
64,192,78835,1,0,0:0:0:0:
192,192,78870,1,0,0:0:0:0:
448,192,78938,1,0,0:0:0:0:
320,192,78938,1,0,0:0:0:0:
192,192,79006,1,0,0:0:0:0:
448,192,79074,1,0,0:0:0:0:
64,192,79074,1,0,0:0:0:0:
320,192,79142,1,0,0:0:0:0:
192,192,79176,1,0,0:0:0:0:
64,192,79210,1,0,0:0:0:0:
320,192,79245,1,0,0:0:0:0:
448,192,79279,1,0,0:0:0:0:
64,192,79347,1,0,0:0:0:0:
192,192,79347,1,0,0:0:0:0:
320,192,79347,1,0,0:0:0:0:
64,192,79483,1,0,0:0:0:0:
192,192,79483,1,0,0:0:0:0:
448,192,79551,1,0,0:0:0:0:
320,192,79585,1,0,0:0:0:0:
64,192,79620,1,0,0:0:0:0:
192,192,79654,1,0,0:0:0:0:
320,192,79688,1,0,0:0:0:0:
448,192,79688,1,0,0:0:0:0:
64,192,79756,1,0,0:0:0:0:
192,192,79756,1,0,0:0:0:0:
448,192,79892,1,0,0:0:0:0:
320,192,79892,1,0,0:0:0:0:
192,192,79960,1,0,0:0:0:0:
64,192,80029,1,0,0:0:0:0:
320,192,80029,1,0,0:0:0:0:
448,192,80029,1,0,0:0:0:0:
64,192,80165,1,0,0:0:0:0:
448,192,80165,1,0,0:0:0:0:
192,192,80233,1,0,0:0:0:0:
448,192,80301,1,0,0:0:0:0:
320,192,80301,1,0,0:0:0:0:
192,192,80370,1,0,0:0:0:0:
64,192,80438,1,0,0:0:0:0:
320,192,80438,1,0,0:0:0:0:
448,192,80438,1,0,0:0:0:0:
192,192,80574,1,0,0:0:0:0:
320,192,80574,1,0,0:0:0:0:
64,192,80642,1,0,0:0:0:0:
448,192,80710,1,0,0:0:0:0:
320,192,80710,1,0,0:0:0:0:
192,192,80710,1,0,0:0:0:0:
64,192,80847,1,0,0:0:0:0:
192,192,80847,1,0,0:0:0:0:
320,192,80847,1,0,0:0:0:0:
448,192,80915,1,0,0:0:0:0:
320,192,80983,1,0,0:0:0:0:
64,192,80983,1,0,0:0:0:0:
192,192,81051,1,0,0:0:0:0:
320,192,81120,1,0,0:0:0:0:
448,192,81120,1,0,0:0:0:0:
64,192,81120,1,0,0:0:0:0:
448,192,81256,1,0,0:0:0:0:
320,192,81256,1,0,0:0:0:0:
192,192,81324,1,0,0:0:0:0:
64,192,81392,1,0,0:0:0:0:
448,192,81392,1,0,0:0:0:0:
320,192,81460,1,0,0:0:0:0:
192,192,81460,1,0,0:0:0:0:
64,192,81529,1,0,0:0:0:0:
448,192,81529,1,0,0:0:0:0:
192,192,81597,1,0,0:0:0:0:
64,192,81665,1,0,0:0:0:0:
448,192,81665,1,0,0:0:0:0:
320,192,81665,1,0,0:0:0:0:
64,192,81801,1,0,0:0:0:0:
192,192,81801,1,0,0:0:0:0:
320,192,81801,1,0,0:0:0:0:
448,192,81870,1,0,0:0:0:0:
64,192,81938,1,0,0:0:0:0:
192,192,81938,1,0,0:0:0:0:
320,192,82006,1,0,0:0:0:0:
448,192,82006,1,0,0:0:0:0:
192,192,82074,1,0,0:0:0:0:
64,192,82074,1,0,0:0:0:0:
320,192,82142,1,0,0:0:0:0:
192,192,82210,1,0,0:0:0:0:
64,192,82210,1,0,0:0:0:0:
448,192,82210,1,0,0:0:0:0:
320,192,82347,1,0,0:0:0:0:
448,192,82347,1,0,0:0:0:0:
64,192,82347,1,0,0:0:0:0:
320,192,82483,1,0,0:0:0:0:
448,192,82483,1,0,0:0:0:0:
64,192,82551,1,0,0:0:0:0:
192,192,82620,1,0,0:0:0:0:
448,192,82620,1,0,0:0:0:0:
320,192,82620,1,0,0:0:0:0:
64,192,82756,1,0,0:0:0:0:
192,192,82756,1,0,0:0:0:0:
448,192,82824,1,0,0:0:0:0:
320,192,82841,1,0,0:0:0:0:
192,192,82858,1,0,0:0:0:0:
64,192,82892,1,0,0:0:0:0:
64,192,82960,1,0,0:0:0:0:
192,192,82977,1,0,0:0:0:0:
320,192,82995,1,0,0:0:0:0:
448,192,83029,1,0,0:0:0:0:
320,192,83097,1,0,0:0:0:0:
64,192,83165,1,0,0:0:0:0:
192,192,83165,1,0,0:0:0:0:
320,192,83233,1,0,0:0:0:0:
64,192,83301,1,0,0:0:0:0:
192,192,83301,1,0,0:0:0:0:
448,192,83324,1,0,0:0:0:0:
320,192,83347,1,0,0:0:0:0:
192,192,83370,1,0,0:0:0:0:
64,192,83392,1,0,0:0:0:0:
320,192,83438,1,0,0:0:0:0:
448,192,83438,1,0,0:0:0:0:
192,192,83506,1,0,0:0:0:0:
64,192,83574,1,0,0:0:0:0:
448,192,83574,1,0,0:0:0:0:
320,192,83642,1,0,0:0:0:0:
192,192,83642,1,0,0:0:0:0:
448,192,83710,1,0,0:0:0:0:
64,192,83733,1,0,0:0:0:0:
192,192,83756,1,0,0:0:0:0:
320,192,83779,1,0,0:0:0:0:
448,192,83801,1,0,0:0:0:0:
192,192,83847,1,0,0:0:0:0:
64,192,83847,1,0,0:0:0:0:
448,192,83983,1,0,0:0:0:0:
64,192,83983,1,0,0:0:0:0:
192,192,83983,1,0,0:0:0:0:
320,192,84051,1,0,0:0:0:0:
192,192,84120,1,0,0:0:0:0:
64,192,84120,1,0,0:0:0:0:
448,192,84188,1,0,0:0:0:0:
320,192,84256,1,0,0:0:0:0:
192,192,84256,1,0,0:0:0:0:
64,192,84324,1,0,0:0:0:0:
320,192,84392,1,0,0:0:0:0:
448,192,84392,1,0,0:0:0:0:
192,192,84415,1,0,0:0:0:0:
64,192,84438,1,0,0:0:0:0:
320,192,84460,1,0,0:0:0:0:
448,192,84460,1,0,0:0:0:0:
64,192,84529,1,0,0:0:0:0:
192,192,84529,1,0,0:0:0:0:
320,192,84597,1,0,0:0:0:0:
448,192,84665,1,0,0:0:0:0:
64,192,84665,1,0,0:0:0:0:
64,192,84801,1,0,0:0:0:0:
192,192,84801,1,0,0:0:0:0:
320,192,84938,1,0,0:0:0:0:
448,192,84938,1,0,0:0:0:0:
64,192,84960,1,0,0:0:0:0:
192,192,84983,1,0,0:0:0:0:
320,192,85006,1,0,0:0:0:0:
448,192,85029,1,0,0:0:0:0:
64,192,85074,1,0,0:0:0:0:
192,192,85074,1,0,0:0:0:0:
448,192,85142,1,0,0:0:0:0:
192,192,85210,1,0,0:0:0:0:
64,192,85210,1,0,0:0:0:0:
320,192,85279,1,0,0:0:0:0:
448,192,85347,1,0,0:0:0:0:
64,192,85347,1,0,0:0:0:0:
192,192,85415,1,0,0:0:0:0:
64,192,85483,1,0,0:0:0:0:
320,192,85483,1,0,0:0:0:0:
448,192,85483,1,0,0:0:0:0:
320,192,85551,1,0,0:0:0:0:
448,192,85551,1,0,0:0:0:0:
64,192,85620,1,0,0:0:0:0:
192,192,85620,1,0,0:0:0:0:
448,192,85756,1,0,0:0:0:0:
64,192,85756,1,0,0:0:0:0:
320,192,85824,1,0,0:0:0:0:
192,192,85892,1,0,0:0:0:0:
64,192,85892,1,0,0:0:0:0:
448,192,85892,1,0,0:0:0:0:
64,192,86029,1,0,0:0:0:0:
320,192,86029,1,0,0:0:0:0:
192,192,86029,1,0,0:0:0:0:
448,192,86165,1,0,0:0:0:0:
320,192,86165,1,0,0:0:0:0:
64,192,86301,1,0,0:0:0:0:
448,192,86301,1,0,0:0:0:0:
192,192,86370,1,0,0:0:0:0:
320,192,86438,1,0,0:0:0:0:
448,192,86438,1,0,0:0:0:0:
64,192,86472,1,0,0:0:0:0:
192,192,86506,1,0,0:0:0:0:
448,192,86540,1,0,0:0:0:0:
320,192,86574,1,0,0:0:0:0:
64,192,86574,1,0,0:0:0:0:
192,192,86642,1,0,0:0:0:0:
320,192,86710,1,0,0:0:0:0:
448,192,86710,1,0,0:0:0:0:
64,192,86847,1,0,0:0:0:0:
192,192,86847,1,0,0:0:0:0:
448,192,86847,1,0,0:0:0:0:
64,192,86915,1,0,0:0:0:0:
320,192,86983,1,0,0:0:0:0:
448,192,87051,1,0,0:0:0:0:
192,192,87120,1,0,0:0:0:0:
64,192,87120,1,0,0:0:0:0:
320,192,87188,1,0,0:0:0:0:
448,192,87188,1,0,0:0:0:0:
192,192,87256,1,0,0:0:0:0:
64,192,87256,1,0,0:0:0:0:
320,192,87324,1,0,0:0:0:0:
448,192,87324,1,0,0:0:0:0:
64,192,87392,128,0,87665:0:0:0:0:
320,192,87665,128,0,87938:0:0:0:0:
192,192,87938,128,0,88210:0:0:0:0:
320,192,88210,128,0,88483:0:0:0:0:
64,192,88483,128,0,88756:0:0:0:0:
320,192,88756,128,0,89029:0:0:0:0:
64,192,89029,128,0,89301:0:0:0:0:
192,192,89029,1,0,0:0:0:0:
448,192,89301,128,0,89574:0:0:0:0:
320,192,89301,1,0,0:0:0:0:
64,192,89574,1,0,0:0:0:0:
192,192,89574,1,0,0:0:0:0:
448,192,89642,1,0,0:0:0:0:
320,192,89676,1,0,0:0:0:0:
192,192,89710,1,0,0:0:0:0:
64,192,89710,1,0,0:0:0:0:
448,192,89745,1,0,0:0:0:0:
320,192,89779,1,0,0:0:0:0:
192,192,89813,1,0,0:0:0:0:
64,192,89847,1,0,0:0:0:0:
448,192,89847,1,0,0:0:0:0:
448,192,89983,1,0,0:0:0:0:
320,192,89983,1,0,0:0:0:0:
64,192,90051,1,0,0:0:0:0:
192,192,90085,1,0,0:0:0:0:
320,192,90120,1,0,0:0:0:0:
448,192,90120,1,0,0:0:0:0:
64,192,90154,1,0,0:0:0:0:
192,192,90188,1,0,0:0:0:0:
320,192,90222,1,0,0:0:0:0:
448,192,90256,1,0,0:0:0:0:
64,192,90256,1,0,0:0:0:0:
448,192,90392,1,0,0:0:0:0:
320,192,90392,1,0,0:0:0:0:
64,192,90392,1,0,0:0:0:0:
192,192,90529,1,0,0:0:0:0:
64,192,90529,1,0,0:0:0:0:
192,192,90597,1,0,0:0:0:0:
64,192,90597,1,0,0:0:0:0:
448,192,90665,1,0,0:0:0:0:
320,192,90665,1,0,0:0:0:0:
64,192,90733,1,0,0:0:0:0:
192,192,90767,1,0,0:0:0:0:
320,192,90801,1,0,0:0:0:0:
448,192,90801,1,0,0:0:0:0:
64,192,90835,1,0,0:0:0:0:
192,192,90870,1,0,0:0:0:0:
448,192,90870,1,0,0:0:0:0:
320,192,90904,1,0,0:0:0:0:
192,192,90938,1,0,0:0:0:0:
64,192,90938,1,0,0:0:0:0:
192,192,91074,1,0,0:0:0:0:
64,192,91074,1,0,0:0:0:0:
448,192,91142,1,0,0:0:0:0:
320,192,91176,1,0,0:0:0:0:
64,192,91210,1,0,0:0:0:0:
192,192,91210,1,0,0:0:0:0:
320,192,91245,1,0,0:0:0:0:
448,192,91279,1,0,0:0:0:0:
64,192,91279,1,0,0:0:0:0:
192,192,91313,1,0,0:0:0:0:
320,192,91347,1,0,0:0:0:0:
448,192,91347,1,0,0:0:0:0:
192,192,91483,1,0,0:0:0:0:
64,192,91483,1,0,0:0:0:0:
448,192,91551,1,0,0:0:0:0:
320,192,91585,1,0,0:0:0:0:
64,192,91620,1,0,0:0:0:0:
192,192,91620,1,0,0:0:0:0:
320,192,91654,1,0,0:0:0:0:
448,192,91688,1,0,0:0:0:0:
64,192,91722,1,0,0:0:0:0:
192,192,91756,1,0,0:0:0:0:
320,192,91756,1,0,0:0:0:0:
448,192,91824,1,0,0:0:0:0:
320,192,91858,1,0,0:0:0:0:
64,192,91892,1,0,0:0:0:0:
192,192,91926,1,0,0:0:0:0:
320,192,91960,1,0,0:0:0:0:
448,192,91995,1,0,0:0:0:0:
192,192,92029,1,0,0:0:0:0:
64,192,92029,1,0,0:0:0:0:
64,192,92165,1,0,0:0:0:0:
192,192,92165,1,0,0:0:0:0:
448,192,92233,1,0,0:0:0:0:
320,192,92267,1,0,0:0:0:0:
64,192,92301,1,0,0:0:0:0:
192,192,92335,1,0,0:0:0:0:
320,192,92370,1,0,0:0:0:0:
448,192,92404,1,0,0:0:0:0:
64,192,92438,1,0,0:0:0:0:
192,192,92438,1,0,0:0:0:0:
320,192,92574,1,0,0:0:0:0:
192,192,92574,1,0,0:0:0:0:
448,192,92574,1,0,0:0:0:0:
64,192,92710,1,0,0:0:0:0:
320,192,92710,1,0,0:0:0:0:
448,192,92847,1,0,0:0:0:0:
64,192,92847,1,0,0:0:0:0:
192,192,92847,1,0,0:0:0:0:
448,192,92983,1,0,0:0:0:0:
320,192,92983,1,0,0:0:0:0:
192,192,93017,1,0,0:0:0:0:
64,192,93051,1,0,0:0:0:0:
448,192,93120,1,0,0:0:0:0:
320,192,93154,1,0,0:0:0:0:
192,192,93188,1,0,0:0:0:0:
64,192,93222,1,0,0:0:0:0:
320,192,93256,1,0,0:0:0:0:
448,192,93256,1,0,0:0:0:0:
64,192,93324,1,0,0:0:0:0:
192,192,93358,1,0,0:0:0:0:
320,192,93392,1,0,0:0:0:0:
448,192,93392,1,0,0:0:0:0:
64,192,93426,1,0,0:0:0:0:
192,192,93460,1,0,0:0:0:0:
448,192,93495,1,0,0:0:0:0:
320,192,93529,1,0,0:0:0:0:
64,192,93563,1,0,0:0:0:0:
192,192,93597,1,0,0:0:0:0:
320,192,93631,1,0,0:0:0:0:
448,192,93665,1,0,0:0:0:0:
64,192,93665,1,0,0:0:0:0:
192,192,93733,1,0,0:0:0:0:
320,192,93733,1,0,0:0:0:0:
64,192,93801,1,0,0:0:0:0:
448,192,93801,1,0,0:0:0:0:
192,192,93870,1,0,0:0:0:0:
64,192,93938,1,0,0:0:0:0:
448,192,93938,1,0,0:0:0:0:
320,192,93938,1,0,0:0:0:0:
192,192,94006,1,0,0:0:0:0:
320,192,94074,1,0,0:0:0:0:
448,192,94074,1,0,0:0:0:0:
192,192,94210,1,0,0:0:0:0:
64,192,94210,1,0,0:0:0:0:
320,192,94245,1,0,0:0:0:0:
448,192,94279,1,0,0:0:0:0:
64,192,94313,1,0,0:0:0:0:
192,192,94347,1,0,0:0:0:0:
320,192,94347,1,0,0:0:0:0:
448,192,94415,1,0,0:0:0:0:
64,192,94415,1,0,0:0:0:0:
192,192,94483,1,0,0:0:0:0:
320,192,94483,1,0,0:0:0:0:
448,192,94620,1,0,0:0:0:0:
320,192,94620,1,0,0:0:0:0:
64,192,94654,1,0,0:0:0:0:
192,192,94688,1,0,0:0:0:0:
448,192,94756,1,0,0:0:0:0:
320,192,94756,1,0,0:0:0:0:
64,192,94892,1,0,0:0:0:0:
192,192,94892,1,0,0:0:0:0:
448,192,94926,1,0,0:0:0:0:
320,192,94960,1,0,0:0:0:0:
64,192,94995,1,0,0:0:0:0:
448,192,95029,1,0,0:0:0:0:
192,192,95029,1,0,0:0:0:0:
320,192,95097,1,0,0:0:0:0:
64,192,95131,1,0,0:0:0:0:
448,192,95165,1,0,0:0:0:0:
64,192,95301,1,0,0:0:0:0:
192,192,95301,1,0,0:0:0:0:
320,192,95301,1,0,0:0:0:0:
448,192,95438,1,0,0:0:0:0:
64,192,95438,1,0,0:0:0:0:
320,192,95506,1,0,0:0:0:0:
64,192,95574,1,0,0:0:0:0:
192,192,95574,1,0,0:0:0:0:
448,192,95642,1,0,0:0:0:0:
320,192,95665,1,0,0:0:0:0:
192,192,95688,1,0,0:0:0:0:
64,192,95710,1,0,0:0:0:0:
320,192,95847,1,0,0:0:0:0:
448,192,95847,1,0,0:0:0:0:
64,192,95870,1,0,0:0:0:0:
192,192,95892,1,0,0:0:0:0:
320,192,95915,1,0,0:0:0:0:
448,192,95938,1,0,0:0:0:0:
64,192,96006,1,0,0:0:0:0:
192,192,96029,1,0,0:0:0:0:
320,192,96051,1,0,0:0:0:0:
448,192,96074,1,0,0:0:0:0:
64,192,96120,1,0,0:0:0:0:
192,192,96120,1,0,0:0:0:0:
320,192,96188,1,0,0:0:0:0:
448,192,96222,1,0,0:0:0:0:
64,192,96256,1,0,0:0:0:0:
192,192,96290,1,0,0:0:0:0:
320,192,96324,1,0,0:0:0:0:
448,192,96358,1,0,0:0:0:0:
64,192,96392,1,0,0:0:0:0:
192,192,96392,1,0,0:0:0:0:
448,192,96529,1,0,0:0:0:0:
320,192,96529,1,0,0:0:0:0:
64,192,96597,1,0,0:0:0:0:
192,192,96631,1,0,0:0:0:0:
448,192,96665,1,0,0:0:0:0:
320,192,96699,1,0,0:0:0:0:
64,192,96733,1,0,0:0:0:0:
192,192,96767,1,0,0:0:0:0:
320,192,96801,1,0,0:0:0:0:
448,192,96801,1,0,0:0:0:0:
64,192,96870,1,0,0:0:0:0:
192,192,96938,1,0,0:0:0:0:
320,192,96938,1,0,0:0:0:0:
448,192,97006,1,0,0:0:0:0:
64,192,97074,1,0,0:0:0:0:
192,192,97108,1,0,0:0:0:0:
448,192,97142,1,0,0:0:0:0:
320,192,97176,1,0,0:0:0:0:
64,192,97210,1,0,0:0:0:0:
192,192,97210,1,0,0:0:0:0:
448,192,97245,1,0,0:0:0:0:
320,192,97279,1,0,0:0:0:0:
192,192,97313,1,0,0:0:0:0:
64,192,97347,1,0,0:0:0:0:
448,192,97347,1,0,0:0:0:0:
320,192,97415,1,0,0:0:0:0:
192,192,97415,1,0,0:0:0:0:
64,192,97483,1,0,0:0:0:0:
448,192,97483,1,0,0:0:0:0:
192,192,97620,1,0,0:0:0:0:
64,192,97620,1,0,0:0:0:0:
320,192,97654,1,0,0:0:0:0:
448,192,97688,1,0,0:0:0:0:
192,192,97756,1,0,0:0:0:0:
64,192,97756,1,0,0:0:0:0:
192,192,97824,1,0,0:0:0:0:
64,192,97824,1,0,0:0:0:0:
448,192,97892,1,0,0:0:0:0:
320,192,97892,1,0,0:0:0:0:
192,192,98029,1,0,0:0:0:0:
64,192,98029,1,0,0:0:0:0:
64,192,98097,1,0,0:0:0:0:
192,192,98097,1,0,0:0:0:0:
320,192,98165,1,0,0:0:0:0:
448,192,98165,1,0,0:0:0:0:
192,192,98233,1,0,0:0:0:0:
64,192,98233,1,0,0:0:0:0:
320,192,98301,1,0,0:0:0:0:
448,192,98301,1,0,0:0:0:0:
64,192,98370,1,0,0:0:0:0:
192,192,98404,1,0,0:0:0:0:
448,192,98438,1,0,0:0:0:0:
64,192,98472,1,0,0:0:0:0:
320,192,98506,1,0,0:0:0:0:
192,192,98540,1,0,0:0:0:0:
448,192,98574,1,0,0:0:0:0:
64,192,98574,1,0,0:0:0:0:
192,192,98710,1,0,0:0:0:0:
320,192,98710,1,0,0:0:0:0:
64,192,98710,1,0,0:0:0:0:
448,192,98779,1,0,0:0:0:0:
320,192,98847,1,0,0:0:0:0:
192,192,98847,1,0,0:0:0:0:
64,192,98881,1,0,0:0:0:0:
448,192,98915,1,0,0:0:0:0:
320,192,98949,1,0,0:0:0:0:
192,192,98983,1,0,0:0:0:0:
64,192,98983,1,0,0:0:0:0:
448,192,99051,1,0,0:0:0:0:
320,192,99120,1,0,0:0:0:0:
64,192,99120,1,0,0:0:0:0:
192,192,99120,1,0,0:0:0:0:
320,192,99256,1,0,0:0:0:0:
448,192,99256,1,0,0:0:0:0:
64,192,99392,1,0,0:0:0:0:
192,192,99392,1,0,0:0:0:0:
448,192,99460,1,0,0:0:0:0:
320,192,99483,1,0,0:0:0:0:
192,192,99506,1,0,0:0:0:0:
64,192,99529,1,0,0:0:0:0:
448,192,99665,1,0,0:0:0:0:
64,192,99665,1,0,0:0:0:0:
192,192,99699,1,0,0:0:0:0:
320,192,99733,1,0,0:0:0:0:
448,192,99767,1,0,0:0:0:0:
192,192,99801,1,0,0:0:0:0:
64,192,99801,1,0,0:0:0:0:
448,192,99870,1,0,0:0:0:0:
320,192,99892,1,0,0:0:0:0:
192,192,99915,1,0,0:0:0:0:
64,192,99938,1,0,0:0:0:0:
448,192,100074,1,0,0:0:0:0:
64,192,100074,1,0,0:0:0:0:
320,192,100108,1,0,0:0:0:0:
192,192,100142,1,0,0:0:0:0:
64,192,100176,1,0,0:0:0:0:
448,192,100210,1,0,0:0:0:0:
320,192,100210,1,0,0:0:0:0:
192,192,100279,1,0,0:0:0:0:
448,192,100347,1,0,0:0:0:0:
320,192,100347,1,0,0:0:0:0:
64,192,100415,1,0,0:0:0:0:
448,192,100483,1,0,0:0:0:0:
320,192,100483,1,0,0:0:0:0:
192,192,100483,1,0,0:0:0:0:
64,192,100551,1,0,0:0:0:0:
192,192,100585,1,0,0:0:0:0:
448,192,100620,1,0,0:0:0:0:
320,192,100654,1,0,0:0:0:0:
64,192,100688,1,0,0:0:0:0:
192,192,100722,1,0,0:0:0:0:
320,192,100756,1,0,0:0:0:0:
448,192,100756,1,0,0:0:0:0:
64,192,100892,1,0,0:0:0:0:
192,192,100892,1,0,0:0:0:0:
448,192,100960,1,0,0:0:0:0:
320,192,100995,1,0,0:0:0:0:
64,192,101029,1,0,0:0:0:0:
192,192,101029,1,0,0:0:0:0:
320,192,101063,1,0,0:0:0:0:
448,192,101097,1,0,0:0:0:0:
64,192,101097,1,0,0:0:0:0:
192,192,101131,1,0,0:0:0:0:
320,192,101165,1,0,0:0:0:0:
448,192,101165,1,0,0:0:0:0:
64,192,101301,1,0,0:0:0:0:
448,192,101301,1,0,0:0:0:0:
192,192,101370,1,0,0:0:0:0:
64,192,101438,1,0,0:0:0:0:
448,192,101438,1,0,0:0:0:0:
320,192,101438,1,0,0:0:0:0:
192,192,101574,1,0,0:0:0:0:
64,192,101574,1,0,0:0:0:0:
320,192,101608,1,0,0:0:0:0:
448,192,101642,1,0,0:0:0:0:
64,192,101710,1,0,0:0:0:0:
192,192,101710,1,0,0:0:0:0:
320,192,101745,1,0,0:0:0:0:
448,192,101779,1,0,0:0:0:0:
64,192,101847,1,0,0:0:0:0:
192,192,101847,1,0,0:0:0:0:
320,192,101847,1,0,0:0:0:0:
448,192,101983,1,0,0:0:0:0:
320,192,101983,1,0,0:0:0:0:
192,192,102017,1,0,0:0:0:0:
64,192,102051,1,0,0:0:0:0:
448,192,102120,1,0,0:0:0:0:
320,192,102120,1,0,0:0:0:0:
192,192,102154,1,0,0:0:0:0:
64,192,102188,1,0,0:0:0:0:
448,192,102256,1,0,0:0:0:0:
320,192,102256,1,0,0:0:0:0:
192,192,102256,1,0,0:0:0:0:
64,192,102392,1,0,0:0:0:0:
448,192,102392,1,0,0:0:0:0:
192,192,102460,1,0,0:0:0:0:
448,192,102529,1,0,0:0:0:0:
320,192,102563,1,0,0:0:0:0:
192,192,102597,1,0,0:0:0:0:
64,192,102631,1,0,0:0:0:0:
320,192,102665,1,0,0:0:0:0:
448,192,102665,1,0,0:0:0:0:
192,192,102699,1,0,0:0:0:0:
64,192,102733,1,0,0:0:0:0:
448,192,102801,1,0,0:0:0:0:
320,192,102801,1,0,0:0:0:0:
192,192,102835,1,0,0:0:0:0:
64,192,102870,1,0,0:0:0:0:
192,192,102938,1,0,0:0:0:0:
448,192,102938,1,0,0:0:0:0:
320,192,102938,1,0,0:0:0:0:
192,192,103074,1,0,0:0:0:0:
64,192,103074,1,0,0:0:0:0:
320,192,103108,5,0,0:0:0:0:
448,192,103142,1,0,0:0:0:0:
64,192,103210,1,0,0:0:0:0:
192,192,103210,1,0,0:0:0:0:
320,192,103245,1,0,0:0:0:0:
448,192,103279,1,0,0:0:0:0:
192,192,103347,1,0,0:0:0:0:
64,192,103347,1,0,0:0:0:0:
320,192,103347,1,0,0:0:0:0:
448,192,103483,1,0,0:0:0:0:
320,192,103483,1,0,0:0:0:0:
64,192,103551,1,0,0:0:0:0:
192,192,103551,1,0,0:0:0:0:
448,192,103620,1,0,0:0:0:0:
320,192,103654,1,0,0:0:0:0:
192,192,103688,1,0,0:0:0:0:
64,192,103722,1,0,0:0:0:0:
320,192,103756,1,0,0:0:0:0:
448,192,103756,1,0,0:0:0:0:
448,192,103824,1,0,0:0:0:0:
192,192,103892,1,0,0:0:0:0:
64,192,103892,1,0,0:0:0:0:
64,192,103960,1,0,0:0:0:0:
448,192,104029,1,0,0:0:0:0:
320,192,104029,1,0,0:0:0:0:
320,192,104097,1,0,0:0:0:0:
192,192,104165,1,0,0:0:0:0:
64,192,104165,1,0,0:0:0:0:
192,192,104233,1,0,0:0:0:0:
320,192,104301,5,0,0:0:0:0:
448,192,104301,1,0,0:0:0:0:
64,192,104370,1,0,0:0:0:0:
192,192,104370,1,0,0:0:0:0:
320,192,104438,1,0,0:0:0:0:
448,192,104438,1,0,0:0:0:0:
192,192,104506,1,0,0:0:0:0:
64,192,104506,1,0,0:0:0:0:
448,192,104574,1,0,0:0:0:0:
320,192,104608,1,0,0:0:0:0:
64,192,104642,1,0,0:0:0:0:
192,192,104676,1,0,0:0:0:0:
448,192,104710,1,0,0:0:0:0:
320,192,104745,1,0,0:0:0:0:
64,192,104779,1,0,0:0:0:0:
192,192,104813,1,0,0:0:0:0:
448,192,104847,1,0,0:0:0:0:
320,192,104847,1,0,0:0:0:0:
64,192,105120,1,0,0:0:0:0:
192,192,105154,1,0,0:0:0:0:
320,192,105188,1,0,0:0:0:0:
448,192,105222,1,0,0:0:0:0:
64,192,105256,1,0,0:0:0:0:
192,192,105290,1,0,0:0:0:0:
320,192,105324,1,0,0:0:0:0:
448,192,105358,1,0,0:0:0:0:
64,192,105392,1,0,0:0:0:0:
192,192,105392,1,0,0:0:0:0:
320,192,105426,1,0,0:0:0:0:
448,192,105460,1,0,0:0:0:0:
64,192,105495,1,0,0:0:0:0:
192,192,105529,1,0,0:0:0:0:
320,192,105563,1,0,0:0:0:0:
448,192,105597,1,0,0:0:0:0:
64,192,105631,1,0,0:0:0:0:
192,192,105665,1,0,0:0:0:0:
320,192,105699,1,0,0:0:0:0:
448,192,105733,1,0,0:0:0:0:
64,192,105767,1,0,0:0:0:0:
192,192,105801,1,0,0:0:0:0:
320,192,105835,1,0,0:0:0:0:
448,192,105870,1,0,0:0:0:0:
64,192,105904,1,0,0:0:0:0:
192,192,105938,1,0,0:0:0:0:
320,192,105938,1,0,0:0:0:0:
448,192,105972,1,0,0:0:0:0:
64,192,106006,1,0,0:0:0:0:
192,192,106040,1,0,0:0:0:0:
320,192,106074,1,0,0:0:0:0:
448,192,106108,1,0,0:0:0:0:
64,192,106142,1,0,0:0:0:0:
192,192,106176,1,0,0:0:0:0:
320,192,106210,1,0,0:0:0:0:
448,192,106245,1,0,0:0:0:0:
64,192,106279,1,0,0:0:0:0:
192,192,106313,1,0,0:0:0:0:
320,192,106347,1,0,0:0:0:0:
448,192,106381,1,0,0:0:0:0:
64,192,106415,1,0,0:0:0:0:
192,192,106449,1,0,0:0:0:0:
320,192,106483,1,0,0:0:0:0:
448,192,106483,1,0,0:0:0:0:
64,192,106517,1,0,0:0:0:0:
192,192,106551,1,0,0:0:0:0:
320,192,106585,1,0,0:0:0:0:
448,192,106620,1,0,0:0:0:0:
64,192,106654,1,0,0:0:0:0:
192,192,106688,1,0,0:0:0:0:
320,192,106722,1,0,0:0:0:0:
448,192,106756,1,0,0:0:0:0:
64,192,106790,1,0,0:0:0:0:
192,192,106824,1,0,0:0:0:0:
320,192,106858,1,0,0:0:0:0:
448,192,106892,1,0,0:0:0:0:
64,192,106926,1,0,0:0:0:0:
192,192,106960,1,0,0:0:0:0:
320,192,106995,1,0,0:0:0:0:
448,192,107029,1,0,0:0:0:0:
64,192,107029,1,0,0:0:0:0:
192,192,107063,1,0,0:0:0:0:
320,192,107097,1,0,0:0:0:0:
448,192,107131,1,0,0:0:0:0:
64,192,107165,1,0,0:0:0:0:
192,192,107199,1,0,0:0:0:0:
320,192,107233,1,0,0:0:0:0:
448,192,107267,1,0,0:0:0:0:
64,192,107301,1,0,0:0:0:0:
192,192,107335,1,0,0:0:0:0:
320,192,107370,1,0,0:0:0:0:
448,192,107404,1,0,0:0:0:0:
64,192,107438,1,0,0:0:0:0:
192,192,107472,1,0,0:0:0:0:
320,192,107506,1,0,0:0:0:0:
448,192,107540,1,0,0:0:0:0:
64,192,107574,1,0,0:0:0:0:
192,192,107574,1,0,0:0:0:0:
320,192,107608,1,0,0:0:0:0:
448,192,107642,1,0,0:0:0:0:
64,192,107676,1,0,0:0:0:0:
192,192,107710,1,0,0:0:0:0:
320,192,107745,1,0,0:0:0:0:
448,192,107779,1,0,0:0:0:0:
64,192,107813,1,0,0:0:0:0:
192,192,107847,1,0,0:0:0:0:
320,192,107881,1,0,0:0:0:0:
448,192,107915,1,0,0:0:0:0:
64,192,107949,1,0,0:0:0:0:
192,192,107983,1,0,0:0:0:0:
320,192,108017,1,0,0:0:0:0:
448,192,108051,1,0,0:0:0:0:
64,192,108085,1,0,0:0:0:0:
192,192,108120,1,0,0:0:0:0:
320,192,108120,1,0,0:0:0:0:
448,192,108154,1,0,0:0:0:0:
64,192,108188,1,0,0:0:0:0:
192,192,108222,1,0,0:0:0:0:
320,192,108256,1,0,0:0:0:0:
448,192,108290,1,0,0:0:0:0:
64,192,108324,1,0,0:0:0:0:
192,192,108358,1,0,0:0:0:0:
320,192,108392,1,0,0:0:0:0:
448,192,108426,1,0,0:0:0:0:
64,192,108460,1,0,0:0:0:0:
192,192,108495,1,0,0:0:0:0:
320,192,108529,1,0,0:0:0:0:
448,192,108563,1,0,0:0:0:0:
64,192,108597,1,0,0:0:0:0:
192,192,108631,1,0,0:0:0:0:
320,192,108665,1,0,0:0:0:0:
448,192,108665,1,0,0:0:0:0:
64,192,108801,1,0,0:0:0:0:
192,192,108835,1,0,0:0:0:0:
320,192,108870,1,0,0:0:0:0:
448,192,108904,1,0,0:0:0:0:
192,192,108938,1,0,0:0:0:0:
64,192,108938,1,0,0:0:0:0:
448,192,109074,1,0,0:0:0:0:
320,192,109108,1,0,0:0:0:0:
192,192,109142,1,0,0:0:0:0:
64,192,109176,1,0,0:0:0:0:
448,192,109210,1,0,0:0:0:0:
320,192,109210,1,0,0:0:0:0:
64,192,109324,1,0,0:0:0:0:
192,192,109347,1,0,0:0:0:0:
320,192,109370,1,0,0:0:0:0:
448,192,109392,1,0,0:0:0:0:
64,192,109483,1,0,0:0:0:0:
192,192,109517,1,0,0:0:0:0:
320,192,109551,1,0,0:0:0:0:
448,192,109585,1,0,0:0:0:0:
64,192,109620,1,0,0:0:0:0:
192,192,109654,1,0,0:0:0:0:
320,192,109688,1,0,0:0:0:0:
448,192,109722,1,0,0:0:0:0:
64,192,109756,1,0,0:0:0:0:
192,192,109756,1,0,0:0:0:0:
320,192,109790,1,0,0:0:0:0:
448,192,109824,1,0,0:0:0:0:
64,192,109858,1,0,0:0:0:0:
192,192,109892,1,0,0:0:0:0:
320,192,109926,1,0,0:0:0:0:
448,192,109960,1,0,0:0:0:0:
64,192,109995,1,0,0:0:0:0:
192,192,110029,1,0,0:0:0:0:
320,192,110063,1,0,0:0:0:0:
448,192,110097,1,0,0:0:0:0:
64,192,110131,1,0,0:0:0:0:
192,192,110165,1,0,0:0:0:0:
320,192,110199,1,0,0:0:0:0:
448,192,110233,1,0,0:0:0:0:
64,192,110267,1,0,0:0:0:0:
192,192,110301,1,0,0:0:0:0:
320,192,110301,1,0,0:0:0:0:
448,192,110335,1,0,0:0:0:0:
64,192,110370,1,0,0:0:0:0:
192,192,110404,1,0,0:0:0:0:
320,192,110438,1,0,0:0:0:0:
448,192,110472,1,0,0:0:0:0:
64,192,110506,1,0,0:0:0:0:
192,192,110540,1,0,0:0:0:0:
320,192,110574,1,0,0:0:0:0:
448,192,110608,1,0,0:0:0:0:
64,192,110642,1,0,0:0:0:0:
192,192,110676,1,0,0:0:0:0:
320,192,110710,1,0,0:0:0:0:
448,192,110745,1,0,0:0:0:0:
64,192,110779,1,0,0:0:0:0:
192,192,110813,1,0,0:0:0:0:
320,192,110847,1,0,0:0:0:0:
448,192,110847,1,0,0:0:0:0:
64,192,110881,1,0,0:0:0:0:
192,192,110915,1,0,0:0:0:0:
320,192,110949,1,0,0:0:0:0:
448,192,110983,1,0,0:0:0:0:
64,192,111017,1,0,0:0:0:0:
192,192,111051,1,0,0:0:0:0:
320,192,111085,1,0,0:0:0:0:
448,192,111120,1,0,0:0:0:0:
64,192,111154,1,0,0:0:0:0:
192,192,111188,1,0,0:0:0:0:
320,192,111222,1,0,0:0:0:0:
448,192,111256,1,0,0:0:0:0:
64,192,111290,1,0,0:0:0:0:
192,192,111324,1,0,0:0:0:0:
320,192,111358,1,0,0:0:0:0:
448,192,111392,1,0,0:0:0:0:
64,192,111392,1,0,0:0:0:0:
192,192,111426,1,0,0:0:0:0:
320,192,111460,1,0,0:0:0:0:
448,192,111495,1,0,0:0:0:0:
64,192,111529,1,0,0:0:0:0:
192,192,111563,1,0,0:0:0:0:
320,192,111597,1,0,0:0:0:0:
448,192,111631,1,0,0:0:0:0:
64,192,111665,1,0,0:0:0:0:
192,192,111699,1,0,0:0:0:0:
320,192,111733,1,0,0:0:0:0:
448,192,111767,1,0,0:0:0:0:
64,192,111801,1,0,0:0:0:0:
192,192,111835,1,0,0:0:0:0:
320,192,111870,1,0,0:0:0:0:
448,192,111904,1,0,0:0:0:0:
64,192,111938,1,0,0:0:0:0:
192,192,111938,1,0,0:0:0:0:
320,192,111972,1,0,0:0:0:0:
448,192,112006,1,0,0:0:0:0:
64,192,112040,1,0,0:0:0:0:
192,192,112074,1,0,0:0:0:0:
320,192,112108,1,0,0:0:0:0:
448,192,112142,1,0,0:0:0:0:
64,192,112176,1,0,0:0:0:0:
192,192,112210,1,0,0:0:0:0:
320,192,112245,1,0,0:0:0:0:
448,192,112279,1,0,0:0:0:0:
64,192,112313,1,0,0:0:0:0:
192,192,112347,1,0,0:0:0:0:
320,192,112381,1,0,0:0:0:0:
448,192,112415,1,0,0:0:0:0:
64,192,112449,1,0,0:0:0:0:
192,192,112483,1,0,0:0:0:0:
320,192,112483,1,0,0:0:0:0:
448,192,112517,1,0,0:0:0:0:
64,192,112551,1,0,0:0:0:0:
192,192,112585,1,0,0:0:0:0:
320,192,112620,1,0,0:0:0:0:
448,192,112654,1,0,0:0:0:0:
64,192,112688,1,0,0:0:0:0:
192,192,112722,1,0,0:0:0:0:
320,192,112756,1,0,0:0:0:0:
448,192,112790,1,0,0:0:0:0:
64,192,112824,1,0,0:0:0:0:
192,192,112858,1,0,0:0:0:0:
320,192,112892,1,0,0:0:0:0:
448,192,112926,1,0,0:0:0:0:
64,192,112960,1,0,0:0:0:0:
192,192,112995,1,0,0:0:0:0:
320,192,113029,1,0,0:0:0:0:
448,192,113029,1,0,0:0:0:0:
448,192,113165,1,0,0:0:0:0:
64,192,113165,1,0,0:0:0:0:
64,192,113301,1,0,0:0:0:0:
320,192,113301,1,0,0:0:0:0:
448,192,113438,1,0,0:0:0:0:
320,192,113438,1,0,0:0:0:0:
64,192,113574,1,0,0:0:0:0:
192,192,113574,1,0,0:0:0:0:
448,192,113665,1,0,0:0:0:0:
320,192,113688,1,0,0:0:0:0:
192,192,113710,1,0,0:0:0:0:
64,192,113733,1,0,0:0:0:0:
448,192,113847,1,0,0:0:0:0:
320,192,113881,1,0,0:0:0:0:
192,192,113915,1,0,0:0:0:0:
64,192,113949,1,0,0:0:0:0:
448,192,113983,1,0,0:0:0:0:
320,192,114017,1,0,0:0:0:0:
192,192,114051,1,0,0:0:0:0:
64,192,114085,1,0,0:0:0:0:
448,192,114120,1,0,0:0:0:0:
320,192,114120,1,0,0:0:0:0:
192,192,114154,1,0,0:0:0:0:
64,192,114188,1,0,0:0:0:0:
448,192,114222,1,0,0:0:0:0:
320,192,114256,1,0,0:0:0:0:
192,192,114290,1,0,0:0:0:0:
64,192,114324,1,0,0:0:0:0:
448,192,114358,1,0,0:0:0:0:
320,192,114392,1,0,0:0:0:0:
192,192,114426,1,0,0:0:0:0:
64,192,114460,1,0,0:0:0:0:
448,192,114495,1,0,0:0:0:0:
320,192,114529,1,0,0:0:0:0:
192,192,114563,1,0,0:0:0:0:
64,192,114597,1,0,0:0:0:0:
448,192,114631,1,0,0:0:0:0:
320,192,114665,1,0,0:0:0:0:
192,192,114665,1,0,0:0:0:0:
64,192,114699,1,0,0:0:0:0:
448,192,114733,1,0,0:0:0:0:
320,192,114767,1,0,0:0:0:0:
192,192,114801,1,0,0:0:0:0:
64,192,114835,1,0,0:0:0:0:
448,192,114870,1,0,0:0:0:0:
320,192,114904,1,0,0:0:0:0:
192,192,114938,1,0,0:0:0:0:
64,192,114972,1,0,0:0:0:0:
448,192,115006,1,0,0:0:0:0:
320,192,115040,1,0,0:0:0:0:
192,192,115074,1,0,0:0:0:0:
64,192,115108,1,0,0:0:0:0:
448,192,115142,1,0,0:0:0:0:
320,192,115176,1,0,0:0:0:0:
192,192,115210,1,0,0:0:0:0:
64,192,115210,1,0,0:0:0:0:
448,192,115245,1,0,0:0:0:0:
320,192,115279,1,0,0:0:0:0:
192,192,115313,1,0,0:0:0:0:
64,192,115347,1,0,0:0:0:0:
448,192,115381,1,0,0:0:0:0:
320,192,115415,1,0,0:0:0:0:
192,192,115449,1,0,0:0:0:0:
64,192,115483,1,0,0:0:0:0:
448,192,115517,1,0,0:0:0:0:
320,192,115551,1,0,0:0:0:0:
192,192,115585,1,0,0:0:0:0:
64,192,115620,1,0,0:0:0:0:
448,192,115654,1,0,0:0:0:0:
320,192,115688,1,0,0:0:0:0:
192,192,115722,1,0,0:0:0:0:
64,192,115756,1,0,0:0:0:0:
448,192,115756,1,0,0:0:0:0:
320,192,115790,1,0,0:0:0:0:
192,192,115824,1,0,0:0:0:0:
64,192,115858,1,0,0:0:0:0:
448,192,115892,1,0,0:0:0:0:
320,192,115926,1,0,0:0:0:0:
192,192,115960,1,0,0:0:0:0:
64,192,115995,1,0,0:0:0:0:
448,192,116029,1,0,0:0:0:0:
320,192,116063,1,0,0:0:0:0:
192,192,116097,1,0,0:0:0:0:
64,192,116131,1,0,0:0:0:0:
448,192,116165,1,0,0:0:0:0:
320,192,116199,1,0,0:0:0:0:
192,192,116233,1,0,0:0:0:0:
64,192,116267,1,0,0:0:0:0:
448,192,116301,1,0,0:0:0:0:
320,192,116301,1,0,0:0:0:0:
192,192,116335,1,0,0:0:0:0:
64,192,116370,1,0,0:0:0:0:
448,192,116404,1,0,0:0:0:0:
320,192,116438,1,0,0:0:0:0:
192,192,116472,1,0,0:0:0:0:
64,192,116506,1,0,0:0:0:0:
448,192,116540,1,0,0:0:0:0:
320,192,116574,1,0,0:0:0:0:
192,192,116608,1,0,0:0:0:0:
64,192,116642,1,0,0:0:0:0:
448,192,116676,1,0,0:0:0:0:
320,192,116710,1,0,0:0:0:0:
192,192,116745,1,0,0:0:0:0:
64,192,116779,1,0,0:0:0:0:
448,192,116813,1,0,0:0:0:0:
320,192,116847,1,0,0:0:0:0:
192,192,116847,1,0,0:0:0:0:
64,192,116983,1,0,0:0:0:0:
448,192,117120,1,0,0:0:0:0:
320,192,117120,1,0,0:0:0:0:
192,192,117256,1,0,0:0:0:0:
64,192,117392,1,0,0:0:0:0:
448,192,117392,1,0,0:0:0:0:
320,192,117392,1,0,0:0:0:0:
192,192,117529,1,0,0:0:0:0:
448,192,117665,1,0,0:0:0:0:
320,192,117699,1,0,0:0:0:0:
192,192,117733,1,0,0:0:0:0:
64,192,117767,1,0,0:0:0:0:
448,192,117801,1,0,0:0:0:0:
320,192,117824,1,0,0:0:0:0:
192,192,117847,1,0,0:0:0:0:
64,192,117870,1,0,0:0:0:0:
448,192,117938,1,0,0:0:0:0:
320,192,117938,1,0,0:0:0:0:
64,192,117972,1,0,0:0:0:0:
192,192,118006,1,0,0:0:0:0:
320,192,118040,1,0,0:0:0:0:
448,192,118074,1,0,0:0:0:0:
64,192,118108,1,0,0:0:0:0:
192,192,118142,1,0,0:0:0:0:
320,192,118176,1,0,0:0:0:0:
448,192,118210,1,0,0:0:0:0:
64,192,118245,1,0,0:0:0:0:
192,192,118279,1,0,0:0:0:0:
320,192,118313,1,0,0:0:0:0:
448,192,118347,1,0,0:0:0:0:
64,192,118347,1,0,0:0:0:0:
192,192,118381,1,0,0:0:0:0:
320,192,118415,1,0,0:0:0:0:
448,192,118449,1,0,0:0:0:0:
64,192,118483,1,0,0:0:0:0:
192,192,118517,1,0,0:0:0:0:
320,192,118551,1,0,0:0:0:0:
448,192,118585,1,0,0:0:0:0:
64,192,118620,1,0,0:0:0:0:
192,192,118654,1,0,0:0:0:0:
320,192,118688,1,0,0:0:0:0:
448,192,118722,1,0,0:0:0:0:
64,192,118756,1,0,0:0:0:0:
192,192,118756,1,0,0:0:0:0:
320,192,118790,1,0,0:0:0:0:
448,192,118824,1,0,0:0:0:0:
64,192,118858,1,0,0:0:0:0:
192,192,118892,1,0,0:0:0:0:
320,192,118926,1,0,0:0:0:0:
448,192,118960,1,0,0:0:0:0:
64,192,118995,1,0,0:0:0:0:
192,192,119029,1,0,0:0:0:0:
320,192,119029,1,0,0:0:0:0:
448,192,119063,1,0,0:0:0:0:
64,192,119097,1,0,0:0:0:0:
192,192,119131,1,0,0:0:0:0:
320,192,119165,1,0,0:0:0:0:
448,192,119199,1,0,0:0:0:0:
64,192,119233,1,0,0:0:0:0:
192,192,119267,1,0,0:0:0:0:
320,192,119301,1,0,0:0:0:0:
448,192,119335,1,0,0:0:0:0:
64,192,119370,1,0,0:0:0:0:
192,192,119404,1,0,0:0:0:0:
320,192,119438,1,0,0:0:0:0:
448,192,119438,1,0,0:0:0:0:
64,192,119472,1,0,0:0:0:0:
192,192,119506,1,0,0:0:0:0:
320,192,119540,1,0,0:0:0:0:
448,192,119574,1,0,0:0:0:0:
64,192,119608,1,0,0:0:0:0:
192,192,119642,1,0,0:0:0:0:
320,192,119676,1,0,0:0:0:0:
448,192,119710,1,0,0:0:0:0:
64,192,119745,1,0,0:0:0:0:
192,192,119779,1,0,0:0:0:0:
320,192,119813,1,0,0:0:0:0:
448,192,119847,1,0,0:0:0:0:
64,192,119847,1,0,0:0:0:0:
192,192,119881,1,0,0:0:0:0:
320,192,119915,1,0,0:0:0:0:
448,192,119949,1,0,0:0:0:0:
64,192,119983,1,0,0:0:0:0:
192,192,120017,1,0,0:0:0:0:
320,192,120051,1,0,0:0:0:0:
448,192,120085,1,0,0:0:0:0:
64,192,120120,1,0,0:0:0:0:
192,192,120120,1,0,0:0:0:0:
320,192,120154,1,0,0:0:0:0:
448,192,120188,1,0,0:0:0:0:
64,192,120222,1,0,0:0:0:0:
192,192,120256,1,0,0:0:0:0:
320,192,120290,1,0,0:0:0:0:
448,192,120324,1,0,0:0:0:0:
64,192,120358,1,0,0:0:0:0:
192,192,120392,1,0,0:0:0:0:
320,192,120426,1,0,0:0:0:0:
448,192,120460,1,0,0:0:0:0:
64,192,120495,1,0,0:0:0:0:
192,192,120529,1,0,0:0:0:0:
320,192,120529,1,0,0:0:0:0:
448,192,120563,1,0,0:0:0:0:
64,192,120597,1,0,0:0:0:0:
192,192,120631,1,0,0:0:0:0:
320,192,120665,1,0,0:0:0:0:
448,192,120699,1,0,0:0:0:0:
64,192,120733,1,0,0:0:0:0:
192,192,120767,1,0,0:0:0:0:
320,192,120801,1,0,0:0:0:0:
448,192,120835,1,0,0:0:0:0:
64,192,120870,1,0,0:0:0:0:
192,192,120904,1,0,0:0:0:0:
320,192,120938,1,0,0:0:0:0:
448,192,120938,1,0,0:0:0:0:
64,192,120972,1,0,0:0:0:0:
192,192,121006,1,0,0:0:0:0:
320,192,121040,1,0,0:0:0:0:
448,192,121074,1,0,0:0:0:0:
64,192,121108,1,0,0:0:0:0:
192,192,121142,1,0,0:0:0:0:
320,192,121176,1,0,0:0:0:0:
448,192,121210,1,0,0:0:0:0:
64,192,121210,1,0,0:0:0:0:
192,192,121245,1,0,0:0:0:0:
320,192,121279,1,0,0:0:0:0:
448,192,121313,1,0,0:0:0:0:
192,192,121347,1,0,0:0:0:0:
64,192,121381,1,0,0:0:0:0:
448,192,121415,1,0,0:0:0:0:
320,192,121449,1,0,0:0:0:0:
192,192,121483,1,0,0:0:0:0:
64,192,121517,1,0,0:0:0:0:
448,192,121551,1,0,0:0:0:0:
320,192,121585,1,0,0:0:0:0:
192,192,121620,1,0,0:0:0:0:
64,192,121620,1,0,0:0:0:0:
320,192,121688,1,0,0:0:0:0:
448,192,121688,1,0,0:0:0:0:
192,192,121756,1,0,0:0:0:0:
64,192,121756,1,0,0:0:0:0:
448,192,121892,1,0,0:0:0:0:
320,192,121926,1,0,0:0:0:0:
192,192,121960,1,0,0:0:0:0:
64,192,121995,1,0,0:0:0:0:
448,192,122029,1,0,0:0:0:0:
320,192,122063,1,0,0:0:0:0:
192,192,122097,1,0,0:0:0:0:
64,192,122131,1,0,0:0:0:0:
448,192,122165,1,0,0:0:0:0:
320,192,122199,1,0,0:0:0:0:
192,192,122233,1,0,0:0:0:0:
64,192,122267,1,0,0:0:0:0:
320,192,122301,1,0,0:0:0:0:
448,192,122301,1,0,0:0:0:0:
64,192,122438,1,0,0:0:0:0:
320,192,122574,1,0,0:0:0:0:
448,192,122574,1,0,0:0:0:0:
192,192,122574,1,0,0:0:0:0:
64,192,122710,1,0,0:0:0:0:
320,192,122710,1,0,0:0:0:0:
448,192,122710,1,0,0:0:0:0:
192,192,122847,1,0,0:0:0:0:
320,192,122915,1,0,0:0:0:0:
448,192,122983,1,0,0:0:0:0:
64,192,122983,1,0,0:0:0:0:
192,192,123051,1,0,0:0:0:0:
448,192,123120,1,0,0:0:0:0:
64,192,123120,1,0,0:0:0:0:
320,192,123120,1,0,0:0:0:0:
192,192,123256,1,0,0:0:0:0:
64,192,123256,1,0,0:0:0:0:
320,192,123256,1,0,0:0:0:0:
448,192,123392,1,0,0:0:0:0:
64,192,123529,1,0,0:0:0:0:
192,192,123529,1,0,0:0:0:0:
192,192,123597,1,0,0:0:0:0:
64,192,123597,1,0,0:0:0:0:
320,192,123665,1,0,0:0:0:0:
448,192,123665,1,0,0:0:0:0:
64,192,123801,1,0,0:0:0:0:
448,192,123801,1,0,0:0:0:0:
320,192,123938,1,0,0:0:0:0:
64,192,124006,1,0,0:0:0:0:
192,192,124074,1,0,0:0:0:0:
320,192,124074,1,0,0:0:0:0:
448,192,124074,1,0,0:0:0:0:
64,192,124210,1,0,0:0:0:0:
192,192,124210,1,0,0:0:0:0:
320,192,124279,1,0,0:0:0:0:
448,192,124347,1,0,0:0:0:0:
64,192,124347,1,0,0:0:0:0:
192,192,124483,1,0,0:0:0:0:
320,192,124483,1,0,0:0:0:0:
64,192,124483,1,0,0:0:0:0:
448,192,124483,1,0,0:0:0:0:
192,192,124620,1,0,0:0:0:0:
320,192,124620,1,0,0:0:0:0:
448,192,124756,1,0,0:0:0:0:
64,192,124756,1,0,0:0:0:0:
192,192,124756,1,0,0:0:0:0:
320,192,124892,1,0,0:0:0:0:
64,192,124960,1,0,0:0:0:0:
192,192,125029,1,0,0:0:0:0:
448,192,125029,1,0,0:0:0:0:
320,192,125097,1,0,0:0:0:0:
64,192,125165,1,0,0:0:0:0:
192,192,125165,1,0,0:0:0:0:
448,192,125165,1,0,0:0:0:0:
320,192,125301,1,0,0:0:0:0:
448,192,125301,1,0,0:0:0:0:
320,192,125370,1,0,0:0:0:0:
448,192,125370,1,0,0:0:0:0:
64,192,125438,1,0,0:0:0:0:
192,192,125438,1,0,0:0:0:0:
192,192,125506,1,0,0:0:0:0:
64,192,125506,1,0,0:0:0:0:
320,192,125574,1,0,0:0:0:0:
448,192,125574,1,0,0:0:0:0:
64,192,125710,1,0,0:0:0:0:
192,192,125710,1,0,0:0:0:0:
448,192,125779,1,0,0:0:0:0:
192,192,125847,1,0,0:0:0:0:
64,192,125847,1,0,0:0:0:0:
320,192,125847,1,0,0:0:0:0:
192,192,125983,1,0,0:0:0:0:
64,192,125983,1,0,0:0:0:0:
448,192,125983,1,0,0:0:0:0:
320,192,126120,1,0,0:0:0:0:
192,192,126120,1,0,0:0:0:0:
448,192,126120,1,0,0:0:0:0:
64,192,126256,1,0,0:0:0:0:
192,192,126256,1,0,0:0:0:0:
448,192,126256,1,0,0:0:0:0:
320,192,126392,1,0,0:0:0:0:
64,192,126392,1,0,0:0:0:0:
192,192,126529,1,0,0:0:0:0:
320,192,126529,1,0,0:0:0:0:
320,192,126665,1,0,0:0:0:0:
448,192,126665,1,0,0:0:0:0:
192,192,126699,1,0,0:0:0:0:
64,192,126733,1,0,0:0:0:0:
448,192,126767,1,0,0:0:0:0:
320,192,126801,1,0,0:0:0:0:
64,192,126835,1,0,0:0:0:0:
192,192,126870,1,0,0:0:0:0:
448,192,126904,1,0,0:0:0:0:
320,192,126938,1,0,0:0:0:0:
64,192,126938,1,0,0:0:0:0:
192,192,127074,1,0,0:0:0:0:
448,192,127074,1,0,0:0:0:0:
320,192,127210,1,0,0:0:0:0:
192,192,127279,1,0,0:0:0:0:
64,192,127347,1,0,0:0:0:0:
448,192,127347,1,0,0:0:0:0:
192,192,127483,1,0,0:0:0:0:
448,192,127551,1,0,0:0:0:0:
320,192,127551,1,0,0:0:0:0:
64,192,127620,1,0,0:0:0:0:
192,192,127688,1,0,0:0:0:0:
448,192,127756,1,0,0:0:0:0:
64,192,127756,1,0,0:0:0:0:
320,192,127756,1,0,0:0:0:0:
448,192,127892,1,0,0:0:0:0:
192,192,128029,1,0,0:0:0:0:
320,192,128029,1,0,0:0:0:0:
64,192,128029,1,0,0:0:0:0:
192,192,128165,1,0,0:0:0:0:
320,192,128165,1,0,0:0:0:0:
448,192,128165,1,0,0:0:0:0:
64,192,128301,1,0,0:0:0:0:
192,192,128301,1,0,0:0:0:0:
448,192,128301,1,0,0:0:0:0:
64,192,128438,1,0,0:0:0:0:
192,192,128438,1,0,0:0:0:0:
64,192,128506,1,0,0:0:0:0:
192,192,128506,1,0,0:0:0:0:
320,192,128574,1,0,0:0:0:0:
448,192,128574,1,0,0:0:0:0:
64,192,128642,1,0,0:0:0:0:
192,192,128642,1,0,0:0:0:0:
320,192,128710,1,0,0:0:0:0:
448,192,128710,1,0,0:0:0:0:
192,192,128779,1,0,0:0:0:0:
64,192,128779,1,0,0:0:0:0:
448,192,128847,1,0,0:0:0:0:
320,192,128847,1,0,0:0:0:0:
192,192,128881,1,0,0:0:0:0:
64,192,128915,1,0,0:0:0:0:
448,192,128949,1,0,0:0:0:0:
320,192,128983,1,0,0:0:0:0:
64,192,129017,1,0,0:0:0:0:
192,192,129051,1,0,0:0:0:0:
320,192,129085,1,0,0:0:0:0:
448,192,129120,1,0,0:0:0:0:
64,192,129120,1,0,0:0:0:0:
192,192,129188,1,0,0:0:0:0:
320,192,129188,1,0,0:0:0:0:
448,192,129256,1,0,0:0:0:0:
64,192,129256,1,0,0:0:0:0:
192,192,129324,1,0,0:0:0:0:
320,192,129324,1,0,0:0:0:0:
64,192,129392,1,0,0:0:0:0:
448,192,129460,1,0,0:0:0:0:
192,192,129529,1,0,0:0:0:0:
320,192,129529,1,0,0:0:0:0:
64,192,129529,1,0,0:0:0:0:
64,192,129665,1,0,0:0:0:0:
192,192,129665,1,0,0:0:0:0:
448,192,129733,1,0,0:0:0:0:
192,192,129801,1,0,0:0:0:0:
64,192,129801,1,0,0:0:0:0:
320,192,129870,1,0,0:0:0:0:
448,192,129938,1,0,0:0:0:0:
192,192,129938,1,0,0:0:0:0:
64,192,129938,1,0,0:0:0:0:
448,192,130074,1,0,0:0:0:0:
64,192,130210,1,0,0:0:0:0:
192,192,130210,1,0,0:0:0:0:
320,192,130210,1,0,0:0:0:0:
64,192,130347,1,0,0:0:0:0:
192,192,130347,1,0,0:0:0:0:
320,192,130483,1,0,0:0:0:0:
448,192,130483,1,0,0:0:0:0:
320,192,130551,1,0,0:0:0:0:
448,192,130551,1,0,0:0:0:0:
192,192,130620,1,0,0:0:0:0:
64,192,130620,1,0,0:0:0:0:
64,192,130688,1,0,0:0:0:0:
192,192,130688,1,0,0:0:0:0:
320,192,130756,1,0,0:0:0:0:
448,192,130756,1,0,0:0:0:0:
64,192,130824,1,0,0:0:0:0:
320,192,130892,1,0,0:0:0:0:
448,192,130892,1,0,0:0:0:0:
192,192,130960,1,0,0:0:0:0:
320,192,131029,1,0,0:0:0:0:
448,192,131029,1,0,0:0:0:0:
64,192,131063,1,0,0:0:0:0:
192,192,131097,1,0,0:0:0:0:
320,192,131131,1,0,0:0:0:0:
448,192,131165,1,0,0:0:0:0:
192,192,131199,1,0,0:0:0:0:
64,192,131233,1,0,0:0:0:0:
448,192,131267,1,0,0:0:0:0:
320,192,131301,1,0,0:0:0:0:
192,192,131301,1,0,0:0:0:0:
64,192,131335,1,0,0:0:0:0:
448,192,131370,1,0,0:0:0:0:
320,192,131404,1,0,0:0:0:0:
192,192,131438,1,0,0:0:0:0:
64,192,131472,1,0,0:0:0:0:
320,192,131506,1,0,0:0:0:0:
448,192,131540,1,0,0:0:0:0:
64,192,131574,1,0,0:0:0:0:
192,192,131574,1,0,0:0:0:0:
320,192,131608,1,0,0:0:0:0:
448,192,131642,1,0,0:0:0:0:
64,192,131676,1,0,0:0:0:0:
192,192,131710,1,0,0:0:0:0:
448,192,131745,1,0,0:0:0:0:
320,192,131779,1,0,0:0:0:0:
192,192,131813,1,0,0:0:0:0:
64,192,131847,1,0,0:0:0:0:
448,192,131847,1,0,0:0:0:0:
320,192,131881,1,0,0:0:0:0:
192,192,131915,1,0,0:0:0:0:
64,192,131949,1,0,0:0:0:0:
320,192,131983,1,0,0:0:0:0:
448,192,132017,1,0,0:0:0:0:
64,192,132051,1,0,0:0:0:0:
192,192,132085,1,0,0:0:0:0:
320,192,132120,1,0,0:0:0:0:
448,192,132120,1,0,0:0:0:0:
64,192,132154,1,0,0:0:0:0:
192,192,132188,1,0,0:0:0:0:
320,192,132222,1,0,0:0:0:0:
448,192,132256,1,0,0:0:0:0:
64,192,132290,1,0,0:0:0:0:
192,192,132324,1,0,0:0:0:0:
448,192,132358,1,0,0:0:0:0:
320,192,132392,1,0,0:0:0:0:
64,192,132392,1,0,0:0:0:0:
192,192,132426,1,0,0:0:0:0:
448,192,132460,1,0,0:0:0:0:
320,192,132495,1,0,0:0:0:0:
192,192,132529,1,0,0:0:0:0:
64,192,132563,1,0,0:0:0:0:
448,192,132597,1,0,0:0:0:0:
320,192,132631,1,0,0:0:0:0:
64,192,132665,1,0,0:0:0:0:
192,192,132665,1,0,0:0:0:0:
448,192,132699,1,0,0:0:0:0:
320,192,132733,1,0,0:0:0:0:
64,192,132767,1,0,0:0:0:0:
192,192,132801,1,0,0:0:0:0:
448,192,132835,1,0,0:0:0:0:
320,192,132870,1,0,0:0:0:0:
64,192,132938,1,0,0:0:0:0:
192,192,132938,1,0,0:0:0:0:
320,192,133006,1,0,0:0:0:0:
192,192,133074,1,0,0:0:0:0:
64,192,133074,1,0,0:0:0:0:
448,192,133074,1,0,0:0:0:0:
192,192,133210,1,0,0:0:0:0:
64,192,133210,1,0,0:0:0:0:
448,192,133279,1,0,0:0:0:0:
320,192,133313,1,0,0:0:0:0:
64,192,133347,1,0,0:0:0:0:
192,192,133381,1,0,0:0:0:0:
448,192,133415,1,0,0:0:0:0:
320,192,133449,1,0,0:0:0:0:
64,192,133483,1,0,0:0:0:0:
192,192,133483,1,0,0:0:0:0:
448,192,133551,1,0,0:0:0:0:
64,192,133620,1,0,0:0:0:0:
320,192,133756,1,0,0:0:0:0:
448,192,133756,1,0,0:0:0:0:
64,192,133824,1,0,0:0:0:0:
192,192,133858,1,0,0:0:0:0:
448,192,133892,1,0,0:0:0:0:
320,192,133926,1,0,0:0:0:0:
64,192,133960,1,0,0:0:0:0:
192,192,133995,1,0,0:0:0:0:
320,192,134029,1,0,0:0:0:0:
448,192,134029,1,0,0:0:0:0:
64,192,134097,1,0,0:0:0:0:
320,192,134165,1,0,0:0:0:0:
192,192,134165,1,0,0:0:0:0:
192,192,134301,1,0,0:0:0:0:
64,192,134301,1,0,0:0:0:0:
448,192,134370,1,0,0:0:0:0:
320,192,134404,1,0,0:0:0:0:
64,192,134438,1,0,0:0:0:0:
192,192,134472,1,0,0:0:0:0:
448,192,134506,1,0,0:0:0:0:
320,192,134540,1,0,0:0:0:0:
64,192,134574,1,0,0:0:0:0:
192,192,134574,1,0,0:0:0:0:
64,192,134710,1,0,0:0:0:0:
448,192,134710,1,0,0:0:0:0:
192,192,134779,1,0,0:0:0:0:
448,192,134847,1,0,0:0:0:0:
320,192,134847,1,0,0:0:0:0:
64,192,134915,1,0,0:0:0:0:
192,192,134949,1,0,0:0:0:0:
448,192,134983,1,0,0:0:0:0:
320,192,135017,1,0,0:0:0:0:
64,192,135051,1,0,0:0:0:0:
192,192,135085,1,0,0:0:0:0:
448,192,135120,1,0,0:0:0:0:
320,192,135120,1,0,0:0:0:0:
64,192,135188,1,0,0:0:0:0:
448,192,135256,1,0,0:0:0:0:
192,192,135256,1,0,0:0:0:0:
320,192,135324,1,0,0:0:0:0:
192,192,135392,1,0,0:0:0:0:
64,192,135392,1,0,0:0:0:0:
448,192,135426,1,0,0:0:0:0:
320,192,135460,1,0,0:0:0:0:
192,192,135495,1,0,0:0:0:0:
64,192,135529,1,0,0:0:0:0:
320,192,135563,1,0,0:0:0:0:
448,192,135597,1,0,0:0:0:0:
64,192,135631,1,0,0:0:0:0:
192,192,135665,1,0,0:0:0:0:
320,192,135665,1,0,0:0:0:0:
448,192,135699,1,0,0:0:0:0:
64,192,135733,1,0,0:0:0:0:
192,192,135767,1,0,0:0:0:0:
320,192,135801,1,0,0:0:0:0:
448,192,135835,1,0,0:0:0:0:
192,192,135870,1,0,0:0:0:0:
64,192,135904,1,0,0:0:0:0:
448,192,135938,1,0,0:0:0:0:
320,192,135938,1,0,0:0:0:0:
192,192,135972,1,0,0:0:0:0:
64,192,136006,1,0,0:0:0:0:
448,192,136040,1,0,0:0:0:0:
320,192,136074,1,0,0:0:0:0:
64,192,136108,1,0,0:0:0:0:
192,192,136142,1,0,0:0:0:0:
320,192,136176,1,0,0:0:0:0:
448,192,136210,1,0,0:0:0:0:
64,192,136210,1,0,0:0:0:0:
192,192,136245,1,0,0:0:0:0:
320,192,136279,1,0,0:0:0:0:
448,192,136313,1,0,0:0:0:0:
192,192,136347,1,0,0:0:0:0:
64,192,136381,1,0,0:0:0:0:
448,192,136415,1,0,0:0:0:0:
320,192,136449,1,0,0:0:0:0:
192,192,136483,1,0,0:0:0:0:
64,192,136483,1,0,0:0:0:0:
320,192,136551,1,0,0:0:0:0:
64,192,136620,1,0,0:0:0:0:
192,192,136620,1,0,0:0:0:0:
448,192,136654,1,0,0:0:0:0:
320,192,136688,1,0,0:0:0:0:
192,192,136722,1,0,0:0:0:0:
64,192,136756,1,0,0:0:0:0:
448,192,136756,1,0,0:0:0:0:
64,192,136892,1,0,0:0:0:0:
192,192,136892,1,0,0:0:0:0:
320,192,136892,1,0,0:0:0:0:
448,192,136960,1,0,0:0:0:0:
64,192,137029,1,0,0:0:0:0:
192,192,137029,1,0,0:0:0:0:
320,192,137063,1,0,0:0:0:0:
448,192,137097,1,0,0:0:0:0:
64,192,137131,1,0,0:0:0:0:
192,192,137165,1,0,0:0:0:0:
320,192,137165,1,0,0:0:0:0:
448,192,137301,1,0,0:0:0:0:
64,192,137301,1,0,0:0:0:0:
320,192,137301,1,0,0:0:0:0:
192,192,137370,1,0,0:0:0:0:
448,192,137438,1,0,0:0:0:0:
320,192,137472,1,0,0:0:0:0:
64,192,137506,1,0,0:0:0:0:
192,192,137540,1,0,0:0:0:0:
320,192,137574,1,0,0:0:0:0:
448,192,137574,1,0,0:0:0:0:
64,192,137608,1,0,0:0:0:0:
192,192,137642,1,0,0:0:0:0:
320,192,137676,1,0,0:0:0:0:
448,192,137710,1,0,0:0:0:0:
192,192,137745,1,0,0:0:0:0:
64,192,137779,1,0,0:0:0:0:
448,192,137813,1,0,0:0:0:0:
192,192,137847,1,0,0:0:0:0:
320,192,137847,1,0,0:0:0:0:
64,192,137915,1,0,0:0:0:0:
448,192,137915,1,0,0:0:0:0:
192,192,137983,1,0,0:0:0:0:
320,192,137983,1,0,0:0:0:0:
320,192,138120,1,0,0:0:0:0:
448,192,138120,1,0,0:0:0:0:
64,192,138120,1,0,0:0:0:0:
192,192,138188,1,0,0:0:0:0:
448,192,138256,1,0,0:0:0:0:
320,192,138290,1,0,0:0:0:0:
192,192,138324,1,0,0:0:0:0:
64,192,138358,1,0,0:0:0:0:
448,192,138392,1,0,0:0:0:0:
320,192,138392,1,0,0:0:0:0:
192,192,138529,1,0,0:0:0:0:
64,192,138529,1,0,0:0:0:0:
448,192,138665,1,0,0:0:0:0:
192,192,138665,1,0,0:0:0:0:
64,192,138665,1,0,0:0:0:0:
320,192,138733,1,0,0:0:0:0:
64,192,138801,1,0,0:0:0:0:
192,192,138835,1,0,0:0:0:0:
320,192,138870,1,0,0:0:0:0:
448,192,138904,1,0,0:0:0:0:
64,192,138938,1,0,0:0:0:0:
192,192,138938,1,0,0:0:0:0:
320,192,139006,1,0,0:0:0:0:
192,192,139074,1,0,0:0:0:0:
64,192,139074,1,0,0:0:0:0:
448,192,139142,1,0,0:0:0:0:
64,192,139210,1,0,0:0:0:0:
320,192,139210,1,0,0:0:0:0:
192,192,139210,1,0,0:0:0:0:
448,192,139279,1,0,0:0:0:0:
64,192,139347,1,0,0:0:0:0:
192,192,139381,1,0,0:0:0:0:
448,192,139415,1,0,0:0:0:0:
320,192,139449,1,0,0:0:0:0:
64,192,139483,1,0,0:0:0:0:
192,192,139483,1,0,0:0:0:0:
320,192,139551,1,0,0:0:0:0:
448,192,139620,1,0,0:0:0:0:
64,192,139620,1,0,0:0:0:0:
192,192,139688,1,0,0:0:0:0:
320,192,139688,1,0,0:0:0:0:
64,192,139756,1,0,0:0:0:0:
448,192,139756,128,0,141665:0:0:0:0:
320,192,141665,1,0,0:0:0:0:
192,192,141733,1,0,0:0:0:0:
320,192,141801,128,0,142279:0:0:0:0:
192,192,142279,1,0,0:0:0:0:
64,192,142392,1,0,0:0:0:0:
192,192,142483,128,0,143710:0:0:0:0:
448,192,143710,128,0,143881:0:0:0:0:
320,192,143881,128,0,144120:0:0:0:0:
192,192,144120,1,0,0:0:0:0:
448,192,144188,128,0,144392:0:0:0:0:
320,192,144392,128,0,144665:0:0:0:0:
192,192,144665,128,0,144938:0:0:0:0:
64,192,144938,128,0,145620:0:0:0:0:
448,192,145620,1,0,0:0:0:0:
320,192,145688,1,0,0:0:0:0:
192,192,145756,128,0,146301:0:0:0:0:
320,192,146301,1,0,0:0:0:0:
448,192,146301,1,0,0:0:0:0:
64,192,146301,1,0,0:0:0:0:
192,192,146438,1,0,0:0:0:0:
320,192,146506,1,0,0:0:0:0:
448,192,146574,128,0,146710:0:0:0:0:
64,192,146710,1,0,0:0:0:0:
320,192,146847,128,0,146983:0:0:0:0:
192,192,146915,1,0,0:0:0:0:
64,192,146983,1,0,0:0:0:0:
448,192,147120,1,0,0:0:0:0:
64,192,147120,128,0,147256:0:0:0:0:
192,192,147256,1,0,0:0:0:0:
448,192,147392,1,0,0:0:0:0:
64,192,147529,1,0,0:0:0:0:
192,192,147665,128,0,147801:0:0:0:0:
64,192,147801,1,0,0:0:0:0:
320,192,147938,128,0,148074:0:0:0:0:
64,192,148074,1,0,0:0:0:0:
448,192,148210,128,0,148347:0:0:0:0:
64,192,148347,1,0,0:0:0:0:
320,192,148483,1,0,0:0:0:0:
192,192,148483,1,0,0:0:0:0:
448,192,148483,1,0,0:0:0:0:
64,192,148620,1,0,0:0:0:0:
192,192,148688,1,0,0:0:0:0:
448,192,148756,128,0,148892:0:0:0:0:
64,192,148892,1,0,0:0:0:0:
192,192,149029,128,0,149165:0:0:0:0:
448,192,149097,1,0,0:0:0:0:
320,192,149165,1,0,0:0:0:0:
448,192,149301,1,0,0:0:0:0:
64,192,149301,128,0,149438:0:0:0:0:
192,192,149438,1,0,0:0:0:0:
448,192,149574,128,0,149710:0:0:0:0:
64,192,149710,1,0,0:0:0:0:
320,192,149847,128,0,149983:0:0:0:0:
64,192,149983,1,0,0:0:0:0:
192,192,150120,128,0,150256:0:0:0:0:
64,192,150256,1,0,0:0:0:0:
448,192,150392,128,0,150529:0:0:0:0:
320,192,150529,1,0,0:0:0:0:
64,192,150665,1,0,0:0:0:0:
192,192,150665,1,0,0:0:0:0:
448,192,150665,1,0,0:0:0:0:
320,192,150801,1,0,0:0:0:0:
192,192,150870,1,0,0:0:0:0:
448,192,150938,128,0,151074:0:0:0:0:
320,192,151074,1,0,0:0:0:0:
64,192,151210,128,0,151347:0:0:0:0:
192,192,151279,1,0,0:0:0:0:
320,192,151347,1,0,0:0:0:0:
448,192,151483,128,0,151620:0:0:0:0:
64,192,151483,1,0,0:0:0:0:
192,192,151620,1,0,0:0:0:0:
320,192,151756,128,0,152847:0:0:0:0:
64,192,151756,1,0,0:0:0:0:
448,192,151892,1,0,0:0:0:0:
64,192,152029,1,0,0:0:0:0:
192,192,152097,1,0,0:0:0:0:
64,192,152165,1,0,0:0:0:0:
448,192,152301,1,0,0:0:0:0:
192,192,152370,1,0,0:0:0:0:
448,192,152438,1,0,0:0:0:0:
64,192,152574,1,0,0:0:0:0:
192,192,152710,1,0,0:0:0:0:
448,192,152779,1,0,0:0:0:0:
192,192,152847,1,0,0:0:0:0:
64,192,152847,1,0,0:0:0:0:
448,192,152915,1,0,0:0:0:0:
320,192,152949,1,0,0:0:0:0:
64,192,152983,1,0,0:0:0:0:
192,192,153017,1,0,0:0:0:0:
448,192,153051,1,0,0:0:0:0:
320,192,153085,1,0,0:0:0:0:
64,192,153120,1,0,0:0:0:0:
192,192,153120,1,0,0:0:0:0:
448,192,153154,1,0,0:0:0:0:
320,192,153188,1,0,0:0:0:0:
192,192,153222,1,0,0:0:0:0:
448,192,153256,1,0,0:0:0:0:
64,192,153256,1,0,0:0:0:0:
64,192,153392,1,0,0:0:0:0:
192,192,153392,1,0,0:0:0:0:
320,192,153426,1,0,0:0:0:0:
448,192,153460,1,0,0:0:0:0:
64,192,153495,1,0,0:0:0:0:
192,192,153529,1,0,0:0:0:0:
320,192,153529,1,0,0:0:0:0:
64,192,153597,1,0,0:0:0:0:
448,192,153665,1,0,0:0:0:0:
320,192,153665,1,0,0:0:0:0:
64,192,153733,1,0,0:0:0:0:
192,192,153767,1,0,0:0:0:0:
320,192,153801,1,0,0:0:0:0:
64,192,153835,1,0,0:0:0:0:
448,192,153870,1,0,0:0:0:0:
320,192,153904,1,0,0:0:0:0:
192,192,153938,1,0,0:0:0:0:
64,192,153938,1,0,0:0:0:0:
448,192,154006,1,0,0:0:0:0:
320,192,154029,1,0,0:0:0:0:
192,192,154051,1,0,0:0:0:0:
64,192,154074,1,0,0:0:0:0:
64,192,154210,1,0,0:0:0:0:
320,192,154210,1,0,0:0:0:0:
448,192,154210,1,0,0:0:0:0:
192,192,154245,1,0,0:0:0:0:
448,192,154279,1,0,0:0:0:0:
320,192,154313,1,0,0:0:0:0:
64,192,154347,1,0,0:0:0:0:
192,192,154347,1,0,0:0:0:0:
448,192,154415,1,0,0:0:0:0:
320,192,154449,1,0,0:0:0:0:
192,192,154483,1,0,0:0:0:0:
64,192,154483,1,0,0:0:0:0:
320,192,154551,1,0,0:0:0:0:
448,192,154551,1,0,0:0:0:0:
192,192,154620,1,0,0:0:0:0:
64,192,154620,1,0,0:0:0:0:
192,192,154688,1,0,0:0:0:0:
64,192,154688,1,0,0:0:0:0:
448,192,154756,1,0,0:0:0:0:
320,192,154756,1,0,0:0:0:0:
192,192,154892,1,0,0:0:0:0:
320,192,154892,1,0,0:0:0:0:
448,192,154892,1,0,0:0:0:0:
64,192,155029,1,0,0:0:0:0:
192,192,155029,1,0,0:0:0:0:
320,192,155063,1,0,0:0:0:0:
448,192,155097,1,0,0:0:0:0:
64,192,155131,1,0,0:0:0:0:
192,192,155165,1,0,0:0:0:0:
448,192,155199,1,0,0:0:0:0:
320,192,155233,1,0,0:0:0:0:
64,192,155267,1,0,0:0:0:0:
320,192,155301,1,0,0:0:0:0:
448,192,155301,1,0,0:0:0:0:
64,192,155370,1,0,0:0:0:0:
192,192,155392,1,0,0:0:0:0:
320,192,155415,1,0,0:0:0:0:
448,192,155438,1,0,0:0:0:0:
64,192,155506,1,0,0:0:0:0:
192,192,155506,1,0,0:0:0:0:
448,192,155574,1,0,0:0:0:0:
320,192,155608,1,0,0:0:0:0:
192,192,155642,1,0,0:0:0:0:
64,192,155676,1,0,0:0:0:0:
320,192,155710,1,0,0:0:0:0:
448,192,155710,1,0,0:0:0:0:
64,192,155779,1,0,0:0:0:0:
192,192,155813,1,0,0:0:0:0:
448,192,155847,1,0,0:0:0:0:
64,192,155915,1,0,0:0:0:0:
192,192,155915,1,0,0:0:0:0:
320,192,155983,1,0,0:0:0:0:
192,192,156051,1,0,0:0:0:0:
64,192,156051,1,0,0:0:0:0:
448,192,156120,1,0,0:0:0:0:
320,192,156120,1,0,0:0:0:0:
64,192,156188,1,0,0:0:0:0:
192,192,156222,1,0,0:0:0:0:
320,192,156256,1,0,0:0:0:0:
448,192,156256,1,0,0:0:0:0:
192,192,156290,1,0,0:0:0:0:
64,192,156324,1,0,0:0:0:0:
448,192,156358,1,0,0:0:0:0:
320,192,156392,1,0,0:0:0:0:
192,192,156392,1,0,0:0:0:0:
64,192,156460,1,0,0:0:0:0:
448,192,156529,1,0,0:0:0:0:
320,192,156529,1,0,0:0:0:0:
64,192,156597,1,0,0:0:0:0:
192,192,156665,1,0,0:0:0:0:
320,192,156665,1,0,0:0:0:0:
448,192,156733,1,0,0:0:0:0:
320,192,156756,1,0,0:0:0:0:
192,192,156779,1,0,0:0:0:0:
64,192,156801,1,0,0:0:0:0:
64,192,156938,1,0,0:0:0:0:
192,192,156960,1,0,0:0:0:0:
320,192,156983,1,0,0:0:0:0:
448,192,157006,1,0,0:0:0:0:
64,192,157074,1,0,0:0:0:0:
192,192,157097,1,0,0:0:0:0:
320,192,157120,1,0,0:0:0:0:
448,192,157142,1,0,0:0:0:0:
192,192,157210,1,0,0:0:0:0:
64,192,157210,1,0,0:0:0:0:
448,192,157279,1,0,0:0:0:0:
320,192,157313,1,0,0:0:0:0:
64,192,157347,1,0,0:0:0:0:
192,192,157381,1,0,0:0:0:0:
320,192,157415,1,0,0:0:0:0:
448,192,157449,1,0,0:0:0:0:
192,192,157483,1,0,0:0:0:0:
64,192,157483,1,0,0:0:0:0:
64,192,157551,1,0,0:0:0:0:
320,192,157620,1,0,0:0:0:0:
64,192,157688,1,0,0:0:0:0:
448,192,157756,1,0,0:0:0:0:
320,192,157773,1,0,0:0:0:0:
192,192,157790,1,0,0:0:0:0:
64,192,157807,1,0,0:0:0:0:
448,192,157892,1,0,0:0:0:0:
320,192,157915,1,0,0:0:0:0:
192,192,157938,1,0,0:0:0:0:
64,192,157960,1,0,0:0:0:0:
320,192,158029,1,0,0:0:0:0:
448,192,158029,1,0,0:0:0:0:
64,192,158097,1,0,0:0:0:0:
448,192,158165,1,0,0:0:0:0:
320,192,158188,1,0,0:0:0:0:
192,192,158210,1,0,0:0:0:0:
64,192,158233,1,0,0:0:0:0:
320,192,158301,1,0,0:0:0:0:
448,192,158301,1,0,0:0:0:0:
64,192,158370,1,0,0:0:0:0:
192,192,158392,1,0,0:0:0:0:
320,192,158415,1,0,0:0:0:0:
448,192,158438,1,0,0:0:0:0:
320,192,158506,1,0,0:0:0:0:
448,192,158506,1,0,0:0:0:0:
64,192,158574,1,0,0:0:0:0:
192,192,158591,1,0,0:0:0:0:
320,192,158608,1,0,0:0:0:0:
448,192,158625,1,0,0:0:0:0:
448,192,158710,1,0,0:0:0:0:
320,192,158733,1,0,0:0:0:0:
192,192,158756,1,0,0:0:0:0:
64,192,158779,1,0,0:0:0:0:
448,192,158847,1,0,0:0:0:0:
320,192,158847,1,0,0:0:0:0:
64,192,158915,1,0,0:0:0:0:
192,192,158949,1,0,0:0:0:0:
448,192,158983,1,0,0:0:0:0:
320,192,159017,1,0,0:0:0:0:
64,192,159051,1,0,0:0:0:0:
192,192,159085,1,0,0:0:0:0:
448,192,159120,1,0,0:0:0:0:
320,192,159120,1,0,0:0:0:0:
64,192,159188,1,0,0:0:0:0:
448,192,159256,1,0,0:0:0:0:
320,192,159256,1,0,0:0:0:0:
192,192,159290,1,0,0:0:0:0:
64,192,159324,1,0,0:0:0:0:
448,192,159358,1,0,0:0:0:0:
192,192,159392,1,0,0:0:0:0:
64,192,159392,1,0,0:0:0:0:
320,192,159426,1,0,0:0:0:0:
448,192,159460,1,0,0:0:0:0:
64,192,159495,1,0,0:0:0:0:
192,192,159529,1,0,0:0:0:0:
448,192,159563,1,0,0:0:0:0:
320,192,159597,1,0,0:0:0:0:
192,192,159631,1,0,0:0:0:0:
448,192,159665,1,0,0:0:0:0:
64,192,159665,1,0,0:0:0:0:
320,192,159699,1,0,0:0:0:0:
192,192,159733,1,0,0:0:0:0:
64,192,159767,1,0,0:0:0:0:
448,192,159801,1,0,0:0:0:0:
448,192,159938,1,0,0:0:0:0:
320,192,159938,1,0,0:0:0:0:
192,192,159972,1,0,0:0:0:0:
64,192,160006,1,0,0:0:0:0:
320,192,160040,1,0,0:0:0:0:
448,192,160074,1,0,0:0:0:0:
448,192,160210,1,0,0:0:0:0:
320,192,160210,1,0,0:0:0:0:
64,192,160279,1,0,0:0:0:0:
192,192,160313,1,0,0:0:0:0:
320,192,160347,1,0,0:0:0:0:
448,192,160381,1,0,0:0:0:0:
64,192,160415,1,0,0:0:0:0:
192,192,160449,1,0,0:0:0:0:
320,192,160483,1,0,0:0:0:0:
448,192,160483,1,0,0:0:0:0:
64,192,160551,1,0,0:0:0:0:
192,192,160574,1,0,0:0:0:0:
320,192,160597,1,0,0:0:0:0:
448,192,160620,1,0,0:0:0:0:
64,192,160688,1,0,0:0:0:0:
320,192,160756,1,0,0:0:0:0:
448,192,160756,1,0,0:0:0:0:
192,192,160824,1,0,0:0:0:0:
320,192,160892,1,0,0:0:0:0:
448,192,160892,1,0,0:0:0:0:
64,192,160926,1,0,0:0:0:0:
192,192,160960,1,0,0:0:0:0:
320,192,160995,1,0,0:0:0:0:
64,192,161029,1,0,0:0:0:0:
448,192,161029,1,0,0:0:0:0:
192,192,161097,1,0,0:0:0:0:
320,192,161131,1,0,0:0:0:0:
448,192,161165,1,0,0:0:0:0:
64,192,161199,1,0,0:0:0:0:
192,192,161233,1,0,0:0:0:0:
320,192,161267,1,0,0:0:0:0:
448,192,161301,1,0,0:0:0:0:
64,192,161301,1,0,0:0:0:0:
192,192,161370,1,0,0:0:0:0:
64,192,161438,1,0,0:0:0:0:
320,192,161438,1,0,0:0:0:0:
448,192,161438,1,0,0:0:0:0:
192,192,161574,1,0,0:0:0:0:
64,192,161574,1,0,0:0:0:0:
448,192,161642,1,0,0:0:0:0:
64,192,161710,1,0,0:0:0:0:
192,192,161710,1,0,0:0:0:0:
320,192,161745,1,0,0:0:0:0:
448,192,161779,1,0,0:0:0:0:
64,192,161813,1,0,0:0:0:0:
192,192,161847,1,0,0:0:0:0:
320,192,161847,1,0,0:0:0:0:
448,192,161915,1,0,0:0:0:0:
320,192,161938,1,0,0:0:0:0:
192,192,161960,1,0,0:0:0:0:
64,192,161983,1,0,0:0:0:0:
448,192,162120,1,0,0:0:0:0:
320,192,162120,1,0,0:0:0:0:
64,192,162188,1,0,0:0:0:0:
192,192,162222,1,0,0:0:0:0:
448,192,162256,1,0,0:0:0:0:
320,192,162290,1,0,0:0:0:0:
192,192,162324,1,0,0:0:0:0:
64,192,162358,1,0,0:0:0:0:
320,192,162392,1,0,0:0:0:0:
448,192,162392,1,0,0:0:0:0:
192,192,162426,1,0,0:0:0:0:
64,192,162426,1,0,0:0:0:0:
64,192,162529,1,0,0:0:0:0:
192,192,162529,1,0,0:0:0:0:
320,192,162563,1,0,0:0:0:0:
448,192,162563,1,0,0:0:0:0:
64,192,162665,1,0,0:0:0:0:
192,192,162665,1,0,0:0:0:0:
448,192,162665,1,0,0:0:0:0:
320,192,162733,1,0,0:0:0:0:
192,192,162767,1,0,0:0:0:0:
64,192,162801,1,0,0:0:0:0:
448,192,162835,1,0,0:0:0:0:
320,192,162870,1,0,0:0:0:0:
192,192,162904,1,0,0:0:0:0:
64,192,162938,1,0,0:0:0:0:
448,192,162938,1,0,0:0:0:0:
320,192,163074,1,0,0:0:0:0:
448,192,163074,1,0,0:0:0:0:
192,192,163074,1,0,0:0:0:0:
64,192,163210,1,0,0:0:0:0:
192,192,163210,1,0,0:0:0:0:
320,192,163210,1,0,0:0:0:0:
448,192,163279,1,0,0:0:0:0:
320,192,163301,1,0,0:0:0:0:
192,192,163324,1,0,0:0:0:0:
64,192,163347,1,0,0:0:0:0:
448,192,163415,1,0,0:0:0:0:
320,192,163483,1,0,0:0:0:0:
192,192,163483,1,0,0:0:0:0:
64,192,163620,1,0,0:0:0:0:
192,192,163642,1,0,0:0:0:0:
320,192,163665,1,0,0:0:0:0:
448,192,163688,1,0,0:0:0:0:
192,192,163756,1,0,0:0:0:0:
64,192,163756,1,0,0:0:0:0:
448,192,163824,1,0,0:0:0:0:
320,192,163824,1,0,0:0:0:0:
64,192,163858,1,0,0:0:0:0:
192,192,163892,1,0,0:0:0:0:
320,192,163926,1,0,0:0:0:0:
448,192,163960,1,0,0:0:0:0:
64,192,163995,1,0,0:0:0:0:
192,192,164029,1,0,0:0:0:0:
320,192,164029,1,0,0:0:0:0:
448,192,164165,1,0,0:0:0:0:
320,192,164165,1,0,0:0:0:0:
64,192,164233,1,0,0:0:0:0:
192,192,164267,1,0,0:0:0:0:
448,192,164301,1,0,0:0:0:0:
320,192,164324,1,0,0:0:0:0:
192,192,164347,1,0,0:0:0:0:
64,192,164370,1,0,0:0:0:0:
448,192,164438,1,0,0:0:0:0:
320,192,164460,1,0,0:0:0:0:
192,192,164483,1,0,0:0:0:0:
64,192,164506,1,0,0:0:0:0:
448,192,164574,1,0,0:0:0:0:
320,192,164574,1,0,0:0:0:0:
64,192,164710,1,0,0:0:0:0:
192,192,164733,1,0,0:0:0:0:
320,192,164756,1,0,0:0:0:0:
448,192,164779,1,0,0:0:0:0:
64,192,164847,1,0,0:0:0:0:
192,192,164847,1,0,0:0:0:0:
448,192,164915,1,0,0:0:0:0:
320,192,164938,1,0,0:0:0:0:
192,192,164960,1,0,0:0:0:0:
64,192,164983,1,0,0:0:0:0:
64,192,165120,1,0,0:0:0:0:
192,192,165142,1,0,0:0:0:0:
320,192,165165,1,0,0:0:0:0:
448,192,165188,1,0,0:0:0:0:
448,192,165256,1,0,0:0:0:0:
320,192,165279,1,0,0:0:0:0:
192,192,165301,1,0,0:0:0:0:
64,192,165324,1,0,0:0:0:0:
448,192,165392,1,0,0:0:0:0:
320,192,165392,1,0,0:0:0:0:
192,192,165460,1,0,0:0:0:0:
64,192,165460,1,0,0:0:0:0:
320,192,165495,1,0,0:0:0:0:
448,192,165529,1,0,0:0:0:0:
64,192,165563,1,0,0:0:0:0:
192,192,165597,1,0,0:0:0:0:
320,192,165631,1,0,0:0:0:0:
448,192,165665,1,0,0:0:0:0:
64,192,165733,1,0,0:0:0:0:
192,192,165733,1,0,0:0:0:0:
320,192,165801,1,0,0:0:0:0:
448,192,165801,1,0,0:0:0:0:
192,192,165870,1,0,0:0:0:0:
64,192,165870,1,0,0:0:0:0:
64,192,165938,5,0,0:0:0:0:
192,192,165938,1,0,0:0:0:0:
448,192,165938,1,0,0:0:0:0:
320,192,166006,1,0,0:0:0:0:
192,192,166074,1,0,0:0:0:0:
448,192,166210,1,0,0:0:0:0:
320,192,166210,1,0,0:0:0:0:
64,192,166210,1,0,0:0:0:0:
448,192,166279,1,0,0:0:0:0:
64,192,166347,1,0,0:0:0:0:
192,192,166483,1,0,0:0:0:0:
320,192,166483,1,0,0:0:0:0:
448,192,166483,1,0,0:0:0:0:
192,192,166551,1,0,0:0:0:0:
448,192,166620,1,0,0:0:0:0:
192,192,166756,1,0,0:0:0:0:
64,192,166756,1,0,0:0:0:0:
320,192,166756,1,0,0:0:0:0:
320,192,166824,1,0,0:0:0:0:
64,192,166892,1,0,0:0:0:0:
192,192,167029,1,0,0:0:0:0:
448,192,167029,1,0,0:0:0:0:
64,192,167029,1,0,0:0:0:0:
64,192,167097,1,0,0:0:0:0:
320,192,167165,1,0,0:0:0:0:
192,192,167301,1,0,0:0:0:0:
320,192,167301,1,0,0:0:0:0:
448,192,167301,1,0,0:0:0:0:
448,192,167370,1,0,0:0:0:0:
64,192,167438,1,0,0:0:0:0:
192,192,167574,1,0,0:0:0:0:
448,192,167574,1,0,0:0:0:0:
64,192,167574,1,0,0:0:0:0:
192,192,167642,1,0,0:0:0:0:
448,192,167710,1,0,0:0:0:0:
64,192,167847,1,0,0:0:0:0:
320,192,167847,1,0,0:0:0:0:
192,192,167847,1,0,0:0:0:0:
320,192,167915,1,0,0:0:0:0:
64,192,167983,1,0,0:0:0:0:
64,192,168120,1,0,0:0:0:0:
448,192,168120,1,0,0:0:0:0:
192,192,168120,1,0,0:0:0:0:
64,192,168188,1,0,0:0:0:0:
320,192,168256,1,0,0:0:0:0:
192,192,168392,1,0,0:0:0:0:
448,192,168392,1,0,0:0:0:0:
320,192,168392,1,0,0:0:0:0:
448,192,168460,1,0,0:0:0:0:
64,192,168529,1,0,0:0:0:0:
192,192,168665,1,0,0:0:0:0:
448,192,168665,1,0,0:0:0:0:
64,192,168665,1,0,0:0:0:0:
192,192,168733,1,0,0:0:0:0:
448,192,168801,1,0,0:0:0:0:
448,192,168938,1,0,0:0:0:0:
320,192,168938,1,0,0:0:0:0:
192,192,168938,1,0,0:0:0:0:
320,192,169006,1,0,0:0:0:0:
192,192,169074,1,0,0:0:0:0:
448,192,169210,1,0,0:0:0:0:
320,192,169210,1,0,0:0:0:0:
64,192,169210,1,0,0:0:0:0:
64,192,169279,1,0,0:0:0:0:
448,192,169347,1,0,0:0:0:0:
192,192,169483,1,0,0:0:0:0:
320,192,169483,1,0,0:0:0:0:
64,192,169483,1,0,0:0:0:0:
320,192,169551,1,0,0:0:0:0:
64,192,169620,1,0,0:0:0:0:
448,192,169756,1,0,0:0:0:0:
320,192,169756,1,0,0:0:0:0:
192,192,169756,1,0,0:0:0:0:
192,192,169824,1,0,0:0:0:0:
448,192,169892,1,0,0:0:0:0:
64,192,170029,1,0,0:0:0:0:
192,192,170029,1,0,0:0:0:0:
448,192,170029,1,0,0:0:0:0:
448,192,170097,1,0,0:0:0:0:
64,192,170165,1,0,0:0:0:0:
320,192,170301,1,0,0:0:0:0:
448,192,170301,1,0,0:0:0:0:
192,192,170301,1,0,0:0:0:0:
192,192,170370,1,0,0:0:0:0:
448,192,170438,1,0,0:0:0:0:
64,192,170574,1,0,0:0:0:0:
192,192,170574,1,0,0:0:0:0:
448,192,170574,1,0,0:0:0:0:
320,192,170574,1,0,0:0:0:0:
64,192,170710,1,0,0:0:0:0:
192,192,170710,1,0,0:0:0:0:
320,192,170710,1,0,0:0:0:0:
320,192,170779,1,0,0:0:0:0:
64,192,170847,1,0,0:0:0:0:
64,192,170983,1,0,0:0:0:0:
192,192,170983,1,0,0:0:0:0:
320,192,170983,1,0,0:0:0:0:
448,192,170983,1,0,0:0:0:0:
448,192,171120,1,0,0:0:0:0:
320,192,171120,1,0,0:0:0:0:
192,192,171120,1,0,0:0:0:0:
192,192,171188,1,0,0:0:0:0:
320,192,171256,1,0,0:0:0:0:
64,192,171392,1,0,0:0:0:0:
192,192,171392,1,0,0:0:0:0:
320,192,171392,1,0,0:0:0:0:
448,192,171392,1,0,0:0:0:0:
64,192,171529,1,0,0:0:0:0:
192,192,171529,1,0,0:0:0:0:
448,192,171529,1,0,0:0:0:0:
448,192,171597,1,0,0:0:0:0:
192,192,171665,1,0,0:0:0:0:
64,192,171801,1,0,0:0:0:0:
192,192,171801,1,0,0:0:0:0:
320,192,171801,1,0,0:0:0:0:
448,192,171801,1,0,0:0:0:0:
64,192,171938,1,0,0:0:0:0:
192,192,171938,1,0,0:0:0:0:
320,192,171938,1,0,0:0:0:0:
64,192,172006,1,0,0:0:0:0:
448,192,172074,1,0,0:0:0:0:
320,192,172210,1,0,0:0:0:0:
448,192,172210,1,0,0:0:0:0:
64,192,172210,1,0,0:0:0:0:
320,192,172279,1,0,0:0:0:0:
64,192,172347,1,0,0:0:0:0:
448,192,172483,1,0,0:0:0:0:
192,192,172483,1,0,0:0:0:0:
320,192,172483,1,0,0:0:0:0:
320,192,172551,1,0,0:0:0:0:
64,192,172620,1,0,0:0:0:0:
64,192,172688,1,0,0:0:0:0:
448,192,172756,1,0,0:0:0:0:
320,192,172756,1,0,0:0:0:0:
192,192,172756,1,0,0:0:0:0:
448,192,172824,1,0,0:0:0:0:
192,192,172892,1,0,0:0:0:0:
64,192,172892,1,0,0:0:0:0:
192,192,172960,1,0,0:0:0:0:
320,192,173029,1,0,0:0:0:0:
320,192,173097,1,0,0:0:0:0:
64,192,173165,1,0,0:0:0:0:
192,192,173165,1,0,0:0:0:0:
448,192,173165,1,0,0:0:0:0:
64,192,173233,1,0,0:0:0:0:
448,192,173301,1,0,0:0:0:0:
320,192,173301,1,0,0:0:0:0:
192,192,173301,1,0,0:0:0:0:
64,192,173438,1,0,0:0:0:0:
192,192,173438,1,0,0:0:0:0:
448,192,173574,1,0,0:0:0:0:
320,192,173574,1,0,0:0:0:0:
64,192,173574,1,0,0:0:0:0:
448,192,173642,1,0,0:0:0:0:
192,192,173710,1,0,0:0:0:0:
64,192,173710,1,0,0:0:0:0:
192,192,173779,1,0,0:0:0:0:
64,192,173779,1,0,0:0:0:0:
320,192,173847,1,0,0:0:0:0:
448,192,173847,1,0,0:0:0:0:
448,192,173915,1,0,0:0:0:0:
64,192,173983,1,0,0:0:0:0:
192,192,173983,1,0,0:0:0:0:
320,192,173983,1,0,0:0:0:0:
64,192,174051,1,0,0:0:0:0:
320,192,174120,1,0,0:0:0:0:
448,192,174120,1,0,0:0:0:0:
320,192,174188,1,0,0:0:0:0:
192,192,174256,1,0,0:0:0:0:
64,192,174256,1,0,0:0:0:0:
448,192,174392,1,0,0:0:0:0:
320,192,174392,1,0,0:0:0:0:
192,192,174392,1,0,0:0:0:0:
192,192,174529,1,0,0:0:0:0:
320,192,174529,1,0,0:0:0:0:
448,192,174529,1,0,0:0:0:0:
64,192,174665,1,0,0:0:0:0:
320,192,174665,1,0,0:0:0:0:
448,192,174665,1,0,0:0:0:0:
192,192,174733,1,0,0:0:0:0:
448,192,174801,1,0,0:0:0:0:
320,192,174835,1,0,0:0:0:0:
64,192,174870,1,0,0:0:0:0:
192,192,174904,1,0,0:0:0:0:
448,192,174938,1,0,0:0:0:0:
320,192,174938,1,0,0:0:0:0:
64,192,175074,1,0,0:0:0:0:
192,192,175074,1,0,0:0:0:0:
320,192,175074,1,0,0:0:0:0:
448,192,175142,1,0,0:0:0:0:
64,192,175210,1,0,0:0:0:0:
192,192,175245,1,0,0:0:0:0:
320,192,175279,1,0,0:0:0:0:
448,192,175313,1,0,0:0:0:0:
192,192,175347,1,0,0:0:0:0:
64,192,175347,1,0,0:0:0:0:
448,192,175483,1,0,0:0:0:0:
320,192,175483,1,0,0:0:0:0:
192,192,175483,1,0,0:0:0:0:
64,192,175551,1,0,0:0:0:0:
448,192,175620,1,0,0:0:0:0:
320,192,175654,1,0,0:0:0:0:
192,192,175688,1,0,0:0:0:0:
64,192,175722,1,0,0:0:0:0:
448,192,175756,1,0,0:0:0:0:
320,192,175756,1,0,0:0:0:0:
64,192,175892,1,0,0:0:0:0:
192,192,175892,1,0,0:0:0:0:
448,192,175892,1,0,0:0:0:0:
320,192,175960,1,0,0:0:0:0:
64,192,176029,1,0,0:0:0:0:
192,192,176063,1,0,0:0:0:0:
448,192,176097,1,0,0:0:0:0:
320,192,176131,1,0,0:0:0:0:
192,192,176165,1,0,0:0:0:0:
64,192,176165,1,0,0:0:0:0:
448,192,176301,1,0,0:0:0:0:
320,192,176301,1,0,0:0:0:0:
64,192,176301,1,0,0:0:0:0:
192,192,176370,1,0,0:0:0:0:
320,192,176438,1,0,0:0:0:0:
448,192,176438,1,0,0:0:0:0:
64,192,176438,1,0,0:0:0:0:
192,192,176506,1,0,0:0:0:0:
448,192,176574,1,0,0:0:0:0:
320,192,176608,1,0,0:0:0:0:
64,192,176642,1,0,0:0:0:0:
192,192,176676,1,0,0:0:0:0:
320,192,176710,1,0,0:0:0:0:
448,192,176710,1,0,0:0:0:0:
64,192,176847,128,0,177120:0:0:0:0:
320,192,176847,128,0,177120:0:0:0:0:
448,192,176847,128,0,177120:0:0:0:0:
192,192,176847,128,0,177120:0:0:0:0:
64,192,177392,128,0,177665:0:0:0:0:
448,192,177392,128,0,177665:0:0:0:0:
320,192,177392,128,0,177665:0:0:0:0:
448,192,177938,128,0,178210:0:0:0:0:
64,192,177938,128,0,178210:0:0:0:0:
448,192,178483,128,0,178756:0:0:0:0:
64,192,179029,128,0,179301:0:0:0:0:
320,192,179574,128,0,179847:0:0:0:0:
192,192,180120,128,0,180392:0:0:0:0:
64,192,180665,128,0,180938:0:0:0:0:
