osu file format v14

[General]
AudioFilename: audio.mp3
AudioLeadIn: 0
PreviewTime: 47089
Countdown: 0
SampleSet: Soft
StackLeniency: 0.6
Mode: 0
LetterboxInBreaks: 0
WidescreenStoryboard: 0

[Editor]
DistanceSpacing: 1
BeatDivisor: 4
GridSize: 4
TimelineZoom: 1.5

[Metadata]
Title:Stay Alive
TitleUnicode:Stay Alive
Artist:EMILIA(CV: Rie Takahashi)
ArtistUnicode:エミリア(CV:高橋李依)
Creator:Kyuukai
Version:Normal
Source:Re:ゼロから始める異世界生活
Tags:re: zero kara hajimeru isekai seikatsu life in a different world from re:zero tv size ed ending metaku hazu- yaleufeu
BeatmapID:1206647
BeatmapSetID:568865

[Difficulty]
HPDrainRate:3
CircleSize:3
OverallDifficulty:4
ApproachRate:4
SliderMultiplier:1.79999990463257
SliderTickRate:1

[Events]
//Background and Video events
0,0,"Stay Alive bg.jpg",0,0
//Break Periods
//Storyboard Layer 0 (Background)
//Storyboard Layer 1 (Fail)
//Storyboard Layer 2 (Pass)
//Storyboard Layer 3 (Foreground)
//Storyboard Sound Samples

[TimingPoints]
54,857.142857142857,4,2,2,40,1,0
13768,-100,4,2,1,50,0,0
16339,-100,4,2,2,50,0,0
17196,-100,4,2,1,50,0,0
23196,-100,4,2,2,50,0,0
24053,-100,4,2,1,50,0,0
30911,-100,4,2,2,50,0,0
31768,-100,4,2,1,50,0,0
34339,-100,4,2,2,50,0,0
35196,-100,4,2,1,50,0,0
37768,-100,4,2,2,50,0,0
38625,-100,4,2,1,50,0,0
39482,-100,4,2,2,50,0,0
40339,-100,4,2,1,50,0,0
41196,-100,4,2,2,50,0,0
48053,-100,4,2,1,80,0,1
60911,-100,4,2,1,70,0,0
61768,-100,4,2,1,80,0,1
75482,848.056537102474,4,2,1,60,1,0
78026,-100,4,2,2,60,0,0
78874,-100,4,2,1,60,0,0
82266,851.063829787234,4,2,1,50,1,0
84819,-100,4,2,2,50,0,0
85670,845.070422535211,4,2,1,50,1,0

[Colours]
Combo1 : 0,128,0
Combo2 : 192,192,192
Combo3 : 128,0,255

[HitObjects]
305,141,54,6,0,P|352:133|431:154,1,89.9999952316285,2|0,0:0|0:0,0:0:0:0:
480,161,911,2,0,L|475:71,2,89.9999952316285,2|2|0,0:0|0:0|0:0,0:0:0:0:
444,244,2196,1,0,0:0:0:0:
375,302,2625,2,0,P|330:307|286:299,1,89.9999952316285,0|0,0:0|0:0,0:0:0:0:
209,251,3482,6,0,L|206:161,1,89.9999952316285,2|0,0:0|0:0,0:0:0:0:
158,85,4339,2,0,P|207:72|267:95,2,89.9999952316285,2|2|0,0:0|0:0|0:0,0:0:0:0:
116,164,5625,1,0,0:0:0:0:
164,239,6053,2,0,P|207:247|250:234,1,89.9999952316285,0|0,0:0|0:0,0:0:0:0:
280,148,6911,6,0,P|324:180|340:232,1,89.9999952316285,2|0,0:0|0:0,0:0:0:0:
312,296,7768,2,0,P|372:292|416:256,2,89.9999952316285,2|2|0,0:0|0:0|0:0,0:0:0:0:
228,268,9053,1,0,0:0:0:0:
144,296,9482,2,0,P|84:292|40:256,1,89.9999952316285
120,212,10339,6,0,L|124:112,1,89.9999952316285,2|0,0:0|0:0,0:0:0:0:
200,72,11196,2,0,P|258:74|317:60,2,89.9999952316285,2|2|0,0:0|0:0|0:0,0:0:0:0:
120,32,12482,1,0,0:0:0:0:
44,84,12911,2,0,L|36:180,1,89.9999952316285
10,211,13553,1,0,0:0:0:0:
10,211,13768,6,0,L|15:300,1,89.9999952316285,4|0,0:0|0:0,0:0:0:0:
83,360,14625,2,0,P|129:366|204:348,1,89.9999952316285,8|8,0:0|0:0,0:0:0:0:
214,343,15268,2,0,P|258:337|302:343,1,89.9999952316285,8|8,0:0|0:0,0:0:0:0:
347,352,15911,1,8,0:0:0:0:
421,301,16339,2,0,L|426:211,1,89.9999952316285,2|4,0:0|0:0,0:0:0:0:
405,123,17196,6,0,P|312:98|216:121,1,179.999990463257,4|8,0:0|0:0,0:0:0:0:
164,176,18482,1,8,0:0:0:0:
164,176,18696,2,0,P|158:233|173:301,1,89.9999952316285,8|8,0:0|0:0,0:0:0:0:
180,308,19339,2,0,P|237:314|305:299,1,89.9999952316285,8|8,0:0|0:0,0:0:0:0:
344,264,20196,2,0,L|360:208,1,44.9999976158143,8|8,0:0|0:0,0:0:0:0:
372,180,20625,6,0,L|363:90,2,89.9999952316285,4|0|8,0:0|0:0|0:0,0:0:0:0:
456,216,21911,1,8,0:0:0:0:
456,216,22125,2,0,L|447:305,1,89.9999952316285,8|8,0:0|0:0,0:0:0:0:
420,340,22768,2,0,P|366:349|320:338,1,89.9999952316285,8|2,0:0|0:0,0:0:0:0:
248,312,23625,1,4,0:0:0:0:
168,272,24053,6,0,P|150:177|188:92,1,179.999990463257,4|8,0:0|0:0,0:0:0:0:
248,40,25339,1,8,0:0:0:0:
248,40,25553,2,0,L|354:34,1,89.9999952316285,8|8,0:0|0:0,0:0:0:0:
376,56,26196,2,0,L|465:61,1,89.9999952316285,8|8,0:0|0:0,0:0:0:0:
500,144,27053,2,0,L|492:192,1,44.9999976158143,8|8,0:0|0:0,0:0:0:0:
481,231,27482,6,0,P|393:247|307:225,1,179.999990463257,4|8,0:0|0:0,0:0:0:0:
217,241,28768,2,0,P|220:196|243:159,2,89.9999952316285
292,292,30053,2,0,P|352:296|400:280,1,89.9999952316285,8|0,0:0|0:0,0:0:0:0:
443,225,30911,6,0,L|430:37,1,179.999990463257,4|8,0:0|0:0,0:0:0:0:
342,65,32196,2,0,P|296:76|232:56,1,89.9999952316285
180,16,33053,1,0,0:0:0:0:
92,40,33482,2,0,L|77:82,1,44.9999976158143,8|0,0:0|0:0,0:0:0:0:
60,124,33911,1,8,0:0:0:0:
112,196,34339,6,0,P|197:221|283:198,1,179.999990463257,4|8,0:0|0:0,0:0:0:0:
341,129,35625,2,0,P|370:178|360:240,1,89.9999952316285
348,296,36482,1,0,0:0:0:0:
264,261,36911,2,0,P|214:279|187:315,1,89.9999952316285,8|8,0:0|0:0,0:0:0:0:
120,360,37768,6,0,L|92:179,1,179.999990463257,4|8,0:0|0:0,0:0:0:0:
142,107,39053,1,0,0:0:0:0:
219,152,39482,2,0,P|285:142|329:112,2,89.9999952316285,4|4|8,0:0|0:0|0:0,0:0:0:0:
142,107,40768,1,8,0:0:0:0:
93,182,41196,1,2,0:0:0:0:
127,358,42053,6,0,L|29:347,2,89.9999952316285,0|0|2,0:0|0:0|0:0,0:0:0:0:
222,262,43553,1,0,0:0:0:0:
222,262,43768,2,0,L|320:251,2,89.9999952316285,0|0|2,0:0|0:0|0:0,0:0:0:0:
256,192,44839,12,0,47196,0:0:0:0:
145,211,48053,6,0,L|234:205,1,89.9999952316285,4|0,0:0|0:0,0:0:0:0:
256,244,48696,1,0,0:0:0:0:
272,284,48911,2,0,L|182:290,1,89.9999952316285,8|0,0:0|0:0,0:0:0:0:
96,320,49768,2,0,L|72:248,1,44.9999976158143
39,261,50196,2,0,L|38:192,1,44.9999976158143
39,170,50625,1,8,0:0:0:0:
42,80,51053,1,0,0:0:0:0:
128,52,51482,6,0,P|207:34|320:58,1,179.999990463257,4|8,0:0|0:0,0:0:0:0:
384,88,52768,1,0,0:0:0:0:
432,164,53196,2,0,L|500:144,2,44.9999976158143
348,192,54053,1,8,0:0:0:0:
312,276,54482,1,0,0:0:0:0:
232,232,54911,6,0,L|136:228,1,89.9999952316285,4|0,0:0|0:0,0:0:0:0:
64,188,55768,2,0,L|68:132,1,44.9999976158143,8|0,0:0|0:0,0:0:0:0:
72,100,56196,1,0,0:0:0:0:
116,20,56625,1,6,0:0:0:0:
192,68,57053,1,0,0:0:0:0:
272,28,57482,2,0,P|320:24|376:32,1,89.9999952316285,8|0,0:0|0:0,0:0:0:0:
404,44,58125,1,0,0:0:0:0:
404,44,58339,6,0,L|400:148,1,89.9999952316285,4|0,0:0|0:0,0:0:0:0:
440,212,59196,2,0,P|388:220|336:196,1,89.9999952316285,8|0,0:0|0:0,0:0:0:0:
272,168,60053,2,0,P|220:160|168:180,1,89.9999952316285,8|8,0:0|0:0,0:0:0:0:
116,228,60911,6,0,L|96:176,1,44.9999976158143,8|8,0:0|0:0,0:0:0:0:
64,156,61339,2,0,L|62:100,1,44.9999976158143,8|8,0:0|0:0,0:0:0:0:
88,72,61768,6,0,P|136:64|204:84,1,89.9999952316285,4|0,0:0|0:0,0:0:0:0:
216,92,62411,1,0,0:0:0:0:
252,116,62625,2,0,P|300:124|368:104,1,89.9999952316285,8|0,0:0|0:0,0:0:0:0:
428,92,63482,2,0,L|428:148,1,44.9999976158143
456,172,63911,2,0,L|456:228,1,44.9999976158143
456,260,64339,1,8,0:0:0:0:
424,344,64768,1,0,0:0:0:0:
356,284,65196,6,0,P|304:280|248:292,1,89.9999952316285,4|0,0:0|0:0,0:0:0:0:
184,324,66053,2,8,P|132:328|76:316,1,89.9999952316285,8|0,0:0|0:0,0:0:0:0:
28,260,66911,2,0,L|36:196,1,44.9999976158143
40,172,67339,1,0,0:0:0:0:
72,88,67768,1,8,0:0:0:0:
148,40,68196,2,0,L|208:36,1,44.9999976158143,8|8,0:0|0:0,0:0:0:0:
232,60,68625,6,0,L|348:62,1,89.9999952316285,4|8,0:0|0:0,0:0:0:0:
412,64,69482,1,8,0:0:0:0:
472,132,69911,1,8,0:0:0:0:
404,188,70339,6,0,L|287:185,1,89.9999952316285,4|8,0:0|0:0,0:0:0:0:
224,184,71196,1,8,0:0:0:0:
148,136,71625,2,0,L|156:64,1,44.9999976158143,8|8,0:0|0:0,0:0:0:0:
160,48,72053,5,4,0:0:0:0:
76,76,72482,1,4,0:0:0:0:
68,164,72911,1,4,0:0:0:0:
136,220,73339,1,4,0:0:0:0:
216,180,73768,2,0,L|212:80,1,89.9999952316285,8|8,0:0|0:0,0:0:0:0:
124,100,74625,2,0,L|116:156,1,44.9999976158143,8|8,0:0|0:0,0:0:0:0:
84,176,75053,2,0,L|76:232,1,44.9999976158143,8|8,0:0|0:0,0:0:0:0:
104,259,75482,6,0,P|189:272|304:256,1,179.999990463257,4|8,0:0|0:0,0:0:0:0:
364,225,76754,1,8,0:0:0:0:
364,225,76966,2,0,L|355:98,1,89.9999952316285,8|8,0:0|0:0,0:0:0:0:
344,92,77602,2,0,P|270:87|232:107,1,89.9999952316285,8|4,0:0|0:0,0:0:0:0:
195,159,78450,1,4,0:0:0:0:
211,247,78874,6,0,P|299:272|405:232,1,179.999990463257,4|8,0:0|0:0,0:0:0:0:
452,192,80146,1,8,0:0:0:0:
452,192,80358,2,0,L|452:94,1,89.9999952316285,8|8,0:0|0:0,0:0:0:0:
423,67,80994,2,0,P|371:58|307:73,1,89.9999952316285,8|8,0:0|0:0,0:0:0:0:
260,113,81842,2,0,L|212:96,1,44.9999976158143,8|8,0:0|0:0,0:0:0:0:
176,84,82266,6,0,L|86:86,1,89.9999952316285,4|0,0:0|0:0,0:0:0:0:
65,173,83117,2,0,L|154:175,1,89.9999952316285,8|8,0:0|0:0,0:0:0:0:
182,211,83755,2,0,L|271:213,1,89.9999952316285,8|8,0:0|0:0,0:0:0:0:
317,213,84393,1,8,0:0:0:0:
374,143,84819,2,0,P|399:179|405:225,1,89.9999952316285,4|4,0:0|0:0,0:0:0:0:
376,309,85670,6,0,L|176:315,1,179.999990463257,4|8,0:0|0:0,0:0:0:0:
109,288,86937,1,8,0:0:0:0:
109,288,87148,2,0,P|94:232|95:175,1,89.9999952316285,8|8,0:0|0:0,0:0:0:0:
100,155,87782,2,0,P|145:146|208:161,1,89.9999952316285,8|8,0:0|0:0,0:0:0:0:
232,161,88416,2,0,P|261:163|298:157,1,44.9999976158143,8|8,0:0|0:0,0:0:0:0:
321,152,88839,1,4,0:0:0:0:
