osu file format v14

[General]
AudioFilename: audio.mp3
AudioLeadIn: 0
PreviewTime: 47089
Countdown: 0
SampleSet: Soft
StackLeniency: 0.6
Mode: 0
LetterboxInBreaks: 0
WidescreenStoryboard: 0

[Editor]
DistanceSpacing: 2
BeatDivisor: 8
GridSize: 4
TimelineZoom: 1.5

[Metadata]
Title:Stay Alive
TitleUnicode:Stay Alive
Artist:EMILIA(CV: Rie Takahashi)
ArtistUnicode:エミリア(CV:高橋李依)
Creator:Kyuukai
Version:Fate
Source:Re:ゼロから始める異世界生活
Tags:re: zero kara hajimeru isekai seikatsu life in a different world from re:zero tv size ed ending metaku hazu- yaleufeu
BeatmapID:1313082
BeatmapSetID:568865

[Difficulty]
HPDrainRate:7
CircleSize:4.5
OverallDifficulty:8
ApproachRate:8
SliderMultiplier:2.99999990463257
SliderTickRate:1

[Events]
//Background and Video events
0,0,"Stay Alive bg.jpg",0,0
//Break Periods
//Storyboard Layer 0 (Background)
//Storyboard Layer 1 (Fail)
//Storyboard Layer 2 (Pass)
//Storyboard Layer 3 (Foreground)
//Storyboard Sound Samples

[TimingPoints]
54,857.142857142857,4,2,2,40,1,0
3375,-100,4,2,2,5,0,0
3482,-100,4,2,2,40,0,0
10232,-100,4,2,2,5,0,0
10339,-100,4,2,2,40,0,0
13768,-90.9090909090909,4,2,1,50,0,0
16339,-125,4,2,2,50,0,0
17196,-90.9090909090909,4,2,1,50,0,0
23196,-125,4,2,2,50,0,0
24053,-90.9090909090909,4,2,1,50,0,0
30911,-90.9090909090909,4,2,2,50,0,0
31768,-90.9090909090909,4,2,1,50,0,0
37768,-90.9090909090909,4,2,2,50,0,0
38625,-90.9090909090909,4,2,1,50,0,0
39482,-90.9090909090909,4,2,2,50,0,0
40339,-90.9090909090909,4,2,1,50,0,0
41196,-125,4,2,2,50,0,0
44625,-166.666666666667,4,2,2,50,0,0
47196,-200,4,2,2,50,0,0
48053,-83.3333333333333,4,2,1,80,0,1
60911,-100,4,2,1,70,0,0
61768,-83.3333333333333,4,2,1,80,0,1
75482,848.056537102474,4,2,1,60,1,0
78026,-100,4,2,2,60,0,0
78874,-100,4,2,1,60,0,0
82266,851.063829787234,4,2,1,50,1,0
84819,-100,4,2,2,50,0,0
85670,845.070422535211,4,2,1,50,1,0
88839,-100,4,2,1,70,0,0

[Colours]
Combo1 : 0,128,0
Combo2 : 192,192,192
Combo3 : 128,0,255

[HitObjects]
105,279,54,6,0,P|67:206|94:149,1,149.999995231629,2|0,0:0|0:0,0:0:0:0:
150,210,696,1,0,0:0:0:0:
150,210,911,2,0,L|255:207,1,74.9999976158143,2|0,0:0|0:0,0:0:0:0:
280,269,1339,2,0,L|354:271,1,74.9999976158143,2|0,0:0|0:0,0:0:0:0:
437,275,1768,5,0,0:0:0:0:
443,287,2196,5,0,0:0:0:0:
450,301,2625,6,0,P|450:217|330:266,1,262.49999165535
397,259,3482,6,0,P|419:190|399:113,1,149.999995231629,2|0,0:0|0:0,0:0:0:0:
342,49,4125,1,0,0:0:0:0:
278,114,4339,2,0,P|269:159|285:203,2,74.9999976158143,2|0|2,0:0|0:0|0:0,0:0:0:0:
419,51,5196,5,0,0:0:0:0:
422,66,5625,5,0,0:0:0:0:
425,81,6053,5,0,0:0:0:0:
346,58,6268,1,0,0:0:0:0:
272,94,6482,1,0,0:0:0:0:
201,51,6696,1,0,0:0:0:0:
138,124,6911,6,0,P|125:199|137:289,1,149.999995231629,2|0,0:0|0:0,0:0:0:0:
193,327,7553,1,0,0:0:0:0:
263,284,7768,2,0,L|348:276,1,74.9999976158143,2|0,0:0|0:0,0:0:0:0:
371,201,8196,2,0,L|286:193,1,74.9999976158143,2|0,0:0|0:0,0:0:0:0:
213,186,8625,5,0,0:0:0:0:
208,202,9053,5,0,0:0:0:0:
199,221,9482,6,0,P|107:224|151:104,1,262.49999165535
151,172,10339,6,0,P|79:168|53:77,1,149.999995231629,2|0,0:0|0:0,0:0:0:0:
92,40,10982,1,0,0:0:0:0:
157,91,11196,2,0,L|239:71,2,74.9999976158143,2|0|2,0:0|0:0|0:0,0:0:0:0:
47,117,12053,5,0,0:0:0:0:
41,135,12482,5,0,0:0:0:0:
36,155,12911,5,0,0:0:0:0:
96,216,13125,1,0,0:0:0:0:
108,144,13339,1,0,0:0:0:0:
24,224,13553,1,0,0:0:0:0:
160,268,13768,6,0,P|209:265|298:219,1,123.749999842644,4|0,0:0|0:0,0:0:0:0:
298,214,14196,2,0,L|266:188,4,27.499999965032
298,214,14625,6,0,P|341:215|404:222,1,82.4999998950959,8|0,0:0|0:0,0:0:0:0:
468,263,15053,1,8,0:0:0:0:
329,143,15268,2,0,P|370:145|410:151,1,82.4999998950959,8|0,0:0|0:0,0:0:0:0:
468,232,15696,1,8,0:0:0:0:
358,74,15911,2,0,P|402:78|464:93,1,82.4999998950959,8|0,0:0|0:0,0:0:0:0:
260,144,16339,6,0,L|248:16,1,119.999996185303,2|4,0:0|0:0,0:0:0:0:
74,111,17196,6,0,P|60:188|65:253,1,123.749999842644,4|0,0:0|0:0,0:0:0:0:
65,262,17625,2,0,L|18:283,4,27.499999965032
65,262,18053,6,0,P|107:265|173:259,1,82.4999998950959,8|0,0:0|0:0,0:0:0:0:
221,197,18482,1,8,0:0:0:0:
96,288,18696,6,0,P|136:298|202:303,1,82.4999998950959,8|0,0:0|0:0,0:0:0:0:
236,208,19125,1,8,0:0:0:0:
128,312,19339,6,0,P|166:329|230:346,1,82.4999998950959,8|0,0:0|0:0,0:0:0:0:
252,220,19768,1,8,0:0:0:0:
244,132,19982,2,8,L|240:104,3,27.499999965032
232,40,20411,1,8,0:0:0:0:
252,220,20625,6,0,P|323:219|392:198,1,123.749999842644,4|0,0:0|0:0,0:0:0:0:
399,193,21053,2,0,L|415:223,4,27.499999965032
399,193,21482,6,0,L|407:86,1,82.4999998950959,8|0,0:0|0:0,0:0:0:0:
320,32,21911,1,8,0:0:0:0:
308,192,22125,2,0,L|316:85,1,82.4999998950959,8|0,0:0|0:0,0:0:0:0:
232,28,22553,1,8,0:0:0:0:
220,188,22768,2,0,L|228:81,1,82.4999998950959,8|0,0:0|0:0,0:0:0:0:
260,260,23196,6,0,P|196:268|152:236,1,119.999996185303,2|4,0:0|0:0,0:0:0:0:
226,105,24053,6,0,P|311:124|353:177,1,123.749999842644,4|0,0:0|0:0,0:0:0:0:
355,169,24482,2,0,L|390:152,4,27.499999965032
355,169,24911,6,0,L|349:270,1,82.4999998950959,8|0,0:0|0:0,0:0:0:0:
273,313,25339,1,8,0:0:0:0:
285,132,25553,2,0,L|279:233,1,82.4999998950959,8|0,0:0|0:0,0:0:0:0:
204,278,25982,1,8,0:0:0:0:
215,97,26196,2,0,L|209:198,1,82.4999998950959,8|0,0:0|0:0,0:0:0:0:
210,198,26482,2,8,L|181:217,2,27.499999965032
355,169,26839,1,8,0:0:0:0:
285,132,27053,1,8,0:0:0:0:
215,97,27268,1,8,0:0:0:0:
122,277,27482,6,0,P|169:283|221:271,1,82.4999998950959,4|0,0:0|0:0,0:0:0:0:
280,228,27911,1,0,0:0:0:0:
285,132,28125,1,0,0:0:0:0:
124,176,28339,2,0,P|144:184|208:172,1,82.4999998950959,8|0,0:0|0:0,0:0:0:0:
164,100,28768,1,0,0:0:0:0:
212,248,28982,6,0,P|286:277|355:234,1,164.999999790192
373,146,29625,1,0,0:0:0:0:
278,189,29839,1,0,0:0:0:0:
428,276,30053,2,0,P|437:236|428:196,1,82.4999998950959,8|0,0:0|0:0,0:0:0:0:
354,235,30482,1,0,0:0:0:0:
416,372,30696,1,0,0:0:0:0:
265,328,30911,6,0,B|195:303|176:362|104:333,1,164.999999790192,4|0,0:0|0:0,0:0:0:0:
100,208,31553,1,0,0:0:0:0:
100,208,31768,2,0,B|172:179|191:238|261:213,1,164.999999790192,8|0,0:0|0:0,0:0:0:0:
240,323,32411,1,0,0:0:0:0:
325,272,32625,2,0,P|368:264|429:280,2,82.4999998950959
240,323,33268,1,0,0:0:0:0:
224,136,33482,5,8,0:0:0:0:
240,323,33696,1,0,0:0:0:0:
152,200,33911,1,8,0:0:0:0:
325,272,34125,1,8,0:0:0:0:
140,192,34339,6,0,P|106:100|136:43,1,164.999999790192,4|0,0:0|0:0,0:0:0:0:
228,24,34982,1,0,0:0:0:0:
279,112,35196,2,0,P|285:149|276:193,1,82.4999998950959,8|0,0:0|0:0,0:0:0:0:
168,226,35625,1,0,0:0:0:0:
107,103,35839,1,0,0:0:0:0:
228,24,36053,6,0,L|310:23,2,82.4999998950959
108,124,36696,1,0,0:0:0:0:
276,192,36911,2,0,P|284:152|279:112,1,82.4999998950959,8|0,0:0|0:0,0:0:0:0:
228,24,37339,1,8,0:0:0:0:
108,104,37553,1,8,0:0:0:0:
142,232,37768,6,0,P|219:248|275:192,1,164.999999790192,4|0,0:0|0:0,0:0:0:0:
194,167,38411,1,0,0:0:0:0:
276,300,38625,2,0,B|355:275|371:331|452:302,1,164.999999790192,8|0,0:0|0:0,0:0:0:0:
405,209,39268,1,0,0:0:0:0:
303,164,39482,2,0,P|294:125|304:85,1,82.4999998950959,4|0,0:0|0:0,0:0:0:0:
485,208,39911,2,0,P|438:217|397:205,1,82.4999998950959,4|0,0:0|0:0,0:0:0:0:
305,85,40339,5,8,0:0:0:0:
264,256,40553,1,8,0:0:0:0:
207,85,40768,5,8,0:0:0:0:
156,252,40982,1,8,0:0:0:0:
108,88,41196,5,2,0:0:0:0:
218,133,42053,5,0,0:0:0:0:
207,150,42482,2,0,L|60:155,1,119.999996185303,0|2,0:0|0:0,0:0:0:0:
294,251,43553,5,0,0:0:0:0:
305,234,43768,2,0,L|424:229,1,119.999996185303
363,132,44625,6,0,B|313:121|262:133|262:133|174:136|171:44|282:48|309:78|223:184|164:199|164:199|180:216|180:216|148:258|100:264,1,494.999969158174,2|0,0:0|0:0,0:0:0:0:
113,261,47196,6,0,P|84:202|107:143,1,131.249995827675
165,199,48053,6,0,P|252:195|312:131,1,179.99998878479,4|0,0:0|0:0,0:0:0:0:
284,44,48696,1,0,0:0:0:0:
371,71,48911,2,0,P|397:133|387:171,1,89.9999943923952,8|0,0:0|0:0,0:0:0:0:
323,249,49339,1,0,0:0:0:0:
313,131,49553,1,0,0:0:0:0:
453,211,49768,2,0,P|458:267|442:307,1,89.9999943923952,0|8,0:0|0:0,0:0:0:0:
348,364,50196,1,0,0:0:0:0:
324,226,50411,1,0,0:0:0:0:
149,212,50625,2,0,B|215:243|263:190|324:226,1,179.99998878479,8|0,0:0|0:0,0:0:0:0:
274,310,51268,1,0,0:0:0:0:
196,119,51482,6,0,B|130:150|82:97|21:133,1,179.99998878479,4|0,0:0|0:0,0:0:0:0:
72,217,52125,1,0,0:0:0:0:
148,28,52339,2,0,P|208:16|252:32,1,89.9999943923952,8|0,0:0|0:0,0:0:0:0:
316,152,52768,1,0,0:0:0:0:
196,119,52982,1,0,0:0:0:0:
404,60,53196,5,0,0:0:0:0:
392,256,53411,1,8,0:0:0:0:
276,88,53625,1,0,0:0:0:0:
492,160,53839,1,0,0:0:0:0:
292,224,54053,2,0,P|240:232|204:220,1,89.9999943923952,8|0,0:0|0:0,0:0:0:0:
112,168,54482,2,0,L|128:60,1,89.9999943923952,8|8,0:0|0:0,0:0:0:0:
196,292,54911,6,0,P|246:301|305:293,1,89.9999943923952,4|0,0:0|0:0,0:0:0:0:
388,221,55339,1,0,0:0:0:0:
463,331,55553,1,0,0:0:0:0:
388,221,55768,2,0,P|338:212|279:220,1,89.9999943923952,8|0,0:0|0:0,0:0:0:0:
196,292,56196,2,0,P|246:301|305:293,1,89.9999943923952
202,190,56625,5,0,0:0:0:0:
107,372,56839,1,8,0:0:0:0:
288,310,57053,2,0,P|243:311|198:303,1,89.9999943923952
294,206,57482,2,0,P|339:201|384:206,1,89.9999943923952,8|0,0:0|0:0,0:0:0:0:
317,93,57911,1,0,0:0:0:0:
202,190,58125,1,8,0:0:0:0:
343,299,58339,6,0,P|439:292|487:210,1,179.99998878479,4|0,0:0|0:0,0:0:0:0:
384,206,58982,1,0,0:0:0:0:
272,255,59196,2,0,P|260:308|280:354,1,89.9999943923952,8|0,0:0|0:0,0:0:0:0:
384,206,59625,2,0,P|396:153|376:107,1,89.9999943923952
220,158,60053,6,0,P|262:171|306:161,1,89.9999943923952,8|0,0:0|0:0,0:0:0:0:
140,95,60482,2,0,L|120:182,1,89.9999943923952,8|0,0:0|0:0,0:0:0:0:
268,264,60911,5,8,0:0:0:0:
236,60,61125,1,8,0:0:0:0:
172,264,61339,5,8,0:0:0:0:
340,72,61553,1,8,0:0:0:0:
362,310,61768,6,0,P|274:364|191:338,1,179.99998878479,4|0,0:0|0:0,0:0:0:0:
241,246,62411,1,0,0:0:0:0:
342,229,62625,2,0,P|379:228|432:265,1,89.9999943923952,8|0,0:0|0:0,0:0:0:0:
440,352,63053,2,0,P|395:350|358:326,1,89.9999943923952
248,198,63482,5,0,0:0:0:0:
189,281,63696,1,8,0:0:0:0:
248,121,63911,1,0,0:0:0:0:
344,224,64125,1,0,0:0:0:0:
165,109,64339,2,0,P|219:43|304:58,1,179.99998878479,8|0,0:0|0:0,0:0:0:0:
248,121,64982,1,0,0:0:0:0:
111,171,65196,6,0,P|86:135|85:90,1,89.9999943923952,4|0,0:0|0:0,0:0:0:0:
182,227,65625,1,0,0:0:0:0:
248,121,65839,1,0,0:0:0:0:
409,229,66053,2,0,P|364:234|321:225,1,89.9999943923952,8|0,0:0|0:0,0:0:0:0:
414,63,66482,2,0,L|411:152,1,89.9999943923952
320,344,66911,5,0,0:0:0:0:
289,162,67125,1,8,0:0:0:0:
433,270,67339,1,0,0:0:0:0:
230,266,67553,1,0,0:0:0:0:
411,152,67768,2,0,L|414:63,1,89.9999943923952,8|0,0:0|0:0,0:0:0:0:
289,162,68196,1,8,0:0:0:0:
176,56,68411,1,8,0:0:0:0:
67,227,68625,6,0,L|62:323,1,89.9999943923952,4|0,0:0|0:0,0:0:0:0:
185,228,69053,2,0,L|180:138,1,89.9999943923952,8|0,0:0|0:0,0:0:0:0:
445,157,69482,6,0,L|450:61,1,89.9999943923952,8|0,0:0|0:0,0:0:0:0:
327,156,69911,2,0,L|332:246,1,89.9999943923952,8|0,0:0|0:0,0:0:0:0:
62,316,70339,6,0,P|52:272|60:228,1,89.9999943923952,8|0,0:0|0:0,0:0:0:0:
195,142,70768,2,0,P|204:185|196:229,1,89.9999943923952,8|0,0:0|0:0,0:0:0:0:
16,139,71196,6,0,P|59:130|103:138,1,89.9999943923952,8|0,0:0|0:0,0:0:0:0:
195,229,71625,1,8,0:0:0:0:
62,316,71839,1,8,0:0:0:0:
103,138,72053,6,0,L|215:114,1,89.9999943923952,4|0,0:0|0:0,0:0:0:0:
375,193,72482,2,0,L|263:217,1,89.9999943923952,4|0,0:0|0:0,0:0:0:0:
178,34,72911,6,0,L|290:10,1,89.9999943923952,4|0,0:0|0:0,0:0:0:0:
286,211,73339,2,0,L|174:235,1,89.9999943923952,4|0,0:0|0:0,0:0:0:0:
191,119,73768,5,8,0:0:0:0:
266,15,73982,1,0,0:0:0:0:
286,211,74196,1,8,0:0:0:0:
112,112,74411,1,0,0:0:0:0:
298,97,74625,6,8,L|357:93,2,59.9999962615968
435,40,75053,2,8,L|530:45,2,59.9999962615968
484,155,75482,6,0,P|487:237|461:293,1,112.499996423721,4|0,0:0|0:0,0:0:0:0:
461,285,75906,2,0,L|490:318,4,24.9999992052714
461,285,76330,6,0,L|371:271,1,74.9999976158143,8|0,0:0|0:0,0:0:0:0:
321,211,76754,1,8,0:0:0:0:
200,344,76966,2,0,L|290:330,1,74.9999976158143,8|0,0:0|0:0,0:0:0:0:
308,249,77390,1,8,0:0:0:0:
128,245,77602,2,0,L|202:256,1,74.9999976158143,8|0,0:0|0:0,0:0:0:0:
57,175,78026,6,0,P|41:265|59:334,1,149.999995231629,2|4,0:0|0:0,0:0:0:0:
131,115,78874,6,0,P|192:117|270:97,1,112.499996423721,4|0,0:0|0:0,0:0:0:0:
268,104,79298,2,0,L|271:149,4,24.9999992052714
268,104,79722,6,0,P|330:98|355:101,1,74.9999976158143,8|0,0:0|0:0,0:0:0:0:
426,131,80146,1,8,0:0:0:0:
324,267,80358,2,0,P|313:232|312:195,1,74.9999976158143,8|0,0:0|0:0,0:0:0:0:
342,99,80782,1,8,0:0:0:0:
476,204,80994,2,0,P|440:215|403:217,1,74.9999976158143,8|0,0:0|0:0,0:0:0:0:
312,193,81418,5,8,0:0:0:0:
324,267,81630,2,8,L|329:298,3,24.9999992052714
312,193,82054,1,8,0:0:0:0:
126,118,82266,6,0,P|108:186|119:248,1,112.499996423721,4|0,0:0|0:0,0:0:0:0:
112,227,82691,2,0,L|68:237,4,24.9999992052714
112,227,83117,6,0,L|202:207,1,74.9999976158143,8|0,0:0|0:0,0:0:0:0:
241,139,83542,1,8,0:0:0:0:
359,274,83755,2,0,L|285:257,1,74.9999976158143,8|0,0:0|0:0,0:0:0:0:
210,207,84180,1,8,0:0:0:0:
307,358,84393,2,0,L|380:374,1,74.9999976158143,8|0,0:0|0:0,0:0:0:0:
450,211,84819,2,0,P|465:312|439:378,1,149.999995231629,2|4,0:0|0:0,0:0:0:0:
333,193,85670,6,0,P|318:144|338:74,1,112.499996423721,4|0,0:0|0:0,0:0:0:0:
345,63,86092,2,0,L|308:46,4,24.9999992052714
345,63,86515,6,0,P|386:68|436:61,1,74.9999976158143,8|0,0:0|0:0,0:0:0:0:
496,18,86937,1,8,0:0:0:0:
380,156,87148,2,0,P|339:161|289:154,1,74.9999976158143,8|0,0:0|0:0,0:0:0:0:
229,112,87570,1,8,0:0:0:0:
211,23,87782,1,8,0:0:0:0:
349,79,87993,1,0,0:0:0:0:
287,263,88205,5,8,0:0:0:0:
229,112,88416,1,8,0:0:0:0:
457,139,88628,1,8,0:0:0:0:
168,224,88839,1,12,0:0:0:0:
