osu file format v14

[General]
AudioFilename: audio.mp3
AudioLeadIn: 0
PreviewTime: 50344
Countdown: 0
SampleSet: Normal
StackLeniency: 0.7
Mode: 1
LetterboxInBreaks: 0
WidescreenStoryboard: 0

[Editor]
DistanceSpacing: 0.5
BeatDivisor: 1
GridSize: 16
TimelineZoom: 1

[Metadata]
Title:Stay Alive (Jun Kuroda Bootleg Remix)
TitleUnicode:Stay Alive (Jun Kuroda Bootleg Remix)
Artist:EMILIA (CV: Takahashi Rie)
ArtistUnicode:エミリア (CV:高橋李依)
Creator:sing216
Version:Kantan
Source:Re:ゼロから始める異世界生活
Tags:Re:Zero re zero EMT E.M.T Starting Life in Another World anime ED Ending 2 yassu-
BeatmapID:1572493
BeatmapSetID:745213

[Difficulty]
HPDrainRate:7
CircleSize:5
OverallDifficulty:3
ApproachRate:5
SliderMultiplier:1.4
SliderTickRate:1

[Events]
//Background and Video events
0,0,"BG.jpg",0,100
//Break Periods
//Storyboard Layer 0 (Background)
//Storyboard Layer 1 (Fail)
//Storyboard Layer 2 (Pass)
//Storyboard Layer 3 (Foreground)
//Storyboard Sound Samples

[TimingPoints]
1379,344.827586206897,4,1,0,50,1,0
1379,-133.333333333333,4,1,0,50,0,0
12413,-117.647058823529,4,1,0,60,0,0
22413,-100,4,1,0,80,0,0
45689,-117.647058823529,4,1,0,30,0,0
51034,-100,4,1,0,90,0,1
62068,-100,4,1,0,90,0,0
62413,-100,4,1,0,90,0,1
71723,-100,4,1,0,60,0,0
73447,-100,4,1,0,90,0,1
82758,-100,4,1,0,60,0,0
84137,-100,4,1,0,80,0,0
93965,-100,4,1,0,60,0,0
95172,-100,4,1,0,80,0,0
106379,-117.647058823529,4,1,0,30,0,0
111723,-100,4,1,0,90,0,1
122758,-100,4,1,0,90,0,0
123103,-100,4,1,0,90,0,1
132413,-100,4,1,0,60,0,0
133792,-100,4,1,0,85,0,0
144827,-100,4,1,0,90,0,1
155861,-100,4,1,0,50,0,0
155947,-117.647058823529,4,1,0,50,0,0
166896,-105.263157894737,4,1,0,60,0,0
176379,-105.263157894737,4,1,0,70,0,0
177930,-100,4,1,0,80,0,0
188965,-100,4,1,0,90,0,1
199999,-100,4,1,0,90,0,0
200344,-100,4,1,0,90,0,1
209654,-100,4,1,0,60,0,0
211034,-117.647058823529,4,1,0,60,0,0
221034,-117.647058823529,4,1,0,50,0,0
221379,-117.647058823529,4,1,0,46,0,0
221723,-117.647058823529,4,1,0,42,0,0

[HitObjects]
256,192,1379,5,4,0:0:0:0:
256,192,2068,1,0,0:0:0:0:
256,192,3447,1,8,0:0:0:0:
256,192,4137,1,0,0:0:0:0:
256,192,4827,1,8,0:0:0:0:
256,192,5172,1,8,0:0:0:0:
256,192,6896,1,0,0:0:0:0:
256,192,7585,1,0,0:0:0:0:
256,192,8965,1,8,0:0:0:0:
256,192,9654,1,0,0:0:0:0:
256,192,10344,1,8,0:0:0:0:
256,192,10689,1,8,0:0:0:0:
256,192,12413,1,4,0:0:0:0:
256,192,13103,1,8,0:0:0:0:
256,192,13447,1,0,0:0:0:0:
256,192,14137,1,0,0:0:0:0:
256,192,14482,1,8,0:0:0:0:
256,192,15172,1,0,0:0:0:0:
256,192,15861,1,8,0:0:0:0:
256,192,16206,1,0,0:0:0:0:
256,192,17241,1,8,0:0:0:0:
256,192,17930,1,0,0:0:0:0:
256,192,18620,1,8,0:0:0:0:
256,192,18965,1,0,0:0:0:0:
256,192,19654,1,0,0:0:0:0:
256,192,19999,1,8,0:0:0:0:
256,192,20689,1,0,0:0:0:0:
256,192,21379,1,8,0:0:0:0:
256,192,21723,1,0,0:0:0:0:
256,192,22068,1,12,0:0:0:0:
256,192,23447,1,4,0:0:0:0:
256,192,24137,1,0,0:0:0:0:
256,192,24482,1,0,0:0:0:0:
256,192,24827,1,8,0:0:0:0:
256,192,25516,1,0,0:0:0:0:
256,192,25861,1,8,0:0:0:0:
256,192,26206,1,0,0:0:0:0:
256,192,27585,1,0,0:0:0:0:
256,192,28275,1,8,0:0:0:0:
256,192,28620,1,8,0:0:0:0:
256,192,28965,1,0,0:0:0:0:
256,192,29654,1,8,0:0:0:0:
256,192,30344,1,0,0:0:0:0:
256,192,31034,1,0,0:0:0:0:
256,192,31379,1,8,0:0:0:0:
256,192,31723,1,0,0:0:0:0:
256,192,32758,1,0,0:0:0:0:
256,192,33792,1,8,0:0:0:0:
256,192,34137,1,8,0:0:0:0:
256,192,34482,1,4,0:0:0:0:
256,192,35172,1,8,0:0:0:0:
256,192,35861,1,0,0:0:0:0:
256,192,36551,1,0,0:0:0:0:
256,192,36896,1,8,0:0:0:0:
256,192,37241,1,0,0:0:0:0:
256,192,38275,1,0,0:0:0:0:
256,192,38620,1,8,0:0:0:0:
256,192,39310,1,8,0:0:0:0:
256,192,39654,1,8,0:0:0:0:
256,192,39999,1,0,0:0:0:0:
256,192,40689,1,8,0:0:0:0:
256,192,41379,1,0,0:0:0:0:
256,192,42068,1,0,0:0:0:0:
256,192,42413,1,8,0:0:0:0:
256,192,42758,1,0,0:0:0:0:
256,192,43792,1,0,0:0:0:0:
256,192,44137,1,8,0:0:0:0:
256,192,44827,1,8,0:0:0:0:
256,192,45172,1,8,0:0:0:0:
256,192,45516,1,4,0:0:0:0:
256,192,48275,12,0,49654,0:0:0:0:
256,192,50344,5,8,0:0:0:0:
256,192,51034,5,4,0:0:0:0:
256,192,51723,1,8,0:0:0:0:
256,192,52068,1,8,0:0:0:0:
256,192,52413,1,0,0:0:0:0:
256,192,53103,1,0,0:0:0:0:
256,192,53447,1,8,0:0:0:0:
256,192,53792,1,0,0:0:0:0:
256,192,54482,1,0,0:0:0:0:
256,192,54827,1,8,0:0:0:0:
256,192,55861,1,0,0:0:0:0:
240,192,56206,1,0,0:0:0:0:
256,192,56896,1,8,0:0:0:0:
256,192,57241,1,0,0:0:0:0:
256,192,57585,1,8,0:0:0:0:
256,192,58275,1,8,0:0:0:0:
256,192,58620,1,0,0:0:0:0:
256,192,59310,1,8,0:0:0:0:
256,192,59999,1,0,0:0:0:0:
256,192,60344,1,8,0:0:0:0:
256,192,60689,1,0,0:0:0:0:
256,192,61034,1,0,0:0:0:0:
256,192,62068,1,0,0:0:0:0:
256,192,62413,5,12,0:0:0:0:
256,192,63103,1,8,0:0:0:0:
256,192,63447,1,0,0:0:0:0:
256,192,63792,1,8,0:0:0:0:
256,192,64482,1,8,0:0:0:0:
256,192,64827,1,4,0:0:0:0:
256,192,65861,1,12,0:0:0:0:
256,192,66551,1,0,0:0:0:0:
256,192,67241,1,8,0:0:0:0:
256,192,67585,1,0,0:0:0:0:
256,192,68275,1,0,0:0:0:0:
256,192,68620,1,0,0:0:0:0:
256,192,68965,1,0,0:0:0:0:
256,192,69654,1,8,0:0:0:0:
256,192,69999,1,8,0:0:0:0:
256,192,70344,1,8,0:0:0:0:
256,192,71034,1,0,0:0:0:0:
256,192,71379,1,8,0:0:0:0:
256,192,71723,1,0,0:0:0:0:
256,192,73103,1,0,0:0:0:0:
256,192,73447,1,12,0:0:0:0:
256,192,74137,1,8,0:0:0:0:
256,192,74482,1,0,0:0:0:0:
256,192,74827,1,8,0:0:0:0:
256,192,75516,1,8,0:0:0:0:
256,192,75861,1,4,0:0:0:0:
256,192,76896,1,12,0:0:0:0:
256,192,77585,1,0,0:0:0:0:
256,192,78275,1,8,0:0:0:0:
256,192,78620,1,0,0:0:0:0:
256,192,79310,1,0,0:0:0:0:
256,192,79654,1,0,0:0:0:0:
256,192,79999,1,0,0:0:0:0:
256,192,80689,1,8,0:0:0:0:
256,192,81034,1,0,0:0:0:0:
256,192,81379,1,8,0:0:0:0:
256,192,82068,1,0,0:0:0:0:
256,192,82413,1,8,0:0:0:0:
256,192,82758,1,0,0:0:0:0:
256,192,84137,1,4,0:0:0:0:
256,192,84827,1,8,0:0:0:0:
256,192,85516,1,0,0:0:0:0:
256,192,86206,1,0,0:0:0:0:
256,192,86551,1,8,0:0:0:0:
256,192,86896,1,0,0:0:0:0:
256,192,88275,1,0,0:0:0:0:
256,192,88965,1,8,0:0:0:0:
256,192,89310,1,8,0:0:0:0:
256,192,89654,1,0,0:0:0:0:
256,192,90344,1,8,0:0:0:0:
256,192,91034,1,0,0:0:0:0:
256,192,91723,1,8,0:0:0:0:
256,192,92068,1,0,0:0:0:0:
256,192,92413,1,0,0:0:0:0:
256,192,93103,1,8,0:0:0:0:
256,192,93447,1,8,0:0:0:0:
256,192,93792,5,0,0:0:0:0:
256,192,95172,1,4,0:0:0:0:
256,192,95861,1,8,0:0:0:0:
256,192,96551,1,0,0:0:0:0:
256,192,97241,1,0,0:0:0:0:
256,192,97585,1,8,0:0:0:0:
256,192,97930,1,0,0:0:0:0:
256,192,98965,1,8,0:0:0:0:
256,192,99310,1,0,0:0:0:0:
256,192,99999,1,8,0:0:0:0:
256,192,100344,1,8,0:0:0:0:
256,192,100689,1,0,0:0:0:0:
256,192,101379,1,8,0:0:0:0:
256,192,102068,1,0,0:0:0:0:
256,192,102758,1,0,0:0:0:0:
256,192,103103,1,8,0:0:0:0:
256,192,103447,1,0,0:0:0:0:
256,192,104482,1,8,0:0:0:0:
256,192,104827,1,0,0:0:0:0:
256,192,105516,5,8,0:0:0:0:
256,192,105861,1,8,0:0:0:0:
256,192,106206,1,4,0:0:0:0:
256,192,108965,12,0,110344,0:0:0:0:
256,192,111034,5,0,0:0:0:0:
256,192,111723,5,4,0:0:0:0:
256,192,112413,1,8,0:0:0:0:
256,192,112758,1,8,0:0:0:0:
256,192,113103,1,0,0:0:0:0:
256,192,113792,1,0,0:0:0:0:
256,192,114137,1,8,0:0:0:0:
256,192,114482,1,0,0:0:0:0:
256,192,115172,1,0,0:0:0:0:
256,192,115516,1,8,0:0:0:0:
256,192,116551,1,0,0:0:0:0:
256,192,116896,1,0,0:0:0:0:
256,192,117585,1,8,0:0:0:0:
256,192,117930,1,0,0:0:0:0:
256,192,118275,1,8,0:0:0:0:
256,192,118965,1,8,0:0:0:0:
256,192,119310,1,0,0:0:0:0:
256,192,119999,1,8,0:0:0:0:
256,192,120689,1,0,0:0:0:0:
256,192,121034,1,8,0:0:0:0:
256,192,121379,1,0,0:0:0:0:
256,192,121723,1,0,0:0:0:0:
256,192,122758,1,0,0:0:0:0:
256,192,123103,5,12,0:0:0:0:
256,192,123792,1,8,0:0:0:0:
256,192,124137,1,0,0:0:0:0:
256,192,124482,1,8,0:0:0:0:
256,192,125172,1,8,0:0:0:0:
256,192,125516,1,4,0:0:0:0:
256,192,126551,1,12,0:0:0:0:
256,192,127241,1,0,0:0:0:0:
256,192,127930,1,8,0:0:0:0:
256,192,128275,1,0,0:0:0:0:
256,192,128965,1,0,0:0:0:0:
256,192,129310,1,0,0:0:0:0:
256,192,129654,1,0,0:0:0:0:
256,192,130344,1,8,0:0:0:0:
256,192,130689,1,8,0:0:0:0:
256,192,131034,1,8,0:0:0:0:
256,192,131723,1,0,0:0:0:0:
256,192,132068,1,8,0:0:0:0:
256,192,132413,1,0,0:0:0:0:
256,192,133792,12,0,135172,0:0:0:0:
256,192,135861,5,8,0:0:0:0:
256,192,136551,12,0,137930,0:0:0:0:
256,192,138620,5,0,0:0:0:0:
256,192,138965,1,0,0:0:0:0:
256,192,139310,12,0,140689,0:0:0:0:
256,192,141379,5,8,0:0:0:0:
256,192,141723,1,8,0:0:0:0:
256,192,142068,12,0,144137,0:0:0:0:
256,192,144827,5,4,0:0:0:0:
256,192,145861,1,8,0:0:0:0:
256,192,146206,1,0,0:0:0:0:
256,192,146551,1,8,0:0:0:0:
256,192,147241,1,8,0:0:0:0:
256,192,147585,1,0,0:0:0:0:
256,192,148620,1,0,0:0:0:0:
256,192,148965,1,8,0:0:0:0:
256,192,149310,1,0,0:0:0:0:
256,192,149999,1,0,0:0:0:0:
256,192,150344,1,8,0:0:0:0:
256,192,151379,1,8,0:0:0:0:
256,192,151723,1,0,0:0:0:0:
240,192,152068,1,8,0:0:0:0:
256,192,152758,1,8,0:0:0:0:
256,192,153103,1,0,0:0:0:0:
256,192,154137,1,8,0:0:0:0:
256,192,154482,1,0,0:0:0:0:
256,192,154827,1,0,0:0:0:0:
256,192,155172,1,8,0:0:0:0:
256,192,155861,5,4,0:0:0:0:
256,192,157930,1,8,0:0:0:0:
256,192,158620,1,0,0:0:0:0:
256,192,159310,1,8,0:0:0:0:
256,192,161379,1,0,0:0:0:0:
256,192,162068,1,0,0:0:0:0:
256,192,163447,1,8,0:0:0:0:
256,192,164137,1,0,0:0:0:0:
256,192,164827,1,8,0:0:0:0:
256,192,166896,5,4,0:0:0:0:
256,192,167585,1,8,0:0:0:0:
256,192,167930,1,0,0:0:0:0:
256,192,168620,1,0,0:0:0:0:
256,192,168965,1,8,0:0:0:0:
256,192,169654,1,0,0:0:0:0:
256,192,170344,1,8,0:0:0:0:
256,192,170689,1,0,0:0:0:0:
256,192,171723,1,8,0:0:0:0:
256,192,172413,1,0,0:0:0:0:
256,192,173103,1,8,0:0:0:0:
256,192,173447,1,0,0:0:0:0:
256,192,174137,1,0,0:0:0:0:
256,192,174482,1,8,0:0:0:0:
256,192,175172,1,0,0:0:0:0:
256,192,175861,5,8,0:0:0:0:
256,192,176206,1,0,0:0:0:0:
256,192,176551,12,0,177585,0:0:0:0:
256,192,177930,5,4,0:0:0:0:
256,192,178620,1,8,0:0:0:0:
256,192,179310,1,0,0:0:0:0:
256,192,179999,1,0,0:0:0:0:
256,192,180344,1,8,0:0:0:0:
256,192,180689,1,0,0:0:0:0:
256,192,181723,1,8,0:0:0:0:
256,192,182068,1,0,0:0:0:0:
256,192,182758,1,8,0:0:0:0:
256,192,183103,1,8,0:0:0:0:
256,192,183447,1,0,0:0:0:0:
256,192,184137,1,8,0:0:0:0:
256,192,184827,1,0,0:0:0:0:
256,192,185516,1,0,0:0:0:0:
256,192,185861,1,8,0:0:0:0:
256,192,186206,1,0,0:0:0:0:
256,192,187241,1,8,0:0:0:0:
256,192,187585,1,0,0:0:0:0:
256,192,188275,5,8,0:0:0:0:
256,192,188965,1,4,0:0:0:0:
256,192,189654,1,8,0:0:0:0:
256,192,189999,1,8,0:0:0:0:
256,192,190344,1,0,0:0:0:0:
256,192,191034,1,0,0:0:0:0:
256,192,191379,1,8,0:0:0:0:
256,192,191723,1,0,0:0:0:0:
256,192,192413,1,0,0:0:0:0:
256,192,192758,1,8,0:0:0:0:
256,192,193792,1,0,0:0:0:0:
256,192,194137,1,8,0:0:0:0:
256,192,194482,1,0,0:0:0:0:
256,192,195172,1,8,0:0:0:0:
256,192,195861,1,0,0:0:0:0:
256,192,196206,1,0,0:0:0:0:
256,192,196551,1,8,0:0:0:0:
256,192,197241,1,0,0:0:0:0:
256,192,197930,1,0,0:0:0:0:
256,192,198275,1,8,0:0:0:0:
256,192,198620,1,0,0:0:0:0:
256,192,198965,1,8,0:0:0:0:
256,192,199999,1,0,0:0:0:0:
256,192,200344,5,12,0:0:0:0:
256,192,201034,1,8,0:0:0:0:
256,192,201379,1,0,0:0:0:0:
256,192,201723,1,8,0:0:0:0:
256,192,202413,1,8,0:0:0:0:
256,192,202758,1,4,0:0:0:0:
256,192,203792,1,12,0:0:0:0:
256,192,204482,1,0,0:0:0:0:
256,192,205172,1,8,0:0:0:0:
256,192,205516,1,0,0:0:0:0:
256,192,206206,1,0,0:0:0:0:
256,192,206551,1,8,0:0:0:0:
256,192,206896,1,0,0:0:0:0:
256,192,207585,1,8,0:0:0:0:
256,192,207930,1,0,0:0:0:0:
256,192,208275,1,8,0:0:0:0:
256,192,208965,5,8,0:0:0:0:
256,192,209310,1,8,0:0:0:0:
256,192,209654,12,0,210689,0:0:0:0:
256,192,211034,5,0,0:0:0:0:
256,192,211723,1,0,0:0:0:0:
256,192,213103,1,0,0:0:0:0:
256,192,213792,1,8,0:0:0:0:
256,192,214482,1,8,0:0:0:0:
256,192,216551,1,0,0:0:0:0:
256,192,217241,1,0,0:0:0:0:
256,192,218620,1,0,0:0:0:0:
256,192,219310,1,8,0:0:0:0:
256,192,219999,1,8,0:0:0:0:
256,192,221034,1,0,0:0:0:0:
256,192,221379,1,0,0:0:0:0:
256,192,221723,1,8,0:0:0:0:
