osu file format v14

[General]
AudioFilename: audio.mp3
AudioLeadIn: 0
PreviewTime: 50353
Countdown: 0
SampleSet: Soft
StackLeniency: 0.7
Mode: 3
LetterboxInBreaks: 0
SpecialStyle: 0
WidescreenStoryboard: 1

[Editor]
Bookmarks: 23456,84146
DistanceSpacing: 2.7
BeatDivisor: 4
GridSize: 4
TimelineZoom: 2.5

[Metadata]
Title:Stay Alive (Jun Kuroda Bootleg Remix)
TitleUnicode:Stay Alive (Jun Kuroda Bootleg Remix)
Artist:EMILIA (CV: Takahashi Rie)
ArtistUnicode:エミリア (CV:高橋李依)
Creator:rokinako
Version:Hard
Source:Re:ゼロから始める異世界生活
Tags:Re:Zero Re Zero Anime ED2 _kobii Ending
BeatmapID:2162508
BeatmapSetID:1012607

[Difficulty]
HPDrainRate:8
CircleSize:7
OverallDifficulty:8
ApproachRate:5
SliderMultiplier:1.4
SliderTickRate:1

[Events]
//Background and Video events
0,0,"BG.png",0,0
//Break Periods
//Storyboard Layer 0 (Background)
//Storyboard Layer 1 (Fail)
//Storyboard Layer 2 (Pass)
//Storyboard Layer 3 (Foreground)
//Storyboard Layer 4 (Overlay)
//Storyboard Sound Samples
Sample,1732,0,"D#5S_Eb5S.wav",60
Sample,2077,0,"C6S.wav",60
Sample,2767,0,"D#5S_Eb5S.wav",60
Sample,3456,0,"G6S.wav",60
Sample,3801,0,"A#5S_Bb5S.wav",60
Sample,4146,0,"G5S.wav",60
Sample,4836,0,"G5S.wav",60
Sample,5181,0,"G#5S_Ab5S.wav",60
Sample,5181,0,"C5S.wav",60
Sample,5870,0,"A#5S_Bb5S.wav",60
Sample,6215,0,"G6S.wav",60
Sample,6560,0,"D#7S_Eb7S.wav",60
Sample,6905,0,"G#4S_Ab4S.wav",60
Sample,6905,0,"C6S.wav",60
Sample,7250,0,"D#5S_Eb5S.wav",60
Sample,7594,0,"C6S.wav",60
Sample,8284,0,"D#5S_Eb5S.wav",60
Sample,8629,0,"D#6S_Eb6S.wav",60
Sample,8974,0,"G#6S_Ab6S.wav",60
Sample,9319,0,"A#5S_Bb5S.wav",60
Sample,9663,0,"G5S.wav",60
Sample,10353,0,"G5S.wav",60
Sample,10698,0,"C5S.wav",60
Sample,10698,0,"G#5S_Ab5S.wav",60
Sample,11388,0,"A#5S_Bb5S.wav",60
Sample,11732,0,"G6S.wav",60
Sample,12077,0,"D#7S_Eb7S.wav",60
Sample,12422,0,"C6S.wav",60
Sample,12422,0,"G#4S_Ab4S.wav",60
Sample,12767,0,"D#5S_Eb5S.wav",60
Sample,13801,0,"D#5S_Eb5S.wav",60
Sample,14836,0,"A#5S_Bb5S.wav",60
Sample,15181,0,"G5S.wav",60
Sample,16215,0,"G#5S_Ab5S.wav",60
Sample,16215,0,"C5S.wav",60
Sample,16905,0,"A#5S_Bb5S.wav",60
Sample,17594,0,"D#7S_Eb7S.wav",60
Sample,17939,0,"C6S.wav",60
Sample,17939,0,"G#4S_Ab4S.wav",60
Sample,18284,0,"D#5S_Eb5S.wav",60
Sample,19319,0,"D#5S_Eb5S.wav",60
Sample,19663,0,"D#6S_Eb6S.wav",60
Sample,20353,0,"A#5S_Bb5S.wav",60
Sample,20698,0,"G5S.wav",60
Sample,21732,0,"C5S.wav",60
Sample,21732,0,"G#5S_Ab5S.wav",60
Sample,22422,0,"A#5S_Bb5S.wav",60
Sample,22767,0,"G6S.wav",60
Sample,23112,0,"D#7S_Eb7S.wav",60
Sample,106215,0,"BassKickReverbXD.wav",50
Sample,155870,0,"G#4S_Ab4S.wav",60
Sample,155870,0,"C6S.wav",60
Sample,156215,0,"D#5S_Eb5S.wav",60
Sample,156560,0,"C6S.wav",60
Sample,157250,0,"D#5S_Eb5S.wav",60
Sample,157939,0,"G6S.wav",60
Sample,158284,0,"A#5S_Bb5S.wav",60
Sample,158629,0,"G5S.wav",60
Sample,159319,0,"G5S.wav",60
Sample,159663,0,"G#5S_Ab5S.wav",60
Sample,159663,0,"C5S.wav",60
Sample,160353,0,"A#5S_Bb5S.wav",60
Sample,160698,0,"G6S.wav",60
Sample,161043,0,"D#7S_Eb7S.wav",60
Sample,161388,0,"G#4S_Ab4S.wav",60
Sample,161388,0,"C6S.wav",60
Sample,161732,0,"D#5S_Eb5S.wav",60
Sample,162077,0,"C6S.wav",60
Sample,162767,0,"D#5S_Eb5S.wav",60
Sample,163112,0,"D#6S_Eb6S.wav",60
Sample,163456,0,"G#6S_Ab6S.wav",60
Sample,163801,0,"A#5S_Bb5S.wav",60
Sample,164146,0,"G5S.wav",60
Sample,164836,0,"G5S.wav",60
Sample,165181,0,"C5S.wav",60
Sample,165181,0,"G#5S_Ab5S.wav",60
Sample,165870,0,"A#5S_Bb5S.wav",60
Sample,166215,0,"G6S.wav",60
Sample,166560,0,"D#7S_Eb7S.wav",60
Sample,169319,0,"A#5S_Bb5S.wav",60
Sample,169663,0,"G5S.wav",60
Sample,170698,0,"G#5S_Ab5S.wav",60
Sample,170698,0,"C5S.wav",60
Sample,171388,0,"A#5S_Bb5S.wav",60
Sample,172422,0,"G#4S_Ab4S.wav",60
Sample,172422,0,"C6S.wav",60
Sample,175181,0,"G5S.wav",60
Sample,176215,0,"G#5S_Ab5S.wav",60
Sample,211043,0,"G#4S_Ab4S.wav",40
Sample,211043,0,"C6S.wav",40
Sample,211388,0,"D#5S_Eb5S.wav",40
Sample,211732,0,"C6S.wav",40
Sample,212422,0,"D#5S_Eb5S.wav",40
Sample,213112,0,"G6S.wav",40
Sample,213456,0,"A#5S_Bb5S.wav",40
Sample,213801,0,"G5S.wavwav",40
Sample,214491,0,"G5S.wav",40
Sample,214836,0,"G#5S_Ab5S.wav",40
Sample,214836,0,"C5S.wav",40
Sample,215525,0,"A#5S_Bb5S.wav",40
Sample,215870,0,"G6S.wav",40
Sample,216215,0,"D#7S_Eb7S.wav",40
Sample,216560,0,"C6S.wav",40
Sample,216905,0,"D#5S_Eb5S.wav",40
Sample,217250,0,"C6S.wav",40
Sample,218284,0,"D#6S_Eb6S.wav",40
Sample,218629,0,"G#6S_Ab6S.wav",40
Sample,218974,0,"A#5S_Bb5S.wav",40
Sample,219319,0,"G5S.wav",40
Sample,220008,0,"G5S.wav",40
Sample,220353,0,"C5S.wav",40
Sample,220353,0,"G#5S_Ab5S.wav",40
Sample,221043,0,"A#5S_Bb5S.wav",40
Sample,221388,0,"G6S.wav",40
Sample,221732,0,"D#7S_Eb7S.wav",40

[TimingPoints]
1388,344.827586206897,4,2,1,30,1,0
51043,-100,4,2,1,30,0,1
62077,-100,4,2,1,30,0,0
62422,-100,4,2,1,30,0,1
71732,-100,4,2,1,30,0,0
111732,-100,4,2,1,30,0,1
122767,-100,4,2,1,30,0,0
123112,-100,4,2,1,30,0,1
132422,-100,4,2,1,30,0,0
144836,-100,4,2,1,30,0,1
155870,-100,4,2,1,30,0,0
188974,-100,4,2,1,30,0,1
189074,-100,4,2,1,30,0,1
200008,-100,4,2,1,30,0,0
200353,-100,4,2,1,30,0,1
202767,-100,4,2,1,30,0,0
203801,-100,4,2,1,30,0,1
209663,-100,4,2,1,30,0,0

[HitObjects]
402,192,1388,128,0,1732:0:0:0:60:C#4S_Db4S.wav
36,192,1388,1,0,0:0:0:60:G#4S_Ab4S.wav
109,192,1388,1,0,0:0:0:60:C6S.wav
256,192,1732,128,0,2077:0:0:0:60:G#4S_Ab4S.wav
475,192,2077,128,0,2250:0:0:0:60:C#5S_Db5S.wav
109,192,2077,1,0,0:0:0:0:
329,192,2250,1,0,0:0:0:60:A#5S_Bb5S.wav
329,192,2422,128,0,2767:0:0:0:60:A#5S_Bb5S.wav
109,192,2767,128,0,3112:0:0:0:60:C#4S_Db4S.wav
402,192,2767,1,0,0:0:0:0:
182,192,3112,128,0,3456:0:0:0:60:G#4S_Ab4S.wav
329,192,3284,128,0,3456:0:0:0:60:G#6S_Ab6S.wav
475,192,3456,128,0,3629:0:0:0:60:C#5S_Db5S.wav
36,192,3456,1,0,0:0:0:0:
256,192,3629,128,0,3801:0:0:0:60:D#6S_Eb6S.wav
402,192,3801,128,0,3974:0:0:0:60:C#4S_Db4S.wav
182,192,3974,128,0,4146:0:0:0:60:G#5S_Ab5S.wav
475,192,4146,128,0,4491:0:0:0:60:C4S.wav
109,192,4146,1,0,0:0:0:0:
402,192,4491,128,0,4836:0:0:0:60:G4S.wav
109,192,4836,128,0,5008:0:0:0:60:D#5S_Eb5S.wav
329,192,4836,1,0,0:0:0:0:
256,192,5008,1,0,0:0:0:60:G#5S_Ab5S.wav
256,192,5181,128,0,5525:0:0:0:60:C4S.wav
36,192,5525,128,0,5870:0:0:0:60:F3S.wav
402,192,5525,1,0,0:0:0:0:
475,192,5698,128,0,5870:0:0:0:60:G#5S_Ab5S.wav
329,192,5870,128,0,6043:0:0:0:60:C4S.wav
109,192,6043,128,0,6215:0:0:0:60:D#6S_Eb6S.wav
402,192,6215,128,0,6388:0:0:0:60:G#4S_Ab4S.wav
182,192,6388,128,0,6560:0:0:0:60:D#6S_Eb6S.wav
475,192,6560,128,0,6732:0:0:0:60:D#4S_Eb4S.wav
256,192,6732,128,0,6905:0:0:0:60:D#6S_Eb6S.wav
402,192,6905,128,0,7250:0:0:0:60:C#4S_Db4S.wav
109,192,6905,1,0,0:0:0:0:
256,192,7250,128,0,7594:0:0:0:60:G#4S_Ab4S.wav
475,192,7594,128,0,7767:0:0:0:60:C#5S_Db5S.wav
109,192,7594,1,0,0:0:0:0:
329,192,7767,1,0,0:0:0:60:A#5S_Bb5S.wav
329,192,7939,128,0,8284:0:0:0:60:A#5S_Bb5S.wav
36,192,8284,128,0,8629:0:0:0:60:C#4S_Db4S.wav
402,192,8284,1,0,0:0:0:0:
109,192,8629,128,0,8974:0:0:0:60:G#4S_Ab4S.wav
475,192,8801,128,0,8974:0:0:0:60:G#6S_Ab6S.wav
256,192,8974,128,0,9146:0:0:0:60:C#5S_Db5S.wav
36,192,8974,1,0,0:0:0:0:
402,192,9146,128,0,9319:0:0:0:60:D#6S_Eb6S.wav
182,192,9319,128,0,9491:0:0:0:60:C#4S_Db4S.wav
329,192,9491,128,0,9663:0:0:0:60:G#5S_Ab5S.wav
475,192,9663,128,0,10008:0:0:0:60:C4S.wav
109,192,9663,1,0,0:0:0:0:
402,192,10008,128,0,10353:0:0:0:60:G4S.wav
109,192,10353,128,0,10525:0:0:0:0:
256,192,10525,1,0,0:0:0:0:
256,192,10698,128,0,11043:0:0:0:60:C4S.wav
475,192,10698,1,0,0:0:0:0:
36,192,11043,128,0,11388:0:0:0:60:F3S.wav
402,192,11043,1,0,0:0:0:0:
475,192,11215,128,0,11388:0:0:0:60:G#5S_Ab5S.wav
329,192,11388,128,0,11560:0:0:0:60:C4S.wav
109,192,11560,128,0,11732:0:0:0:60:D#6S_Eb6S.wav
402,192,11732,128,0,11905:0:0:0:60:G#4S_Ab4S.wav
182,192,11905,128,0,12077:0:0:0:60:D#6S_Eb6S.wav
475,192,12077,128,0,12250:0:0:0:60:D#4S_Eb4S.wav
256,192,12250,128,0,12422:0:0:0:60:D#6S_Eb6S.wav
109,192,12422,128,0,12767:0:0:0:60:C#4S_Db4S.wav
402,192,12422,1,0,0:0:0:0:
329,192,12767,128,0,13112:0:0:0:60:G#4S_Ab4S.wav
36,192,13112,1,0,0:0:0:60:C#5S_Db5S.wav
182,192,13112,128,0,13284:0:0:0:60:C6S.wav
475,192,13112,128,0,13801:0:0:0:0:
256,192,13284,1,0,0:0:0:60:A#5S_Bb5S.wav
256,192,13456,128,0,13801:0:0:0:60:A#5S_Bb5S.wav
109,192,13801,128,0,14146:0:0:0:60:C#4S_Db4S.wav
402,192,13801,1,0,0:0:0:0:
182,192,14146,128,0,14491:0:0:0:60:G#4S_Ab4S.wav
329,192,14319,128,0,14491:0:0:0:60:G#6S_Ab6S.wav
36,192,14491,1,0,0:0:0:60:C#5S_Db5S.wav
475,192,14491,128,0,14663:0:0:0:0:
256,192,14663,128,0,14836:0:0:0:60:D#6S_Eb6S.wav
402,192,14836,128,0,15008:0:0:0:60:C#4S_Db4S.wav
182,192,15008,128,0,15181:0:0:0:60:G#5S_Ab5S.wav
475,192,15181,128,0,15525:0:0:0:60:C4S.wav
109,192,15181,1,0,0:0:0:0:
402,192,15525,128,0,15870:0:0:0:60:G4S.wav
329,192,15870,1,0,0:0:0:60:D#5S_Eb5S.wav
36,192,15870,128,0,16043:0:0:0:60:G5S.wav
109,192,16043,1,0,0:0:0:60:G#5S_Ab5S.wav
109,192,16215,128,0,16560:0:0:0:60:C4S.wav
182,192,16560,128,0,16732:0:0:0:60:F3S.wav
402,192,16560,1,0,0:0:0:0:
475,192,16732,128,0,16905:0:0:0:60:G#5S_Ab5S.wav
256,192,16905,128,0,17077:0:0:0:60:C4S.wav
36,192,17077,128,0,17250:0:0:0:60:D#6S_Eb6S.wav
109,192,17250,1,0,0:0:0:60:G#4S_Ab4S.wav
329,192,17250,128,0,17422:0:0:0:60:G6S.wav
182,192,17422,128,0,17594:0:0:0:60:D#6S_Eb6S.wav
402,192,17594,128,0,17767:0:0:0:60:D#4S_Eb4S.wav
36,192,17767,1,0,0:0:0:60:D#6S_Eb6S.wav
256,192,17767,128,0,17939:0:0:0:0:
475,192,17939,128,0,18284:0:0:0:60:C#4S_Db4S.wav
182,192,17939,1,0,0:0:0:0:
402,192,18284,128,0,18629:0:0:0:60:G#4S_Ab4S.wav
109,192,18629,128,0,18801:0:0:0:60:C#5S_Db5S.wav
36,192,18629,1,0,0:0:0:60:C6S.wav
256,192,18801,1,0,0:0:0:60:A#5S_Bb5S.wav
256,192,18974,128,0,19319:0:0:0:60:A#5S_Bb5S.wav
402,192,19319,128,0,19663:0:0:0:60:C#4S_Db4S.wav
182,192,19663,128,0,20008:0:0:0:60:G#4S_Ab4S.wav
475,192,19836,128,0,20008:0:0:0:60:D#7S_Eb7S.wav
109,192,20008,128,0,20181:0:0:0:60:C#5S_Db5S.wav
402,192,20008,1,0,0:0:0:60:G#6S_Ab6S.wav
329,192,20181,128,0,20353:0:0:0:60:G6S.wav
182,192,20353,128,0,20525:0:0:0:60:C#4S_Db4S.wav
402,192,20525,128,0,20698:0:0:0:60:G#5S_Ab5S.wav
109,192,20698,128,0,21043:0:0:0:60:C4S.wav
256,192,21043,128,0,21388:0:0:0:60:G4S.wav
36,192,21388,1,0,0:0:0:60:D#5S_Eb5S.wav
475,192,21388,128,0,21560:0:0:0:60:G5S.wav
329,192,21560,1,0,0:0:0:60:G#5S_Ab5S.wav
329,192,21732,128,0,22077:0:0:0:60:C4S.wav
109,192,22077,1,0,0:0:0:60:F3S.wav
36,192,22077,1,0,0:0:0:0:
402,192,22077,1,0,0:0:0:0:
475,192,22077,1,0,0:0:0:0:
182,192,22250,128,0,22422:0:0:0:60:G#5S_Ab5S.wav
329,192,22422,128,0,22594:0:0:0:60:C4S.wav
475,192,22594,128,0,22767:0:0:0:60:D#6S_Eb6S.wav
109,192,22767,128,0,22939:0:0:0:60:G#4S_Ab4S.wav
402,192,22939,128,0,23112:0:0:0:60:D#6S_Eb6S.wav
36,192,23112,128,0,23284:0:0:0:60:D#4S_Eb4S.wav
329,192,23284,128,0,23456:0:0:0:60:D#6S_Eb6S.wav
109,192,23456,1,0,0:0:0:70:Kick.wav
256,192,23456,1,0,0:0:0:0:
402,192,23456,1,0,0:0:0:0:
182,192,23629,1,0,0:0:0:0:
329,192,23801,1,0,0:0:0:70:Rim.wav
475,192,23801,1,0,0:0:0:0:
36,192,23974,1,0,0:0:0:0:
109,192,24060,1,0,0:0:0:0:
182,192,24146,1,0,0:0:0:0:
475,192,24319,1,0,0:0:0:70:Rim.wav
329,192,24319,1,0,0:0:0:0:
182,192,24491,1,0,0:0:0:70:Rim.wav
36,192,24491,1,0,0:0:0:0:
256,192,24663,1,0,0:0:0:0:
475,192,24836,1,0,0:0:0:70:Rim.wav
329,192,24836,1,0,0:0:0:0:
256,192,25008,1,0,0:0:0:0:
182,192,25181,1,0,0:0:0:70:Rim.wav
36,192,25181,1,0,0:0:0:0:
329,192,25353,1,0,0:0:0:0:
256,192,25439,1,0,0:0:0:0:
475,192,25525,1,0,0:0:0:0:
402,192,25612,1,0,0:0:0:0:
109,192,25698,1,0,0:0:0:70:Kick.wav
256,192,25698,1,0,0:0:0:0:
329,192,25698,1,0,0:0:0:0:
182,192,25870,1,0,0:0:0:70:Rim.wav
36,192,25870,1,0,0:0:0:0:
256,192,26043,1,0,0:0:0:0:
475,192,26215,1,0,0:0:0:0:
329,192,26215,1,0,0:0:0:70:Kick.wav
109,192,26215,1,0,0:0:0:0:
182,192,26388,1,0,0:0:0:0:
256,192,26560,1,0,0:0:0:70:Rim.wav
36,192,26560,1,0,0:0:0:0:
329,192,26732,1,0,0:0:0:0:
475,192,26732,1,0,0:0:0:70:Kick.wav
109,192,26732,1,0,0:0:0:0:
182,192,26819,1,0,0:0:0:0:
256,192,26905,1,0,0:0:0:0:
329,192,27077,1,0,0:0:0:70:Rim.wav
475,192,27077,1,0,0:0:0:0:
182,192,27250,1,0,0:0:0:70:Rim.wav
36,192,27250,1,0,0:0:0:0:
329,192,27422,1,0,0:0:0:70:Rim.wav
475,192,27422,1,0,0:0:0:0:
182,192,27594,1,0,0:0:0:70:Rim.wav
36,192,27594,1,0,0:0:0:0:
256,192,27767,1,0,0:0:0:0:
475,192,27939,1,0,0:0:0:70:Rim.wav
329,192,27939,1,0,0:0:0:0:
182,192,28112,1,0,0:0:0:0:
256,192,28198,1,0,0:0:0:0:
36,192,28284,1,0,0:0:0:0:
109,192,28370,1,0,0:0:0:0:
475,192,28456,1,0,0:0:0:70:Rim.wav
329,192,28456,1,0,0:0:0:0:
36,192,28629,1,0,0:0:0:70:Rim.wav
182,192,28629,1,0,0:0:0:0:
256,192,28801,1,0,0:0:0:0:
475,192,28974,1,0,0:0:0:70:Kick.wav
329,192,28974,1,0,0:0:0:0:
109,192,28974,1,0,0:0:0:0:
182,192,29146,1,0,0:0:0:0:
475,192,29319,1,0,0:0:0:70:Rim.wav
329,192,29319,1,0,0:0:0:0:
36,192,29491,1,0,0:0:0:0:
109,192,29577,1,0,0:0:0:0:
182,192,29663,1,0,0:0:0:0:
329,192,29836,1,0,0:0:0:70:Rim.wav
475,192,29836,1,0,0:0:0:0:
36,192,30008,1,0,0:0:0:70:Rim.wav
182,192,30008,1,0,0:0:0:0:
256,192,30181,1,0,0:0:0:0:
329,192,30353,1,0,0:0:0:70:Rim.wav
475,192,30353,1,0,0:0:0:0:
256,192,30525,1,0,0:0:0:0:
182,192,30698,1,0,0:0:0:70:Rim.wav
36,192,30698,1,0,0:0:0:0:
329,192,30870,1,0,0:0:0:0:
256,192,30956,1,0,0:0:0:0:
475,192,31043,1,0,0:0:0:0:
402,192,31129,1,0,0:0:0:0:
256,192,31215,1,0,0:0:0:70:Kick.wav
109,192,31215,1,0,0:0:0:0:
329,192,31215,1,0,0:0:0:0:
36,192,31388,1,0,0:0:0:70:Rim.wav
182,192,31388,1,0,0:0:0:0:
256,192,31560,1,0,0:0:0:0:
109,192,31732,1,0,0:0:0:70:Kick.wav
402,192,31732,1,0,0:0:0:0:
329,192,31732,1,0,0:0:0:0:
182,192,31905,1,0,0:0:0:0:
36,192,32077,1,0,0:0:0:70:Rim.wav
256,192,32077,1,0,0:0:0:0:
329,192,32250,1,0,0:0:0:0:
109,192,32250,1,0,0:0:0:0:
475,192,32250,1,0,0:0:0:0:
182,192,32336,1,0,0:0:0:0:
256,192,32422,1,0,0:0:0:0:
475,192,32594,1,0,0:0:0:70:Rim.wav
329,192,32594,1,0,0:0:0:0:
256,192,32767,1,0,0:0:0:0:
36,192,32939,1,0,0:0:0:70:Rim.wav
182,192,32939,1,0,0:0:0:0:
475,192,33112,1,0,0:0:0:70:Rim.wav
329,192,33112,1,0,0:0:0:0:
109,192,33284,1,0,0:0:0:0:
182,192,33370,1,0,0:0:0:0:
36,192,33456,1,0,0:0:0:0:
109,192,33543,1,0,0:0:0:0:
182,192,33629,1,0,0:0:0:0:
256,192,33715,1,0,0:0:0:0:
109,192,33801,1,0,0:0:0:0:
182,192,33888,1,0,0:0:0:0:
256,192,33974,1,0,0:0:0:0:
329,192,34060,1,0,0:0:0:0:
182,192,34146,1,0,0:0:0:0:
256,192,34232,1,0,0:0:0:0:
329,192,34319,1,0,0:0:0:0:
402,192,34405,1,0,0:0:0:0:
36,192,34491,1,0,0:0:0:70:Kick.wav
475,192,34491,1,0,0:0:0:0:
109,192,34491,1,0,0:0:0:0:
182,192,34663,1,0,0:0:0:0:
256,192,34836,1,0,0:0:0:70:snare.wav
36,192,34836,1,0,0:0:0:0:
475,192,34836,1,0,0:0:0:0:
329,192,35008,1,0,0:0:0:0:
402,192,35094,1,0,0:0:0:0:
109,192,35181,1,0,0:0:0:0:
182,192,35267,1,0,0:0:0:0:
36,192,35353,1,0,0:0:0:70:Kick.wav
475,192,35353,1,0,0:0:0:0:
109,192,35525,1,0,0:0:0:70:snare.wav
402,192,35525,1,0,0:0:0:0:
329,192,35525,1,0,0:0:0:0:
182,192,35698,1,0,0:0:0:0:
256,192,35784,1,0,0:0:0:0:
36,192,35870,1,0,0:0:0:70:Kick.wav
475,192,35870,1,0,0:0:0:0:
329,192,36043,1,0,0:0:0:0:
256,192,36215,1,0,0:0:0:70:snare.wav
36,192,36215,1,0,0:0:0:0:
475,192,36215,1,0,0:0:0:0:
182,192,36388,1,0,0:0:0:0:
109,192,36474,1,0,0:0:0:0:
329,192,36560,1,0,0:0:0:0:
256,192,36646,1,0,0:0:0:0:
109,192,36732,1,0,0:0:0:70:Kick.wav
402,192,36732,1,0,0:0:0:0:
36,192,36905,1,0,0:0:0:70:snare.wav
256,192,36905,1,0,0:0:0:0:
475,192,36905,1,0,0:0:0:0:
402,192,37077,1,0,0:0:0:0:
329,192,37163,1,0,0:0:0:0:
182,192,37250,1,0,0:0:0:70:Kick.wav
109,192,37250,1,0,0:0:0:0:
402,192,37422,1,0,0:0:0:0:
36,192,37594,1,0,0:0:0:70:snare.wav
475,192,37594,1,0,0:0:0:0:
256,192,37594,1,0,0:0:0:0:
329,192,37767,1,0,0:0:0:70:Kick.wav
109,192,37767,1,0,0:0:0:0:
402,192,37853,1,0,0:0:0:0:
182,192,37939,1,0,0:0:0:0:
256,192,38025,1,0,0:0:0:0:
402,192,38112,1,0,0:0:0:70:Kick.wav
109,192,38112,1,0,0:0:0:0:
329,192,38284,1,0,0:0:0:70:snare.wav
36,192,38284,1,0,0:0:0:0:
475,192,38284,1,0,0:0:0:0:
256,192,38456,1,0,0:0:0:0:
182,192,38629,1,0,0:0:0:70:Kick.wav
109,192,38629,1,0,0:0:0:0:
329,192,38801,1,0,0:0:0:0:
36,192,38974,1,0,0:0:0:70:snare.wav
402,192,38974,1,0,0:0:0:0:
475,192,38974,1,0,0:0:0:0:
182,192,39146,1,0,0:0:0:0:
109,192,39232,1,0,0:0:0:0:
402,192,39319,1,0,0:0:0:0:
329,192,39405,1,0,0:0:0:0:
182,192,39491,1,0,0:0:0:70:Kick.wav
256,192,39491,1,0,0:0:0:0:
109,192,39663,1,0,0:0:0:70:snare.wav
36,192,39663,1,0,0:0:0:0:
475,192,39663,1,0,0:0:0:0:
182,192,39836,1,0,0:0:0:70:Kick.wav
402,192,39836,1,0,0:0:0:0:
182,192,40008,1,0,0:0:0:70:Kick.wav
402,192,40008,1,0,0:0:0:0:
329,192,40181,1,0,0:0:0:0:
109,192,40353,1,0,0:0:0:70:snare.wav
36,192,40353,1,0,0:0:0:0:
475,192,40353,1,0,0:0:0:0:
329,192,40525,1,0,0:0:0:0:
402,192,40612,1,0,0:0:0:0:
109,192,40698,1,0,0:0:0:0:
182,192,40784,1,0,0:0:0:0:
329,192,40870,1,0,0:0:0:70:Kick.wav
256,192,40870,1,0,0:0:0:0:
109,192,41043,1,0,0:0:0:70:snare.wav
36,192,41043,1,0,0:0:0:0:
475,192,41043,1,0,0:0:0:0:
402,192,41215,1,0,0:0:0:0:
329,192,41301,1,0,0:0:0:0:
256,192,41388,1,0,0:0:0:0:
36,192,41388,1,0,0:0:0:0:
109,192,41560,1,0,0:0:0:0:
182,192,41646,1,0,0:0:0:0:
402,192,41732,1,0,0:0:0:0:
256,192,41732,1,0,0:0:0:0:
36,192,41819,1,0,0:0:0:0:
109,192,41905,1,0,0:0:0:0:
182,192,41991,1,0,0:0:0:0:
402,192,42077,1,0,0:0:0:0:
329,192,42163,1,0,0:0:0:0:
256,192,42250,1,0,0:0:0:0:
109,192,42250,1,0,0:0:0:0:
475,192,42422,1,0,0:0:0:0:
36,192,42422,1,0,0:0:0:0:
402,192,42422,1,0,0:0:0:0:
182,192,42594,1,0,0:0:0:0:
256,192,42681,1,0,0:0:0:0:
329,192,42767,1,0,0:0:0:0:
36,192,42767,1,0,0:0:0:0:
475,192,42767,1,0,0:0:0:0:
109,192,42939,1,0,0:0:0:0:
182,192,43112,1,0,0:0:0:0:
402,192,43112,1,0,0:0:0:0:
475,192,43112,1,0,0:0:0:0:
256,192,43284,1,0,0:0:0:0:
36,192,43284,1,0,0:0:0:0:
329,192,43370,1,0,0:0:0:0:
109,192,43456,1,0,0:0:0:0:
182,192,43543,1,0,0:0:0:0:
402,192,43629,1,0,0:0:0:0:
329,192,43629,1,0,0:0:0:0:
36,192,43801,1,0,0:0:0:0:
109,192,43801,1,0,0:0:0:0:
475,192,43801,1,0,0:0:0:0:
329,192,43974,1,0,0:0:0:0:
182,192,43974,1,0,0:0:0:0:
182,192,44146,1,0,0:0:0:0:
329,192,44146,1,0,0:0:0:0:
402,192,44319,1,0,0:0:0:0:
475,192,44405,1,0,0:0:0:0:
182,192,44491,1,0,0:0:0:0:
256,192,44577,1,0,0:0:0:0:
329,192,44663,1,0,0:0:0:0:
402,192,44750,1,0,0:0:0:0:
109,192,44836,1,0,0:0:0:0:
182,192,44922,1,0,0:0:0:0:
256,192,45008,1,0,0:0:0:0:
329,192,45094,1,0,0:0:0:0:
36,192,45181,1,0,0:0:0:0:
109,192,45267,1,0,0:0:0:0:
182,192,45353,1,0,0:0:0:0:
256,192,45439,1,0,0:0:0:0:
329,192,45525,1,0,0:0:0:50:BassKickReverbXD.wav
402,192,45525,128,0,45612:0:0:0:0:
36,192,45698,1,0,0:0:0:0:
109,192,45870,1,0,0:0:0:0:
182,192,46043,1,0,0:0:0:0:
36,192,46215,1,0,0:0:0:0:
329,192,46388,1,0,0:0:0:0:
182,192,46560,1,0,0:0:0:0:
402,192,46732,1,0,0:0:0:0:
36,192,46819,128,0,46905:0:0:0:0:
475,192,47077,1,0,0:0:0:0:
329,192,47422,128,0,47508:0:0:0:0:
182,192,47767,1,0,0:0:0:0:
475,192,48176,128,0,48413:0:0:0:0:
256,192,49491,1,0,0:0:0:0:
182,192,49577,1,0,0:0:0:0:
402,192,49663,128,0,50353:0:0:0:0:
36,192,49663,128,0,50353:0:0:0:0:
256,192,50353,128,0,50870:0:0:0:0:
109,192,51043,128,0,51388:0:0:0:70:Kick.wav
475,192,51043,1,0,0:0:0:70:CymbalFSU.wav
182,192,51043,1,0,0:0:0:0:
256,192,51043,1,0,0:0:0:0:
329,192,51215,1,0,0:0:0:0:
402,192,51388,1,0,0:0:0:70:snare.wav
36,192,51388,1,0,0:0:0:0:
475,192,51388,128,0,51905:0:0:0:0:
256,192,51560,1,0,0:0:0:0:
182,192,51646,1,0,0:0:0:0:
402,192,51732,1,0,0:0:0:0:
329,192,51819,1,0,0:0:0:0:
182,192,51905,1,0,0:0:0:70:Kick.wav
256,192,51905,1,0,0:0:0:0:
402,192,52077,1,0,0:0:0:70:snare.wav
475,192,52077,1,0,0:0:0:0:
36,192,52077,128,0,52594:0:0:0:0:
109,192,52250,1,0,0:0:0:0:
182,192,52336,1,0,0:0:0:0:
256,192,52422,1,0,0:0:0:70:Kick.wav
329,192,52422,1,0,0:0:0:0:
475,192,52422,1,0,0:0:0:0:
109,192,52594,1,0,0:0:0:0:
402,192,52767,1,0,0:0:0:70:snare.wav
36,192,52767,1,0,0:0:0:0:
475,192,52767,128,0,53284:0:0:0:0:
182,192,52939,1,0,0:0:0:0:
256,192,53025,1,0,0:0:0:0:
36,192,53112,1,0,0:0:0:0:
109,192,53198,1,0,0:0:0:0:
182,192,53284,1,0,0:0:0:70:Kick.wav
329,192,53284,1,0,0:0:0:0:
256,192,53456,1,0,0:0:0:70:snare.wav
475,192,53456,1,0,0:0:0:0:
36,192,53456,128,0,54146:0:0:0:0:
402,192,53629,1,0,0:0:0:0:
329,192,53715,1,0,0:0:0:0:
182,192,53801,1,0,0:0:0:70:Kick.wav
109,192,53801,1,0,0:0:0:0:
475,192,53974,1,0,0:0:0:0:
256,192,54146,1,0,0:0:0:70:snare.wav
109,192,54146,1,0,0:0:0:0:
402,192,54146,1,0,0:0:0:0:
329,192,54319,128,0,54663:0:0:0:0:
182,192,54405,1,0,0:0:0:0:
256,192,54491,1,0,0:0:0:0:
36,192,54577,1,0,0:0:0:0:
182,192,54663,1,0,0:0:0:70:Kick.wav
109,192,54663,1,0,0:0:0:0:
36,192,54836,1,0,0:0:0:70:snare.wav
402,192,54836,1,0,0:0:0:0:
475,192,54836,128,0,55353:0:0:0:0:
109,192,55008,1,0,0:0:0:0:
182,192,55094,1,0,0:0:0:0:
256,192,55181,1,0,0:0:0:70:Kick.wav
329,192,55181,1,0,0:0:0:0:
36,192,55353,1,0,0:0:0:0:
109,192,55525,1,0,0:0:0:70:snare.wav
402,192,55525,1,0,0:0:0:0:
182,192,55525,1,0,0:0:0:0:
329,192,55698,1,0,0:0:0:0:
256,192,55784,1,0,0:0:0:0:
109,192,55870,128,0,56215:0:0:0:0:
475,192,55956,1,0,0:0:0:0:
402,192,56043,1,0,0:0:0:70:Kick.wav
329,192,56043,1,0,0:0:0:0:
256,192,56215,128,0,56560:0:0:0:70:snare.wav
36,192,56215,1,0,0:0:0:0:
475,192,56215,1,0,0:0:0:0:
109,192,56388,1,0,0:0:0:70:Kick.wav
402,192,56388,1,0,0:0:0:0:
109,192,56560,1,0,0:0:0:70:Kick.wav
402,192,56560,1,0,0:0:0:0:
329,192,56732,1,0,0:0:0:0:
182,192,56905,1,0,0:0:0:70:snare.wav
475,192,56905,1,0,0:0:0:0:
36,192,56905,128,0,57077:0:0:0:0:
256,192,57077,1,0,0:0:0:0:
329,192,57163,1,0,0:0:0:0:
402,192,57250,128,0,57594:0:0:0:0:
109,192,57336,1,0,0:0:0:0:
182,192,57422,1,0,0:0:0:70:Kick.wav
256,192,57422,1,0,0:0:0:0:
109,192,57594,1,0,0:0:0:70:snare.wav
36,192,57594,128,0,57939:0:0:0:0:
475,192,57594,1,0,0:0:0:0:
182,192,57767,1,0,0:0:0:0:
256,192,57853,1,0,0:0:0:0:
402,192,57939,1,0,0:0:0:70:Kick.wav
329,192,57939,1,0,0:0:0:0:
109,192,58112,1,0,0:0:0:0:
182,192,58284,1,0,0:0:0:70:snare.wav
256,192,58284,1,0,0:0:0:0:
475,192,58284,128,0,58456:0:0:0:0:
329,192,58456,1,0,0:0:0:0:
402,192,58543,1,0,0:0:0:0:
182,192,58629,128,0,58974:0:0:0:0:
109,192,58715,1,0,0:0:0:0:
329,192,58801,1,0,0:0:0:70:Kick.wav
256,192,58801,1,0,0:0:0:0:
36,192,58974,1,0,0:0:0:70:snare.wav
109,192,58974,1,0,0:0:0:0:
475,192,58974,1,0,0:0:0:0:
402,192,59146,128,0,59491:0:0:0:0:
182,192,59232,1,0,0:0:0:0:
256,192,59319,1,0,0:0:0:70:Kick.wav
329,192,59319,1,0,0:0:0:0:
36,192,59491,1,0,0:0:0:0:
182,192,59663,1,0,0:0:0:70:snare.wav
475,192,59663,1,0,0:0:0:0:
109,192,59663,128,0,60181:0:0:0:0:
329,192,59836,1,0,0:0:0:0:
256,192,59922,1,0,0:0:0:0:
475,192,60008,1,0,0:0:0:0:
402,192,60094,1,0,0:0:0:0:
329,192,60181,1,0,0:0:0:70:Kick.wav
256,192,60181,1,0,0:0:0:0:
36,192,60353,1,0,0:0:0:70:snare.wav
402,192,60353,1,0,0:0:0:0:
475,192,60353,128,0,60698:0:0:0:0:
329,192,60525,1,0,0:0:0:70:Kick.wav
109,192,60525,1,0,0:0:0:0:
109,192,60698,1,0,0:0:0:70:Kick.wav
329,192,60698,1,0,0:0:0:0:
36,192,60870,128,0,61388:0:0:0:0:
329,192,60870,1,0,0:0:0:0:
182,192,61043,1,0,0:0:0:70:snare.wav
109,192,61043,1,0,0:0:0:0:
475,192,61043,1,0,0:0:0:0:
256,192,61215,1,0,0:0:0:70:Kick.wav
329,192,61215,1,0,0:0:0:0:
402,192,61301,1,0,0:0:0:0:
182,192,61388,1,0,0:0:0:0:
256,192,61474,1,0,0:0:0:0:
329,192,61560,1,0,0:0:0:70:Kick.wav
402,192,61560,1,0,0:0:0:0:
36,192,61732,1,0,0:0:0:0:
475,192,61732,1,0,0:0:0:0:
256,192,61732,1,0,0:0:0:0:
109,192,61905,1,0,0:0:0:70:Kick.wav
182,192,61905,1,0,0:0:0:0:
402,192,62077,1,0,0:0:0:70:Kick.wav
329,192,62077,128,0,62422:0:0:0:0:
182,192,62422,1,0,0:0:0:0:
109,192,62422,1,0,0:0:0:0:
36,192,62422,1,0,0:0:0:70:CymbalFSU.wav
475,192,62422,128,0,62939:0:0:0:0:
256,192,62594,1,0,0:0:0:0:
182,192,62681,1,0,0:0:0:0:
402,192,62767,1,0,0:0:0:0:
329,192,62853,1,0,0:0:0:0:
109,192,62939,1,0,0:0:0:70:Kick.wav
182,192,62939,1,0,0:0:0:0:
329,192,63112,1,0,0:0:0:0:
475,192,63112,1,0,0:0:0:0:
36,192,63112,128,0,63629:0:0:0:0:
109,192,63284,1,0,0:0:0:0:
182,192,63370,1,0,0:0:0:0:
329,192,63456,1,0,0:0:0:70:Kick.wav
402,192,63456,1,0,0:0:0:0:
182,192,63629,1,0,0:0:0:0:
36,192,63801,1,0,0:0:0:70:snare.wav
256,192,63801,1,0,0:0:0:0:
475,192,63801,128,0,64319:0:0:0:0:
329,192,63974,1,0,0:0:0:0:
402,192,64060,1,0,0:0:0:0:
182,192,64146,1,0,0:0:0:0:
256,192,64232,1,0,0:0:0:0:
36,192,64319,1,0,0:0:0:70:Kick.wav
329,192,64319,1,0,0:0:0:0:
402,192,64491,1,0,0:0:0:70:snare.wav
182,192,64491,1,0,0:0:0:0:
109,192,64491,128,0,64836:0:0:0:0:
329,192,64663,1,0,0:0:0:0:
256,192,64836,1,0,0:0:0:70:CymbalG.wav
475,192,64836,1,0,0:0:0:0:
36,192,64836,1,0,0:0:0:0:
36,192,65008,1,0,0:0:0:0:
256,192,65008,1,0,0:0:0:0:
475,192,65008,1,0,0:0:0:0:
109,192,65181,1,0,0:0:0:0:
329,192,65181,1,0,0:0:0:0:
402,192,65181,1,0,0:0:0:0:
182,192,65181,1,0,0:0:0:0:
329,192,65353,1,0,0:0:0:0:
182,192,65353,1,0,0:0:0:0:
36,192,65353,1,0,0:0:0:0:
475,192,65353,1,0,0:0:0:0:
256,192,65698,1,0,0:0:0:70:Kick.wav
182,192,65784,1,0,0:0:0:0:
402,192,65870,1,0,0:0:0:0:
475,192,65870,1,0,0:0:0:0:
109,192,65870,1,0,0:0:0:0:
36,192,65870,1,0,0:0:0:70:CymbalFSU.wav
36,192,66215,1,0,0:0:0:70:Kick.wav
109,192,66215,1,0,0:0:0:0:
402,192,66215,1,0,0:0:0:0:
329,192,66388,1,0,0:0:0:0:
256,192,66474,1,0,0:0:0:0:
402,192,66560,1,0,0:0:0:0:
329,192,66646,1,0,0:0:0:0:
256,192,66732,1,0,0:0:0:0:
182,192,66819,1,0,0:0:0:0:
329,192,66905,1,0,0:0:0:0:
256,192,66991,1,0,0:0:0:0:
182,192,67077,1,0,0:0:0:0:
109,192,67163,1,0,0:0:0:0:
256,192,67250,1,0,0:0:0:0:
182,192,67336,1,0,0:0:0:0:
109,192,67422,1,0,0:0:0:0:
36,192,67508,1,0,0:0:0:0:
475,192,67594,1,0,0:0:0:70:Kick.wav
329,192,67594,1,0,0:0:0:0:
109,192,67767,1,0,0:0:0:70:Kick.wav
329,192,67767,1,0,0:0:0:0:
109,192,67939,1,0,0:0:0:70:Kick.wav
402,192,67939,1,0,0:0:0:0:
36,192,68112,1,0,0:0:0:70:Kick.wav
402,192,68112,1,0,0:0:0:0:
256,192,68284,1,0,0:0:0:70:Kick.wav
36,192,68284,1,0,0:0:0:0:
256,192,68456,1,0,0:0:0:70:Kick.wav
475,192,68456,1,0,0:0:0:0:
109,192,68629,1,0,0:0:0:70:Kick.wav
475,192,68629,1,0,0:0:0:0:
109,192,68801,1,0,0:0:0:70:Kick.wav
329,192,68801,1,0,0:0:0:0:
182,192,68888,1,0,0:0:0:70:Kick.wav
402,192,68888,1,0,0:0:0:0:
256,192,68974,1,0,0:0:0:70:Kick.wav
475,192,68974,1,0,0:0:0:0:
36,192,69146,1,0,0:0:0:70:Kick.wav
475,192,69146,1,0,0:0:0:0:
36,192,69319,1,0,0:0:0:70:Kick.wav
329,192,69319,1,0,0:0:0:0:
109,192,69491,1,0,0:0:0:70:Kick.wav
329,192,69491,1,0,0:0:0:0:
109,192,69663,1,0,0:0:0:70:Kick.wav
402,192,69663,1,0,0:0:0:0:
182,192,69836,1,0,0:0:0:70:Kick.wav
402,192,69836,1,0,0:0:0:0:
182,192,70008,1,0,0:0:0:70:Kick.wav
329,192,70008,1,0,0:0:0:0:
36,192,70181,1,0,0:0:0:70:Kick.wav
329,192,70181,1,0,0:0:0:0:
109,192,70267,1,0,0:0:0:70:Kick.wav
402,192,70267,1,0,0:0:0:0:
182,192,70353,1,0,0:0:0:70:Kick.wav
475,192,70353,1,0,0:0:0:0:
329,192,70525,1,0,0:0:0:0:
256,192,70612,1,0,0:0:0:0:
402,192,70698,1,0,0:0:0:0:
329,192,70784,1,0,0:0:0:0:
256,192,70870,1,0,0:0:0:0:
182,192,70956,1,0,0:0:0:0:
329,192,71043,1,0,0:0:0:0:
256,192,71129,1,0,0:0:0:0:
182,192,71215,1,0,0:0:0:0:
109,192,71301,1,0,0:0:0:0:
256,192,71388,1,0,0:0:0:0:
182,192,71474,1,0,0:0:0:0:
109,192,71560,1,0,0:0:0:0:
36,192,71646,1,0,0:0:0:0:
475,192,71732,128,0,73112:0:0:0:50:BassKickReverbXD.wav
329,192,71732,1,0,0:0:0:0:
109,192,72077,128,0,72767:0:0:0:0:
402,192,72250,128,0,72767:0:0:0:0:
329,192,72767,128,0,73112:0:0:0:0:
182,192,72939,128,0,73112:0:0:0:0:
109,192,73112,1,0,0:0:0:70:Kick.wav
402,192,73112,1,0,0:0:0:0:
475,192,73456,1,0,0:0:0:70:CymbalFSU.wav
329,192,73456,1,0,0:0:0:0:
182,192,73456,1,0,0:0:0:0:
36,192,73456,1,0,0:0:0:0:
109,192,73629,1,0,0:0:0:0:
256,192,73801,1,0,0:0:0:0:
402,192,73974,1,0,0:0:0:70:Kick.wav
182,192,73974,1,0,0:0:0:0:
109,192,74146,1,0,0:0:0:70:snare.wav
36,192,74146,1,0,0:0:0:0:
475,192,74146,1,0,0:0:0:0:
256,192,74319,1,0,0:0:0:0:
329,192,74405,1,0,0:0:0:0:
109,192,74491,1,0,0:0:0:70:Kick.wav
402,192,74491,1,0,0:0:0:0:
182,192,74663,1,0,0:0:0:0:
475,192,74836,1,0,0:0:0:70:snare.wav
256,192,74836,1,0,0:0:0:0:
36,192,74836,1,0,0:0:0:0:
402,192,75008,1,0,0:0:0:0:
329,192,75094,1,0,0:0:0:0:
109,192,75181,1,0,0:0:0:0:
182,192,75267,1,0,0:0:0:0:
402,192,75353,1,0,0:0:0:70:Kick.wav
329,192,75353,1,0,0:0:0:0:
36,192,75525,1,0,0:0:0:70:snare.wav
475,192,75525,1,0,0:0:0:0:
182,192,75525,1,0,0:0:0:0:
109,192,75698,1,0,0:0:0:0:
182,192,75784,1,0,0:0:0:0:
36,192,75870,1,0,0:0:0:70:Kick.wav
475,192,75870,1,0,0:0:0:70:CymbalG.wav
256,192,75870,1,0,0:0:0:0:
36,192,76043,1,0,0:0:0:70:Kick.wav
256,192,76043,1,0,0:0:0:70:CymbalG.wav
475,192,76043,1,0,0:0:0:0:
182,192,76215,1,0,0:0:0:0:
329,192,76215,1,0,0:0:0:0:
402,192,76215,1,0,0:0:0:0:
109,192,76215,1,0,0:0:0:0:
36,192,76388,1,0,0:0:0:0:
182,192,76388,1,0,0:0:0:0:
475,192,76388,1,0,0:0:0:0:
329,192,76388,1,0,0:0:0:0:
256,192,76732,1,0,0:0:0:70:Kick.wav
182,192,76819,1,0,0:0:0:0:
402,192,76905,1,0,0:0:0:0:
475,192,76905,1,0,0:0:0:0:
109,192,76905,1,0,0:0:0:0:
36,192,76905,1,0,0:0:0:70:CymbalFSU.wav
329,192,77250,1,0,0:0:0:70:Kick.wav
182,192,77250,1,0,0:0:0:0:
402,192,77422,1,0,0:0:0:0:
475,192,77508,1,0,0:0:0:0:
182,192,77594,1,0,0:0:0:0:
256,192,77681,1,0,0:0:0:0:
329,192,77767,1,0,0:0:0:0:
402,192,77853,1,0,0:0:0:0:
109,192,77939,1,0,0:0:0:0:
182,192,78025,1,0,0:0:0:0:
256,192,78112,1,0,0:0:0:0:
329,192,78198,1,0,0:0:0:0:
36,192,78284,1,0,0:0:0:0:
109,192,78370,1,0,0:0:0:0:
182,192,78456,1,0,0:0:0:0:
256,192,78543,1,0,0:0:0:0:
402,192,78629,1,0,0:0:0:70:Kick.wav
475,192,78629,1,0,0:0:0:0:
402,192,78801,1,0,0:0:0:70:Kick.wav
36,192,78801,1,0,0:0:0:0:
256,192,78974,1,0,0:0:0:70:Kick.wav
36,192,78974,1,0,0:0:0:0:
256,192,79146,1,0,0:0:0:70:Kick.wav
475,192,79146,1,0,0:0:0:0:
475,192,79319,1,0,0:0:0:70:Kick.wav
109,192,79319,1,0,0:0:0:0:
109,192,79491,1,0,0:0:0:70:Kick.wav
329,192,79491,1,0,0:0:0:0:
36,192,79663,1,0,0:0:0:70:Kick.wav
329,192,79663,1,0,0:0:0:0:
256,192,79836,1,0,0:0:0:70:Kick.wav
475,192,79836,1,0,0:0:0:0:
182,192,79922,1,0,0:0:0:70:Kick.wav
402,192,79922,1,0,0:0:0:0:
329,192,80008,1,0,0:0:0:70:Kick.wav
109,192,80008,1,0,0:0:0:0:
36,192,80181,1,0,0:0:0:70:Kick.wav
329,192,80181,1,0,0:0:0:0:
36,192,80353,1,0,0:0:0:70:Kick.wav
475,192,80353,1,0,0:0:0:0:
109,192,80525,1,0,0:0:0:70:Kick.wav
475,192,80525,1,0,0:0:0:0:
402,192,80698,1,0,0:0:0:70:Kick.wav
109,192,80698,1,0,0:0:0:0:
182,192,80870,1,0,0:0:0:70:Kick.wav
402,192,80870,1,0,0:0:0:0:
36,192,81043,1,0,0:0:0:70:Kick.wav
329,192,81043,1,0,0:0:0:0:
36,192,81215,1,0,0:0:0:70:Kick.wav
256,192,81215,1,0,0:0:0:0:
109,192,81301,1,0,0:0:0:70:Kick.wav
329,192,81301,1,0,0:0:0:0:
182,192,81388,1,0,0:0:0:70:Kick.wav
402,192,81388,1,0,0:0:0:0:
182,192,81560,1,0,0:0:0:70:Kick.wav
475,192,81560,1,0,0:0:0:0:
36,192,81732,1,0,0:0:0:70:snare.wav
256,192,81732,1,0,0:0:0:0:
475,192,81732,1,0,0:0:0:0:
109,192,81905,1,0,0:0:0:70:Kick.wav
329,192,81905,1,0,0:0:0:0:
182,192,81991,1,0,0:0:0:70:Kick.wav
402,192,81991,1,0,0:0:0:0:
475,192,82077,1,0,0:0:0:70:snare.wav
256,192,82077,1,0,0:0:0:0:
36,192,82077,1,0,0:0:0:0:
109,192,82250,1,0,0:0:0:0:
182,192,82336,1,0,0:0:0:0:
256,192,82422,1,0,0:0:0:0:
329,192,82508,1,0,0:0:0:0:
402,192,82594,1,0,0:0:0:0:
475,192,82681,1,0,0:0:0:0:
109,192,82767,128,0,83112:0:0:0:50:BassKickReverbXD.wav
402,192,83112,128,0,83456:0:0:0:0:
182,192,83456,128,0,83801:0:0:0:0:
402,192,83801,128,0,84146:0:0:0:0:
36,192,84146,1,0,0:0:0:0:
475,192,84146,1,0,0:0:0:0:
109,192,84146,1,0,0:0:0:70:Kick.wav
256,192,84319,1,0,0:0:0:0:
36,192,84491,1,0,0:0:0:0:
182,192,84491,1,0,0:0:0:70:Rim.wav
475,192,84663,1,0,0:0:0:0:
402,192,84750,1,0,0:0:0:0:
329,192,84836,1,0,0:0:0:0:
182,192,85008,1,0,0:0:0:0:
36,192,85008,1,0,0:0:0:70:Rim.wav
475,192,85181,1,0,0:0:0:0:
329,192,85181,1,0,0:0:0:70:Rim.wav
256,192,85353,1,0,0:0:0:0:
182,192,85525,1,0,0:0:0:0:
36,192,85525,1,0,0:0:0:70:Rim.wav
402,192,85698,1,0,0:0:0:0:
36,192,85870,1,0,0:0:0:0:
182,192,85870,1,0,0:0:0:70:Rim.wav
329,192,86043,1,0,0:0:0:0:
256,192,86129,1,0,0:0:0:0:
475,192,86215,1,0,0:0:0:0:
402,192,86301,1,0,0:0:0:0:
256,192,86388,1,0,0:0:0:0:
329,192,86388,1,0,0:0:0:0:
109,192,86388,1,0,0:0:0:70:Kick.wav
36,192,86560,1,0,0:0:0:0:
182,192,86560,1,0,0:0:0:70:Rim.wav
256,192,86732,1,0,0:0:0:0:
475,192,86905,1,0,0:0:0:0:
329,192,86905,1,0,0:0:0:0:
109,192,86905,1,0,0:0:0:70:Kick.wav
36,192,87250,1,0,0:0:0:0:
182,192,87250,1,0,0:0:0:70:Rim.wav
329,192,87422,1,0,0:0:0:0:
475,192,87422,1,0,0:0:0:0:
109,192,87422,1,0,0:0:0:70:Kick.wav
256,192,87508,1,0,0:0:0:0:
182,192,87594,1,0,0:0:0:0:
475,192,87767,1,0,0:0:0:0:
329,192,87767,1,0,0:0:0:70:Rim.wav
36,192,87939,1,0,0:0:0:0:
182,192,87939,1,0,0:0:0:70:Rim.wav
475,192,88112,1,0,0:0:0:0:
329,192,88112,1,0,0:0:0:70:Rim.wav
36,192,88284,1,0,0:0:0:0:
182,192,88284,1,0,0:0:0:70:Rim.wav
402,192,88456,1,0,0:0:0:0:
329,192,88543,1,0,0:0:0:0:
182,192,88629,1,0,0:0:0:70:Rim.wav
36,192,88629,1,0,0:0:0:0:
329,192,88801,1,0,0:0:0:0:
256,192,88888,1,0,0:0:0:0:
475,192,88974,1,0,0:0:0:0:
402,192,89060,1,0,0:0:0:0:
256,192,89146,1,0,0:0:0:70:Rim.wav
329,192,89146,1,0,0:0:0:0:
182,192,89319,1,0,0:0:0:0:
36,192,89319,1,0,0:0:0:70:Rim.wav
256,192,89491,1,0,0:0:0:0:
475,192,89663,1,0,0:0:0:0:
402,192,89663,1,0,0:0:0:0:
329,192,89836,1,0,0:0:0:0:
182,192,90008,1,0,0:0:0:0:
36,192,90008,1,0,0:0:0:70:Rim.wav
475,192,90181,1,0,0:0:0:0:
402,192,90267,1,0,0:0:0:0:
329,192,90353,1,0,0:0:0:0:
182,192,90525,1,0,0:0:0:0:
36,192,90525,1,0,0:0:0:70:Rim.wav
329,192,90698,1,0,0:0:0:0:
475,192,90698,1,0,0:0:0:70:Rim.wav
256,192,90870,1,0,0:0:0:0:
182,192,91043,1,0,0:0:0:0:
36,192,91043,1,0,0:0:0:70:Rim.wav
256,192,91215,1,0,0:0:0:0:
475,192,91388,1,0,0:0:0:0:
329,192,91388,1,0,0:0:0:70:Rim.wav
109,192,91560,1,0,0:0:0:0:
182,192,91646,1,0,0:0:0:0:
36,192,91732,1,0,0:0:0:0:
109,192,91819,1,0,0:0:0:0:
256,192,91905,1,0,0:0:0:0:
402,192,91905,1,0,0:0:0:0:
182,192,91905,1,0,0:0:0:70:Kick.wav
329,192,92077,1,0,0:0:0:0:
475,192,92077,1,0,0:0:0:70:Rim.wav
256,192,92250,1,0,0:0:0:0:
402,192,92422,1,0,0:0:0:0:
182,192,92422,1,0,0:0:0:0:
109,192,92422,1,0,0:0:0:70:Kick.wav
329,192,92594,1,0,0:0:0:0:
182,192,92767,1,0,0:0:0:0:
36,192,92767,1,0,0:0:0:70:Rim.wav
109,192,92939,1,0,0:0:0:0:
402,192,92939,1,0,0:0:0:70:Kick.wav
475,192,92939,1,0,0:0:0:0:
329,192,93025,1,0,0:0:0:0:
256,192,93112,1,0,0:0:0:0:
36,192,93284,1,0,0:0:0:0:
182,192,93284,1,0,0:0:0:70:Rim.wav
329,192,93456,1,0,0:0:0:70:Rim.wav
475,192,93456,1,0,0:0:0:0:
36,192,93629,1,0,0:0:0:0:
182,192,93629,1,0,0:0:0:70:Rim.wav
329,192,93801,1,0,0:0:0:0:
475,192,93801,1,0,0:0:0:0:
36,192,93974,128,0,94319:0:0:0:0:
256,192,93974,128,0,94319:0:0:0:0:
109,192,94491,128,0,94663:0:0:0:0:
329,192,94491,128,0,94663:0:0:0:0:
182,192,94836,128,0,95181:0:0:0:0:
402,192,94836,128,0,95181:0:0:0:0:
36,192,95181,1,0,0:0:0:70:Kick.wav
329,192,95181,1,0,0:0:0:0:
256,192,95353,1,0,0:0:0:0:
109,192,95525,1,0,0:0:0:70:snare.wav
475,192,95525,1,0,0:0:0:0:
402,192,95525,1,0,0:0:0:0:
256,192,95698,1,0,0:0:0:0:
329,192,95784,1,0,0:0:0:0:
36,192,95870,1,0,0:0:0:0:
109,192,95956,1,0,0:0:0:0:
256,192,96043,1,0,0:0:0:70:Kick.wav
182,192,96043,1,0,0:0:0:0:
109,192,96215,1,0,0:0:0:70:snare.wav
402,192,96215,1,0,0:0:0:0:
475,192,96215,1,0,0:0:0:0:
329,192,96388,1,0,0:0:0:0:
256,192,96474,1,0,0:0:0:0:
36,192,96560,1,0,0:0:0:70:Kick.wav
475,192,96560,1,0,0:0:0:0:
329,192,96732,1,0,0:0:0:0:
182,192,96905,1,0,0:0:0:70:snare.wav
109,192,96905,1,0,0:0:0:0:
402,192,96905,1,0,0:0:0:0:
256,192,97077,1,0,0:0:0:0:
329,192,97163,1,0,0:0:0:0:
109,192,97250,1,0,0:0:0:0:
182,192,97336,1,0,0:0:0:0:
329,192,97422,1,0,0:0:0:70:Kick.wav
256,192,97422,1,0,0:0:0:0:
36,192,97594,1,0,0:0:0:70:snare.wav
475,192,97594,1,0,0:0:0:0:
402,192,97594,1,0,0:0:0:0:
329,192,97767,1,0,0:0:0:0:
256,192,97853,1,0,0:0:0:0:
109,192,97939,1,0,0:0:0:0:
182,192,97939,1,0,0:0:0:70:Kick.wav
475,192,98112,1,0,0:0:0:0:
256,192,98284,1,0,0:0:0:70:snare.wav
402,192,98284,1,0,0:0:0:0:
182,192,98284,1,0,0:0:0:0:
109,192,98456,1,0,0:0:0:0:
36,192,98456,1,0,0:0:0:0:
329,192,98543,1,0,0:0:0:0:
256,192,98629,1,0,0:0:0:0:
475,192,98715,1,0,0:0:0:0:
329,192,98801,1,0,0:0:0:70:Kick.wav
402,192,98801,1,0,0:0:0:0:
36,192,98974,1,0,0:0:0:70:snare.wav
109,192,98974,1,0,0:0:0:0:
182,192,98974,1,0,0:0:0:0:
329,192,99146,1,0,0:0:0:0:
256,192,99232,1,0,0:0:0:0:
182,192,99319,1,0,0:0:0:70:Kick.wav
475,192,99319,1,0,0:0:0:0:
402,192,99491,1,0,0:0:0:0:
36,192,99663,1,0,0:0:0:70:snare.wav
109,192,99663,1,0,0:0:0:0:
329,192,99663,1,0,0:0:0:0:
182,192,99836,1,0,0:0:0:0:
256,192,99922,1,0,0:0:0:0:
36,192,100008,1,0,0:0:0:0:
109,192,100094,1,0,0:0:0:0:
256,192,100181,1,0,0:0:0:70:Kick.wav
329,192,100181,1,0,0:0:0:0:
109,192,100353,1,0,0:0:0:70:snare.wav
36,192,100353,1,0,0:0:0:0:
475,192,100353,1,0,0:0:0:0:
402,192,100525,1,0,0:0:0:70:Kick.wav
182,192,100525,1,0,0:0:0:0:
402,192,100698,1,0,0:0:0:0:
182,192,100698,1,0,0:0:0:0:
256,192,100870,1,0,0:0:0:0:
36,192,101043,1,0,0:0:0:0:
402,192,101043,1,0,0:0:0:0:
475,192,101043,1,0,0:0:0:0:
182,192,101215,1,0,0:0:0:0:
109,192,101301,1,0,0:0:0:0:
402,192,101388,1,0,0:0:0:0:
329,192,101474,1,0,0:0:0:0:
256,192,101560,1,0,0:0:0:70:Kick.wav
182,192,101560,1,0,0:0:0:0:
475,192,101732,1,0,0:0:0:0:
402,192,101732,1,0,0:0:0:0:
36,192,101732,1,0,0:0:0:0:
109,192,101732,1,0,0:0:0:0:
182,192,101905,1,0,0:0:0:0:
256,192,102077,1,0,0:0:0:0:
475,192,102077,1,0,0:0:0:0:
182,192,102250,1,0,0:0:0:0:
109,192,102336,1,0,0:0:0:0:
36,192,102422,1,0,0:0:0:70:snare.wav
402,192,102422,1,0,0:0:0:0:
329,192,102508,1,0,0:0:0:0:
256,192,102594,1,0,0:0:0:0:
182,192,102681,1,0,0:0:0:0:
109,192,102767,1,0,0:0:0:0:
256,192,102939,1,0,0:0:0:70:Kick.wav
475,192,102939,1,0,0:0:0:0:
109,192,103112,1,0,0:0:0:70:snare.wav
182,192,103112,1,0,0:0:0:0:
402,192,103112,1,0,0:0:0:0:
256,192,103284,1,0,0:0:0:0:
475,192,103456,1,0,0:0:0:0:
109,192,103456,1,0,0:0:0:0:
329,192,103629,1,0,0:0:0:0:
36,192,103801,1,0,0:0:0:70:snare.wav
182,192,103801,1,0,0:0:0:0:
402,192,103801,1,0,0:0:0:0:
256,192,103974,1,0,0:0:0:0:
329,192,104060,1,0,0:0:0:0:
36,192,104146,1,0,0:0:0:0:
109,192,104232,1,0,0:0:0:0:
182,192,104319,1,0,0:0:0:0:
256,192,104319,1,0,0:0:0:0:
36,192,104491,1,0,0:0:0:70:snare.wav
402,192,104491,1,0,0:0:0:0:
475,192,104491,1,0,0:0:0:0:
182,192,104663,1,0,0:0:0:70:Kick.wav
329,192,104663,1,0,0:0:0:0:
182,192,104836,1,0,0:0:0:0:
329,192,104836,1,0,0:0:0:0:
109,192,105008,1,0,0:0:0:0:
36,192,105094,1,0,0:0:0:0:
256,192,105181,1,0,0:0:0:0:
182,192,105267,1,0,0:0:0:0:
109,192,105353,1,0,0:0:0:0:
36,192,105439,1,0,0:0:0:0:
329,192,105525,1,0,0:0:0:0:
256,192,105612,1,0,0:0:0:0:
182,192,105698,1,0,0:0:0:0:
109,192,105784,1,0,0:0:0:0:
402,192,105870,1,0,0:0:0:0:
329,192,105956,1,0,0:0:0:0:
256,192,106043,1,0,0:0:0:0:
182,192,106129,1,0,0:0:0:0:
329,192,106215,1,0,0:0:0:70:Kick.wav
402,192,106215,128,0,106301:0:0:0:0:
36,192,106388,1,0,0:0:0:0:
109,192,106560,1,0,0:0:0:0:
182,192,106732,1,0,0:0:0:0:
36,192,106905,1,0,0:0:0:0:
329,192,107077,1,0,0:0:0:0:
109,192,107250,1,0,0:0:0:0:
402,192,107422,1,0,0:0:0:0:
36,192,107508,128,0,107594:0:0:0:0:
475,192,107767,1,0,0:0:0:0:
329,192,108112,128,0,108198:0:0:0:0:
182,192,108456,1,0,0:0:0:0:
475,192,108866,128,0,109103:0:0:0:0:
329,192,110181,1,0,0:0:0:0:
256,192,110267,1,0,0:0:0:0:
36,192,110353,128,0,111043:0:0:0:0:
475,192,110353,128,0,111043:0:0:0:0:
256,192,111043,128,0,111560:0:0:0:0:
36,192,111732,128,0,112077:0:0:0:70:Kick.wav
256,192,111732,1,0,0:0:0:70:CymbalFSU.wav
109,192,111732,1,0,0:0:0:0:
475,192,111732,1,0,0:0:0:0:
329,192,111905,1,0,0:0:0:0:
402,192,112077,1,0,0:0:0:70:snare.wav
182,192,112077,1,0,0:0:0:0:
475,192,112077,128,0,112594:0:0:0:0:
109,192,112250,1,0,0:0:0:0:
36,192,112336,1,0,0:0:0:0:
256,192,112422,1,0,0:0:0:0:
182,192,112508,1,0,0:0:0:0:
329,192,112594,1,0,0:0:0:70:Kick.wav
109,192,112594,1,0,0:0:0:0:
109,192,112767,1,0,0:0:0:70:snare.wav
256,192,112767,1,0,0:0:0:0:
475,192,112767,1,0,0:0:0:0:
36,192,112767,128,0,113284:0:0:0:0:
402,192,112939,1,0,0:0:0:0:
329,192,113025,1,0,0:0:0:0:
182,192,113112,1,0,0:0:0:70:Kick.wav
109,192,113112,1,0,0:0:0:0:
402,192,113284,1,0,0:0:0:0:
329,192,113456,1,0,0:0:0:70:snare.wav
182,192,113456,1,0,0:0:0:0:
36,192,113456,1,0,0:0:0:0:
475,192,113456,128,0,113974:0:0:0:0:
256,192,113629,1,0,0:0:0:0:
182,192,113715,1,0,0:0:0:0:
402,192,113801,1,0,0:0:0:0:
329,192,113888,1,0,0:0:0:0:
109,192,113974,1,0,0:0:0:70:Kick.wav
256,192,113974,1,0,0:0:0:0:
182,192,114146,1,0,0:0:0:0:
402,192,114146,1,0,0:0:0:0:
36,192,114146,128,0,114836:0:0:0:0:
256,192,114319,1,0,0:0:0:0:
329,192,114405,1,0,0:0:0:0:
475,192,114491,1,0,0:0:0:70:Kick.wav
402,192,114491,1,0,0:0:0:0:
182,192,114663,1,0,0:0:0:0:
256,192,114836,1,0,0:0:0:70:snare.wav
109,192,114836,1,0,0:0:0:0:
475,192,114836,1,0,0:0:0:0:
329,192,115008,128,0,115353:0:0:0:0:
182,192,115094,1,0,0:0:0:0:
256,192,115181,1,0,0:0:0:0:
36,192,115267,1,0,0:0:0:0:
109,192,115353,1,0,0:0:0:70:Kick.wav
402,192,115353,1,0,0:0:0:0:
36,192,115525,1,0,0:0:0:70:snare.wav
475,192,115525,128,0,116129:0:0:0:0:
256,192,115525,1,0,0:0:0:0:
109,192,115698,1,0,0:0:0:0:
182,192,115784,1,0,0:0:0:0:
402,192,115870,1,0,0:0:0:70:Kick.wav
329,192,115870,1,0,0:0:0:0:
36,192,116043,1,0,0:0:0:0:
109,192,116215,1,0,0:0:0:70:snare.wav
182,192,116215,1,0,0:0:0:0:
402,192,116215,1,0,0:0:0:0:
256,192,116388,1,0,0:0:0:0:
329,192,116474,1,0,0:0:0:0:
36,192,116560,128,0,116905:0:0:0:0:
109,192,116646,1,0,0:0:0:0:
256,192,116732,1,0,0:0:0:70:Kick.wav
182,192,116732,1,0,0:0:0:0:
402,192,116905,128,0,117422:0:0:0:70:snare.wav
329,192,116905,1,0,0:0:0:0:
475,192,116905,1,0,0:0:0:0:
109,192,117077,1,0,0:0:0:70:Kick.wav
256,192,117077,1,0,0:0:0:0:
109,192,117250,1,0,0:0:0:0:
256,192,117250,1,0,0:0:0:70:Kick.wav
329,192,117422,1,0,0:0:0:0:
109,192,117594,128,0,117767:0:0:0:70:snare.wav
256,192,117594,1,0,0:0:0:0:
475,192,117594,1,0,0:0:0:0:
182,192,117681,1,0,0:0:0:0:
402,192,117767,1,0,0:0:0:0:
329,192,117853,1,0,0:0:0:0:
182,192,117939,128,0,118112:0:0:0:0:
475,192,118025,1,0,0:0:0:0:
256,192,118112,1,0,0:0:0:70:Kick.wav
329,192,118112,1,0,0:0:0:0:
402,192,118284,128,0,118629:0:0:0:70:snare.wav
109,192,118284,1,0,0:0:0:0:
36,192,118284,1,0,0:0:0:0:
256,192,118456,1,0,0:0:0:0:
182,192,118543,1,0,0:0:0:0:
329,192,118629,1,0,0:0:0:70:Kick.wav
36,192,118629,1,0,0:0:0:0:
109,192,118801,1,0,0:0:0:0:
475,192,118974,1,0,0:0:0:0:
256,192,118974,1,0,0:0:0:0:
36,192,118974,128,0,119146:0:0:0:0:
402,192,119146,1,0,0:0:0:0:
329,192,119232,1,0,0:0:0:0:
109,192,119319,128,0,119663:0:0:0:0:
182,192,119405,1,0,0:0:0:0:
256,192,119491,1,0,0:0:0:70:Kick.wav
402,192,119491,1,0,0:0:0:0:
329,192,119663,1,0,0:0:0:70:snare.wav
475,192,119663,1,0,0:0:0:0:
36,192,119663,1,0,0:0:0:0:
402,192,119836,128,0,120181:0:0:0:0:
256,192,119922,1,0,0:0:0:0:
109,192,120008,1,0,0:0:0:70:Kick.wav
182,192,120008,1,0,0:0:0:0:
329,192,120181,1,0,0:0:0:0:
182,192,120353,1,0,0:0:0:70:snare.wav
475,192,120353,1,0,0:0:0:0:
36,192,120353,128,0,120870:0:0:0:0:
329,192,120525,1,0,0:0:0:0:
402,192,120612,1,0,0:0:0:0:
182,192,120698,1,0,0:0:0:0:
256,192,120784,1,0,0:0:0:0:
475,192,120870,1,0,0:0:0:70:Kick.wav
402,192,120870,1,0,0:0:0:0:
36,192,121043,1,0,0:0:0:70:snare.wav
109,192,121043,1,0,0:0:0:0:
329,192,121043,128,0,121388:0:0:0:0:
182,192,121215,1,0,0:0:0:70:Kick.wav
475,192,121215,1,0,0:0:0:0:
182,192,121388,1,0,0:0:0:70:Kick.wav
402,192,121388,1,0,0:0:0:0:
402,192,121560,1,0,0:0:0:0:
109,192,121560,128,0,121905:0:0:0:0:
475,192,121732,1,0,0:0:0:70:snare.wav
182,192,121732,1,0,0:0:0:0:
36,192,121732,1,0,0:0:0:0:
329,192,121905,1,0,0:0:0:70:Kick.wav
402,192,121905,1,0,0:0:0:0:
256,192,121991,1,0,0:0:0:0:
475,192,122077,1,0,0:0:0:0:
402,192,122163,1,0,0:0:0:0:
329,192,122250,1,0,0:0:0:70:Kick.wav
182,192,122250,1,0,0:0:0:0:
36,192,122422,1,0,0:0:0:0:
256,192,122422,1,0,0:0:0:0:
109,192,122422,1,0,0:0:0:0:
329,192,122594,1,0,0:0:0:70:Kick.wav
475,192,122594,1,0,0:0:0:0:
475,192,122767,1,0,0:0:0:0:
329,192,122767,128,0,123112:0:0:0:0:
402,192,123112,1,0,0:0:0:0:
475,192,123112,1,0,0:0:0:0:
36,192,123112,1,0,0:0:0:70:CymbalFSU.wav
109,192,123112,128,0,123629:0:0:0:0:
256,192,123284,1,0,0:0:0:0:
182,192,123370,1,0,0:0:0:0:
402,192,123456,1,0,0:0:0:0:
329,192,123543,1,0,0:0:0:0:
256,192,123629,1,0,0:0:0:0:
182,192,123629,1,0,0:0:0:0:
36,192,123801,1,0,0:0:0:0:
475,192,123801,1,0,0:0:0:0:
402,192,123801,128,0,124319:0:0:0:0:
109,192,123974,1,0,0:0:0:0:
182,192,124060,1,0,0:0:0:0:
256,192,124146,1,0,0:0:0:0:
329,192,124146,1,0,0:0:0:0:
475,192,124319,1,0,0:0:0:0:
402,192,124491,1,0,0:0:0:0:
36,192,124491,1,0,0:0:0:0:
109,192,124491,128,0,125008:0:0:0:0:
256,192,124663,1,0,0:0:0:0:
182,192,124750,1,0,0:0:0:0:
475,192,124836,1,0,0:0:0:0:
402,192,124922,1,0,0:0:0:0:
329,192,125008,1,0,0:0:0:70:Kick.wav
256,192,125008,1,0,0:0:0:0:
36,192,125181,1,0,0:0:0:70:snare.wav
475,192,125181,1,0,0:0:0:0:
402,192,125181,128,0,125525:0:0:0:0:
109,192,125353,1,0,0:0:0:0:
182,192,125439,1,0,0:0:0:0:
256,192,125525,1,0,0:0:0:0:
36,192,125525,1,0,0:0:0:0:
475,192,125525,1,0,0:0:0:0:
475,192,125698,1,0,0:0:0:0:
256,192,125698,1,0,0:0:0:0:
36,192,125698,1,0,0:0:0:0:
182,192,125870,1,0,0:0:0:0:
109,192,125870,1,0,0:0:0:0:
329,192,125870,1,0,0:0:0:0:
402,192,125870,1,0,0:0:0:0:
475,192,126043,1,0,0:0:0:0:
329,192,126043,1,0,0:0:0:0:
182,192,126043,1,0,0:0:0:0:
36,192,126043,1,0,0:0:0:0:
256,192,126388,1,0,0:0:0:0:
182,192,126474,1,0,0:0:0:70:Kick.wav
402,192,126560,1,0,0:0:0:0:
475,192,126560,1,0,0:0:0:0:
36,192,126560,1,0,0:0:0:0:
109,192,126560,1,0,0:0:0:0:
109,192,126905,1,0,0:0:0:70:Kick.wav
402,192,126905,1,0,0:0:0:0:
256,192,127077,1,0,0:0:0:0:
329,192,127163,1,0,0:0:0:0:
109,192,127250,1,0,0:0:0:70:snare.wav
182,192,127336,1,0,0:0:0:0:
256,192,127422,1,0,0:0:0:0:
329,192,127508,1,0,0:0:0:0:
109,192,127594,1,0,0:0:0:0:
182,192,127681,1,0,0:0:0:0:
256,192,127767,1,0,0:0:0:70:Kick.wav
329,192,127853,1,0,0:0:0:0:
36,192,127939,1,0,0:0:0:70:snare.wav
109,192,128025,1,0,0:0:0:0:
182,192,128112,1,0,0:0:0:70:Kick.wav
256,192,128198,1,0,0:0:0:0:
36,192,128284,1,0,0:0:0:70:Kick.wav
402,192,128284,1,0,0:0:0:0:
182,192,128456,1,0,0:0:0:70:Kick.wav
402,192,128456,1,0,0:0:0:0:
475,192,128629,1,0,0:0:0:70:Kick.wav
182,192,128629,1,0,0:0:0:0:
256,192,128801,1,0,0:0:0:70:Kick.wav
475,192,128801,1,0,0:0:0:0:
36,192,128974,1,0,0:0:0:70:Kick.wav
256,192,128974,1,0,0:0:0:0:
402,192,129146,1,0,0:0:0:70:Kick.wav
36,192,129146,1,0,0:0:0:0:
182,192,129319,1,0,0:0:0:70:Kick.wav
402,192,129319,1,0,0:0:0:0:
182,192,129491,1,0,0:0:0:70:Kick.wav
475,192,129491,1,0,0:0:0:0:
109,192,129577,1,0,0:0:0:70:Kick.wav
402,192,129577,1,0,0:0:0:0:
36,192,129663,1,0,0:0:0:70:Kick.wav
329,192,129663,1,0,0:0:0:0:
109,192,129836,1,0,0:0:0:70:Kick.wav
329,192,129836,1,0,0:0:0:0:
109,192,130008,1,0,0:0:0:70:Kick.wav
475,192,130008,1,0,0:0:0:0:
182,192,130181,1,0,0:0:0:70:Kick.wav
475,192,130181,1,0,0:0:0:0:
182,192,130353,1,0,0:0:0:70:Kick.wav
402,192,130353,1,0,0:0:0:0:
109,192,130525,1,0,0:0:0:70:Kick.wav
402,192,130525,1,0,0:0:0:0:
329,192,130698,1,0,0:0:0:70:Kick.wav
109,192,130698,1,0,0:0:0:0:
36,192,130870,1,0,0:0:0:70:Kick.wav
329,192,130870,1,0,0:0:0:0:
109,192,130956,1,0,0:0:0:70:Kick.wav
402,192,130956,1,0,0:0:0:0:
182,192,131043,1,0,0:0:0:70:Kick.wav
475,192,131043,1,0,0:0:0:0:
329,192,131215,1,0,0:0:0:0:
256,192,131301,1,0,0:0:0:0:
402,192,131388,1,0,0:0:0:0:
329,192,131474,1,0,0:0:0:0:
256,192,131560,1,0,0:0:0:0:
182,192,131646,1,0,0:0:0:0:
329,192,131732,1,0,0:0:0:0:
256,192,131819,1,0,0:0:0:0:
182,192,131905,1,0,0:0:0:0:
109,192,131991,1,0,0:0:0:0:
256,192,132077,1,0,0:0:0:0:
182,192,132163,1,0,0:0:0:0:
109,192,132250,1,0,0:0:0:0:
36,192,132336,1,0,0:0:0:0:
329,192,132422,128,0,132681:0:0:0:0:
475,192,132681,128,0,132939:0:0:0:0:
36,192,132939,128,0,133456:0:0:0:0:
329,192,133025,1,0,0:0:0:0:
402,192,133112,1,0,0:0:0:0:
475,192,133198,1,0,0:0:0:0:
256,192,133284,1,0,0:0:0:0:
329,192,133370,1,0,0:0:0:0:
182,192,133456,128,0,133629:0:0:0:0:
402,192,133456,1,0,0:0:0:0:
329,192,133629,128,0,133801:0:0:0:0:
109,192,133801,1,0,0:0:0:70:CymbalFSU.wav
36,192,133801,1,0,0:0:0:70:Kick.wav
402,192,133801,1,0,0:0:0:0:
475,192,133801,1,0,0:0:0:0:
256,192,133974,1,0,0:0:0:0:
256,192,134146,1,0,0:0:0:0:
109,192,134319,1,0,0:0:0:70:Kick.wav
402,192,134319,1,0,0:0:0:0:
36,192,134491,1,0,0:0:0:70:snare.wav
256,192,134491,1,0,0:0:0:0:
475,192,134491,1,0,0:0:0:0:
182,192,134663,1,0,0:0:0:0:
109,192,134836,1,0,0:0:0:0:
402,192,134836,1,0,0:0:0:70:Kick.wav
402,192,135008,1,0,0:0:0:0:
109,192,135008,1,0,0:0:0:70:Kick.wav
182,192,135353,1,0,0:0:0:0:
329,192,135353,1,0,0:0:0:0:
182,192,135525,1,0,0:0:0:0:
329,192,135525,1,0,0:0:0:0:
475,192,135870,1,0,0:0:0:0:
256,192,135870,1,0,0:0:0:0:
36,192,135870,1,0,0:0:0:0:
109,192,136043,1,0,0:0:0:0:
402,192,136043,1,0,0:0:0:0:
402,192,136388,1,0,0:0:0:0:
109,192,136388,1,0,0:0:0:0:
109,192,136560,1,0,0:0:0:0:
402,192,136560,1,0,0:0:0:0:
256,192,136732,1,0,0:0:0:0:
256,192,136905,1,0,0:0:0:0:
402,192,137077,1,0,0:0:0:0:
109,192,137077,1,0,0:0:0:0:
256,192,137250,1,0,0:0:0:0:
475,192,137250,1,0,0:0:0:0:
36,192,137250,1,0,0:0:0:0:
329,192,137422,1,0,0:0:0:0:
109,192,137594,1,0,0:0:0:0:
402,192,137594,1,0,0:0:0:0:
402,192,137767,1,0,0:0:0:0:
109,192,137767,1,0,0:0:0:0:
329,192,138112,1,0,0:0:0:0:
182,192,138112,1,0,0:0:0:0:
329,192,138284,1,0,0:0:0:0:
182,192,138284,1,0,0:0:0:0:
256,192,138456,1,0,0:0:0:0:
402,192,138629,1,0,0:0:0:70:snare.wav
329,192,138715,1,0,0:0:0:0:
256,192,138801,1,0,0:0:0:0:
182,192,138888,1,0,0:0:0:0:
329,192,138974,1,0,0:0:0:0:
256,192,139060,1,0,0:0:0:0:
182,192,139146,1,0,0:0:0:0:
109,192,139232,1,0,0:0:0:0:
36,192,139319,1,0,0:0:0:0:
475,192,139319,1,0,0:0:0:70:Kick.wav
256,192,139491,128,0,139577:0:0:0:0:
109,192,139663,1,0,0:0:0:0:
36,192,139663,1,0,0:0:0:0:
402,192,139663,1,0,0:0:0:0:
475,192,139663,1,0,0:0:0:0:
182,192,139836,1,0,0:0:0:70:Kick.wav
329,192,139836,1,0,0:0:0:0:
36,192,140008,1,0,0:0:0:70:snare.wav
256,192,140008,1,0,0:0:0:0:
475,192,140008,1,0,0:0:0:0:
182,192,140181,1,0,0:0:0:0:
402,192,140353,1,0,0:0:0:0:
109,192,140353,1,0,0:0:0:0:
402,192,140525,1,0,0:0:0:0:
109,192,140525,1,0,0:0:0:0:
182,192,140870,1,0,0:0:0:0:
329,192,140870,1,0,0:0:0:0:
182,192,141043,1,0,0:0:0:0:
329,192,141043,1,0,0:0:0:0:
256,192,141388,1,0,0:0:0:0:
36,192,141388,1,0,0:0:0:0:
475,192,141388,1,0,0:0:0:0:
329,192,141560,1,0,0:0:0:0:
109,192,141732,1,0,0:0:0:0:
402,192,141732,1,0,0:0:0:0:
402,192,141905,1,0,0:0:0:0:
109,192,141905,1,0,0:0:0:0:
182,192,142077,1,0,0:0:0:0:
329,192,142077,1,0,0:0:0:0:
256,192,142250,1,0,0:0:0:0:
256,192,142422,1,0,0:0:0:0:
402,192,142594,1,0,0:0:0:0:
109,192,142594,1,0,0:0:0:0:
475,192,142767,1,0,0:0:0:0:
36,192,142767,1,0,0:0:0:0:
256,192,142767,1,0,0:0:0:0:
182,192,142939,1,0,0:0:0:0:
109,192,143112,1,0,0:0:0:0:
402,192,143112,1,0,0:0:0:0:
109,192,143284,1,0,0:0:0:0:
402,192,143284,1,0,0:0:0:0:
182,192,143629,1,0,0:0:0:0:
329,192,143629,1,0,0:0:0:0:
182,192,143801,1,0,0:0:0:0:
329,192,143801,1,0,0:0:0:0:
402,192,143974,1,0,0:0:0:0:
109,192,143974,1,0,0:0:0:0:
36,192,144146,1,0,0:0:0:70:snare.wav
475,192,144146,1,0,0:0:0:0:
256,192,144146,1,0,0:0:0:0:
109,192,144319,1,0,0:0:0:0:
402,192,144319,1,0,0:0:0:0:
109,192,144491,1,0,0:0:0:0:
402,192,144491,1,0,0:0:0:0:
402,192,144663,1,0,0:0:0:0:
109,192,144663,1,0,0:0:0:0:
36,192,144836,128,0,145698:0:0:0:70:Kick.wav
475,192,144836,1,0,0:0:0:0:
256,192,144836,1,0,0:0:0:0:
182,192,144836,1,0,0:0:0:0:
329,192,145008,1,0,0:0:0:0:
109,192,145181,1,0,0:0:0:70:snare.wav
402,192,145181,1,0,0:0:0:0:
475,192,145181,1,0,0:0:0:0:
256,192,145353,1,0,0:0:0:0:
182,192,145439,1,0,0:0:0:0:
402,192,145525,1,0,0:0:0:0:
329,192,145612,1,0,0:0:0:0:
256,192,145698,1,0,0:0:0:70:Kick.wav
182,192,145698,1,0,0:0:0:0:
109,192,145870,1,0,0:0:0:70:snare.wav
475,192,145870,1,0,0:0:0:0:
402,192,145870,128,0,147077:0:0:0:0:
256,192,146043,1,0,0:0:0:0:
36,192,146215,1,0,0:0:0:70:Kick.wav
329,192,146215,1,0,0:0:0:0:
109,192,146388,1,0,0:0:0:0:
182,192,146560,1,0,0:0:0:70:snare.wav
475,192,146560,1,0,0:0:0:0:
256,192,146560,1,0,0:0:0:0:
109,192,146732,1,0,0:0:0:0:
36,192,146819,1,0,0:0:0:0:
256,192,146905,1,0,0:0:0:0:
182,192,146991,1,0,0:0:0:0:
36,192,147077,1,0,0:0:0:70:Kick.wav
109,192,147077,1,0,0:0:0:0:
182,192,147250,1,0,0:0:0:70:snare.wav
256,192,147250,1,0,0:0:0:0:
475,192,147250,1,0,0:0:0:0:
109,192,147422,1,0,0:0:0:0:
36,192,147594,128,0,148456:0:0:0:70:Kick.wav
329,192,147594,1,0,0:0:0:0:
475,192,147767,1,0,0:0:0:0:
109,192,147939,1,0,0:0:0:70:snare.wav
182,192,147939,1,0,0:0:0:0:
402,192,147939,1,0,0:0:0:0:
256,192,148112,1,0,0:0:0:0:
329,192,148198,1,0,0:0:0:0:
109,192,148284,1,0,0:0:0:0:
182,192,148370,1,0,0:0:0:0:
256,192,148456,1,0,0:0:0:70:Kick.wav
329,192,148456,1,0,0:0:0:0:
36,192,148629,1,0,0:0:0:70:snare.wav
475,192,148629,1,0,0:0:0:0:
402,192,148629,128,0,149836:0:0:0:0:
182,192,148801,1,0,0:0:0:0:
109,192,148974,1,0,0:0:0:0:
329,192,148974,1,0,0:0:0:0:
256,192,149146,1,0,0:0:0:0:
36,192,149319,1,0,0:0:0:70:snare.wav
182,192,149319,1,0,0:0:0:0:
475,192,149319,1,0,0:0:0:0:
256,192,149491,1,0,0:0:0:0:
329,192,149577,1,0,0:0:0:0:
36,192,149663,1,0,0:0:0:0:
109,192,149750,1,0,0:0:0:0:
182,192,149836,1,0,0:0:0:70:Kick.wav
256,192,149836,1,0,0:0:0:0:
109,192,150008,1,0,0:0:0:70:snare.wav
402,192,150008,1,0,0:0:0:0:
475,192,150008,1,0,0:0:0:0:
36,192,150181,1,0,0:0:0:70:Kick.wav
329,192,150181,1,0,0:0:0:0:
36,192,150353,128,0,151215:0:0:0:70:Kick.wav
329,192,150353,1,0,0:0:0:0:
182,192,150525,1,0,0:0:0:0:
109,192,150698,1,0,0:0:0:70:snare.wav
475,192,150698,1,0,0:0:0:0:
329,192,150698,1,0,0:0:0:0:
256,192,150870,1,0,0:0:0:0:
182,192,150956,1,0,0:0:0:0:
402,192,151043,1,0,0:0:0:0:
329,192,151129,1,0,0:0:0:0:
109,192,151215,1,0,0:0:0:70:Kick.wav
182,192,151215,1,0,0:0:0:0:
475,192,151388,1,0,0:0:0:70:snare.wav
402,192,151388,128,0,152594:0:0:0:0:
36,192,151388,1,0,0:0:0:0:
256,192,151560,1,0,0:0:0:0:
182,192,151646,1,0,0:0:0:0:
109,192,151732,1,0,0:0:0:70:Kick.wav
36,192,151732,1,0,0:0:0:0:
256,192,151905,1,0,0:0:0:0:
109,192,152077,1,0,0:0:0:70:snare.wav
475,192,152077,1,0,0:0:0:0:
329,192,152077,1,0,0:0:0:0:
182,192,152250,1,0,0:0:0:0:
256,192,152336,1,0,0:0:0:0:
36,192,152422,1,0,0:0:0:0:
109,192,152508,1,0,0:0:0:0:
329,192,152594,1,0,0:0:0:70:Kick.wav
256,192,152594,1,0,0:0:0:0:
475,192,152767,1,0,0:0:0:0:
36,192,152767,128,0,154491:0:0:0:0:
182,192,152767,1,0,0:0:0:0:
402,192,152939,1,0,0:0:0:0:
109,192,153112,1,0,0:0:0:70:Kick.wav
329,192,153112,1,0,0:0:0:0:
256,192,153284,1,0,0:0:0:0:
402,192,153456,1,0,0:0:0:70:snare.wav
475,192,153456,1,0,0:0:0:0:
182,192,153456,1,0,0:0:0:0:
256,192,153629,1,0,0:0:0:0:
329,192,153715,1,0,0:0:0:0:
109,192,153801,1,0,0:0:0:0:
182,192,153888,1,0,0:0:0:0:
402,192,153974,1,0,0:0:0:70:Kick.wav
329,192,153974,1,0,0:0:0:0:
109,192,154146,1,0,0:0:0:70:snare.wav
256,192,154146,1,0,0:0:0:0:
475,192,154146,1,0,0:0:0:0:
329,192,154319,1,0,0:0:0:70:Kick.wav
182,192,154319,1,0,0:0:0:0:
475,192,154491,128,0,155870:0:0:0:0:
402,192,154491,1,0,0:0:0:0:
329,192,154577,1,0,0:0:0:0:
256,192,154663,1,0,0:0:0:70:Kick.wav
182,192,154750,1,0,0:0:0:0:
329,192,154836,1,0,0:0:0:70:snare.wav
256,192,154922,1,0,0:0:0:0:
182,192,155008,1,0,0:0:0:70:Kick.wav
109,192,155094,1,0,0:0:0:0:
36,192,155181,128,0,155870:0:0:0:0:
109,192,155870,1,0,0:0:0:60:C6S.wav
182,192,155870,1,0,0:0:0:60:G#4S_Ab4S.wav
402,192,155870,128,0,156215:0:0:0:60:C#4S_Db4S.wav
256,192,156215,128,0,156560:0:0:0:60:G#4S_Ab4S.wav
109,192,156560,1,0,0:0:0:0:
475,192,156560,128,0,156732:0:0:0:60:C#5S_Db5S.wav
329,192,156732,1,0,0:0:0:60:A#5S_Bb5S.wav
329,192,156905,128,0,157250:0:0:0:60:A#5S_Bb5S.wav
402,192,157250,1,0,0:0:0:0:
109,192,157250,128,0,157594:0:0:0:60:C#4S_Db4S.wav
182,192,157594,128,0,157939:0:0:0:60:G#4S_Ab4S.wav
329,192,157767,128,0,157939:0:0:0:60:G#6S_Ab6S.wav
36,192,157939,1,0,0:0:0:0:
475,192,157939,128,0,158112:0:0:0:60:C#5S_Db5S.wav
256,192,158112,128,0,158284:0:0:0:60:D#6S_Eb6S.wav
402,192,158284,128,0,158456:0:0:0:60:C#4S_Db4S.wav
182,192,158456,128,0,158629:0:0:0:60:G#5S_Ab5S.wav
109,192,158629,1,0,0:0:0:0:
475,192,158629,128,0,158974:0:0:0:60:C4S.wav
402,192,158974,128,0,159319:0:0:0:60:G4S.wav
329,192,159319,1,0,0:0:0:0:
109,192,159319,128,0,159491:0:0:0:60:D#5S_Eb5S.wav
256,192,159491,1,0,0:0:0:60:G#5S_Ab5S.wav
256,192,159663,128,0,160008:0:0:0:60:C4S.wav
402,192,160008,5,0,0:0:0:0:
36,192,160008,128,0,160353:0:0:0:60:F3S.wav
475,192,160181,128,0,160353:0:0:0:60:G#5S_Ab5S.wav
329,192,160353,128,0,160525:0:0:0:60:C4S.wav
109,192,160525,128,0,160698:0:0:0:60:D#6S_Eb6S.wav
402,192,160698,128,0,160870:0:0:0:60:G#4S_Ab4S.wav
182,192,160870,128,0,161043:0:0:0:60:D#6S_Eb6S.wav
475,192,161043,128,0,161215:0:0:0:60:D#4S_Eb4S.wav
256,192,161215,128,0,161388:0:0:0:60:D#6S_Eb6S.wav
36,192,161388,1,0,0:0:0:0:
402,192,161388,128,0,161732:0:0:0:60:C#4S_Db4S.wav
256,192,161732,128,0,162077:0:0:0:60:G#4S_Ab4S.wav
109,192,162077,1,0,0:0:0:0:
475,192,162077,128,0,162250:0:0:0:60:C#5S_Db5S.wav
329,192,162250,1,0,0:0:0:60:A#5S_Bb5S.wav
329,192,162422,128,0,162767:0:0:0:60:A#5S_Bb5S.wav
402,192,162767,1,0,0:0:0:0:
36,192,162767,128,0,163112:0:0:0:60:C#4S_Db4S.wav
109,192,163112,128,0,163456:0:0:0:60:G#4S_Ab4S.wav
475,192,163284,128,0,163456:0:0:0:60:G#6S_Ab6S.wav
36,192,163456,1,0,0:0:0:0:
256,192,163456,128,0,163629:0:0:0:60:C#5S_Db5S.wav
402,192,163629,128,0,163801:0:0:0:60:D#6S_Eb6S.wav
182,192,163801,128,0,163974:0:0:0:60:C#4S_Db4S.wav
329,192,163974,128,0,164146:0:0:0:60:G#5S_Ab5S.wav
109,192,164146,1,0,0:0:0:0:
475,192,164146,128,0,164491:0:0:0:60:C4S.wav
402,192,164491,128,0,164836:0:0:0:60:G4S.wav
109,192,164836,128,0,165008:0:0:0:0:
256,192,165008,1,0,0:0:0:0:
475,192,165181,1,0,0:0:0:0:
256,192,165181,128,0,165525:0:0:0:60:C4S.wav
402,192,165525,1,0,0:0:0:0:
36,192,165525,128,0,165870:0:0:0:60:F3S.wav
475,192,165698,128,0,165870:0:0:0:60:G#5S_Ab5S.wav
329,192,165870,128,0,166043:0:0:0:60:C4S.wav
109,192,166043,128,0,166215:0:0:0:60:D#6S_Eb6S.wav
402,192,166215,128,0,166388:0:0:0:60:G#4S_Ab4S.wav
182,192,166388,128,0,166560:0:0:0:60:D#6S_Eb6S.wav
475,192,166560,128,0,166732:0:0:0:60:D#4S_Eb4S.wav
329,192,166732,128,0,166905:0:0:0:60:D#6S_Eb6S.wav
36,192,166905,128,0,167250:0:0:0:60:C#4S_Db4S.wav
36,192,167422,128,0,167767:0:0:0:0:
36,192,167939,128,0,168284:0:0:0:0:
36,192,168456,128,0,168801:0:0:0:0:
475,192,168801,128,0,168974:0:0:0:0:
36,192,168974,128,0,169146:0:0:0:0:
256,192,168974,128,0,169146:0:0:0:0:
402,192,169146,128,0,169319:0:0:0:0:
36,192,169319,128,0,169663:0:0:0:0:
182,192,169319,128,0,169491:0:0:0:0:
329,192,169491,128,0,169663:0:0:0:0:
475,192,169663,128,0,170008:0:0:0:0:
256,192,170008,128,0,170353:0:0:0:0:
36,192,170353,1,0,0:0:0:0:
402,192,170353,128,0,170525:0:0:0:0:
109,192,170525,1,0,0:0:0:0:
109,192,170698,128,0,171043:0:0:0:0:
475,192,171043,128,0,171215:0:0:0:0:
256,192,171215,128,0,171388:0:0:0:0:
402,192,171388,128,0,171560:0:0:0:0:
182,192,171560,128,0,171732:0:0:0:0:
329,192,171732,128,0,171905:0:0:0:0:
109,192,171905,128,0,172077:0:0:0:0:
256,192,172077,128,0,172250:0:0:0:0:
36,192,172250,128,0,172422:0:0:0:0:
475,192,172422,128,0,172767:0:0:0:0:
475,192,172939,128,0,173284:0:0:0:0:
475,192,173456,128,0,173801:0:0:0:0:
475,192,173974,128,0,174319:0:0:0:0:
36,192,174319,128,0,174491:0:0:0:0:
475,192,174491,128,0,174663:0:0:0:0:
256,192,174491,128,0,174663:0:0:0:0:
109,192,174663,128,0,174836:0:0:0:0:
475,192,174836,128,0,175181:0:0:0:0:
329,192,174836,128,0,175008:0:0:0:0:
182,192,175008,128,0,175181:0:0:0:0:
36,192,175181,128,0,175525:0:0:0:0:
256,192,175525,128,0,175870:0:0:0:0:
329,192,175870,1,0,0:0:0:0:
475,192,175870,128,0,176043:0:0:0:0:
109,192,176043,1,0,0:0:0:0:
109,192,176215,128,0,176560:0:0:0:0:
402,192,176560,5,0,0:0:0:0:
329,192,176646,1,0,0:0:0:0:
256,192,176732,1,0,0:0:0:0:
182,192,176819,1,0,0:0:0:0:
329,192,176905,1,0,0:0:0:0:
256,192,176991,1,0,0:0:0:0:
182,192,177077,1,0,0:0:0:0:
109,192,177163,1,0,0:0:0:0:
329,192,177250,1,0,0:0:0:0:
256,192,177336,1,0,0:0:0:0:
182,192,177422,1,0,0:0:0:0:
109,192,177508,1,0,0:0:0:0:
256,192,177594,1,0,0:0:0:0:
182,192,177681,1,0,0:0:0:0:
109,192,177767,1,0,0:0:0:0:
36,192,177853,1,0,0:0:0:0:
475,192,177939,1,0,0:0:0:70:Kick.wav
329,192,177939,1,0,0:0:0:0:
256,192,178112,1,0,0:0:0:0:
402,192,178284,1,0,0:0:0:70:snare.wav
36,192,178284,1,0,0:0:0:0:
109,192,178284,1,0,0:0:0:0:
256,192,178456,1,0,0:0:0:0:
182,192,178543,1,0,0:0:0:0:
402,192,178629,1,0,0:0:0:0:
329,192,178715,1,0,0:0:0:0:
182,192,178801,1,0,0:0:0:70:Kick.wav
109,192,178801,1,0,0:0:0:0:
36,192,178974,1,0,0:0:0:70:snare.wav
256,192,178974,1,0,0:0:0:0:
475,192,178974,1,0,0:0:0:0:
402,192,179146,1,0,0:0:0:0:
329,192,179232,1,0,0:0:0:0:
36,192,179319,1,0,0:0:0:70:Kick.wav
182,192,179319,1,0,0:0:0:0:
256,192,179491,1,0,0:0:0:0:
402,192,179663,1,0,0:0:0:70:snare.wav
109,192,179663,1,0,0:0:0:0:
475,192,179663,1,0,0:0:0:0:
256,192,179836,1,0,0:0:0:0:
329,192,179922,1,0,0:0:0:0:
109,192,180008,1,0,0:0:0:0:
182,192,180094,1,0,0:0:0:0:
402,192,180181,1,0,0:0:0:70:Kick.wav
329,192,180181,1,0,0:0:0:0:
36,192,180353,1,0,0:0:0:70:snare.wav
256,192,180353,1,0,0:0:0:0:
475,192,180353,1,0,0:0:0:0:
109,192,180525,1,0,0:0:0:0:
182,192,180612,1,0,0:0:0:0:
475,192,180698,1,0,0:0:0:0:
329,192,180698,1,0,0:0:0:70:Kick.wav
256,192,180870,1,0,0:0:0:0:
402,192,181043,1,0,0:0:0:70:snare.wav
36,192,181043,1,0,0:0:0:0:
109,192,181043,1,0,0:0:0:0:
256,192,181215,1,0,0:0:0:0:
329,192,181301,1,0,0:0:0:0:
109,192,181388,1,0,0:0:0:0:
182,192,181474,1,0,0:0:0:0:
402,192,181560,1,0,0:0:0:0:
329,192,181560,1,0,0:0:0:0:
256,192,181732,1,0,0:0:0:0:
36,192,181732,1,0,0:0:0:0:
475,192,181732,1,0,0:0:0:0:
402,192,181905,1,0,0:0:0:0:
329,192,181991,1,0,0:0:0:0:
36,192,182077,1,0,0:0:0:70:Kick.wav
182,192,182077,1,0,0:0:0:0:
256,192,182250,1,0,0:0:0:0:
402,192,182422,1,0,0:0:0:0:
475,192,182422,1,0,0:0:0:0:
109,192,182422,1,0,0:0:0:0:
256,192,182594,1,0,0:0:0:0:
182,192,182681,1,0,0:0:0:0:
402,192,182767,1,0,0:0:0:0:
329,192,182853,1,0,0:0:0:0:
109,192,182939,1,0,0:0:0:70:Kick.wav
182,192,182939,1,0,0:0:0:0:
36,192,183112,1,0,0:0:0:70:snare.wav
256,192,183112,1,0,0:0:0:0:
475,192,183112,1,0,0:0:0:0:
182,192,183284,1,0,0:0:0:0:
109,192,183284,1,0,0:0:0:0:
329,192,183456,1,0,0:0:0:0:
402,192,183456,1,0,0:0:0:0:
256,192,183629,1,0,0:0:0:0:
182,192,183801,1,0,0:0:0:70:snare.wav
36,192,183801,1,0,0:0:0:0:
475,192,183801,1,0,0:0:0:0:
329,192,183974,1,0,0:0:0:0:
402,192,184060,1,0,0:0:0:0:
109,192,184146,1,0,0:0:0:0:
182,192,184232,1,0,0:0:0:0:
329,192,184319,1,0,0:0:0:70:Kick.wav
402,192,184319,1,0,0:0:0:0:
475,192,184491,1,0,0:0:0:70:snare.wav
256,192,184491,1,0,0:0:0:0:
36,192,184491,1,0,0:0:0:0:
109,192,184663,1,0,0:0:0:0:
182,192,184750,1,0,0:0:0:0:
402,192,184836,1,0,0:0:0:70:Kick.wav
329,192,184836,1,0,0:0:0:0:
256,192,185008,1,0,0:0:0:0:
36,192,185181,1,0,0:0:0:70:snare.wav
182,192,185181,1,0,0:0:0:0:
475,192,185181,1,0,0:0:0:0:
329,192,185353,1,0,0:0:0:0:
402,192,185439,1,0,0:0:0:0:
109,192,185525,1,0,0:0:0:0:
182,192,185612,1,0,0:0:0:0:
402,192,185698,1,0,0:0:0:70:Kick.wav
329,192,185698,1,0,0:0:0:0:
36,192,185870,1,0,0:0:0:70:snare.wav
256,192,185870,1,0,0:0:0:0:
475,192,185870,1,0,0:0:0:0:
109,192,186043,1,0,0:0:0:0:
182,192,186129,1,0,0:0:0:0:
475,192,186215,1,0,0:0:0:0:
329,192,186215,1,0,0:0:0:0:
256,192,186388,1,0,0:0:0:0:
475,192,186560,1,0,0:0:0:70:snare.wav
182,192,186560,1,0,0:0:0:0:
36,192,186560,1,0,0:0:0:0:
329,192,186732,1,0,0:0:0:0:
402,192,186819,1,0,0:0:0:0:
109,192,186905,1,0,0:0:0:0:
182,192,186991,1,0,0:0:0:0:
329,192,187077,1,0,0:0:0:70:Kick.wav
402,192,187077,1,0,0:0:0:0:
36,192,187250,1,0,0:0:0:70:snare.wav
256,192,187250,1,0,0:0:0:0:
475,192,187250,1,0,0:0:0:0:
109,192,187422,1,0,0:0:0:70:Kick.wav
182,192,187422,1,0,0:0:0:0:
109,192,187594,1,0,0:0:0:70:Kick.wav
182,192,187594,1,0,0:0:0:0:
329,192,187767,1,0,0:0:0:0:
402,192,187853,1,0,0:0:0:0:
182,192,187939,1,0,0:0:0:70:snare.wav
256,192,188025,1,0,0:0:0:0:
329,192,188112,1,0,0:0:0:70:Kick.wav
402,192,188198,1,0,0:0:0:0:
109,192,188284,1,0,0:0:0:0:
182,192,188370,1,0,0:0:0:0:
256,192,188456,1,0,0:0:0:70:Kick.wav
329,192,188543,1,0,0:0:0:0:
36,192,188629,1,0,0:0:0:70:snare.wav
109,192,188715,1,0,0:0:0:0:
182,192,188801,1,0,0:0:0:70:Kick.wav
256,192,188888,1,0,0:0:0:0:
36,192,188974,128,0,189319:0:0:0:70:Kick.wav
402,192,188974,1,0,0:0:0:70:CymbalFSU.wav
475,192,188974,1,0,0:0:0:0:
329,192,188974,1,0,0:0:0:0:
182,192,189146,1,0,0:0:0:0:
109,192,189319,1,0,0:0:0:70:snare.wav
402,192,189319,1,0,0:0:0:0:
475,192,189319,128,0,189836:0:0:0:0:
256,192,189491,1,0,0:0:0:0:
329,192,189577,1,0,0:0:0:0:
109,192,189663,1,0,0:0:0:0:
182,192,189750,1,0,0:0:0:0:
329,192,189836,1,0,0:0:0:0:
256,192,189836,1,0,0:0:0:0:
475,192,190008,1,0,0:0:0:70:snare.wav
109,192,190008,1,0,0:0:0:0:
36,192,190008,128,0,190525:0:0:0:0:
402,192,190181,1,0,0:0:0:0:
329,192,190267,1,0,0:0:0:70:Kick.wav
182,192,190353,1,0,0:0:0:0:
256,192,190353,1,0,0:0:0:0:
109,192,190525,1,0,0:0:0:0:
36,192,190698,1,0,0:0:0:70:snare.wav
402,192,190698,1,0,0:0:0:0:
475,192,190698,128,0,191215:0:0:0:0:
256,192,190870,1,0,0:0:0:0:
329,192,190956,1,0,0:0:0:0:
109,192,191043,1,0,0:0:0:0:
182,192,191129,1,0,0:0:0:70:Kick.wav
256,192,191215,1,0,0:0:0:0:
329,192,191215,1,0,0:0:0:0:
36,192,191388,128,0,192077:0:0:0:0:
109,192,191388,1,0,0:0:0:70:snare.wav
475,192,191388,1,0,0:0:0:0:
402,192,191560,1,0,0:0:0:0:
329,192,191646,1,0,0:0:0:0:
182,192,191732,1,0,0:0:0:70:Kick.wav
256,192,191732,1,0,0:0:0:0:
475,192,191905,1,0,0:0:0:0:
182,192,192077,1,0,0:0:0:0:
109,192,192077,1,0,0:0:0:0:
402,192,192077,1,0,0:0:0:0:
329,192,192250,128,0,192594:0:0:0:0:
475,192,192336,1,0,0:0:0:0:
36,192,192422,1,0,0:0:0:0:
109,192,192508,1,0,0:0:0:0:
256,192,192594,1,0,0:0:0:70:Kick.wav
182,192,192594,1,0,0:0:0:0:
402,192,192767,1,0,0:0:0:70:snare.wav
36,192,192767,1,0,0:0:0:0:
475,192,192767,128,0,193456:0:0:0:0:
329,192,192939,1,0,0:0:0:0:
256,192,193025,1,0,0:0:0:0:
182,192,193112,1,0,0:0:0:70:Kick.wav
109,192,193112,1,0,0:0:0:0:
402,192,193284,1,0,0:0:0:0:
36,192,193456,1,0,0:0:0:70:snare.wav
182,192,193456,1,0,0:0:0:0:
256,192,193456,1,0,0:0:0:0:
329,192,193629,1,0,0:0:0:0:
402,192,193715,1,0,0:0:0:0:
109,192,193801,128,0,194146:0:0:0:0:
182,192,193888,1,0,0:0:0:0:
402,192,193974,1,0,0:0:0:70:Kick.wav
329,192,193974,1,0,0:0:0:0:
36,192,194146,1,0,0:0:0:70:snare.wav
256,192,194146,128,0,194663:0:0:0:0:
475,192,194146,1,0,0:0:0:0:
109,192,194319,1,0,0:0:0:70:Kick.wav
402,192,194319,1,0,0:0:0:0:
402,192,194491,1,0,0:0:0:70:Kick.wav
109,192,194491,1,0,0:0:0:0:
36,192,194663,1,0,0:0:0:0:
182,192,194836,1,0,0:0:0:70:snare.wav
109,192,194836,128,0,195008:0:0:0:0:
475,192,194836,1,0,0:0:0:0:
329,192,195008,1,0,0:0:0:0:
402,192,195094,1,0,0:0:0:0:
182,192,195181,128,0,195353:0:0:0:0:
256,192,195267,1,0,0:0:0:0:
329,192,195353,1,0,0:0:0:70:Kick.wav
402,192,195353,1,0,0:0:0:0:
475,192,195525,128,0,195870:0:0:0:70:snare.wav
36,192,195525,1,0,0:0:0:0:
109,192,195525,1,0,0:0:0:0:
182,192,195698,1,0,0:0:0:0:
256,192,195784,1,0,0:0:0:0:
402,192,195870,1,0,0:0:0:70:Kick.wav
329,192,195870,1,0,0:0:0:0:
182,192,196043,1,0,0:0:0:0:
109,192,196215,1,0,0:0:0:70:snare.wav
475,192,196215,1,0,0:0:0:0:
36,192,196215,128,0,196388:0:0:0:0:
329,192,196388,1,0,0:0:0:0:
402,192,196474,1,0,0:0:0:0:
182,192,196560,128,0,196905:0:0:0:0:
256,192,196646,1,0,0:0:0:0:
475,192,196732,1,0,0:0:0:70:Kick.wav
402,192,196732,1,0,0:0:0:0:
329,192,196905,1,0,0:0:0:70:snare.wav
36,192,196905,1,0,0:0:0:0:
109,192,196905,1,0,0:0:0:0:
475,192,197077,128,0,197422:0:0:0:0:
402,192,197163,1,0,0:0:0:0:
329,192,197250,1,0,0:0:0:70:Kick.wav
256,192,197250,1,0,0:0:0:0:
182,192,197422,1,0,0:0:0:0:
256,192,197594,1,0,0:0:0:70:snare.wav
475,192,197594,1,0,0:0:0:0:
109,192,197594,128,0,198112:0:0:0:0:
329,192,197853,1,0,0:0:0:0:
402,192,197939,1,0,0:0:0:0:
182,192,198025,1,0,0:0:0:0:
475,192,198112,1,0,0:0:0:70:Kick.wav
256,192,198112,1,0,0:0:0:0:
329,192,198284,1,0,0:0:0:70:snare.wav
36,192,198284,1,0,0:0:0:0:
402,192,198284,128,0,199146:0:0:0:0:
182,192,198456,1,0,0:0:0:70:Kick.wav
109,192,198456,1,0,0:0:0:0:
329,192,198629,1,0,0:0:0:70:Kick.wav
256,192,198629,1,0,0:0:0:0:
256,192,198801,1,0,0:0:0:70:Kick.wav
329,192,198801,1,0,0:0:0:0:
475,192,198974,1,0,0:0:0:70:snare.wav
109,192,198974,1,0,0:0:0:0:
36,192,198974,1,0,0:0:0:0:
329,192,199146,1,0,0:0:0:70:Kick.wav
256,192,199146,1,0,0:0:0:0:
182,192,199232,1,0,0:0:0:0:
402,192,199319,1,0,0:0:0:0:
329,192,199405,1,0,0:0:0:0:
109,192,199491,1,0,0:0:0:70:Kick.wav
256,192,199491,1,0,0:0:0:0:
475,192,199663,1,0,0:0:0:0:
402,192,199663,1,0,0:0:0:0:
36,192,199663,128,0,199836:0:0:0:0:
256,192,199836,1,0,0:0:0:70:Kick.wav
182,192,199836,1,0,0:0:0:0:
475,192,200008,128,0,200353:0:0:0:70:Kick.wav
109,192,200008,1,0,0:0:0:0:
402,192,200181,1,0,0:0:0:0:
182,192,200353,1,0,0:0:0:70:CymbalFSU.wav
256,192,200353,1,0,0:0:0:0:
109,192,200353,1,0,0:0:0:0:
36,192,200353,128,0,200870:0:0:0:0:
329,192,200525,1,0,0:0:0:0:
256,192,200612,1,0,0:0:0:0:
475,192,200698,1,0,0:0:0:0:
402,192,200784,1,0,0:0:0:0:
329,192,200870,1,0,0:0:0:70:Kick.wav
109,192,200870,1,0,0:0:0:0:
256,192,201043,1,0,0:0:0:70:snare.wav
182,192,201043,1,0,0:0:0:0:
475,192,201043,128,0,201560:0:0:0:0:
402,192,201215,1,0,0:0:0:0:
329,192,201301,1,0,0:0:0:0:
256,192,201388,1,0,0:0:0:0:
36,192,201388,1,0,0:0:0:0:
182,192,201560,1,0,0:0:0:0:
109,192,201732,1,0,0:0:0:0:
36,192,201732,128,0,202250:0:0:0:0:
402,192,201732,1,0,0:0:0:0:
475,192,201732,1,0,0:0:0:0:
256,192,201905,1,0,0:0:0:0:
329,192,201991,1,0,0:0:0:0:
109,192,202077,1,0,0:0:0:0:
182,192,202163,1,0,0:0:0:0:
36,192,202250,1,0,0:0:0:70:Kick.wav
256,192,202250,1,0,0:0:0:0:
475,192,202250,1,0,0:0:0:0:
182,192,202422,1,0,0:0:0:70:snare.wav
402,192,202422,1,0,0:0:0:0:
329,192,202422,128,0,202767:0:0:0:0:
109,192,202594,1,0,0:0:0:0:
36,192,202767,1,0,0:0:0:0:
256,192,202767,1,0,0:0:0:0:
475,192,202767,1,0,0:0:0:0:
475,192,202939,1,0,0:0:0:0:
36,192,202939,1,0,0:0:0:0:
256,192,202939,1,0,0:0:0:0:
109,192,203112,1,0,0:0:0:0:
182,192,203112,1,0,0:0:0:0:
329,192,203112,1,0,0:0:0:0:
402,192,203112,1,0,0:0:0:0:
475,192,203284,1,0,0:0:0:0:
36,192,203284,1,0,0:0:0:0:
182,192,203284,1,0,0:0:0:0:
329,192,203284,1,0,0:0:0:0:
256,192,203629,1,0,0:0:0:0:
329,192,203715,1,0,0:0:0:0:
36,192,203801,1,0,0:0:0:0:
109,192,203801,1,0,0:0:0:0:
402,192,203801,1,0,0:0:0:0:
475,192,203801,1,0,0:0:0:0:
36,192,204146,1,0,0:0:0:70:Kick.wav
475,192,204146,1,0,0:0:0:0:
329,192,204319,1,0,0:0:0:0:
402,192,204405,1,0,0:0:0:0:
182,192,204491,1,0,0:0:0:70:snare.wav
256,192,204577,1,0,0:0:0:0:
329,192,204663,1,0,0:0:0:0:
402,192,204750,1,0,0:0:0:0:
109,192,204836,1,0,0:0:0:0:
182,192,204922,1,0,0:0:0:0:
256,192,205008,1,0,0:0:0:70:Kick.wav
329,192,205094,1,0,0:0:0:0:
36,192,205181,1,0,0:0:0:70:snare.wav
109,192,205267,1,0,0:0:0:0:
182,192,205353,1,0,0:0:0:70:Kick.wav
256,192,205439,1,0,0:0:0:0:
36,192,205525,1,0,0:0:0:70:Kick.wav
402,192,205525,1,0,0:0:0:0:
109,192,205698,1,0,0:0:0:70:Kick.wav
402,192,205698,1,0,0:0:0:0:
109,192,205870,1,0,0:0:0:70:Kick.wav
329,192,205870,1,0,0:0:0:0:
36,192,206043,1,0,0:0:0:70:Kick.wav
329,192,206043,1,0,0:0:0:0:
36,192,206215,1,0,0:0:0:70:Kick.wav
475,192,206215,1,0,0:0:0:0:
475,192,206388,1,0,0:0:0:70:Kick.wav
256,192,206388,1,0,0:0:0:0:
256,192,206560,1,0,0:0:0:70:Kick.wav
36,192,206560,1,0,0:0:0:0:
36,192,206732,1,0,0:0:0:70:Kick.wav
329,192,206732,1,0,0:0:0:0:
402,192,206819,1,0,0:0:0:70:Kick.wav
109,192,206819,1,0,0:0:0:70:Kick.wav
475,192,206905,1,0,0:0:0:0:
182,192,206905,1,0,0:0:0:0:
36,192,207077,1,0,0:0:0:70:Kick.wav
475,192,207077,1,0,0:0:0:0:
36,192,207250,1,0,0:0:0:70:Kick.wav
256,192,207250,1,0,0:0:0:0:
256,192,207422,1,0,0:0:0:70:Kick.wav
475,192,207422,1,0,0:0:0:0:
109,192,207594,1,0,0:0:0:70:Kick.wav
475,192,207594,1,0,0:0:0:0:
109,192,207767,1,0,0:0:0:70:Kick.wav
402,192,207767,1,0,0:0:0:0:
182,192,207939,1,0,0:0:0:70:Kick.wav
402,192,207939,1,0,0:0:0:0:
475,192,208112,1,0,0:0:0:70:Kick.wav
182,192,208112,1,0,0:0:0:0:
402,192,208198,1,0,0:0:0:0:
109,192,208198,1,0,0:0:0:0:
329,192,208284,1,0,0:0:0:70:Kick.wav
36,192,208284,1,0,0:0:0:0:
36,192,208456,1,0,0:0:0:70:Kick.wav
475,192,208456,1,0,0:0:0:0:
256,192,208629,1,0,0:0:0:70:snare.wav
182,192,208629,1,0,0:0:0:0:
329,192,208629,1,0,0:0:0:0:
109,192,208801,1,0,0:0:0:70:Kick.wav
475,192,208801,1,0,0:0:0:0:
36,192,208888,1,0,0:0:0:70:Kick.wav
402,192,208888,1,0,0:0:0:0:
182,192,208974,1,0,0:0:0:0:
256,192,208974,1,0,0:0:0:0:
329,192,208974,1,0,0:0:0:0:
36,192,209146,1,0,0:0:0:70:Kick.wav
475,192,209146,1,0,0:0:0:0:
36,192,209319,1,0,0:0:0:70:Kick.wav
475,192,209319,1,0,0:0:0:0:
182,192,209491,1,0,0:0:0:0:
256,192,209663,1,0,0:0:0:0:
109,192,209663,1,0,0:0:0:0:
402,192,209663,1,0,0:0:0:0:
182,192,210008,128,0,210094:0:0:0:0:
329,192,210181,128,0,210267:0:0:0:0:
475,192,210353,128,0,211043:0:0:0:0:
182,192,210698,128,0,210784:0:0:0:0:
256,192,210870,128,0,210956:0:0:0:0:
402,192,211043,128,0,211388:0:0:0:60:C#4S_Db4S.wav
36,192,211043,1,0,0:0:0:60:G#4S_Ab4S.wav
256,192,211388,128,0,211732:0:0:0:60:G#4S_Ab4S.wav
475,192,211732,128,0,211905:0:0:0:60:C#5S_Db5S.wav
109,192,211732,1,0,0:0:0:0:
329,192,211905,1,0,0:0:0:60:A#5S_Bb5S.wav
329,192,212077,128,0,212422:0:0:0:60:A#5S_Bb5S.wav
109,192,212422,128,0,212767:0:0:0:60:C#4S_Db4S.wav
402,192,212422,1,0,0:0:0:0:
182,192,212767,128,0,213112:0:0:0:60:G#4S_Ab4S.wav
329,192,212939,128,0,213112:0:0:0:60:G#6S_Ab6S.wav
475,192,213112,128,0,213284:0:0:0:60:C#5S_Db5S.wav
36,192,213112,1,0,0:0:0:0:
256,192,213284,128,0,213456:0:0:0:60:D#6S_Eb6S.wav
402,192,213456,128,0,213629:0:0:0:60:C#4S_Db4S.wav
182,192,213629,128,0,213801:0:0:0:60:G#5S_Ab5S.wav
475,192,213801,128,0,214146:0:0:0:60:C4S.wav
109,192,213801,1,0,0:0:0:0:
402,192,214146,128,0,214491:0:0:0:60:G4S.wav
109,192,214491,128,0,214663:0:0:0:60:D#5S_Eb5S.wav
329,192,214491,1,0,0:0:0:0:
256,192,214663,1,0,0:0:0:60:G#5S_Ab5S.wav
256,192,214836,128,0,215181:0:0:0:60:C4S.wav
36,192,215181,128,0,215525:0:0:0:60:F3S.wav
402,192,215181,1,0,0:0:0:0:
475,192,215353,128,0,215525:0:0:0:60:G#5S_Ab5S.wav
329,192,215525,128,0,215698:0:0:0:60:C4S.wav
109,192,215698,128,0,215870:0:0:0:60:D#6S_Eb6S.wav
402,192,215870,128,0,216043:0:0:0:60:G#4S_Ab4S.wav
182,192,216043,128,0,216215:0:0:0:60:D#6S_Eb6S.wav
475,192,216215,128,0,216388:0:0:0:60:D#4S_Eb4S.wav
256,192,216388,128,0,216560:0:0:0:60:D#6S_Eb6S.wav
402,192,216560,128,0,216905:0:0:0:60:C#4S_Db4S.wav
109,192,216560,1,0,0:0:0:0:
256,192,216905,128,0,217250:0:0:0:60:G#4S_Ab4S.wav
475,192,217250,128,0,217422:0:0:0:60:C#5S_Db5S.wav
109,192,217250,1,0,0:0:0:0:
329,192,217422,1,0,0:0:0:60:A#5S_Bb5S.wav
329,192,217594,128,0,217939:0:0:0:60:A#5S_Bb5S.wav
36,192,217939,128,0,218284:0:0:0:60:C#4S_Db4S.wav
402,192,217939,1,0,0:0:0:0:
109,192,218284,128,0,218629:0:0:0:60:G#4S_Ab4S.wav
475,192,218456,128,0,218629:0:0:0:60:G#6S_Ab6S.wav
256,192,218629,128,0,218801:0:0:0:60:C#5S_Db5S.wav
36,192,218629,1,0,0:0:0:0:
402,192,218801,128,0,218974:0:0:0:60:D#6S_Eb6S.wav
182,192,218974,128,0,219146:0:0:0:60:C#4S_Db4S.wav
329,192,219146,128,0,219319:0:0:0:60:G#5S_Ab5S.wav
475,192,219319,128,0,219663:0:0:0:60:C4S.wav
109,192,219319,1,0,0:0:0:0:
402,192,219663,128,0,220008:0:0:0:60:G4S.wav
109,192,220008,128,0,220181:0:0:0:0:
256,192,220181,1,0,0:0:0:0:
256,192,220353,128,0,220698:0:0:0:60:C4S.wav
475,192,220353,1,0,0:0:0:0:
36,192,220698,128,0,221043:0:0:0:60:F3S.wav
402,192,220698,1,0,0:0:0:0:
475,192,220870,128,0,221043:0:0:0:60:G#5S_Ab5S.wav
329,192,221043,128,0,221215:0:0:0:60:C4S.wav
109,192,221215,128,0,221388:0:0:0:60:D#6S_Eb6S.wav
402,192,221388,128,0,221560:0:0:0:60:G#4S_Ab4S.wav
182,192,221560,128,0,221732:0:0:0:60:D#6S_Eb6S.wav
475,192,221732,128,0,221905:0:0:0:60:D#4S_Eb4S.wav
256,192,221905,128,0,222077:0:0:0:60:D#6S_Eb6S.wav
