osu file format v14

[General]
AudioFilename: audio.mp3
AudioLeadIn: 0
PreviewTime: 50352
Countdown: 0
SampleSet: Soft
StackLeniency: 0.7
Mode: 0
LetterboxInBreaks: 0
WidescreenStoryboard: 1

[Editor]
Bookmarks: 12413,23447,34482,45516,51034,56292,62068,62413,67585,71723,73103,73447,73534,82758,84137,95172,106206,111723,122758,123103,128275,132413,144827,155861,166896,177930,188965,199999,200344,205516,209654,221896
DistanceSpacing: 1
BeatDivisor: 2
GridSize: 8
TimelineZoom: 0.6999998

[Metadata]
Title:Stay Alive (Jun Kuroda Bootleg Remix)
TitleUnicode:Stay Alive (Jun Kuroda Bootleg Remix)
Artist:EMILIA (CV: Takahashi Rie)
ArtistUnicode:エミリア (CV:高橋李依)
Creator:gary00737
Version:Normal
Source:Re:ゼロから始める異世界生活
Tags:Frey Moecho Moeri Moeriko CookieBite DreaM117er m1223961117 re:zero ed2 ending
BeatmapID:1430743
BeatmapSetID:671597

[Difficulty]
HPDrainRate:3
CircleSize:3
OverallDifficulty:4
ApproachRate:5
SliderMultiplier:0.939999999999999
SliderTickRate:1

[Events]
//Background and Video events
0,0,"735306.jpg",0,0
//Break Periods
2,45724,49722
2,106414,110531
2,156069,165584
//Storyboard Layer 0 (Background)
//Storyboard Layer 1 (Fail)
//Storyboard Layer 2 (Pass)
//Storyboard Layer 3 (Foreground)
//Storyboard Sound Samples

[TimingPoints]
1387,344.827586206897,4,2,1,45,1,0
1387,-100,4,2,1,45,0,0
1473,-100,4,2,2,45,0,0
12421,-100,4,2,2,45,0,0
12507,-100,4,2,1,45,0,0
23455,-100,4,2,1,57,0,0
51042,-100,4,2,1,72,0,1
62076,-100,4,2,1,72,0,0
62421,-100,4,2,1,72,0,1
62593,-100,4,2,2,72,0,1
62680,-100,4,2,1,72,0,1
65869,-100,4,2,1,72,0,1
66214,-100,4,2,1,72,0,1
71731,-100,4,2,1,72,0,0
73455,-100,4,2,1,62,0,1
73542,-100,4,2,1,62,0,0
82766,-100,4,2,1,62,0,0
84145,-100,4,2,1,57,0,0
93800,-100,4,2,1,57,0,0
95180,-100,4,2,1,57,0,0
111731,-100,4,2,1,75,0,1
122766,-100,4,2,1,75,0,0
123111,-100,4,2,1,75,0,1
123283,-100,4,2,2,75,0,1
123369,-100,4,2,1,75,0,1
126559,-100,4,2,1,75,0,1
126904,-100,4,2,1,75,0,1
132421,-100,4,2,1,75,0,0
133800,-100,4,2,1,65,0,0
135869,-100,4,2,1,65,0,0
136559,-100,4,2,1,65,0,0
138628,-100,4,2,1,65,0,0
139318,-100,4,2,1,65,0,0
144145,-100,4,2,1,65,0,0
144490,-100,4,2,1,65,0,0
144835,-100,4,2,1,57,0,0
155180,-100,4,2,1,57,0,0
155783,-100,4,2,1,57,0,0
155869,-100,4,2,2,45,0,0
155955,-100,4,2,1,45,0,0
166904,-100,4,2,2,45,0,0
166990,-100,4,2,1,30,0,0
177938,-100,4,2,1,57,0,0
188973,-100,4,2,1,80,0,1
200007,-100,4,2,1,80,0,0
200352,-100,4,2,1,80,0,1
200524,-100,4,2,2,80,0,1
200611,-100,4,2,1,80,0,1
203800,-100,4,2,1,80,0,1
204145,-100,4,2,1,80,0,1
209662,-100,4,2,1,45,0,0
210007,-100,4,2,1,45,0,0
211042,-100,4,2,2,45,0,0
211731,-100,4,2,2,45,0,0

[Colours]
Combo1 : 136,255,255
Combo2 : 255,153,204
Combo3 : 255,119,255

[HitObjects]
290,301,1387,6,0,P|376:328|451:277,1,188,4|2,1:0|2:0,0:0:0:0:
425,91,2766,2,0,P|338:63|263:114,1,188,0|2,3:0|2:0,0:0:0:0:
82,63,4145,2,0,P|106:209|110:263,1,188,0|2,3:0|2:0,0:0:0:0:
108,343,5180,1,0,3:0:0:0:
503,88,6904,6,0,P|409:77|314:56,1,188,0|2,3:0|2:0,0:0:0:0:
132,27,8283,2,0,P|169:113|198:206,1,188,0|2,3:0|2:0,0:0:0:0:
264,378,9662,2,0,P|320:302|386:230,1,188,0|2,3:0|2:0,0:0:0:0:
464,185,10697,1,0,3:0:0:0:
38,326,12421,6,0,P|57:262|143:236,1,141,4|8,2:0|3:0,0:0:0:0:
165,248,13111,2,0,L|160:124,1,93.9999999999999,8|8,1:0|3:0,0:0:0:0:
206,71,13800,2,0,P|273:46|354:85,1,141,0|8,3:0|3:0,0:0:0:0:
362,106,14490,2,0,L|357:230,1,93.9999999999999,8|8,1:0|3:0,0:0:0:0:
352,294,15180,6,0,P|278:279|192:279,1,141,0|8,3:0|3:0,0:0:0:0:
182,241,15869,2,0,P|135:221|78:249,1,93.9999999999999,8|8,1:0|3:0,0:0:0:0:
38,307,16559,2,0,L|22:141,1,141,0|8,3:0|3:0,0:0:0:0:
20,119,17249,1,8,1:0:0:0:
88,55,17593,6,0,L|143:63,1,47,8|8,3:0|1:0,0:0:0:0:
180,70,17938,2,0,P|244:42|318:68,1,141,2|8,3:0|3:0,0:0:0:0:
342,95,18628,2,0,P|327:167|322:197,1,93.9999999999999,8|8,1:0|3:0,0:0:0:0:
306,279,19318,2,0,P|380:326|441:294,1,141,0|8,3:0|3:0,0:0:0:0:
449,270,20007,2,0,P|457:223|467:177,1,93.9999999999999,8|8,1:0|3:0,0:0:0:0:
256,192,20697,12,0,22076,3:0:0:0:
104,219,23455,5,4,2:0:0:0:
54,139,23800,2,0,P|121:127|181:165,1,141,2|8,2:0|2:0,0:0:0:0:
198,207,24490,1,2,2:0:0:0:
196,301,24835,1,4,2:0:0:0:
278,345,25180,2,0,B|343:371|343:321|426:343,1,141,2|0,2:0|0:0,0:0:0:0:
455,365,25869,1,2,2:0:0:0:
466,271,26214,6,0,P|468:215|477:160,1,93.9999999999999,4|2,2:0|2:0,0:0:0:0:
485,131,26731,2,0,P|440:111|390:114,1,93.9999999999999,8|8,2:0|2:0,0:0:0:0:
353,133,27249,2,0,L|355:84,1,47,2|8,2:0|2:0,0:0:0:0:
356,39,27593,1,4,2:0:0:0:
271,80,27938,2,0,B|221:93|221:93|129:58,1,141,2|8,2:0|2:0,0:0:0:0:
94,41,28628,1,2,2:0:0:0:
35,114,28973,5,4,2:0:0:0:
108,173,29318,2,0,P|139:229|114:303,1,141,2|8,2:0|2:0,0:0:0:0:
81,328,30007,1,2,2:0:0:0:
43,241,30352,1,4,2:0:0:0:
108,173,30697,2,0,L|256:163,1,141,2|0,2:0|0:0,0:0:0:0:
295,160,31387,1,2,2:0:0:0:
384,187,31731,6,0,P|375:228|367:279,1,93.9999999999999,12|2,2:0|2:0,0:0:0:0:
357,325,32249,2,0,P|311:299|245:311,1,93.9999999999999,12|12,2:0|2:0,0:0:0:0:
233,328,32766,2,0,L|168:323,1,47,2|8,2:0|2:0,0:0:0:0:
144,345,33111,2,0,P|95:342|53:305,1,93.9999999999999,8|2,2:0|2:0,0:0:0:0:
38,224,33800,2,0,L|42:163,1,47,0|12,0:0|2:0,0:0:0:0:
78,147,34145,2,0,L|74:86,1,47,2|0,2:0|0:0,0:0:0:0:
69,53,34490,5,4,1:0:0:0:
161,68,34835,2,0,P|235:65|325:58,1,141,2|0,2:0|0:0,0:0:0:0:
348,53,35524,1,2,2:0:0:0:
437,23,35869,1,4,2:0:0:0:
467,112,36214,2,0,P|510:165|505:234,1,141,2|8,2:0|2:0,0:0:0:0:
474,269,36904,1,2,2:0:0:0:
394,319,37249,6,0,P|379:269|396:217,1,93.9999999999999,4|2,2:0|2:0,0:0:0:0:
419,193,37766,2,0,L|320:175,1,93.9999999999999,0|8,0:0|2:0,0:0:0:0:
288,148,38283,2,0,L|226:149,1,47,2|8,2:0|2:0,0:0:0:0:
194,152,38628,1,4,2:0:0:0:
111,106,38973,2,0,P|107:149|105:265,1,141,2|8,2:0|2:0,0:0:0:0:
148,263,39662,2,0,P|144:296|139:332,1,47,2|8,2:0|2:0,0:0:0:0:
138,356,40007,5,4,2:0:0:0:
230,371,40352,2,0,P|239:288|248:195,1,141,2|8,2:0|2:0,0:0:0:0:
261,187,41042,1,2,2:0:0:0:
228,98,41387,1,4,2:0:0:0:
320,113,41731,2,0,L|469:90,1,141,2|8,2:0|2:0,0:0:0:0:
505,84,42421,1,2,2:0:0:0:
500,177,42766,1,12,2:0:0:0:
424,232,43111,6,0,P|355:202|279:232,1,141,2|12,2:0|2:0,0:0:0:0:
265,256,43800,2,0,L|199:249,1,47,2|8,2:0|2:0,0:0:0:0:
178,224,44145,2,0,L|119:234,1,47,8|8,2:0|2:0,0:0:0:0:
85,242,44490,1,2,2:0:0:0:
85,242,44662,2,0,P|80:199|68:115,1,93.9999999999999,12|12,2:0|2:0,0:0:0:0:
48,108,45180,2,0,P|48:83|49:58,1,47,2|8,2:0|2:0,0:0:0:0:
51,14,45524,5,4,1:0:0:0:
98,204,51042,5,2,3:0:0:0:
172,146,51387,2,0,B|212:136|212:136|263:143|321:186,1,141,2|8,2:0|2:0,0:0:0:0:
342,199,52076,2,0,P|346:139|349:89,1,93.9999999999999,2|4,2:0|2:0,0:0:0:0:
438,79,52766,2,0,P|433:145|428:234,1,141,2|8,2:0|2:0,0:0:0:0:
428,266,53455,1,2,2:0:0:0:
362,333,53800,5,4,2:0:0:0:
290,271,54145,2,0,P|222:260|155:314,1,141,2|8,2:0|2:0,0:0:0:0:
128,328,54835,2,0,P|81:326|32:287,1,93.9999999999999,2|4,2:0|2:0,0:0:0:0:
5,214,55524,2,0,P|23:150|91:114,1,141,2|8,2:0|2:0,0:0:0:0:
129,130,56214,2,0,L|189:121,1,47,2|8,2:0|2:0,0:0:0:0:
222,115,56559,5,4,2:0:0:0:
268,196,56904,2,0,P|331:234|407:204,1,141,2|8,2:0|2:0,0:0:0:0:
413,175,57593,2,0,P|408:128|403:81,1,93.9999999999999,2|4,2:0|2:0,0:0:0:0:
490,43,58283,2,0,P|498:114|505:200,1,141,2|8,2:0|2:0,0:0:0:0:
510,230,58973,1,2,2:0:0:0:
443,296,59318,5,4,2:0:0:0:
392,217,59662,2,0,P|337:179|246:206,1,141,2|8,2:0|2:0,0:0:0:0:
221,203,60352,1,2,2:0:0:0:
221,203,60524,2,0,P|213:260|210:312,1,93.9999999999999,8|4,2:0|2:0,0:0:0:0:
163,295,61042,2,0,L|120:331,1,47,6|12,2:0|2:0,0:0:0:0:
94,359,61387,1,12,2:0:0:0:
14,310,61731,2,0,L|12:250,1,47,14|8,2:0|2:0,0:0:0:0:
12,215,62076,1,8,2:0:0:0:
34,125,62421,6,0,P|91:83|171:94,1,141,2|8,3:0|2:0,0:0:0:0:
185,126,63111,1,2,2:0:0:0:
242,199,63455,1,4,2:0:0:0:
282,114,63800,2,0,P|348:97|409:130,1,141,2|8,2:0|2:0,0:0:0:0:
420,176,64490,1,2,2:0:0:0:
350,239,64835,6,0,L|333:187,2,47,4|4|0,1:0|1:0|0:0,0:0:0:0:
360,284,65352,2,0,B|312:268|312:268|212:286,1,141,4|4,1:0|1:0,0:0:0:0:
162,356,66214,1,4,2:0:0:0:
130,267,66559,2,0,B|114:219|114:219|132:119,1,141,2|8,2:0|2:0,0:0:0:0:
145,85,67249,1,2,2:0:0:0:
221,30,67593,5,8,2:0:0:0:
306,68,67938,1,6,2:0:0:0:
393,34,68283,2,0,L|452:45,1,47,12|12,2:0|2:0,0:0:0:0:
484,56,68628,1,14,2:0:0:0:
442,140,68973,5,8,2:0:0:0:
483,224,69318,1,10,2:0:0:0:
440,307,69662,2,0,L|447:372,2,47,4|12|14,2:0|2:0|2:0,0:0:0:0:
374,239,70352,5,8,2:0:0:0:
291,283,70697,1,2,0:0:0:0:
219,221,71042,1,8,2:0:0:0:
130,254,71387,2,0,L|52:258,2,47,2|0|2,0:0|0:0|3:0,0:0:0:0:
445,41,73111,5,0,0:0:0:0:
351,28,73455,2,0,B|335:56|304:76|304:76|267:82|231:73,1,141,2|8,3:0|2:0,0:0:0:0:
189,52,74145,1,2,2:0:0:0:
113,107,74490,1,4,2:0:0:0:
184,168,74835,2,0,P|204:224|166:299,1,141,2|8,2:0|2:0,0:0:0:0:
128,313,75524,1,2,2:0:0:0:
63,244,75869,6,0,L|124:219,2,47,4|4|8,1:0|1:0|2:0,0:0:0:0:
18,261,76387,2,0,L|29:98,1,141,4|4,1:0|1:0,0:0:0:0:
37,26,77249,1,4,2:0:0:0:
113,79,77593,2,0,B|152:109|203:107|203:107|254:77,1,141,2|8,2:0|2:0,0:0:0:0:
277,53,78283,1,2,2:0:0:0:
369,70,78628,5,4,2:0:0:0:
349,161,78973,1,10,2:0:0:0:
421,220,79318,2,0,L|397:277,1,47,8|8,2:0|2:0,0:0:0:0:
383,305,79662,1,10,2:0:0:0:
296,267,80007,5,4,2:0:0:0:
261,354,80352,1,10,2:0:0:0:
172,322,80697,2,0,L|175:368,2,47,8|8|10,2:0|2:0|2:0,0:0:0:0:
202,232,81387,5,4,2:0:0:0:
123,180,81731,1,10,2:0:0:0:
186,110,82076,1,8,2:0:0:0:
136,30,82421,2,0,L|79:27,2,47,10|4|4,2:0|3:0|2:0,0:0:0:0:
360,331,84145,5,4,2:0:0:0:
450,357,84490,2,0,P|445:290|388:242,1,141,2|8,2:0|2:0,0:0:0:0:
345,235,85180,1,2,2:0:0:0:
270,296,85524,1,4,2:0:0:0:
255,200,85869,2,0,L|261:52,1,141,2|8,2:0|2:0,0:0:0:0:
264,12,86559,1,2,2:0:0:0:
174,41,86904,6,0,L|58:31,1,93.9999999999999,4|2,2:0|2:0,0:0:0:0:
55,72,87421,2,0,P|78:115|80:165,1,93.9999999999999,8|8,2:0|2:0,0:0:0:0:
44,190,87938,2,0,L|51:241,1,47,2|8,2:0|2:0,0:0:0:0:
58,282,88283,1,4,2:0:0:0:
141,239,88628,2,0,P|216:245|261:306,1,141,2|8,2:0|2:0,0:0:0:0:
264,338,89318,1,2,2:0:0:0:
170,329,89662,5,4,2:0:0:0:
141,239,90007,2,0,L|146:83,1,141,2|8,2:0|2:0,0:0:0:0:
147,51,90697,1,2,2:0:0:0:
241,52,91042,1,4,2:0:0:0:
298,126,91387,2,0,P|366:118|418:173,1,141,2|0,2:0|0:0,0:0:0:0:
420,211,92076,1,2,2:0:0:0:
358,282,92421,6,0,P|306:277|264:231,1,93.9999999999999,12|2,2:0|2:0,0:0:0:0:
245,214,92938,2,0,L|126:221,1,93.9999999999999,12|12,2:0|2:0,0:0:0:0:
105,207,93455,2,0,L|111:268,1,47,2|8,2:0|2:0,0:0:0:0:
115,300,93800,1,8,2:0:0:0:
388,41,95180,5,4,1:0:0:0:
308,91,95524,2,0,L|325:241,1,141,2|8,2:0|0:2,0:0:0:0:
331,277,96214,1,2,2:0:0:0:
239,254,96559,1,4,2:0:0:0:
163,310,96904,2,0,P|97:295|68:228,1,141,2|8,2:0|2:0,0:0:0:0:
76,186,97593,1,2,2:0:0:0:
113,99,97938,6,0,P|168:105|213:111,1,93.9999999999999,4|2,2:0|2:0,0:0:0:0:
248,89,98455,2,0,P|294:108|352:98,1,93.9999999999999,8|8,2:0|2:0,0:0:0:0:
369,69,98973,2,0,L|424:77,1,47,2|8,2:0|2:0,0:0:0:0:
461,83,99318,1,4,2:0:0:0:
459,177,99662,2,0,B|443:279|443:279|456:346,1,141,2|8,2:0|2:0,0:0:0:0:
403,320,100352,2,0,L|339:319,1,47,2|8,2:0|2:0,0:0:0:0:
308,320,100697,5,4,2:0:0:0:
227,271,101042,2,0,P|154:263|98:315,1,141,2|8,2:0|2:0,0:0:0:0:
91,348,101731,1,2,2:0:0:0:
184,357,102076,1,4,2:0:0:0:
227,271,102421,2,0,P|225:225|222:118,1,141,2|8,2:0|2:0,0:0:0:0:
223,82,103111,1,2,2:0:0:0:
137,43,103455,5,12,2:0:0:0:
42,45,103800,2,0,P|72:113|133:139,1,141,2|12,2:0|2:0,0:0:0:0:
128,185,104490,2,0,L|120:258,1,47,2|8,2:0|2:0,0:0:0:0:
84,258,104835,2,0,L|92:329,1,47,8|8,2:0|2:0,0:0:0:0:
113,345,105180,1,2,2:0:0:0:
113,345,105352,2,0,P|165:326|238:342,1,93.9999999999999,12|12,2:0|2:0,0:0:0:0:
246,345,105869,2,0,L|253:283,1,47,2|12,2:0|2:0,0:0:0:0:
257,251,106214,5,0,0:0:0:0:
49,127,111731,5,2,3:0:0:0:
125,71,112076,2,0,P|196:55|257:90,1,141,2|8,2:0|0:2,0:0:0:0:
249,132,112766,2,0,P|243:171|238:242,1,93.9999999999999,2|4,2:0|2:0,0:0:0:0:
329,251,113455,2,0,P|336:189|345:81,1,141,2|8,2:0|2:0,0:0:0:0:
349,64,114145,1,2,2:0:0:0:
440,42,114490,5,4,2:0:0:0:
494,119,114835,2,0,P|498:187|433:243,1,141,2|8,2:0|2:0,0:0:0:0:
412,264,115524,2,0,P|364:264|306:272,1,93.9999999999999,2|4,2:0|2:0,0:0:0:0:
259,343,116214,2,0,L|251:180,1,141,2|8,2:0|2:0,0:0:0:0:
277,162,116904,2,0,L|258:102,1,47,2|8,2:0|2:0,0:0:0:0:
247,72,117249,5,4,2:0:0:0:
165,25,117593,2,0,B|153:48|120:73|120:73|84:79|46:78,1,141,2|8,2:0|2:0,0:0:0:0:
34,124,118283,2,0,P|34:144|39:236,1,93.9999999999999,2|4,2:0|2:0,0:0:0:0:
48,311,118973,2,0,P|107:286|181:341,1,141,2|8,2:0|2:0,0:0:0:0:
182,365,119662,1,2,2:0:0:0:
275,377,120007,5,4,2:0:0:0:
315,292,120352,2,0,B|339:219|291:219|324:142,1,141,2|8,2:0|2:0,0:0:0:0:
343,115,121042,1,2,2:0:0:0:
343,115,121214,2,0,L|238:107,1,93.9999999999999,8|4,2:0|2:0,0:0:0:0:
233,63,121731,2,0,L|184:69,1,47,6|12,2:0|2:0,0:0:0:0:
140,78,122076,1,12,2:0:0:0:
49,51,122421,2,0,L|56:103,1,47,14|8,2:0|2:0,0:0:0:0:
64,143,122766,1,8,2:0:0:0:
129,210,123111,6,0,P|181:261|183:341,1,141,2|8,3:0|2:0,0:0:0:0:
163,366,123800,1,2,2:0:0:0:
96,299,124145,1,4,2:0:0:0:
129,210,124490,2,0,B|168:183|168:183|283:178,1,141,2|8,2:0|2:0,0:0:0:0:
308,178,125180,1,2,2:0:0:0:
369,107,125524,6,0,L|349:35,2,47,4|4|0,1:0|1:0|0:0,0:0:0:0:
397,146,126042,2,0,L|378:307,1,141,4|4,1:0|1:0,0:0:0:0:
371,379,126904,1,4,2:0:0:0:
293,325,127249,2,0,P|242:295|151:325,1,141,2|8,2:0|2:0,0:0:0:0:
136,348,127938,1,2,2:0:0:0:
46,317,128283,5,8,2:0:0:0:
52,223,128628,1,6,2:0:0:0:
139,188,128973,2,0,L|136:133,1,47,12|12,2:0|2:0,0:0:0:0:
135,93,129318,1,14,2:0:0:0:
199,25,129662,5,8,2:0:0:0:
264,92,130007,1,10,2:0:0:0:
348,51,130352,2,0,L|360:6,2,47,4|12|14,2:0|2:0|2:0,0:0:0:0:
361,144,131042,5,8,2:0:0:0:
386,234,131387,1,2,0:0:0:0:
295,257,131731,1,8,2:0:0:0:
322,347,132076,2,0,L|387:366,2,47,2|0|2,0:0|0:0|3:0,0:0:0:0:
62,74,133800,6,0,B|84:45|115:27|115:27|159:26|212:56,1,141,2|8,3:0|2:0,0:0:0:0:
221,68,134490,2,0,L|322:52,1,93.9999999999999,2|8,2:0|2:0,0:0:0:0:
360,46,135007,1,8,2:0:0:0:
436,101,135352,2,0,L|415:164,1,47,8|8,2:0|2:0,0:0:0:0:
421,239,135869,2,0,L|358:218,1,47,2|0,2:0|0:0,0:0:0:0:
338,195,136214,2,0,L|275:216,1,47,8|8,2:0|2:0,0:0:0:0:
267,249,136559,6,0,P|206:239|131:206,1,141,4|8,2:0|2:0,0:0:0:0:
95,180,137249,1,2,2:0:0:0:
95,180,137421,2,0,L|106:105,2,47,0|8|8,0:0|2:0|2:0,0:0:0:0:
7,216,138111,2,0,L|-1:168,2,47,8|8|8,2:0|2:0|2:0,0:0:0:0:
20,262,138628,2,0,P|67:339|166:309,1,188,2|2,2:0|1:0,0:0:0:0:
219,258,139662,6,0,L|282:260,1,47,2|8,3:0|2:0,0:0:0:0:
297,224,140007,1,2,2:0:0:0:
297,224,140180,2,0,L|352:234,2,47,0|8|8,0:0|2:0|2:0,0:0:0:0:
224,163,140869,2,0,L|169:169,1,47,8|8,2:0|2:0,0:0:0:0:
92,210,141387,2,0,P|91:175|84:134,1,47,2|0,2:0|0:0,0:0:0:0:
43,157,141731,2,0,P|43:133|45:110,1,47,8|8,2:0|2:0,0:0:0:0:
52,64,142076,6,0,P|117:62|206:51,1,141,4|8,2:0|2:0,0:0:0:0:
238,42,142766,2,0,P|290:56|337:62,1,93.9999999999999,2|8,2:0|2:0,0:0:0:0:
376,66,143283,1,8,2:0:0:0:
435,138,143628,2,0,L|420:191,1,47,8|8,2:0|2:0,0:0:0:0:
391,219,143973,1,0,0:0:0:0:
391,219,144145,2,0,L|340:206,2,47,2|2|8,1:0|1:0|2:0,0:0:0:0:
351,304,144835,5,2,3:0:0:0:
266,263,145180,2,0,B|225:252|225:252|103:285,1,141,2|8,2:0|2:0,0:0:0:0:
86,295,145869,2,0,L|78:196,1,93.9999999999999,2|4,2:0|2:0,0:0:0:0:
166,167,146559,2,0,P|227:122|230:33,1,141,2|8,2:0|2:0,0:0:0:0:
220,20,147249,1,2,2:0:0:0:
143,73,147593,5,4,2:0:0:0:
166,167,147938,2,0,L|329:157,1,141,2|8,2:0|2:0,0:0:0:0:
353,161,148628,2,0,P|401:171|461:133,1,93.9999999999999,2|4,2:0|2:0,0:0:0:0:
454,61,149318,2,0,P|392:32|331:63,1,141,2|8,2:0|2:0,0:0:0:0:
287,79,150007,2,0,L|222:76,1,47,2|8,2:0|2:0,0:0:0:0:
193,73,150352,5,4,2:0:0:0:
114,21,150697,2,0,P|100:77|159:162,1,141,2|8,2:0|2:0,0:0:0:0:
175,174,151387,2,0,L|155:273,1,93.9999999999999,2|4,2:0|2:0,0:0:0:0:
239,309,152076,2,0,L|270:151,1,141,2|8,2:0|2:0,0:0:0:0:
279,125,152766,1,2,2:0:0:0:
373,124,153111,5,4,2:0:0:0:
346,34,153455,2,0,P|279:12|211:35,1,141,2|8,2:0|2:0,0:0:0:0:
181,67,154145,1,2,2:0:0:0:
144,153,154490,2,0,L|147:221,1,47,4|8,2:0|2:0,0:0:0:0:
179,233,154835,2,0,L|171:307,1,47,2|8,2:0|2:0,0:0:0:0:
170,326,155180,2,0,P|255:294|339:348,1,188,2|4,3:0|2:0,0:0:0:0:
199,78,166904,6,0,B|246:59|246:59|354:94,1,141,4|8,2:0|2:0,0:0:0:0:
372,109,167593,1,2,3:0:0:0:
429,183,167938,2,0,P|465:114|424:30,2,141,8|0|2,2:0|0:0|3:0,0:0:0:0:
335,196,169318,1,8,2:0:0:0:
277,122,169662,2,0,P|186:118|137:197,1,188,0|2,0:0|3:0,0:0:0:0:
167,281,170697,2,0,B|222:285|222:285|258:268|258:268|341:273,2,141,8|0|2,2:0|0:0|3:0,0:0:0:0:
74,266,172076,1,8,2:0:0:0:
26,185,172421,6,0,B|22:119|42:82|42:82|77:64,1,141,0|8,0:0|2:0,0:0:0:0:
120,59,173111,1,2,3:0:0:0:
127,152,173455,2,0,P|196:112|206:27,2,141,8|0|2,2:0|0:0|3:0,0:0:0:0:
120,59,174835,1,8,2:0:0:0:
37,105,175180,2,0,P|37:195|110:249,1,188,0|2,0:0|3:0,0:0:0:0:
196,212,176214,2,0,P|243:197|299:219,1,93.9999999999999,8|0,2:0|0:0,0:0:0:0:
318,241,176731,2,0,L|330:87,1,141,0|2,0:0|3:0,0:0:0:0:
338,6,177593,1,0,0:0:0:0:
416,57,177938,5,4,2:0:0:0:
328,100,178283,2,0,B|281:114|281:114|182:95,1,141,2|8,2:0|2:0,0:0:0:0:
144,85,178973,1,2,2:0:0:0:
70,26,179318,1,4,2:0:0:0:
45,116,179662,2,0,P|51:151|63:269,1,141,2|8,2:0|2:0,0:0:0:0:
63,302,180352,1,2,2:0:0:0:
146,258,180697,6,0,P|195:243|247:258,1,93.9999999999999,4|2,2:0|2:0,0:0:0:0:
271,282,181214,2,0,L|375:253,1,93.9999999999999,0|8,0:0|2:0,0:0:0:0:
405,240,181731,1,2,2:0:0:0:
498,248,182076,1,4,2:0:0:0:
496,153,182421,2,0,P|441:121|359:122,1,141,2|8,2:0|2:0,0:0:0:0:
326,147,183111,2,0,L|241:137,1,47,2|8,2:0|2:0,0:0:0:0:
232,136,183455,5,4,2:0:0:0:
165,69,183800,2,0,P|140:113|186:220,1,141,2|8,2:0|2:0,0:0:0:0:
198,223,184490,1,2,2:0:0:0:
232,136,184835,1,4,2:0:0:0:
165,69,185180,2,0,P|86:84|41:144,1,141,2|8,2:0|2:0,0:0:0:0:
38,173,185869,1,2,2:0:0:0:
42,266,186214,5,4,2:0:0:0:
108,332,186559,2,0,B|179:365|179:306|257:340,1,141,2|8,2:0|2:0,0:0:0:0:
289,350,187249,2,0,L|296:286,1,47,2|8,2:0|2:0,0:0:0:0:
324,267,187593,2,0,L|319:210,1,47,4|8,2:0|2:0,0:0:0:0:
348,182,187938,1,2,2:0:0:0:
348,182,188111,2,0,P|402:185|448:159,1,93.9999999999999,8|8,2:0|2:0,0:0:0:0:
456,125,188628,2,0,L|446:64,1,47,2|8,2:0|2:0,0:0:0:0:
436,32,188973,5,2,3:0:0:0:
341,29,189318,2,0,P|269:39|204:83,1,141,2|8,2:0|2:0,0:0:0:0:
175,103,190007,2,0,L|157:11,1,93.9999999999999,2|4,2:0|2:0,0:0:0:0:
62,15,190697,2,0,L|95:176,1,141,2|8,2:0|2:0,0:0:0:0:
102,198,191387,1,2,2:0:0:0:
74,287,191731,5,4,2:0:0:0:
154,336,192076,2,0,P|224:345|285:308,1,141,2|8,2:0|2:0,0:0:0:0:
310,272,192766,2,0,P|297:229|269:158,1,93.9999999999999,2|4,2:0|2:0,0:0:0:0:
356,134,193455,2,0,P|381:194|407:288,1,141,2|8,2:0|2:0,0:0:0:0:
446,284,194145,2,0,L|437:351,1,47,2|8,2:0|2:0,0:0:0:0:
431,376,194490,5,4,2:0:0:0:
345,337,194835,2,0,P|286:308|216:327,1,141,2|8,2:0|2:0,0:0:0:0:
175,350,195524,2,0,L|164:225,1,93.9999999999999,2|4,2:0|2:0,0:0:0:0:
229,185,196214,2,0,P|268:117|247:51,1,141,2|8,2:0|2:0,0:0:0:0:
218,28,196904,1,2,2:0:0:0:
174,110,197249,5,4,2:0:0:0:
229,185,197593,2,0,B|271:171|271:171|389:186,1,141,2|8,2:0|2:0,0:0:0:0:
387,225,198283,1,2,2:0:0:0:
387,225,198456,2,0,P|444:235|493:208,1,93.9999999999999,8|4,2:0|2:0,0:0:0:0:
506,186,198973,2,0,L|500:131,1,47,6|12,2:0|2:0,0:0:0:0:
493,92,199318,1,12,2:0:0:0:
400,74,199662,2,0,L|409:7,2,47,14|8|8,2:0|2:0|2:0,0:0:0:0:
311,41,200352,6,0,P|237:34|176:78,1,141,2|8,3:0|2:0,0:0:0:0:
168,113,201042,1,2,2:0:0:0:
203,200,201387,1,4,2:0:0:0:
262,127,201731,2,0,P|295:189|274:261,1,141,2|8,2:0|2:0,0:0:0:0:
245,287,202421,1,2,2:0:0:0:
170,233,202766,6,0,L|217:184,2,47,4|4|0,1:0|1:0|0:0,0:0:0:0:
137,267,203283,2,0,P|129:203|108:118,1,141,4|4,1:0|1:0,0:0:0:0:
45,61,204145,1,4,2:0:0:0:
26,153,204490,2,0,P|42:221|51:291,1,141,2|8,2:0|2:0,0:0:0:0:
36,336,205180,1,2,2:0:0:0:
122,370,205524,5,8,2:0:0:0:
181,299,205869,1,6,2:0:0:0:
131,220,206214,2,0,L|139:161,1,47,12|12,2:0|2:0,0:0:0:0:
146,127,206559,1,14,2:0:0:0:
204,53,206904,5,8,2:0:0:0:
250,135,207249,1,10,2:0:0:0:
303,58,207593,2,0,L|317:2,2,47,4|12|14,2:0|2:0|2:0,0:0:0:0:
348,140,208283,5,8,2:0:0:0:
441,130,208628,1,2,0:0:0:0:
455,222,208973,1,8,2:0:0:0:
361,234,209318,2,0,L|299:223,2,47,2|0|2,0:0|0:0|3:0,0:0:0:0:
13,88,211042,6,0,P|87:36|174:63,1,188,4|2,2:0|2:0,0:0:0:0:
202,251,212421,2,0,P|126:301|40:273,1,188,0|2,3:0|2:0,0:0:0:0:
187,156,213800,2,0,P|333:132|387:128,1,188,0|2,3:0|2:0,0:0:0:0:
466,135,214835,1,0,3:0:0:0:
43,341,216559,6,0,P|16:255|67:180,1,188,0|2,3:0|2:0,0:0:0:0:
217,65,217938,2,0,P|199:133|174:271,1,188,0|2,3:0|2:0,0:0:0:0:
313,378,219318,2,0,P|364:303|337:216,1,188,0|2,3:0|2:0,0:0:0:0:
258,165,220352,2,0,P|323:157|402:143,1,141,0|0,3:0|3:0,0:0:0:0:
441,126,221042,2,0,L|441:173,2,47,2|0|2,0:0|0:0|2:0,0:0:0:0:
476,94,221559,1,2,0:0:0:0:
476,94,221731,2,0,L|487:18,1,47,0|2,0:0|0:0,0:0:0:0:
