osu file format v14

[General]
AudioFilename: audio.mp3
AudioLeadIn: 0
PreviewTime: 50352
Countdown: 0
SampleSet: Soft
StackLeniency: 0.3
Mode: 0
LetterboxInBreaks: 0
WidescreenStoryboard: 1

[Editor]
DistanceSpacing: 2.4
BeatDivisor: 4
GridSize: 32
TimelineZoom: 2.1

[Metadata]
Title:Stay Alive (Jun Kuroda Bootleg Remix)
TitleUnicode:Stay Alive (Jun Kuroda Bootleg Remix)
Artist:EMILIA (CV: Takahashi Rie)
ArtistUnicode:エミリア (CV:高橋李依)
Creator:gary00737
Version:Moecho's Fragmentary Puzzle
Source:Re:ゼロから始める異世界生活
Tags:Frey Moecho Moeri Moeriko CookieBite DreaM117er m1223961117 re:zero ed2 ending
BeatmapID:1746514
BeatmapSetID:671597

[Difficulty]
HPDrainRate:6
CircleSize:4.5
OverallDifficulty:9
ApproachRate:9.5
SliderMultiplier:1.8
SliderTickRate:1

[Events]
//Background and Video events
0,0,"BGmoeriko.jpg",0,0
//Break Periods
//Storyboard Layer 0 (Background)
//Storyboard Layer 1 (Fail)
//Storyboard Layer 2 (Pass)
//Storyboard Layer 3 (Foreground)
//Storyboard Sound Samples

[TimingPoints]
1387,344.827586206897,4,2,100,40,1,0
1387,-200,4,2,100,40,0,0
2076,-200,4,2,100,20,0,0
12421,-200,4,2,100,30,0,0
12593,-200,4,2,100,40,0,0
12766,-200,4,2,100,5,0,0
12938,-200,4,2,100,40,0,0
13455,-200,4,2,100,5,0,0
13628,-200,4,2,100,40,0,0
14145,-200,4,2,100,5,0,0
14318,-200,4,2,100,40,0,0
14662,-100,4,2,100,40,0,0
14749,-100,4,2,100,5,0,0
14835,-200,4,2,100,40,0,0
15007,-200,4,2,100,5,0,0
15180,-200,4,2,100,40,0,0
15524,-200,4,2,100,5,0,0
15697,-200,4,2,100,40,0,0
16214,-200,4,2,100,5,0,0
16387,-200,4,2,100,40,0,0
16904,-200,4,2,100,5,0,0
17076,-200,4,2,100,40,0,0
17421,-100,4,2,100,40,0,0
17507,-100,4,2,100,5,0,0
17593,-200,4,2,100,40,0,0
18283,-200,4,2,100,5,0,0
18455,-200,4,2,100,40,0,0
18973,-200,4,2,100,5,0,0
19145,-200,4,2,100,40,0,0
19662,-200,4,2,100,5,0,0
19835,-200,4,2,100,40,0,0
20180,-100,4,2,100,40,0,0
20266,-100,4,2,100,5,0,0
20352,-200,4,2,100,40,0,0
20524,-200,4,2,100,5,0,0
20697,-133.333333333333,4,2,100,40,0,0
21042,-133.333333333333,4,2,100,5,0,0
21214,-133.333333333333,4,2,100,40,0,0
21731,-133.333333333333,4,2,100,5,0,0
21904,-66.6666666666667,4,2,100,40,0,0
21990,-66.6666666666667,4,2,100,5,0,0
22076,-400,4,2,100,45,0,0
23455,-133.333333333333,4,2,100,50,0,0
31731,-133.333333333333,4,2,100,55,0,0
33111,-133.333333333333,4,2,100,56,0,0
33800,-133.333333333333,4,2,100,58,0,0
34490,-100,4,2,100,60,0,0
35955,-100,4,2,100,5,0,0
36042,-100,4,2,100,60,0,0
37335,-100,4,2,100,5,0,0
37421,-100,4,2,100,60,0,0
44231,-100,4,2,100,5,0,0
44318,-100,4,2,100,60,0,0
44835,-100,4,2,100,65,0,0
45524,-200,4,2,100,50,0,0
45869,-200,4,2,100,40,0,0
47335,-200,4,2,100,5,0,0
47421,-200,4,2,100,40,0,0
48154,-200,4,2,100,30,0,0
48427,-133.333333333333,4,2,100,45,0,0
50266,-133.333333333333,4,2,100,5,0,0
50352,-400,4,2,100,30,0,0
50955,-400,4,2,100,5,0,0
51042,-66.6666666666667,4,2,100,70,0,1
51300,-66.6666666666667,4,2,100,5,0,1
51387,-100,4,2,100,70,0,1
51473,-100,4,2,100,5,0,1
51559,-100,4,2,100,70,0,1
52507,-100,4,2,100,5,0,1
52593,-100,4,2,100,70,0,1
52852,-100,4,2,100,5,0,1
52938,-100,4,2,100,70,0,1
53887,-100,4,2,100,5,0,1
53973,-100,4,2,100,70,0,1
54231,-100,4,2,100,5,0,1
54318,-100,4,2,100,70,0,1
55611,-100,4,2,100,5,0,1
55697,-100,4,2,100,70,0,1
56990,-100,4,2,100,5,0,1
57076,-100,4,2,100,70,0,1
58024,-100,4,2,100,5,0,1
58111,-100,4,2,100,70,0,1
58369,-100,4,2,100,5,0,1
58455,-100,4,2,100,70,0,1
59404,-100,4,2,100,5,0,1
59490,-100,4,2,100,70,0,1
59749,-100,4,2,100,5,0,1
59835,-100,4,2,100,70,0,1
62076,-303.030303030303,4,2,99,60,0,0
62335,-200,4,2,100,5,0,0
62421,-66.6666666666667,4,2,100,70,0,1
62507,-66.6666666666667,4,2,100,5,0,1
62593,-100,4,2,100,70,0,1
63542,-100,4,2,100,5,0,1
63628,-100,4,2,100,70,0,1
63887,-100,4,2,100,5,0,1
63973,-100,4,2,100,70,0,1
64835,-66.6666666666667,4,2,100,70,0,0
64921,-66.6666666666667,4,2,100,5,0,0
65007,-66.6666666666667,4,2,100,70,0,0
65093,-66.6666666666667,4,2,100,5,0,0
65180,-66.6666666666667,4,2,100,70,0,0
65524,-66.6666666666667,4,2,100,5,0,0
65697,-66.6666666666667,4,2,100,70,0,0
65869,-66.6666666666667,4,2,100,70,0,1
67076,-100,4,2,100,70,0,0
67162,-100,4,2,100,5,0,0
67249,-100,4,2,100,70,0,0
67335,-100,4,2,100,5,0,0
67421,-100,4,2,100,70,0,0
67593,-100,4,2,100,70,0,1
71731,-400,4,2,100,50,0,0
71990,-400,4,2,100,5,0,0
72076,-400,4,2,100,50,0,0
73111,-400,4,2,100,60,0,0
73369,-400,4,2,100,5,0,0
73455,-66.6666666666667,4,2,100,70,0,1
73628,-100,4,2,100,70,0,1
74231,-100,4,2,100,5,0,1
74318,-100,4,2,100,70,0,1
74921,-100,4,2,100,5,0,1
75007,-100,4,2,100,70,0,1
75869,-66.6666666666667,4,2,100,70,0,0
75955,-66.6666666666667,4,2,100,5,0,0
76042,-66.6666666666667,4,2,100,70,0,0
76128,-66.6666666666667,4,2,100,5,0,0
76214,-66.6666666666667,4,2,100,70,0,0
76559,-66.6666666666667,4,2,100,5,0,0
76731,-66.6666666666667,4,2,100,70,0,0
76904,-66.6666666666667,4,2,100,70,0,1
78111,-100,4,2,100,70,0,0
78197,-100,4,2,100,5,0,0
78283,-100,4,2,100,70,0,0
78369,-100,4,2,100,5,0,0
78455,-100,4,2,100,70,0,0
81818,-100,4,2,100,5,0,0
81904,-100,4,2,100,70,0,0
82162,-100,4,2,100,5,0,0
82249,-100,4,2,100,70,0,0
82680,-100,4,2,100,5,0,0
82766,-133.333333333333,4,2,100,60,0,0
83024,-133.333333333333,4,2,100,5,0,0
83111,-160,4,2,100,50,0,0
83369,-160,4,2,100,5,0,0
83455,-200,4,2,100,40,0,0
83714,-200,4,2,100,5,0,0
83800,-266.666666666667,4,2,100,30,0,0
84059,-266.666666666667,4,2,100,5,0,0
84145,-133.333333333333,4,2,100,50,0,0
92421,-133.333333333333,4,2,100,56,0,0
93111,-133.333333333333,4,2,100,58,0,0
93800,-133.333333333333,4,2,100,60,0,0
93973,-200,4,2,100,40,0,0
94318,-200,4,2,100,5,0,0
94490,-242.424242424242,4,2,100,40,0,0
94662,-242.424242424242,4,2,100,5,0,0
94835,-307.692307692308,4,2,100,40,0,0
95093,-307.692307692308,4,2,100,5,0,0
95180,-100,4,2,100,60,0,0
96645,-100,4,2,100,5,0,0
96731,-100,4,2,100,60,0,0
98024,-100,4,2,100,5,0,0
98111,-100,4,2,100,60,0,0
104921,-100,4,2,100,5,0,0
105007,-100,4,2,100,60,0,0
105524,-100,4,2,100,50,0,0
106214,-200,4,2,100,60,0,0
106559,-200,4,2,100,40,0,0
108024,-200,4,2,100,5,0,0
108111,-200,4,2,100,40,0,0
108843,-200,4,2,100,30,0,0
109116,-133.333333333333,4,2,100,45,0,0
110955,-133.333333333333,4,2,100,5,0,0
111042,-400,4,2,100,10,0,0
111645,-400,4,2,100,5,0,0
111731,-66.6666666666667,4,2,100,70,0,1
111990,-66.6666666666667,4,2,100,5,0,1
112076,-100,4,2,100,70,0,1
113197,-100,4,2,100,5,0,1
113283,-100,4,2,100,70,0,1
113542,-100,4,2,100,5,0,1
113628,-100,4,2,100,70,0,1
114576,-100,4,2,100,5,0,1
114662,-100,4,2,100,70,0,1
114921,-100,4,2,100,5,0,1
115007,-100,4,2,100,70,0,1
116300,-100,4,2,100,5,0,1
116387,-100,4,2,100,70,0,1
117680,-100,4,2,100,5,0,1
117766,-100,4,2,100,70,0,1
118714,-100,4,2,100,5,0,1
118800,-100,4,2,100,70,0,1
119059,-100,4,2,100,5,0,1
119145,-100,4,2,100,70,0,1
120093,-100,4,2,100,5,0,1
120180,-100,4,2,100,70,0,1
120438,-100,4,2,100,5,0,1
120524,-100,4,2,100,70,0,1
122766,-303.030303030303,4,2,99,60,0,0
123024,-303.030303030303,4,2,100,5,0,0
123111,-66.6666666666667,4,2,100,70,0,0
123197,-66.6666666666667,4,2,100,5,0,0
123283,-100,4,2,100,70,0,1
124231,-100,4,2,100,5,0,1
124318,-100,4,2,100,70,0,1
124576,-100,4,2,100,5,0,1
124662,-100,4,2,100,70,0,1
125524,-66.6666666666667,4,2,100,70,0,0
125611,-66.6666666666667,4,2,100,5,0,0
125697,-66.6666666666667,4,2,100,70,0,0
125783,-66.6666666666667,4,2,100,5,0,0
125869,-66.6666666666667,4,2,100,70,0,0
126214,-66.6666666666667,4,2,100,5,0,0
126387,-66.6666666666667,4,2,100,70,0,0
126559,-66.6666666666667,4,2,100,70,0,1
127766,-100,4,2,100,70,0,0
127852,-100,4,2,100,5,0,0
127938,-100,4,2,100,70,0,0
128024,-100,4,2,100,5,0,0
128111,-100,4,2,100,70,0,0
128283,-100,4,2,100,70,0,1
132421,-400,4,2,100,50,0,0
132680,-400,4,2,100,5,0,0
132766,-200,4,2,100,50,0,0
133111,-200,4,2,100,55,0,0
133455,-133.333333333333,4,2,100,60,0,0
133628,-66.6666666666667,4,2,100,70,0,0
133800,-160,4,2,100,70,0,1
134059,-160,4,2,100,5,0,1
134145,-160,4,2,100,70,0,1
134231,-160,4,2,100,5,0,1
134318,-160,4,2,100,70,0,1
134749,-160,4,2,100,5,0,1
134835,-160,4,2,100,70,0,1
134921,-160,4,2,100,5,0,1
135007,-160,4,2,100,70,0,1
135180,-160,4,2,100,5,0,1
135352,-160,4,2,100,70,0,1
135438,-160,4,2,100,5,0,1
135524,-160,4,2,100,70,0,1
135697,-160,4,2,100,5,0,1
135869,-100,4,2,100,70,0,0
135955,-100,4,2,100,5,0,0
136042,-100,4,2,100,70,0,0
136128,-100,4,2,100,5,0,0
136214,-100,4,2,100,70,0,0
136300,-100,4,2,100,5,0,0
136387,-100,4,2,100,70,0,0
136473,-100,4,2,100,5,0,0
136559,-160,4,2,100,70,0,1
136818,-160,4,2,100,5,0,1
136904,-160,4,2,100,70,0,1
136990,-160,4,2,100,5,0,1
137076,-160,4,2,100,70,0,1
137507,-160,4,2,100,5,0,1
137593,-160,4,2,100,70,0,1
137680,-160,4,2,100,5,0,1
137766,-160,4,2,100,70,0,1
137938,-160,4,2,100,5,0,1
138111,-160,4,2,100,70,0,1
138197,-160,4,2,100,5,0,1
138283,-160,4,2,100,70,0,1
138455,-160,4,2,100,5,0,1
138628,-80,4,2,100,70,0,0
138714,-96.061479346782,4,2,100,70,0,0
138800,-120.048019207683,4,2,100,70,0,0
138887,-160,4,2,100,70,0,0
139059,-120.048019207683,4,2,100,70,0,0
139145,-96.061479346782,4,2,100,70,0,0
139231,-80,4,2,100,70,0,0
139318,-100,4,2,100,70,0,0
139447,-100,4,2,100,5,0,0
139490,-133.333333333333,4,2,100,70,0,0
139619,-133.333333333333,4,2,100,5,0,0
139662,-66.6666666666667,4,2,100,70,0,1
139749,-66.6666666666667,4,2,100,5,0,1
139835,-66.6666666666667,4,2,100,70,0,1
140007,-133.333333333333,4,2,100,70,0,1
140266,-133.333333333333,4,2,100,5,0,1
140352,-133.333333333333,4,2,100,70,0,1
140438,-133.333333333333,4,2,100,5,0,1
140524,-133.333333333333,4,2,100,70,0,1
140697,-133.333333333333,4,2,100,5,0,1
140869,-133.333333333333,4,2,100,70,0,1
140955,-133.333333333333,4,2,100,5,0,1
141042,-133.333333333333,4,2,100,70,0,1
141645,-133.333333333333,4,2,100,5,0,1
141731,-133.333333333333,4,2,100,70,0,1
141818,-133.333333333333,4,2,100,5,0,1
141904,-133.333333333333,4,2,100,70,0,1
141990,-133.333333333333,4,2,100,5,0,1
142076,-133.333333333333,4,2,100,70,0,1
142335,-133.333333333333,4,2,100,5,0,1
142421,-133.333333333333,4,2,100,70,0,1
142507,-133.333333333333,4,2,100,5,0,1
142593,-133.333333333333,4,2,100,70,0,1
143024,-133.333333333333,4,2,100,5,0,1
143111,-133.333333333333,4,2,100,70,0,1
143197,-133.333333333333,4,2,100,5,0,1
143283,-133.333333333333,4,2,100,70,0,1
143455,-133.333333333333,4,2,100,5,0,1
143628,-133.333333333333,4,2,100,70,0,1
143714,-133.333333333333,4,2,100,5,0,1
143800,-133.333333333333,4,2,100,70,0,1
143887,-133.333333333333,4,2,100,5,0,1
143973,-133.333333333333,4,2,100,70,0,1
144318,-100,4,2,100,70,0,0
144404,-100,4,2,100,5,0,0
144490,-100,4,2,100,70,0,0
144576,-100,4,2,100,5,0,0
144662,-100,4,2,100,70,0,0
144749,-100,4,2,100,5,0,0
144835,-100,4,2,100,70,0,1
145093,-100,4,2,100,5,0,1
145180,-100,4,2,100,70,0,1
146473,-100,4,2,100,5,0,1
146559,-100,4,2,100,70,0,1
149231,-100,4,2,100,5,0,1
149318,-100,4,2,100,70,0,1
150611,-100,4,2,100,5,0,1
150697,-100,4,2,100,70,0,1
151990,-100,4,2,100,5,0,1
152076,-100,4,2,100,70,0,1
153111,-100,4,2,100,72,0,1
153800,-100,4,2,100,75,0,1
155180,-500,4,2,100,60,0,0
155783,-500,4,2,100,5,0,0
155869,-200,4,2,100,50,0,0
156559,-200,4,2,100,30,0,0
166904,-100,4,2,100,40,0,0
166947,-100,4,2,100,5,0,0
166990,-100,4,2,100,40,0,0
167033,-100,4,2,100,5,0,0
167421,-100,4,2,100,40,0,0
167593,-160,4,2,100,50,0,0
167852,-160,4,2,100,5,0,0
167938,-160,4,2,100,50,0,0
168197,-160,4,2,100,5,0,0
168283,-160,4,2,100,50,0,0
168714,-160,4,2,100,5,0,0
168800,-160,4,2,100,50,0,0
169576,-160,4,2,100,5,0,0
169662,-160,4,2,100,50,0,0
169921,-160,4,2,100,5,0,0
170007,-160,4,2,100,50,0,0
170266,-160,4,2,100,5,0,0
170352,-160,4,2,100,50,0,0
170955,-160,4,2,100,5,0,0
171042,-160,4,2,100,50,0,0
171214,-133.333333333333,4,2,100,50,0,0
171731,-160,4,2,100,50,0,0
173024,-160,4,2,100,5,0,0
173111,-160,4,2,100,50,0,0
173714,-160,4,2,100,5,0,0
173800,-160,4,2,100,50,0,0
175093,-160,4,2,100,5,0,0
175180,-100,4,2,100,50,0,0
175697,-160,4,2,100,50,0,0
175783,-160,4,2,100,5,0,0
175869,-160,4,2,100,50,0,0
176214,-53.3333333333333,4,2,100,50,0,0
176236,-160,4,2,100,5,0,0
176387,-160,4,2,100,25,0,0
176408,-160,4,2,100,5,0,0
176559,-160,4,2,100,50,0,0
176731,-40,4,2,100,50,0,0
176753,-40,4,2,100,5,0,0
176818,-40,4,2,100,25,0,0
176839,-40,4,2,100,5,0,0
176904,-40,4,2,100,25,0,0
176925,-40,4,2,100,5,0,0
176990,-40,4,2,100,25,0,0
177076,-160,4,2,100,50,0,0
177249,-160,4,2,100,55,0,0
177938,-100,4,2,100,60,0,0
179404,-100,4,2,100,5,0,0
179490,-100,4,2,100,60,0,0
180783,-100,4,2,100,5,0,0
180869,-100,4,2,100,60,0,0
181645,-100,4,2,99,60,0,0
181731,-100,4,2,100,60,0,0
184404,-100,4,2,100,5,0,0
184490,-100,4,2,100,60,0,0
187593,-100,4,2,100,70,0,0
187680,-100,4,2,100,5,0,0
187766,-100,4,2,100,70,0,0
188283,-100,4,2,100,75,0,0
188973,-57.1428571428571,4,2,100,80,0,1
189231,-57.1428571428571,4,2,100,5,0,1
189318,-80,4,2,100,80,0,1
189404,-80,4,2,99,100,0,1
189490,-80,4,2,100,80,0,1
190438,-80,4,2,100,5,0,1
190524,-80,4,2,100,80,0,1
191818,-80,4,2,100,5,0,1
191904,-80,4,2,100,80,0,1
192162,-80,4,2,100,5,0,1
192249,-80,4,2,100,80,0,1
193197,-80,4,2,100,5,0,1
193283,-80,4,2,100,80,0,1
194921,-80,4,2,100,5,0,1
195007,-80,4,2,100,80,0,1
195955,-80,4,2,100,5,0,1
196042,-80,4,2,100,80,0,1
196300,-80,4,2,100,5,0,1
196387,-80,4,2,100,80,0,1
197335,-80,4,2,100,5,0,1
197421,-80,4,2,100,80,0,1
197680,-80,4,2,100,5,0,1
197766,-80,4,2,100,80,0,1
198887,-80,4,2,100,5,0,1
198973,-80,4,2,100,80,0,1
199059,-80,4,2,100,5,0,1
199145,-80,4,2,100,80,0,1
200007,-240.384615384615,4,2,99,65,0,0
200266,-240.384615384615,4,2,100,5,0,0
200352,-57.1428571428571,4,2,100,80,0,1
200438,-57.1428571428571,4,2,99,70,0,1
200524,-80,4,2,100,80,0,1
201473,-80,4,2,100,5,0,1
201559,-80,4,2,100,80,0,1
202766,-53.3333333333333,4,2,100,80,0,0
202852,-53.3333333333333,4,2,100,5,0,0
202938,-53.3333333333333,4,2,100,80,0,0
203024,-53.3333333333333,4,2,100,5,0,0
203111,-53.3333333333333,4,2,100,80,0,0
203455,-53.3333333333333,4,2,100,5,0,0
203628,-53.3333333333333,4,2,100,80,0,0
203800,-53.3333333333333,4,2,100,80,0,1
205007,-80,4,2,100,80,0,1
205093,-80,4,2,100,5,0,1
205180,-80,4,2,100,80,0,1
205266,-80,4,2,100,5,0,1
205352,-80,4,2,100,80,0,1
208714,-80,4,2,100,5,0,1
208800,-80,4,2,100,80,0,1
209662,-333.333333333333,4,2,100,55,0,0
209921,-333.333333333333,4,2,100,5,0,0
210007,-333.333333333333,4,2,100,50,0,0
210697,-333.333333333333,4,2,100,60,0,0
211042,-333.333333333333,4,2,99,45,0,0
211731,-333.333333333333,4,2,100,45,0,0
216559,-333.333333333333,4,2,99,45,0,0
217249,-333.333333333333,4,2,100,45,0,0
221904,-1000,4,2,100,45,0,0
222421,-1000,4,2,99,5,0,0

[Colours]
Combo1 : 255,128,64
Combo2 : 255,196,225
Combo3 : 180,104,255
Combo4 : 179,255,255
Combo5 : 0,128,255
Combo6 : 192,192,192
Combo7 : 128,128,128
Combo8 : 255,0,0

[HitObjects]
413,222,1387,21,0,1:0:0:0:
503,211,2076,37,2,0:0:0:0:
413,222,2249,1,0,0:0:0:0:
323,233,2421,1,0,0:0:0:0:
413,222,2766,69,2,0:0:0:0:
416,28,3283,101,0,0:0:0:0:
509,48,3455,5,2,0:0:0:0:
448,115,3628,1,0,0:0:0:0:
380,115,3800,1,2,0:0:0:0:
340,94,3973,1,0,0:0:0:0:
327,75,4145,1,2,0:0:0:0:
327,75,4835,53,0,0:0:0:0:
237,86,5008,1,0,0:0:0:0:
147,97,5180,1,2,0:0:0:0:
64,114,5697,37,0,0:0:0:0:
84,154,5869,1,0,0:0:0:0:
145,182,6042,1,0,0:0:0:0:
233,165,6214,5,2,0:0:0:0:
206,285,6387,1,0,0:0:0:0:
314,384,6559,101,2,0:0:0:0:
253,154,6731,1,0,0:0:0:0:
206,285,6904,37,0,0:0:0:0:
296,296,7593,5,2,0:0:0:0:
206,285,7766,1,0,0:0:0:0:
116,274,7938,1,0,0:0:0:0:
206,285,8283,101,2,0:0:0:0:
0,89,8628,101,2,0:0:0:0:
106,133,8800,1,0,0:0:0:0:
0,89,8973,5,2,0:0:0:0:
70,32,9145,1,0,0:0:0:0:
137,34,9318,1,2,0:0:0:0:
175,56,9490,1,0,0:0:0:0:
185,75,9662,1,2,0:0:0:0:
185,75,10352,21,0,0:0:0:0:
275,86,10525,1,0,0:0:0:0:
365,97,10697,1,2,0:0:0:0:
448,114,11214,69,0,0:0:0:0:
428,154,11386,1,0,0:0:0:0:
367,182,11559,1,0,0:0:0:0:
279,165,11731,5,2,0:0:0:0:
306,285,11904,1,0,0:0:0:0:
198,384,12076,101,2,0:0:0:0:
259,154,12248,1,0,0:0:0:0:
91,55,12421,101,2,1:0:0:0:
0,117,12593,102,0,L|54:122,1,45,2|0,3:2|0:0,3:0:0:0:
118,130,12938,2,0,L|172:135,1,45,2|8,3:2|0:3,3:0:0:0:
236,143,13283,2,0,L|290:148,1,45,2|0,3:2|0:0,3:0:0:0:
206,70,13628,1,0,0:0:0:0:
358,159,13800,5,0,1:0:0:0:
307,384,13973,102,0,L|302:330,1,45,2|0,3:2|0:0,3:0:0:0:
294,266,14318,2,0,L|289:212,1,45,2|8,3:2|0:3,3:0:0:0:
281,148,14662,102,0,L|276:94,1,45,2|0,3:2|0:0,3:0:0:0:
330,0,14835,2,0,L|325:54,1,45,2|0,3:2|0:0,3:0:0:0:
294,266,15180,53,0,1:0:0:0:
512,161,15352,102,0,L|458:166,1,45,2|0,3:2|0:0,3:0:0:0:
394,174,15697,2,0,L|340:179,1,45,2|8,3:2|0:3,3:0:0:0:
276,187,16042,2,0,L|222:192,1,45,2|0,3:2|0:0,3:0:0:0:
306,114,16387,1,0,0:0:0:0:
154,203,16559,5,0,1:0:0:0:
324,384,16731,102,0,L|329:330,1,45,2|0,3:2|0:0,3:0:0:0:
337,266,17076,2,0,L|342:212,1,45,2|8,3:2|0:3,3:0:0:0:
350,148,17421,70,0,L|355:94,1,45,2|0,3:2|0:0,3:0:0:0:
301,0,17593,2,0,L|306:54,1,45,2|8,3:2|0:3,3:0:0:0:
414,194,17938,5,0,1:0:0:0:
230,284,18111,6,0,P|211:272|188:268,1,45,2|0,3:2|0:0,3:0:0:0:
113,238,18455,2,0,P|93:248|78:265,1,45,2|8,3:2|0:3,3:0:0:0:
14,316,18800,2,0,P|13:338|20:359,1,45,2|0,3:2|0:0,3:0:0:0:
174,195,19145,1,0,0:0:0:0:
7,236,19318,5,0,1:0:0:0:
230,284,19490,6,0,P|211:272|188:268,1,45,2|0,3:2|0:0,3:0:0:0:
113,238,19835,2,0,P|93:248|78:265,1,45,2|8,3:2|0:3,3:0:0:0:
14,316,20180,54,0,P|13:338|20:359,1,45,2|0,3:2|0:0,3:0:0:0:
230,284,20352,2,0,P|210:294|195:311,1,45,2|0,3:2|0:0,3:0:0:0:
376,380,20697,5,0,1:0:0:0:
78,265,20869,6,0,P|83:298|105:324,1,67.5000025749208,2|0,3:2|0:0,3:0:0:0:
182,129,21214,2,0,P|156:150|144:181,1,67.5000025749208,2|8,3:2|0:3,3:0:0:0:
351,150,21559,2,0,P|319:138|286:143,1,67.5000025749208,2|0,3:2|0:0,3:0:0:0:
417,306,21904,86,0,P|411:273|390:247,1,67.5000025749208,2|0,3:2|0:0,3:0:0:0:
441,23,22076,102,0,P|415:44|403:75,1,67.5000025749208,2|0,1:2|0:0,0:0:0:0:
351,150,22766,70,0,L|354:172,1,22.5,2|0,0:0|0:0,0:0:0:0:
512,284,23111,2,0,L|489:280,1,22.5,2|0,0:0|0:0,0:0:0:0:
154,365,23455,86,0,P|175:340|206:327,1,67.5000025749208,4|0,1:0|0:0,0:0:0:0:
87,185,23800,2,0,P|119:190|146:210,1,67.5000025749208,8|2,0:0|3:2,0:0:0:0:
179,211,24059,1,0,3:0:0:0:
179,211,24145,2,0,L|175:245,1,33.7500012874604,0|0,3:0|3:0,0:0:0:0:
72,260,24318,22,0,L|88:258,1,16.8750006437302,2|0,1:0|0:0,0:0:0:0:
72,260,24490,102,0,L|88:258,1,16.8750006437302,2|0,1:0|0:0,0:0:0:0:
164,319,24662,85,0,3:0:0:0:
159,342,24749,1,0,3:0:0:0:
154,365,24835,2,0,P|175:340|206:327,1,67.5000025749208,8|2,0:0|0:0,0:0:0:0:
364,347,25180,2,0,L|430:354,1,67.5000025749208,8|0,0:0|3:0,0:0:0:0:
460,371,25438,1,0,3:0:0:0:
460,371,25524,2,0,L|456:337,1,33.7500012874604,2|0,3:2|3:0,0:0:0:0:
499,277,25697,1,10,1:2:0:0:
260,237,25869,2,0,P|273:268|299:290,1,67.5000025749208,10|0,0:0|0:0,0:0:0:0:
467,146,26214,6,0,L|474:80,1,67.5000025749208,2|0,1:2|0:0,0:0:0:0:
308,0,26559,2,0,L|315:66,1,67.5000025749208,8|2,0:0|1:2,0:0:0:0:
304,96,26818,1,0,3:0:0:0:
304,96,26904,2,0,L|337:99,1,33.7500012874604,0|0,3:0|3:0,0:0:0:0:
393,203,27076,22,0,L|394:186,1,16.8750006437302,2|0,1:0|0:0,0:0:0:0:
393,203,27249,102,0,L|394:186,1,16.8750006437302,2|0,1:0|0:0,0:0:0:0:
393,203,27421,6,0,L|394:186,1,16.8750006437302,2|0,1:0|0:0,0:0:0:0:
393,203,27593,102,0,L|394:186,1,16.8750006437302,2|0,1:0|0:0,0:0:0:0:
302,193,27766,85,2,0:0:0:0:
472,276,27938,2,0,P|497:255|510:224,1,67.5000025749208,8|0,0:0|3:0,0:0:0:0:
512,198,28197,1,0,3:0:0:0:
512,198,28283,2,0,L|479:201,1,33.7500012874604,2|0,3:2|3:0,0:0:0:0:
393,203,28455,38,0,L|394:186,1,16.8750006437302,2|0,1:0|0:0,0:0:0:0:
393,203,28628,102,0,L|394:186,1,16.8750006437302,2|0,1:0|0:0,0:0:0:0:
471,110,28800,101,2,0:0:0:0:
386,304,28973,2,0,P|365:279|334:266,1,67.5000025749208,2|0,1:2|0:0,0:0:0:0:
298,117,29318,2,0,P|265:122|239:143,1,67.5000025749208,8|2,0:0|3:2,0:0:0:0:
213,148,29576,1,0,3:0:0:0:
213,148,29662,2,0,L|216:181,1,33.7500012874604,0|0,3:0|3:0,0:0:0:0:
318,193,29835,22,0,L|301:192,1,16.8750006437302,2|0,1:0|0:0,0:0:0:0:
318,193,30008,102,0,L|301:192,1,16.8750006437302,2|0,1:0|0:0,0:0:0:0:
376,258,30180,85,0,3:0:0:0:
381,281,30267,1,0,3:0:0:0:
386,304,30353,2,0,P|365:279|334:266,1,67.5000025749208,8|2,0:0|0:0,0:0:0:0:
213,356,30697,2,0,L|147:363,1,67.5000025749208,8|0,0:0|3:0,0:0:0:0:
117,380,30955,1,0,3:0:0:0:
117,380,31041,2,0,L|121:346,1,33.7500012874604,2|0,3:2|3:0,0:0:0:0:
78,286,31214,1,10,1:2:0:0:
276,214,31387,2,0,P|254:239|223:252,1,67.5000025749208,10|2,0:0|0:0,0:0:0:0:
4,71,31731,6,0,P|34:83|56:109,1,67.5000025749208,2|0,1:2|0:0,0:0:0:0:
202,84,32076,2,0,L|195:150,1,67.5000025749208,8|2,0:0|1:2,0:0:0:0:
213,180,32335,1,0,3:0:0:0:
213,180,32421,2,0,L|179:184,1,33.7500012874604,0|0,3:0|3:0,0:0:0:0:
78,286,32593,22,0,L|79:269,1,16.8750006437302,2|0,1:0|0:0,0:0:0:0:
78,286,32766,102,0,L|79:269,1,16.8750006437302,2|0,1:0|0:0,0:0:0:0:
78,286,32938,6,0,L|79:269,1,16.8750006437302,2|0,1:0|0:0,0:0:0:0:
78,286,33110,102,0,L|79:269,1,16.8750006437302,2|0,1:0|0:0,0:0:0:0:
174,353,33283,85,0,3:0:0:0:
186,342,33369,1,0,3:0:0:0:
202,337,33455,2,0,L|198:370,3,33.7500012874604,8|0|0|0,0:0|0:0|0:0|0:0,0:0:0:0:
405,208,33800,102,0,L|401:241,1,33.7500012874604,2|0,3:2|3:0,0:0:0:0:
217,234,33973,2,0,L|221:267,1,33.7500012874604,2|0,3:2|3:0,0:0:0:0:
446,368,34145,101,2,1:2:0:0:
412,310,34231,1,0,1:0:0:0:
348,288,34318,1,0,1:0:0:0:
283,304,34404,1,0,1:0:0:0:
202,337,34490,70,0,L|112:326,1,90,4|0,1:0|0:0,0:0:0:0:
33,144,34835,2,0,L|43:233,1,90,8|2,1:2|3:2,0:0:0:0:
28,275,35093,1,0,3:0:0:0:
52,247,35180,1,0,3:0:0:0:
84,230,35266,1,0,3:0:0:0:
119,230,35352,1,0,1:0:0:0:
245,18,35524,2,0,P|225:57|185:76,1,90,10|0,1:2|3:0,0:0:0:0:
135,129,35783,1,0,3:0:0:0:
110,155,35869,102,0,L|65:149,1,45,0|0,1:0|0:0,0:0:0:0:
0,138,36042,1,2,0:0:0:0:
127,298,36214,2,0,P|146:258|186:239,1,90,8|0,1:2|3:0,0:0:0:0:
225,216,36473,1,0,3:0:0:0:
223,251,36559,1,2,3:2:0:0:
220,286,36645,1,0,3:0:0:0:
217,321,36731,1,0,1:0:0:0:
436,255,36904,2,0,L|426:166,1,90,10|0,1:2|3:0,0:0:0:0:
464,104,37162,1,0,3:0:0:0:
488,77,37249,6,0,L|443:71,1,45,2|0,1:2|0:0,0:0:0:0:
354,203,37421,1,2,3:2:0:0:
356,217,37507,1,2,3:2:0:0:
358,231,37593,1,8,1:2:0:0:
278,119,37766,1,2,1:2:0:0:
252,145,37852,1,0,3:0:0:0:
218,158,37938,1,0,3:0:0:0:
182,163,38024,1,0,3:0:0:0:
146,156,38111,1,0,1:0:0:0:
11,40,38283,1,10,1:2:0:0:
146,156,38455,1,0,0:0:0:0:
9,201,38628,102,0,P|28:161|68:142,1,90,0|2,1:0|3:2,0:0:0:0:
146,156,38887,1,0,3:0:0:0:
181,151,38973,2,0,L|171:240,1,90,8|0,1:2|3:0,0:0:0:0:
191,280,39231,1,0,3:0:0:0:
158,262,39318,1,2,3:2:0:0:
122,263,39404,1,0,3:0:0:0:
90,279,39490,1,0,1:0:0:0:
251,231,39662,1,10,1:2:0:0:
146,383,39835,2,0,L|141:339,1,45,0|0,1:0|0:0,0:0:0:0:
310,172,40007,6,0,P|270:191|251:231,1,90,2|0,1:2|0:0,0:0:0:0:
341,371,40352,2,0,L|430:361,1,90,8|2,1:2|3:2,0:0:0:0:
469,384,40611,1,0,3:0:0:0:
461,348,40697,1,0,3:0:0:0:
471,313,40783,1,0,3:0:0:0:
499,291,40869,1,0,1:0:0:0:
383,202,41042,2,0,L|388:157,1,45,10|0,1:2|0:0,0:0:0:0:
484,92,41214,1,0,3:0:0:0:
487,69,41300,1,0,3:0:0:0:
490,46,41387,86,0,L|401:56,1,90,0|2,1:0|0:0,0:0:0:0:
342,15,41645,1,0,0:0:0:0:
316,52,41731,1,8,1:2:0:0:
275,71,41818,1,0,0:0:0:0:
230,74,41904,1,0,3:0:0:0:
194,71,41990,1,0,3:0:0:0:
158,68,42076,2,0,L|163:113,1,45,2|0,3:2|3:0,0:0:0:0:
129,199,42249,1,0,1:0:0:0:
3,230,42421,1,10,1:2:0:0:
27,204,42507,1,0,3:0:0:0:
59,189,42593,1,0,3:0:0:0:
95,189,42680,1,0,3:0:0:0:
129,199,42766,102,0,P|89:179|70:140,1,90,2|0,1:2|0:0,0:0:0:0:
91,71,43024,1,0,0:0:0:0:
113,42,43111,2,0,L|158:47,1,45,8|0,1:2|0:0,0:0:0:0:
294,25,43283,2,0,L|299:70,1,45,2|0,1:2|0:0,0:0:0:0:
214,145,43455,1,0,3:0:0:0:
184,124,43541,1,0,3:0:0:0:
147,124,43628,1,0,1:0:0:0:
276,244,43800,2,0,L|321:239,1,45,10|0,1:2|0:0,0:0:0:0:
188,339,43973,2,0,L|193:384,1,45,0|0,1:0|0:0,0:0:0:0:
397,192,44145,2,0,L|392:237,1,45,0|0,1:0|0:0,0:0:0:0:
175,263,44318,101,2,1:2:0:0:
137,238,44404,1,0,0:0:0:0:
101,233,44490,1,8,1:2:0:0:
65,238,44576,1,0,0:0:0:0:
42,253,44662,1,0,1:0:0:0:
26,275,44749,1,0,0:0:0:0:
19,291,44835,102,0,L|24:336,1,45,10|2,1:2|0:0,0:0:0:0:
195,190,45007,2,0,L|200:145,1,45,0|0,1:0|0:0,0:0:0:0:
262,319,45180,1,10,1:2:0:0:
329,323,45266,1,8,1:2:0:0:
396,327,45352,2,0,L|401:372,1,45,0|0,1:0|0:0,0:0:0:0:
505,193,45524,101,2,0:0:0:0:
302,254,45869,102,0,L|307:209,1,45,2|2,0:0|0:0,0:0:0:0:
426,135,46214,2,0,L|421:180,1,45,0|2,0:0|0:0,0:0:0:0:
271,138,46559,2,0,L|316:133,1,45,0|2,0:0|0:0,0:0:0:0:
379,239,46904,5,0,0:0:0:0:
193,384,47076,2,0,P|167:361|135:353,1,67.5,2|0,0:0|0:0,0:0:0:0:
114,282,47421,2,0,L|70:293,1,45,2|0,0:0|0:0,0:0:0:0:
1,317,47766,1,2,0:0:0:0:
304,223,48154,102,0,L|306:212,3,11.25,2|2|2|2,0:0|0:0|0:0|0:0,0:0:0:0:
225,247,48427,86,0,B|218:213|233:165|266:143|266:143|227:140|188:100|167:61|167:61|169:105|154:152|122:176|122:176|147:176|163:191,1,416.250015878678,2|2,0:0|0:0,0:0:0:0:
240,257,49576,1,2,0:0:0:0:
257,267,49662,2,0,B|137:251|188:385|58:372,1,236.250009012223,2|0,0:0|0:0,0:0:0:0:
7,319,50352,38,0,P|39:298|78:297,1,78.75
86,146,51042,53,6,1:0:0:0:
86,146,51128,2,0,P|135:189|201:190,1,135.000005149842,2|0,0:0|0:0,0:0:0:0:
259,249,51387,2,0,L|303:242,1,45,10|0,1:0|0:0,0:0:0:0:
414,221,51559,1,2,3:1:0:0:
421,185,51645,1,0,3:0:0:0:
388,167,51731,1,0,3:0:0:0:
360,192,51818,1,0,3:0:0:0:
376,225,51904,1,0,1:0:0:0:
421,326,52076,1,10,1:0:0:0:
386,316,52162,1,0,3:0:0:0:
351,327,52249,1,2,3:1:0:0:
323,350,52335,1,0,3:0:0:0:
311,384,52421,102,0,L|266:377,1,45,0|0,1:0|0:0,0:0:0:0:
192,366,52593,1,2,0:0:0:0:
73,348,52766,2,0,L|118:355,1,45,10|0,1:0|0:0,0:0:0:0:
217,291,52938,1,2,3:1:0:0:
233,258,53024,1,0,3:0:0:0:
205,233,53111,1,0,3:0:0:0:
172,251,53197,1,0,3:0:0:0:
179,287,53283,1,0,1:0:0:0:
275,183,53455,1,10,1:0:0:0:
248,156,53542,1,0,3:0:0:0:
212,146,53628,1,2,3:1:0:0:
176,152,53714,1,0,3:0:0:0:
147,173,53800,6,0,L|154:128,1,45,0|0,1:0|0:0,0:0:0:0:
167,55,53973,1,2,0:0:0:0:
47,74,54145,2,0,L|92:67,1,45,8|0,1:0|0:0,0:0:0:0:
284,64,54318,1,2,3:1:0:0:
300,31,54404,1,0,3:0:0:0:
272,6,54491,1,0,3:0:0:0:
239,24,54577,1,0,3:0:0:0:
246,60,54663,1,0,1:0:0:0:
322,131,54835,1,10,1:0:0:0:
349,107,54921,1,0,3:0:0:0:
383,97,55007,1,2,3:1:0:0:
418,100,55093,1,0,3:0:0:0:
450,116,55180,101,0,1:0:0:0:
376,20,55352,1,2,0:0:0:0:
450,116,55524,2,0,L|443:161,1,45,8|0,1:0|0:0,0:0:0:0:
441,274,55697,1,0,3:0:0:0:
474,290,55783,1,0,3:0:0:0:
499,262,55870,1,2,3:1:0:0:
481,229,55956,1,0,3:0:0:0:
445,236,56042,1,2,1:0:0:0:
358,362,56214,2,0,L|313:355,1,45,8|0,1:0|0:0,0:0:0:0:
256,221,56387,2,0,L|263:266,1,45,0|0,1:0|0:0,0:0:0:0:
358,362,56559,6,0,P|322:338|277:337,1,90,0|0,1:0|0:0,0:0:0:0:
80,384,56904,2,0,L|87:339,1,45,10|0,1:0|0:0,0:0:0:0:
98,226,57076,1,0,3:0:0:0:
65,210,57162,1,0,3:0:0:0:
40,238,57249,1,2,3:1:0:0:
58,271,57335,1,0,3:0:0:0:
94,264,57421,1,0,1:0:0:0:
150,146,57593,1,10,1:0:0:0:
113,148,57680,1,0,3:0:0:0:
78,136,57766,1,0,3:0:0:0:
50,112,57852,1,0,3:0:0:0:
37,78,57938,102,0,L|82:71,1,45,0|0,1:0|0:0,0:0:0:0:
165,63,58111,1,2,0:0:0:0:
143,190,58283,2,0,L|150:145,1,45,10|0,1:0|0:0,0:0:0:0:
241,35,58455,1,0,3:0:0:0:
274,19,58541,1,0,3:0:0:0:
299,47,58628,1,2,3:1:0:0:
281,80,58714,1,0,3:0:0:0:
245,73,58800,1,0,1:0:0:0:
250,193,58973,1,8,1:0:0:0:
274,166,59059,1,0,3:0:0:0:
306,151,59145,1,2,3:1:0:0:
341,149,59231,1,0,3:0:0:0:
375,160,59318,6,0,L|368:205,1,45,0|0,1:0|0:0,0:0:0:0:
355,288,59490,1,2,0:0:0:0:
483,261,59662,2,0,L|438:268,1,45,10|0,1:0|0:0,0:0:0:0:
279,318,59835,1,2,3:1:0:0:
246,334,59921,1,0,3:0:0:0:
221,306,60008,1,0,3:0:0:0:
239,273,60094,1,0,3:0:0:0:
275,280,60180,1,0,1:0:0:0:
411,357,60352,2,0,L|456:350,1,45,10|0,1:0|0:0,0:0:0:0:
271,201,60524,2,0,L|278:156,1,45,2|0,1:0|0:0,0:0:0:0:
462,176,60697,85,0,1:0:0:0:
253,303,60869,2,0,L|208:296,1,45,2|0,1:0|0:0,0:0:0:0:
499,106,61042,2,0,L|454:99,1,45,10|0,1:0|0:0,0:0:0:0:
188,172,61214,101,0,1:0:0:0:
165,169,61300,1,0,1:0:0:0:
144,165,61387,2,0,L|151:210,1,45,8|0,1:0|3:0,0:0:0:0:
115,302,61559,1,0,1:0:0:0:
334,97,61731,1,2,1:0:0:0:
297,69,61818,1,0,1:0:0:0:
252,63,61904,1,0,1:0:0:0:
209,77,61990,1,0,1:0:0:0:
180,97,62076,86,0,P|197:83|205:63,1,44.5499998640442,6|0,1:0|0:0,0:0:0:0:
50,23,62421,70,0,P|50:56|68:84,1,67.5000025749208,12|0,1:0|0:0,0:0:0:0:
128,198,62593,1,2,3:1:0:0:
144,165,62679,1,0,3:0:0:0:
116,140,62766,1,0,3:0:0:0:
83,158,62852,1,0,3:0:0:0:
90,194,62938,1,0,1:0:0:0:
212,231,63111,1,10,1:0:0:0:
241,210,63197,1,0,3:0:0:0:
276,203,63283,1,2,3:1:0:0:
311,209,63369,1,0,3:0:0:0:
340,228,63455,102,0,L|331:286,1,45,0|0,1:0|0:0,0:0:0:0:
452,229,63628,1,2,0:0:0:0:
431,330,63800,2,0,L|373:339,1,45,10|0,1:0|0:0,0:0:0:0:
234,323,63973,1,2,3:1:0:0:
267,307,64059,1,0,3:0:0:0:
292,335,64146,1,0,3:0:0:0:
274,368,64232,1,0,3:0:0:0:
238,361,64318,1,0,1:0:0:0:
216,246,64490,1,10,1:0:0:0:
184,228,64576,1,0,3:0:0:0:
148,231,64662,1,2,3:1:0:0:
119,253,64749,1,0,3:0:0:0:
152,318,64835,86,0,L|162:384,1,67.5000025749208,4|0,1:0|0:0,0:0:0:0:
400,146,65007,2,0,L|333:135,1,67.5000025749208,0|0,1:0|0:0,0:0:0:0:
80,315,65180,1,8,1:0:0:0:
103,29,65352,2,0,L|123:162,1,135.000005149842,0|0,1:0|0:0,0:0:0:0:
342,365,65697,5,0,1:0:0:0:
321,362,65783,1,0,1:0:0:0:
267,303,65869,2,0,P|245:328|238:361,1,67.5000025749208,14|0,1:0|0:0,0:0:0:0:
405,284,66042,2,0,P|372:278|340:288,1,67.5000025749208
473,340,66214,1,0,1:0:0:0:
511,141,66387,101,0,3:0:0:0:
449,168,66473,1,0,3:0:0:0:
381,174,66559,1,10,1:0:0:0:
327,171,66645,1,0,3:0:0:0:
278,148,66731,1,2,3:1:0:0:
247,120,66818,1,0,3:0:0:0:
209,104,66904,1,0,3:0:0:0:
182,103,66990,1,0,3:0:0:0:
155,108,67076,6,0,L|149:152,1,45,0|0,1:0|0:0,0:0:0:0:
312,82,67249,2,0,L|306:37,1,45,10|0,1:0|0:0,0:0:0:0:
75,2,67421,2,0,L|80:46,1,45,2|0,1:0|0:0,0:0:0:0:
0,293,67593,21,0,1:0:0:0:
137,220,67766,1,0,1:0:0:0:
157,362,67938,1,8,1:2:0:0:
163,203,68111,101,0,1:0:0:0:
130,187,68197,1,0,3:0:0:0:
105,215,68284,1,0,1:0:0:0:
123,248,68370,1,0,3:0:0:0:
159,241,68456,1,0,1:0:0:0:
25,116,68628,5,10,1:2:0:0:
219,301,68800,1,0,1:0:0:0:
241,261,68887,1,0,1:0:0:0:
284,250,68973,1,0,1:0:0:0:
63,360,69145,1,0,1:0:0:0:
245,182,69318,1,8,1:2:0:0:
330,368,69490,101,0,1:0:0:0:
297,384,69576,1,0,3:0:0:0:
272,356,69663,1,2,1:0:0:0:
290,323,69749,1,0,3:0:0:0:
326,330,69835,1,2,1:0:0:0:
137,220,70007,101,10,1:2:0:0:
359,56,70180,1,0,1:0:0:0:
356,100,70266,1,0,1:0:0:0:
353,144,70352,1,0,1:0:0:0:
113,62,70524,1,0,1:0:0:0:
421,261,70697,101,8,1:0:0:0:
90,369,70869,1,0,1:0:0:0:
87,325,70955,1,0,1:0:0:0:
84,281,71041,1,10,1:0:0:0:
421,261,71214,2,0,L|376:257,1,45,0|0,1:0|0:0,0:0:0:0:
0,170,71387,5,2,1:0:0:0:
27,134,71473,101,2,1:2:0:0:
78,119,71559,5,8,1:0:0:0:
138,137,71645,101,2,1:2:0:0:
147,156,71731,102,0,L|113:153,1,33.75
227,167,72076,69,2,0:1:0:0:
227,167,72249,1,2,0:1:0:0:
426,68,72766,5,2,0:1:0:0:
426,68,72938,1,2,0:1:0:0:
353,251,73111,22,0,L|319:253,1,33.75,0|0,1:0|0:0,0:0:0:0:
494,181,73455,86,0,P|437:147|374:164,1,135.000005149842,4|0,1:0|0:0,0:0:0:0:
332,146,73714,1,0,3:0:0:0:
339,181,73800,1,0,3:0:0:0:
346,216,73887,1,0,3:0:0:0:
353,251,73973,1,2,1:2:0:0:
461,316,74145,2,0,L|450:359,1,45,8|0,1:0|0:0,0:0:0:0:
322,384,74318,1,2,3:2:0:0:
294,361,74404,1,2,3:2:0:0:
258,360,74490,101,0,1:0:0:0:
82,285,74662,1,2,0:0:0:0:
258,360,74835,2,0,L|247:316,1,45,8|0,1:0|0:0,0:0:0:0:
0,277,75007,1,2,3:2:0:0:
10,242,75093,1,0,3:0:0:0:
36,216,75180,1,0,3:0:0:0:
70,205,75266,1,0,3:0:0:0:
105,206,75352,1,0,1:0:0:0:
189,304,75524,1,8,1:0:0:0:
224,297,75611,1,0,3:0:0:0:
259,290,75698,1,2,3:2:0:0:
294,283,75784,1,0,3:0:0:0:
360,318,75869,54,0,L|350:384,1,67.5000025749208,4|0,1:0|0:0,0:0:0:0:
178,195,76041,2,0,L|245:184,1,67.5000025749208,0|0,1:0|0:0,0:0:0:0:
432,315,76214,1,8,1:0:0:0:
403,33,76387,2,0,L|383:166,1,135.000005149842,0|0,1:0|0:0,0:0:0:0:
170,366,76731,5,0,1:0:0:0:
191,362,76817,1,0,1:0:0:0:
245,303,76903,2,0,P|267:328|274:361,1,67.5000025749208,12|0,1:0|0:0,0:0:0:0:
107,284,77076,2,0,P|140:278|172:288,1,67.5000025749208
39,340,77249,1,0,1:0:0:0:
1,141,77421,101,0,3:0:0:0:
63,168,77507,1,0,3:0:0:0:
131,174,77593,1,8,1:0:0:0:
185,171,77679,1,0,3:0:0:0:
234,148,77765,1,0,3:0:0:0:
265,120,77852,1,0,3:0:0:0:
303,104,77938,1,0,3:0:0:0:
330,103,78024,1,0,3:0:0:0:
357,108,78111,6,0,L|351:152,1,45,0|0,1:0|0:0,0:0:0:0:
495,27,78283,2,0,L|450:33,1,45,8|0,1:0|0:0,0:0:0:0:
251,1,78455,2,0,L|256:45,1,45,0|0,1:0|0:0,0:0:0:0:
381,328,78628,21,0,1:0:0:0:
469,206,78800,1,2,1:2:0:0:
296,345,78973,101,8,1:2:0:0:
469,206,79145,1,2,1:2:0:0:
216,315,79318,5,0,1:0:0:0:
469,206,79490,1,2,1:2:0:0:
164,245,79662,101,8,1:2:0:0:
469,206,79835,1,2,1:2:0:0:
476,170,79921,1,0,1:0:0:0:
481,134,80007,37,0,1:0:0:0:
164,245,80180,1,2,1:2:0:0:
486,98,80352,101,8,1:2:0:0:
216,315,80524,1,2,1:2:0:0:
491,62,80697,5,0,1:0:0:0:
296,345,80869,1,2,1:2:0:0:
496,26,81042,101,8,1:2:0:0:
381,328,81214,1,2,1:2:0:0:
368,294,81300,1,0,1:0:0:0:
336,275,81387,69,0,1:0:0:0:
134,323,81559,1,2,1:2:0:0:
360,151,81731,2,0,L|354:195,1,45,8|0,1:0|0:0,0:0:0:0:
93,20,81904,1,0,1:0:0:0:
128,26,81990,1,0,1:0:0:0:
161,12,82076,102,0,L|154:56,1,45,8|0,1:0|0:0,0:0:0:0:
121,231,82249,1,0,1:0:0:0:
0,118,82421,1,0,1:0:0:0:
286,33,82593,2,0,L|280:78,1,45,8|0,1:0|0:0,0:0:0:0:
129,159,82766,70,0,P|167:127|216:124,1,101.250003862381,2|0,1:0|0:0,0:0:0:0:
202,136,83111,102,0,P|241:147|270:178,1,84.375,2|0,0:1|0:0,0:0:0:0:
257,182,83455,22,0,P|266:214|261:247,1,67.5,2|0,0:1|0:0,0:0:0:0:
248,246,83800,6,0,P|231:265|209:277,1,50.6250019311906,2|0,0:1|0:0,0:0:0:0:
358,365,84145,54,0,P|337:340|306:327,1,67.5000025749208,4|0,1:0|0:0,0:0:0:0:
425,185,84490,2,0,P|393:190|366:210,1,67.5000025749208,8|2,0:0|3:2,0:0:0:0:
333,211,84749,1,0,3:0:0:0:
333,211,84835,2,0,L|337:245,1,33.7500012874604,0|0,3:0|3:0,0:0:0:0:
440,260,85008,22,0,L|424:258,1,16.8750006437302,2|0,1:0|0:0,0:0:0:0:
440,260,85180,102,0,L|424:258,1,16.8750006437302,2|0,1:0|0:0,0:0:0:0:
348,319,85352,85,0,3:0:0:0:
353,342,85439,1,0,3:0:0:0:
358,365,85524,2,0,P|337:340|306:327,1,67.5000025749208,8|2,0:0|0:0,0:0:0:0:
148,347,85870,2,0,L|82:354,1,67.5000025749208,8|0,0:0|3:0,0:0:0:0:
52,371,86128,1,0,3:0:0:0:
52,371,86214,2,0,L|56:337,1,33.7500012874604,2|0,3:2|3:0,0:0:0:0:
13,277,86387,1,2,1:2:0:0:
252,237,86559,2,0,P|239:268|213:290,1,67.5000025749208,10|0,0:0|0:0,0:0:0:0:
45,146,86904,6,0,L|38:80,1,67.5000025749208,2|0,1:2|0:0,0:0:0:0:
204,0,87249,2,0,L|197:66,1,67.5000025749208,8|2,0:0|1:2,0:0:0:0:
208,96,87508,1,0,3:0:0:0:
208,96,87594,2,0,L|175:99,1,33.7500012874604,0|0,3:0|3:0,0:0:0:0:
119,203,87766,22,0,L|118:186,1,16.8750006437302,2|0,1:0|0:0,0:0:0:0:
119,203,87938,102,0,L|118:186,1,16.8750006437302,2|0,1:0|0:0,0:0:0:0:
119,203,88111,6,0,L|118:186,1,16.8750006437302,2|0,1:0|0:0,0:0:0:0:
119,203,88283,102,0,L|118:186,1,16.8750006437302,2|0,1:0|0:0,0:0:0:0:
40,276,88455,85,2,3:2:0:0:
40,276,88542,1,0,3:0:0:0:
40,276,88628,2,0,P|15:255|2:224,1,67.5000025749208,8|0,0:0|3:0,0:0:0:0:
0,198,88887,1,0,3:0:0:0:
0,198,88973,2,0,L|33:201,1,33.7500012874604,2|0,3:2|3:0,0:0:0:0:
119,203,89145,38,0,L|118:186,1,16.8750006437302,2|0,1:0|0:0,0:0:0:0:
119,203,89318,102,0,L|118:186,1,16.8750006437302,2|0,1:0|0:0,0:0:0:0:
41,110,89490,101,2,0:0:0:0:
126,304,89662,2,0,P|147:279|178:266,1,67.5000025749208,2|0,1:2|0:0,0:0:0:0:
214,117,90008,2,0,P|247:122|273:143,1,67.5000025749208,8|2,0:0|3:2,0:0:0:0:
299,148,90266,1,0,3:0:0:0:
299,148,90352,2,0,L|296:181,1,33.7500012874604,0|0,3:0|3:0,0:0:0:0:
194,193,90524,22,0,L|211:192,1,16.8750006437302,2|0,1:0|0:0,0:0:0:0:
194,193,90697,102,0,L|211:192,1,16.8750006437302,2|0,1:0|0:0,0:0:0:0:
136,258,90870,85,0,3:0:0:0:
131,281,90955,1,0,3:0:0:0:
126,304,91042,2,0,P|147:279|178:266,1,67.5000025749208,8|2,0:0|0:0,0:0:0:0:
299,356,91387,2,0,L|365:363,1,67.5000025749208,8|0,0:0|3:0,0:0:0:0:
395,380,91645,1,0,3:0:0:0:
395,380,91731,2,0,L|391:346,1,33.7500012874604,2|0,3:2|3:0,0:0:0:0:
434,286,91904,1,2,1:2:0:0:
236,214,92077,2,0,P|258:239|289:252,1,67.5000025749208,10|2,0:0|0:0,0:0:0:0:
450,186,92421,6,0,P|480:174|502:148,1,67.5000025749208,0|0,1:0|0:0,0:0:0:0:
322,82,92766,2,0,L|329:148,1,67.5000025749208,8|0,0:0|1:0,0:0:0:0:
311,178,93025,1,0,3:0:0:0:
311,178,93111,2,0,L|345:182,1,33.7500012874604,0|0,3:0|3:0,0:0:0:0:
434,286,93283,22,0,L|433:269,1,16.8750006437302,2|0,1:0|0:0,0:0:0:0:
434,286,93456,102,0,L|433:269,1,16.8750006437302,2|0,1:0|0:0,0:0:0:0:
434,286,93628,6,0,L|433:269,1,16.8750006437302,2|0,1:0|0:0,0:0:0:0:
423,106,93800,37,4,1:0:0:0:
512,6,93973,6,0,L|422:15,1,90,2|0,0:0|0:0,0:0:0:0:
416,36,94490,70,0,L|379:40,1,37.1250003540516,2|0,0:0|0:0,0:0:0:0:
369,54,94835,6,0,L|325:58,1,43.874997991562,2|0,0:0|0:0,0:0:0:0:
202,47,95180,86,0,L|112:58,1,90,4|0,1:0|0:0,0:0:0:0:
33,240,95525,2,0,L|43:151,1,90,8|2,1:2|3:2,0:0:0:0:
28,109,95783,1,0,3:0:0:0:
52,137,95870,1,0,3:0:0:0:
84,154,95956,1,0,3:0:0:0:
119,154,96042,1,0,1:0:0:0:
245,366,96214,2,0,P|225:327|185:308,1,90,10|0,1:2|3:0,0:0:0:0:
135,255,96473,1,0,3:0:0:0:
110,229,96559,102,0,L|65:235,1,45,0|0,1:0|0:0,0:0:0:0:
0,246,96732,1,2,0:0:0:0:
127,86,96904,2,0,P|146:126|186:145,1,90,8|0,1:2|3:0,0:0:0:0:
225,168,97162,1,0,3:0:0:0:
223,133,97249,1,2,3:2:0:0:
220,98,97335,1,0,3:0:0:0:
217,63,97421,1,0,1:0:0:0:
450,13,97594,2,0,L|440:102,1,90,10|0,1:2|3:0,0:0:0:0:
478,164,97852,1,0,3:0:0:0:
502,191,97939,6,0,L|457:197,1,45,2|0,1:2|0:0,0:0:0:0:
368,65,98111,1,0,3:0:0:0:
370,51,98197,1,0,3:0:0:0:
372,37,98283,1,8,1:2:0:0:
278,265,98456,1,2,1:2:0:0:
252,239,98542,1,0,3:0:0:0:
218,226,98628,1,0,3:0:0:0:
182,221,98714,1,0,3:0:0:0:
146,228,98801,1,0,1:0:0:0:
11,344,98973,1,10,1:2:0:0:
146,228,99145,1,0,0:0:0:0:
9,183,99318,102,0,P|28:223|68:242,1,90,0|2,1:0|3:2,0:0:0:0:
146,228,99577,1,0,3:0:0:0:
181,233,99663,2,0,L|171:144,1,90,8|0,1:2|3:0,0:0:0:0:
191,104,99921,1,0,3:0:0:0:
158,122,100008,1,2,3:2:0:0:
122,121,100094,1,0,3:0:0:0:
90,105,100180,1,0,1:0:0:0:
251,153,100352,1,10,1:2:0:0:
145,0,100525,2,0,L|140:44,1,45,0|0,1:0|0:0,0:0:0:0:
310,212,100697,6,0,P|270:193|251:153,1,90,2|0,1:2|0:0,0:0:0:0:
341,13,101042,2,0,L|430:23,1,90,8|2,1:2|3:2,0:0:0:0:
469,0,101301,1,0,3:0:0:0:
461,36,101387,1,0,3:0:0:0:
471,71,101473,1,0,3:0:0:0:
499,93,101559,1,0,1:0:0:0:
383,182,101732,2,0,L|388:227,1,45,10|0,1:2|0:0,0:0:0:0:
484,292,101904,1,0,3:0:0:0:
487,315,101990,1,0,3:0:0:0:
490,338,102077,86,0,L|401:328,1,90,0|2,1:0|0:0,0:0:0:0:
342,369,102335,1,0,0:0:0:0:
316,332,102421,1,8,1:2:0:0:
275,313,102508,1,0,0:0:0:0:
230,310,102594,1,0,3:0:0:0:
194,313,102680,1,0,3:0:0:0:
158,316,102766,2,0,L|163:271,1,45,2|0,3:2|3:0,0:0:0:0:
129,185,102939,1,0,1:0:0:0:
3,154,103111,1,10,1:2:0:0:
27,180,103197,1,0,3:0:0:0:
59,195,103283,1,0,3:0:0:0:
95,195,103370,1,0,3:0:0:0:
129,185,103456,102,0,P|89:205|70:244,1,90,2|0,1:2|3:0,0:0:0:0:
91,313,103714,1,0,3:0:0:0:
113,342,103801,2,0,L|158:337,1,45,8|0,1:2|0:0,0:0:0:0:
294,359,103973,2,0,L|299:314,1,45,2|0,1:2|0:0,0:0:0:0:
214,239,104145,1,0,3:0:0:0:
184,260,104231,1,0,3:0:0:0:
147,260,104318,1,0,1:0:0:0:
276,140,104490,2,0,L|321:145,1,45,10|0,1:2|0:0,0:0:0:0:
188,45,104663,2,0,L|193:0,1,45,0|0,1:0|0:0,0:0:0:0:
397,192,104835,2,0,L|392:147,1,45,0|0,1:0|0:0,0:0:0:0:
175,121,105008,101,2,1:2:0:0:
137,146,105094,1,0,0:0:0:0:
101,151,105180,1,8,1:2:0:0:
65,146,105266,1,0,0:0:0:0:
42,131,105352,1,0,1:0:0:0:
26,109,105439,1,0,0:0:0:0:
19,93,105524,102,0,L|24:48,1,45,10|2,1:2|0:0,0:0:0:0:
195,194,105697,2,0,L|200:239,1,45,0|0,1:0|0:0,0:0:0:0:
262,65,105870,1,10,1:2:0:0:
329,61,105956,1,8,1:2:0:0:
396,57,106042,2,0,L|401:12,1,45,0|0,1:0|0:0,0:0:0:0:
505,191,106214,101,2,0:2:0:0:
302,130,106559,102,0,L|307:175,1,45,2|2,0:0|0:0,0:0:0:0:
426,249,106904,2,0,L|421:204,1,45,0|2,0:0|0:0,0:0:0:0:
271,246,107249,2,0,L|316:251,1,45,0|2,0:0|0:0,0:0:0:0:
379,145,107594,5,0,0:0:0:0:
193,0,107766,2,0,P|167:23|135:31,1,67.5,2|0,0:0|0:0,0:0:0:0:
114,102,108111,2,0,L|70:91,1,45,2|0,0:0|0:0,0:0:0:0:
1,67,108456,1,2,0:0:0:0:
304,161,108844,102,0,L|306:172,3,11.25,2|2|2|2,0:0|0:0|0:0|0:0,0:0:0:0:
232,186,109116,54,0,B|135:102|221:9|221:9|343:41|305:172,1,416.250015878678,2|2,0:0|0:0,0:0:0:0:
224,209,110266,1,2,0:0:0:0:
213,233,110352,2,0,B|333:217|282:351|412:338,1,236.250009012223,2|0,0:0|0:0,0:0:0:0:
463,285,111042,70,0,P|431:264|392:263,1,78.75
321,170,111731,85,6,1:0:0:0:
321,170,111817,2,0,P|275:218|210:226,1,135.000005149842,2|0,0:0|0:0,0:0:0:0:
139,266,112076,2,0,L|131:221,1,45,8|0,1:0|0:0,0:0:0:0:
76,143,112249,1,2,3:1:0:0:
102,150,112335,1,0,3:0:0:0:
105,119,112422,1,0,3:0:0:0:
125,143,112507,1,0,3:0:0:0:
142,122,112593,1,0,1:0:0:0:
13,279,112766,1,10,1:0:0:0:
38,253,112852,1,0,3:0:0:0:
72,243,112938,1,2,3:1:0:0:
107,249,113024,1,0,3:0:0:0:
139,266,113111,102,0,L|131:221,1,45,0|0,1:0|0:0,0:0:0:0:
153,346,113283,1,2,0:0:0:0:
233,360,113455,2,0,L|278:368,1,45,10|0,1:0|0:0,0:0:0:0:
349,266,113628,1,2,3:1:0:0:
332,287,113714,1,0,3:0:0:0:
312,263,113799,1,0,3:0:0:0:
309,294,113886,1,0,3:0:0:0:
283,287,113972,1,0,1:0:0:0:
501,358,114145,1,10,1:0:0:0:
467,344,114231,1,0,3:0:0:0:
440,319,114318,1,2,3:1:0:0:
427,285,114404,1,0,3:0:0:0:
427,249,114490,6,0,L|472:257,1,45,0|0,1:0|0:0,0:0:0:0:
372,187,114662,1,2,0:0:0:0:
310,132,114835,2,0,L|302:87,1,45,10|0,1:0|0:0,0:0:0:0:
395,24,115007,1,2,3:1:0:0:
369,31,115093,1,0,3:0:0:0:
366,0,115180,1,0,3:0:0:0:
346,24,115265,1,0,3:0:0:0:
329,3,115351,1,0,1:0:0:0:
231,121,115524,1,10,1:0:0:0:
204,95,115611,1,0,3:0:0:0:
169,85,115697,1,0,3:0:0:0:
133,85,115783,1,0,3:0:0:0:
99,96,115869,101,0,1:0:0:0:
185,10,116042,1,2,0:0:0:0:
99,96,116214,2,0,L|107:141,1,45,8|0,1:0|0:0,0:0:0:0:
14,24,116387,1,0,3:0:0:0:
40,31,116473,1,0,3:0:0:0:
43,0,116560,1,2,3:1:0:0:
63,24,116645,1,0,3:0:0:0:
80,3,116731,1,2,1:0:0:0:
11,210,116904,2,0,L|19:165,1,45,8|0,1:0|0:0,0:0:0:0:
213,92,117076,2,0,L|168:84,1,45,0|0,1:0|0:0,0:0:0:0:
11,210,117249,6,0,P|55:205|93:226,1,90,0|0,1:0|0:0,0:0:0:0:
142,384,117593,2,0,L|150:339,1,45,10|0,1:0|0:0,0:0:0:0:
66,309,117766,1,0,3:0:0:0:
49,330,117852,1,0,3:0:0:0:
29,306,117937,1,2,3:1:0:0:
26,337,118024,1,0,3:0:0:0:
0,330,118111,1,0,1:0:0:0:
192,279,118283,1,10,1:0:0:0:
215,305,118369,1,0,3:0:0:0:
247,319,118455,1,0,3:0:0:0:
282,325,118542,1,0,3:0:0:0:
317,319,118628,102,0,L|309:364,1,45,0|0,1:0|0:0,0:0:0:0:
334,240,118800,1,2,0:0:0:0:
351,161,118973,2,0,L|359:116,1,45,10|0,1:0|0:0,0:0:0:0:
430,20,119145,1,0,3:0:0:0:
413,41,119231,1,0,3:0:0:0:
393,17,119318,1,2,3:1:0:0:
390,48,119403,1,0,3:0:0:0:
364,41,119489,1,0,1:0:0:0:
477,209,119662,1,8,1:0:0:0:
454,175,119749,1,0,3:0:0:0:
423,156,119835,1,2,3:1:0:0:
387,151,119921,1,0,3:0:0:0:
351,161,120007,6,0,L|359:116,1,45,0|0,1:0|0:0,0:0:0:0:
334,240,120180,1,2,0:0:0:0:
255,257,120352,2,0,L|210:265,1,45,10|0,1:0|0:0,0:0:0:0:
102,177,120524,1,2,3:1:0:0:
119,198,120610,1,0,3:0:0:0:
139,174,120697,1,0,3:0:0:0:
142,205,120782,1,0,3:0:0:0:
168,198,120868,1,0,1:0:0:0:
55,298,121042,2,0,L|63:343,1,45,10|0,1:0|0:0,0:0:0:0:
226,141,121214,2,0,L|271:149,1,45,2|0,1:0|0:0,0:0:0:0:
337,212,121387,53,0,1:0:0:0:
28,112,121559,2,0,L|36:157,1,45,2|0,1:0|0:0,0:0:0:0:
368,82,121731,2,0,L|360:127,1,45,10|0,1:0|0:0,0:0:0:0:
294,364,121904,101,0,1:0:0:0:
305,329,121990,1,0,1:0:0:0:
315,294,122076,2,0,L|270:302,1,45,10|0,1:0|3:0,0:0:0:0:
337,212,122249,1,0,1:0:0:0:
55,298,122421,1,2,1:0:0:0:
76,258,122508,1,0,1:0:0:0:
116,238,122594,1,0,1:0:0:0:
160,230,122680,1,0,1:0:0:0:
195,231,122766,86,0,P|178:245|170:265,1,44.5499998640442,6|0,1:0|0:0,0:0:0:0:
257,372,123111,102,0,P|290:372|318:354,1,67.5000025749208,12|0,1:0|0:0,0:0:0:0:
357,241,123283,1,2,3:1:0:0:
331,248,123369,1,0,3:0:0:0:
328,217,123456,1,0,3:0:0:0:
308,241,123541,1,0,3:0:0:0:
291,220,123627,1,0,1:0:0:0:
323,140,123800,1,10,1:0:0:0:
359,142,123887,1,0,3:0:0:0:
392,130,123973,1,2,3:1:0:0:
416,103,124059,1,0,3:0:0:0:
420,67,124145,102,0,L|375:72,1,45,0|0,1:0|0:0,0:0:0:0:
512,67,124318,1,2,0:0:0:0:
501,158,124490,2,0,L|497:202,1,45,10|0,1:0|0:0,0:0:0:0:
357,241,124662,1,2,3:1:0:0:
383,248,124748,1,0,3:0:0:0:
386,217,124835,1,0,3:0:0:0:
406,241,124920,1,0,3:0:0:0:
423,220,125006,1,0,1:0:0:0:
488,374,125180,1,10,1:0:0:0:
452,381,125266,1,0,3:0:0:0:
416,373,125352,1,2,3:1:0:0:
393,345,125438,1,0,3:0:0:0:
445,298,125524,54,0,L|513:290,1,67.5000025749208,4|0,1:0|0:0,0:0:0:0:
207,152,125697,2,0,L|199:219,1,67.5000025749208,0|0,1:0|0:0,0:0:0:0:
488,374,125869,1,8,1:0:0:0:
35,342,126042,2,0,L|169:328,1,135.000005149842,2|0,1:0|0:0,0:0:0:0:
339,313,126387,5,0,1:0:0:0:
318,310,126473,1,0,1:0:0:0:
264,251,126559,2,0,P|242:276|235:309,1,67.5000025749208,14|0,1:0|0:0,0:0:0:0:
402,232,126732,2,0,P|369:226|337:236,1,67.5000025749208
470,288,126904,1,0,1:0:0:0:
511,96,127076,101,0,3:0:0:0:
465,145,127162,1,0,3:0:0:0:
398,159,127249,1,10,1:0:0:0:
344,153,127335,1,0,3:0:0:0:
292,138,127421,1,2,3:1:0:0:
262,110,127507,1,0,3:0:0:0:
242,74,127593,1,0,3:0:0:0:
236,47,127680,1,0,3:0:0:0:
240,20,127766,6,0,L|294:24,1,45,0|0,1:0|0:0,0:0:0:0:
442,73,127938,2,0,L|387:77,1,45,10|0,1:0|0:0,0:0:0:0:
321,231,128111,2,0,L|365:226,1,45,2|0,1:0|0:0,0:0:0:0:
73,290,128283,53,0,1:0:0:0:
219,177,128455,1,0,1:0:0:0:
45,111,128628,1,8,1:2:0:0:
136,212,128800,101,0,1:0:0:0:
110,219,128886,1,0,3:0:0:0:
107,188,128973,1,0,1:0:0:0:
87,212,129058,1,0,3:0:0:0:
70,191,129144,1,0,1:0:0:0:
302,153,129318,5,10,1:2:0:0:
143,328,129490,1,0,1:0:0:0:
155,284,129576,1,0,1:0:0:0:
193,260,129662,1,0,1:0:0:0:
243,92,129835,1,0,1:0:0:0:
0,233,130007,1,8,1:2:0:0:
226,336,130180,101,0,1:0:0:0:
252,343,130266,1,0,3:0:0:0:
255,312,130353,1,2,1:0:0:0:
275,336,130438,1,0,3:0:0:0:
292,315,130524,1,2,1:0:0:0:
73,384,130697,69,10,1:2:0:0:
280,153,130869,1,0,1:0:0:0:
278,199,130955,1,0,1:0:0:0:
276,244,131042,1,0,1:0:0:0:
44,126,131214,1,0,1:0:0:0:
346,8,131387,101,8,1:0:0:0:
124,106,131559,1,0,1:0:0:0:
122,152,131645,1,0,1:0:0:0:
120,197,131732,1,8,1:0:0:0:
346,8,131904,2,0,L|301:12,1,45,2|0,1:0|0:0,0:0:0:0:
0,357,132076,5,2,1:0:0:0:
35,329,132162,101,0,0:0:0:0:
88,318,132249,5,8,1:0:0:0:
146,340,132335,101,0,0:0:0:0:
168,367,132421,102,0,L|201:370,1,33.75,2|0,0:0|0:0,0:0:0:0:
280,380,132766,102,0,L|274:320,1,45,2|0,0:0|0:0,0:0:0:0:
356,351,133024,1,0,0:0:0:0:
356,351,133111,37,2,3:2:0:0:
369,332,133197,1,0,3:0:0:0:
390,324,133283,1,0,3:0:0:0:
412,321,133369,1,0,3:0:0:0:
433,326,133455,102,0,L|435:293,1,33.7500012874604,2|0,0:0|0:0,0:0:0:0:
472,166,133628,2,0,L|479:233,1,67.5000025749208,2|0,0:0|0:0,0:0:0:0:
501,369,133800,21,4,1:0:0:0:
313,153,133973,6,0,L|341:155,1,28.125,2|0,0:1|0:0,0:0:0:0:
211,145,134145,2,0,L|239:147,1,28.125,2|0,0:1|0:0,0:0:0:0:
373,84,134318,85,0,1:0:0:0:
150,203,134490,101,8,1:0:0:0:
313,153,134662,38,0,L|341:155,1,28.125,2|0,0:1|0:0,0:0:0:0:
211,145,134835,2,0,L|239:147,1,28.125,2|0,1:0|0:0,0:0:0:0:
415,161,135007,2,0,L|471:165,1,56.25,2|0,1:0|0:0,0:0:0:0:
232,251,135352,102,0,L|235:223,1,28.125,2|0,1:0|0:0,0:0:0:0:
133,68,135524,2,0,L|137:124,1,56.25,2|0,1:0|0:0,0:0:0:0:
90,241,135869,102,0,P|112:234|134:235,1,45,10|0,1:3|0:0,0:0:0:0:
212,112,136042,2,0,P|228:127|238:147,1,45,2|0,1:3|0:0,0:0:0:0:
232,109,136214,102,0,P|244:129|249:151,1,45,2|0,0:3|0:0,0:0:0:0:
95,220,136387,2,0,P|117:219|138:226,1,45,2|0,1:3|0:0,0:0:0:0:
174,374,136559,53,0,1:0:0:0:
321,288,136731,6,0,L|293:290,1,28.125,2|0,0:1|0:0,0:0:0:0:
423,280,136903,2,0,L|395:282,1,28.125,2|0,0:1|0:0,0:0:0:0:
261,219,137076,53,0,1:0:0:0:
484,338,137249,101,8,1:0:0:0:
321,288,137420,70,0,L|293:290,1,28.125,2|0,0:1|0:0,0:0:0:0:
423,280,137593,2,0,L|395:282,1,28.125,2|0,1:0|0:0,0:0:0:0:
219,296,137765,2,0,L|163:300,1,56.25,2|0,1:0|0:0,0:0:0:0:
423,280,138111,102,0,L|395:282,1,28.125,10|0,1:0|0:0,0:0:0:0:
219,296,138283,2,0,L|163:300,1,56.25,2|0,1:0|0:0,0:0:0:0:
0,190,138628,54,0,L|2:223,1,28.125,2|0,1:2|0:0,0:0:0:0:
33,170,138714,2,0,L|26:203,1,23.3999998571777,2|0,3:2|0:0,0:0:0:0:
66,166,138800,2,0,L|51:196,1,18.7424999685413,2|0,3:2|0:0,0:0:0:0:
101,173,138887,2,0,L|91:183,1,14.0625,2|0,3:2|0:0,0:0:0:0:
152,217,138973,6,0,L|161:206,1,14.0625,2|0,1:2|0:0,0:0:0:0:
187,224,139059,2,0,L|201:193,1,18.7424999685413,2|0,3:2|0:0,0:0:0:0:
220,220,139145,2,0,L|226:186,1,23.4225004110088,2|0,3:2|0:0,0:0:0:0:
253,200,139231,2,0,L|250:166,1,28.125,2|0,3:2|0:0,0:0:0:0:
325,213,139318,102,0,P|354:195|387:195,1,67.5,4|0,1:3|0:0,0:0:0:0:
415,200,139490,86,0,P|394:185|370:180,1,50.6250019311906,2|0,3:2|0:0,0:0:0:0:
267,376,139662,70,0,L|199:371,1,67.5000025749208,14|0,1:0|0:0,0:0:0:0:
378,268,139835,85,0,1:0:0:0:
67,356,140007,101,8,1:0:0:0:
267,376,140180,38,0,L|233:373,1,33.7500012874604,2|0,0:1|0:0,0:0:0:0:
167,366,140352,2,0,L|133:363,1,33.7500012874604,2|0,1:0|0:0,0:0:0:0:
67,356,140524,2,0,L|0:351,1,67.5000025749208,2|0,1:0|0:0,0:0:0:0:
342,382,140869,102,0,L|339:348,1,33.7500012874604,2|0,1:0|0:0,0:0:0:0:
455,210,141042,2,0,L|451:278,1,67.5000025749208,2|0,1:0|3:0,0:0:0:0:
392,163,141300,69,0,3:0:0:0:
392,163,141387,1,8,1:0:0:0:
477,5,141559,38,0,L|474:38,1,33.7500012874604,2|0,0:1|0:0,0:0:0:0:
467,107,141731,2,0,L|464:140,1,33.7500012874604,2|0,1:0|0:0,0:0:0:0:
455,210,141904,2,0,L|453:244,1,33.7500012874604,2|0,1:0|0:0,0:0:0:0:
451,278,142076,1,0,1:0:0:0:
181,176,142249,38,0,L|214:174,1,33.7500012874604,2|0,0:1|0:0,0:0:0:0:
283,166,142421,2,0,L|316:164,1,33.7500012874604,2|0,0:1|0:0,0:0:0:0:
399,164,142593,21,0,1:0:0:0:
399,164,142680,1,0,3:0:0:0:
399,164,142767,1,8,1:0:0:0:
181,176,142938,86,0,L|214:174,1,33.7500012874604,2|0,0:1|0:0,0:0:0:0:
283,166,143111,2,0,L|316:164,1,33.7500012874604,2|0,1:0|0:0,0:0:0:0:
44,188,143283,2,0,L|112:184,1,67.5000025749208,2|0,1:0|0:0,0:0:0:0:
283,166,143628,102,0,L|316:164,1,33.7500012874604,10|0,1:0|0:0,0:0:0:0:
44,188,143800,2,0,L|78:186,1,33.7500012874604,2|0,1:0|0:0,0:0:0:0:
392,157,143973,69,0,1:0:0:0:
137,110,144145,101,8,1:0:0:0:
329,0,144318,6,0,L|326:44,1,45,10|0,1:0|0:0,0:0:0:0:
319,119,144490,2,0,L|316:163,1,45,2|0,1:0|0:0,0:0:0:0:
309,238,144662,2,0,L|306:282,1,45,2|0,0:1|0:0,0:0:0:0:
21,365,144835,22,0,P|55:310|119:295,1,135,6|0,1:0|0:0,0:0:0:0:
195,329,145180,2,0,L|239:326,1,45,10|0,1:0|0:0,0:0:0:0:
104,215,145352,1,2,3:2:0:0:
104,215,145438,1,2,3:2:0:0:
104,215,145524,2,0,L|107:171,1,45
110,93,145697,1,0,1:0:0:0:
0,273,145869,2,0,L|44:270,1,45,10|0,1:0|0:0,0:0:0:0:
194,201,146042,2,0,L|191:245,1,45
21,366,146214,102,0,B|52:308|52:308|120:296,1,135,2|0,1:0|0:0,0:0:0:0:
195,329,146559,2,0,L|239:326,1,45,10|0,1:0|0:0,0:0:0:0:
104,215,146731,2,0,L|107:171,1,45
110,93,146904,1,2,3:2:0:0:
110,93,146990,1,2,3:2:0:0:
110,93,147076,1,0,1:0:0:0:
0,273,147249,2,0,L|44:270,1,45,10|0,1:0|3:0,0:0:0:0:
503,145,147507,1,0,3:0:0:0:
502,144,147593,38,0,P|461:124|417:130,1,90,2|0,1:0|0:0,0:0:0:0:
337,119,147852,1,0,0:0:0:0:
337,119,147938,2,0,L|340:163,1,45,10|0,1:0|0:0,0:0:0:0:
491,265,148111,2,0,L|494:221,1,45
347,319,148283,1,2,3:2:0:0:
329,304,148369,1,2,3:2:0:0:
306,300,148455,1,0,1:0:0:0:
494,221,148628,2,0,L|491:265,1,45,10|0,1:0|0:0,0:0:0:0:
266,194,148800,1,2,0:0:0:0:
502,144,148973,102,0,B|503:99|503:99|418:130,1,135,2|0,1:0|0:0,0:0:0:0:
337,119,149318,2,0,L|340:163,1,45,10|0,1:0|0:0,0:0:0:0:
347,319,149490,1,2,3:2:0:0:
329,304,149576,1,2,3:2:0:0:
306,300,149662,1,0,0:0:0:0:
494,221,149835,1,0,1:0:0:0:
337,119,150007,2,0,L|340:163,1,45,8|0,1:0|0:0,0:0:0:0:
386,53,150180,1,0,1:0:0:0:
201,157,150352,102,0,P|137:143|79:174,1,135,2|0,1:0|0:0,0:0:0:0:
17,253,150697,2,0,L|20:297,1,45,10|0,1:0|0:0,0:0:0:0:
132,371,150869,1,2,3:2:0:0:
141,350,150955,1,2,3:2:0:0:
157,334,151042,1,2,3:2:0:0:
177,324,151128,1,2,3:2:0:0:
198,317,151214,1,0,1:0:0:0:
17,253,151387,2,0,L|61:256,1,45,10|0,1:0|0:0,0:0:0:0:
180,197,151559,1,2,3:2:0:0:
191,177,151645,1,2,3:2:0:0:
201,157,151731,102,0,B|136:139|136:139|79:174,1,135,2|0,1:0|0:0,0:0:0:0:
17,253,152076,2,0,L|20:297,1,45,10|0,1:0|0:0,0:0:0:0:
12,120,152249,1,2,3:2:0:0:
21,141,152335,1,2,3:2:0:0:
37,157,152422,1,2,3:2:0:0:
57,167,152508,1,2,3:2:0:0:
78,174,152594,1,0,1:0:0:0:
201,157,152766,2,0,L|198:113,1,45,10|0,1:0|0:0,0:0:0:0:
128,68,152938,1,2,0:0:0:0:
261,232,153111,102,0,P|297:205|342:202,1,90,2|0,1:0|0:0,0:0:0:0:
499,256,153455,1,10,1:0:0:0:
320,327,153628,1,2,3:2:0:0:
320,327,153714,1,2,3:2:0:0:
320,327,153800,2,0,L|323:283,1,45
441,200,153973,1,0,1:0:0:0:
280,126,154145,2,0,L|324:123,1,45,8|0,1:0|0:0,0:0:0:0:
441,200,154318,1,0,1:0:0:0:
447,178,154404,1,0,3:0:0:0:
451,156,154490,101,2,1:2:0:0:
428,194,154576,1,2,3:2:0:0:
385,206,154662,1,2,1:2:0:0:
340,201,154749,1,2,3:2:0:0:
274,226,154835,5,8,1:0:0:0:
251,188,154921,1,2,3:2:0:0:
208,176,155007,1,2,1:2:0:0:
163,181,155094,1,2,3:2:0:0:
71,217,155180,102,0,L|9:211,1,63,8|0,1:0|0:0,0:0:0:0:
99,222,155869,37,0,1:0:0:0:
9,211,156559,37,2,0:0:0:0:
99,222,156731,1,0,0:0:0:0:
189,233,156903,1,0,0:0:0:0:
99,222,157249,69,2,0:0:0:0:
96,28,157765,101,0,0:0:0:0:
3,48,157937,5,2,0:0:0:0:
64,115,158110,1,0,0:0:0:0:
132,115,158282,1,2,0:0:0:0:
172,94,158455,1,0,0:0:0:0:
185,75,158627,1,2,0:0:0:0:
185,75,159317,53,0,0:0:0:0:
275,86,159490,1,0,0:0:0:0:
365,97,159662,1,2,0:0:0:0:
448,114,160179,37,0,0:0:0:0:
428,154,160351,1,0,0:0:0:0:
367,182,160524,1,0,0:0:0:0:
279,165,160696,5,2,0:0:0:0:
306,285,160869,1,0,0:0:0:0:
198,384,161041,101,2,0:0:0:0:
259,154,161213,1,0,0:0:0:0:
306,285,161386,37,0,0:0:0:0:
216,296,162075,5,2,0:0:0:0:
306,285,162248,1,0,0:0:0:0:
396,274,162420,1,0,0:0:0:0:
306,285,162765,101,2,0:0:0:0:
512,89,163111,101,2,0:0:0:0:
406,133,163282,1,0,0:0:0:0:
512,89,163455,5,2,0:0:0:0:
442,32,163627,1,0,0:0:0:0:
375,34,163800,1,2,0:0:0:0:
337,56,163972,1,0,0:0:0:0:
327,75,164144,1,2,0:0:0:0:
327,75,164834,21,0,0:0:0:0:
237,86,165007,1,0,0:0:0:0:
147,97,165179,1,2,0:0:0:0:
64,114,165696,69,0,0:0:0:0:
84,154,165868,1,0,0:0:0:0:
145,182,166041,1,0,0:0:0:0:
233,165,166213,5,2,0:0:0:0:
206,285,166386,1,0,0:0:0:0:
392,344,166558,101,2,0:0:0:0:
331,114,166730,1,0,0:0:0:0:
512,218,166904,70,0,L|509:240,8,22.5,4|0|2|0|0|0|0|0|0,1:3|0:0|0:0|0:0|0:0|0:0|0:0|0:0|0:0,0:0:0:0:
392,344,167421,21,2,1:2:0:0:
261,289,167593,2,0,P|300:274|341:281,1,84.375,8|0,0:0|0:0,0:0:0:0:
423,256,167938,2,0,P|384:271|343:264,1,84.375,2|0,1:2|0:0,0:0:0:0:
345,248,168283,101,0,0:0:0:0:
183,280,168455,2,0,P|222:265|263:272,1,84.375,2|0,1:2|0:0,0:0:0:0:
261,289,168800,1,2,1:2:0:0:
372,157,168973,37,8,0:0:0:0:
340,124,169145,1,2,0:0:0:0:
334,100,169318,2,0,L|325:183,1,84.375,2|0,0:0|0:0,0:0:0:0:
336,76,169662,86,0,P|297:91|256:84,1,84.375,2|0,1:2|0:0,0:0:0:0:
259,69,170007,1,0,0:0:0:0:
135,125,170180,2,0,P|146:116|159:112,1,28.125,2|0,1:2|0:0,0:0:0:0:
187,112,170352,1,8,0:0:0:0:
254,163,170524,1,0,0:0:0:0:
171,275,170697,2,0,L|180:192,1,84.375,2|0,1:2|0:0,0:0:0:0:
169,299,171042,101,0,0:0:0:0:
0,308,171214,2,0,B|23:246|23:246|91:246,1,135.000005149842,0|0,1:0|0:0,0:0:0:0:
246,343,171731,37,10,0:0:0:0:
245,259,171904,1,0,0:0:0:0:
373,161,172076,101,8,0:0:0:0:
240,244,172249,1,2,0:0:0:0:
348,268,172421,102,0,P|295:283|245:259,1,112.5,2|0,1:2|0:0,0:0:0:0:
118,289,172938,2,0,P|129:280|142:276,1,28.125,2|0,1:2|0:0,0:0:0:0:
171,275,173110,1,8,0:0:0:0:
323,281,173455,102,0,P|282:281|246:260,1,84.375,2|0,1:2|0:0,0:0:0:0:
253,243,173800,1,0,0:0:0:0:
118,289,173973,2,0,P|143:276|170:275,1,56.25,2|0,1:2|0:0,0:0:0:0:
305,191,174318,1,2,1:2:0:0:
153,129,174490,37,8,0:0:0:0:
121,96,174662,1,2,0:0:0:0:
110,74,174835,2,0,L|119:157,1,84.375,2|0,0:0|0:0,0:0:0:0:
58,29,175180,54,0,B|135:33|135:33|154:49|154:49|231:54,1,180,2|0,1:2|0:0,0:0:0:0:
381,43,175697,22,0,P|370:34|357:30,1,28.125,2|0,1:2|0:0,0:0:0:0:
328,29,175869,1,8,0:0:0:0:
240,130,176042,1,0,0:0:0:0:
334,121,176214,2,0,L|337:100,12,21.0937505029142,2|0|0|0|0|0|0|0|0|0|0|0|0,1:2|0:0|0:0|0:0|0:0|0:0|0:0|0:0|0:0|0:0|0:0|0:0|0:0,0:0:0:0:
168,215,176559,102,0,P|157:205|152:192,1,28.125
187,284,176731,2,0,P|184:297|175:308,12,28.125,2|0|0|0|0|0|0|0|0|0|0|0|0,1:2|0:0|0:0|0:0|0:0|0:0|0:0|0:0|0:0|0:0|0:0|0:0|0:0,0:0:0:0:
238,233,177076,2,0,P|251:228|265:231,1,28.125,0|0,1:0|0:0,0:0:0:0:
331,376,177249,101,10,0:0:0:0:
352,363,177335,1,2,0:0:0:0:
382,360,177421,1,2,0:0:0:0:
414,368,177507,1,2,0:0:0:0:
439,380,177593,101,2,1:2:0:0:
402,336,177680,1,2,1:2:0:0:
342,319,177766,1,10,1:2:0:0:
276,333,177852,1,2,1:2:0:0:
208,382,177938,70,0,L|118:371,1,90,4|0,1:0|0:0,0:0:0:0:
37,176,178283,2,0,L|48:266,1,90,8|2,1:2|3:2,0:0:0:0:
34,308,178542,1,0,3:0:0:0:
56,280,178628,1,0,3:0:0:0:
88,264,178714,1,0,3:0:0:0:
123,265,178800,1,0,1:0:0:0:
359,274,178973,2,0,P|339:313|299:332,1,90,10|0,1:2|3:0,0:0:0:0:
233,303,179231,1,0,3:0:0:0:
201,284,179318,102,0,L|195:239,1,45,0|0,1:0|0:0,0:0:0:0:
186,167,179490,1,2,0:0:0:0:
259,0,179662,2,0,L|248:90,1,90,8|0,1:2|3:0,0:0:0:0:
262,132,179921,1,0,3:0:0:0:
240,104,180007,1,2,3:2:0:0:
208,88,180093,1,0,3:0:0:0:
173,89,180179,1,0,1:0:0:0:
271,238,180352,2,0,L|361:227,1,90,10|0,1:2|3:0,0:0:0:0:
418,183,180611,1,0,3:0:0:0:
450,202,180697,6,0,L|444:247,1,45,2|0,1:2|0:0,0:0:0:0:
472,327,180869,1,0,3:0:0:0:
458,329,180955,1,0,3:0:0:0:
444,331,181041,1,8,1:2:0:0:
328,373,181214,1,2,3:2:0:0:
307,343,181300,1,0,3:0:0:0:
276,322,181387,1,0,3:0:0:0:
240,315,181473,1,0,3:0:0:0:
204,320,181559,2,0,L|210:365,1,45,0|2,1:0|0:0,0:0:0:0:
58,179,181731,1,10,1:2:0:0:
213,166,181904,1,0,0:0:0:0:
128,313,182076,102,0,P|87:294|67:254,1,90,0|2,1:0|3:2,0:0:0:0:
58,179,182335,1,0,3:0:0:0:
47,144,182421,2,0,L|137:155,1,90,8|0,1:2|3:0,0:0:0:0:
178,172,182680,1,0,3:0:0:0:
213,166,182766,1,2,3:2:0:0:
247,177,182852,1,0,3:0:0:0:
267,206,182938,1,0,1:0:0:0:
180,98,183111,1,10,1:2:0:0:
157,251,183283,2,0,L|201:245,1,45,0|0,1:0|0:0,0:0:0:0:
122,38,183455,6,0,P|140:78|180:98,1,90,2|0,1:2|0:0,0:0:0:0:
362,34,183800,2,0,L|452:23,1,90,8|2,1:2|3:2,0:0:0:0:
505,70,184059,1,0,3:0:0:0:
497,105,184145,102,0,P|475:110|456:123,1,45,2|0,0:0|0:0,0:0:0:0:
414,192,184318,2,0,P|408:213|409:235,1,45,2|0,1:2|0:0,0:0:0:0:
460,361,184490,6,0,P|465:339|464:317,1,45,10|0,1:2|0:0,0:0:0:0:
414,192,184663,2,0,P|398:176|378:166,1,45,2|0,0:0|0:0,0:0:0:0:
244,147,184835,86,0,L|155:157,1,90,2|2,1:2|0:0,0:0:0:0:
83,144,185093,1,0,0:0:0:0:
86,180,185180,1,8,1:2:0:0:
104,211,185266,1,0,0:0:0:0:
134,229,185352,1,0,3:0:0:0:
169,227,185438,1,0,3:0:0:0:
204,223,185524,2,0,L|199:268,1,45,2|0,3:2|3:0,0:0:0:0:
185,359,185697,1,0,1:0:0:0:
348,351,185869,1,10,1:2:0:0:
323,325,185955,1,0,3:0:0:0:
287,316,186042,1,0,3:0:0:0:
251,322,186128,1,0,3:0:0:0:
185,359,186214,102,0,L|96:369,1,90,2|0,1:2|3:0,0:0:0:0:
45,317,186473,1,0,3:0:0:0:
20,290,186559,2,0,L|64:295,1,45,8|0,1:2|0:0,0:0:0:0:
204,223,186731,1,2,3:2:0:0:
170,236,186818,1,0,3:0:0:0:
134,233,186904,1,0,3:0:0:0:
104,212,186990,1,0,3:0:0:0:
86,180,187076,1,0,1:0:0:0:
223,103,187249,2,0,L|218:147,1,45,10|0,1:2|0:0,0:0:0:0:
0,16,187421,2,0,L|44:21,1,45,0|0,1:0|0:0,0:0:0:0:
86,180,187593,2,0,L|130:185,1,45,0|0,1:0|0:0,0:0:0:0:
297,131,187766,101,2,1:2:0:0:
331,102,187852,1,0,0:0:0:0:
365,92,187938,1,8,1:2:0:0:
400,95,188024,1,0,0:0:0:0:
425,103,188111,1,0,1:0:0:0:
444,122,188197,1,0,0:0:0:0:
456,135,188283,102,0,L|451:180,1,45,10|0,1:2|0:0,0:0:0:0:
272,45,188455,2,0,L|267:0,1,45,0|0,1:0|0:0,0:0:0:0:
173,248,188628,1,10,1:2:0:0:
101,254,188714,1,8,1:2:0:0:
29,261,188800,2,0,L|24:306,1,45,0|0,1:0|0:0,0:0:0:0:
259,384,188973,37,6,1:0:0:0:
259,384,189059,2,0,P|312:327|388:318,1,157.500001502037,2|0,0:0|0:0,0:0:0:0:
485,351,189318,2,0,L|478:295,1,56.25,10|2,1:0|0:0,0:0:0:0:
373,157,189490,1,2,3:1:0:0:
418,149,189576,1,0,3:0:0:0:
441,190,189662,1,0,3:0:0:0:
410,225,189749,1,0,3:0:0:0:
368,205,189835,1,0,1:0:0:0:
352,23,190007,1,10,1:0:0:0:
385,52,190093,1,0,3:0:0:0:
426,71,190180,1,2,3:1:0:0:
470,73,190266,1,0,3:0:0:0:
512,59,190352,102,0,L|505:115,1,56.25,0|0,1:0|0:0,0:0:0:0:
292,176,190524,1,2,0:0:0:0:
352,23,190697,1,10,1:0:0:0:
410,225,190869,1,2,3:1:0:0:
441,190,190955,1,0,3:0:0:0:
418,149,191041,1,0,3:0:0:0:
373,157,191128,1,0,3:0:0:0:
368,205,191214,1,0,1:0:0:0:
497,384,191387,1,10,1:0:0:0:
464,355,191473,1,0,3:0:0:0:
423,336,191560,1,2,3:1:0:0:
379,334,191646,1,0,3:0:0:0:
337,348,191731,38,0,L|344:292,1,56.25,0|0,1:0|0:0,0:0:0:0:
256,240,191904,1,2,0:0:0:0:
175,348,192076,2,0,L|168:292,1,56.25,10|0,1:0|0:0,0:0:0:0:
81,180,192249,1,2,3:1:0:0:
104,205,192335,1,0,3:0:0:0:
129,175,192421,1,0,3:0:0:0:
133,214,192507,1,0,3:0:0:0:
166,206,192594,1,0,1:0:0:0:
17,103,192766,1,10,1:0:0:0:
60,100,192852,1,0,3:0:0:0:
103,84,192939,1,2,3:1:0:0:
135,54,193025,1,0,3:0:0:0:
149,11,193111,102,0,L|205:18,1,56.25,0|0,1:0|0:0,0:0:0:0:
281,102,193283,1,2,0:0:0:0:
37,7,193455,1,8,1:0:0:0:
158,216,193628,1,0,3:0:0:0:
190,225,193714,1,0,3:0:0:0:
194,186,193801,1,2,3:1:0:0:
219,216,193886,1,0,3:0:0:0:
241,190,193973,1,2,1:0:0:0:
75,191,194145,2,0,L|82:247,1,56.25,8|0,1:0|0:0,0:0:0:0:
225,341,194318,2,0,L|169:334,1,56.25,0|0,1:0|0:0,0:0:0:0:
299,129,194490,101,0,1:0:0:0:
153,100,194662,1,2,0:0:0:0:
273,278,194835,2,0,L|329:271,1,56.25,10|0,1:0|0:0,0:0:0:0:
453,161,195007,1,0,3:0:0:0:
408,153,195093,1,0,3:0:0:0:
385,194,195179,1,2,3:1:0:0:
416,229,195266,1,0,3:0:0:0:
458,209,195352,1,0,1:0:0:0:
370,384,195524,1,10,1:0:0:0:
334,356,195611,1,0,3:0:0:0:
289,348,195697,1,0,3:0:0:0:
244,351,195783,1,0,3:0:0:0:
201,364,195869,102,0,L|208:308,1,56.25,0|0,1:0|0:0,0:0:0:0:
217,212,196042,1,2,0:0:0:0:
65,228,196214,2,0,L|121:221,1,56.25,10|0,1:0|0:0,0:0:0:0:
324,90,196387,1,0,3:0:0:0:
282,70,196473,1,0,3:0:0:0:
251,105,196559,1,2,3:1:0:0:
274,146,196646,1,0,3:0:0:0:
319,138,196732,1,0,1:0:0:0:
12,47,196904,1,8,1:0:0:0:
48,75,196991,1,0,3:0:0:0:
93,83,197077,1,2,3:1:0:0:
138,80,197163,1,0,3:0:0:0:
181,67,197249,38,0,L|174:123,1,56.25,0|0,1:0|0:0,0:0:0:0:
156,240,197421,1,2,0:0:0:0:
329,215,197593,2,0,L|273:222,1,56.25,10|0,1:0|0:0,0:0:0:0:
40,294,197766,1,2,3:1:0:0:
62,320,197852,1,0,3:0:0:0:
86,290,197938,1,0,3:0:0:0:
90,329,198024,1,0,3:0:0:0:
123,319,198111,1,0,1:0:0:0:
293,349,198283,2,0,L|300:293,1,56.25,10|0,1:0|0:0,0:0:0:0:
174,122,198455,2,0,L|230:129,1,56.25,2|0,1:0|0:0,0:0:0:0:
80,314,198628,53,0,1:0:0:0:
432,70,198800,2,0,L|376:63,1,56.25,10|0,1:0|0:0,0:0:0:0:
80,314,198973,2,0,L|136:321,1,56.25,10|0,1:0|0:0,0:0:0:0:
422,372,199145,102,0,L|415:316,1,56.25,0|0,1:0|0:0,0:0:0:0:
90,12,199318,2,0,L|97:68,1,56.25,8|0,1:0|0:0,0:0:0:0:
422,372,199490,1,0,1:0:0:0:
90,12,199662,1,10,1:0:0:0:
97,68,199749,1,8,1:0:0:0:
104,124,199835,2,0,L|48:117,1,56.25,0|0,1:0|1:0,0:0:0:0:
408,260,200007,86,0,L|464:253,1,56.1600005484375,6|0,1:0|0:0,0:0:0:0:
214,331,200352,70,0,L|135:321,1,78.7500007510185,12|2,1:0|0:0,0:0:0:0:
56,233,200524,1,2,3:1:0:0:
79,192,200610,1,0,3:0:0:0:
124,200,200696,1,0,3:0:0:0:
129,248,200783,1,0,3:0:0:0:
87,268,200869,1,0,1:0:0:0:
160,61,201042,1,10,1:0:0:0:
127,90,201128,1,0,3:0:0:0:
86,109,201215,1,2,3:1:0:0:
42,111,201301,1,0,3:0:0:0:
0,97,201387,102,0,L|7:153,1,56.25,0|0,1:0|0:0,0:0:0:0:
220,214,201559,1,2,0:0:0:0:
160,61,201732,1,10,1:0:0:0:
129,248,201904,1,2,3:1:0:0:
87,268,201990,1,0,3:0:0:0:
56,233,202076,1,0,3:0:0:0:
79,192,202163,1,0,3:0:0:0:
124,200,202249,1,0,1:0:0:0:
329,349,202421,1,10,1:0:0:0:
372,360,202507,1,0,3:0:0:0:
417,356,202593,1,2,3:1:0:0:
452,328,202680,1,0,3:0:0:0:
512,250,202766,86,0,L|428:239,1,84.3750020116568,4|0,1:0|0:0,0:0:0:0:
124,200,202938,2,0,L|40:189,1,84.3750020116568,0|0,1:0|0:0,0:0:0:0:
480,166,203111,1,8,1:0:0:0:
196,11,203283,2,0,L|216:178,1,168.750004023314,2|0,1:0|0:0,0:0:0:0:
258,361,203628,5,0,1:0:0:0:
285,357,203714,1,0,1:0:0:0:
357,286,203800,2,0,P|384:317|393:358,1,84.3750020116568,14|0,1:0|0:0,0:0:0:0:
189,270,203973,2,0,P|230:262|270:274,1,84.3750020116568
113,345,204145,1,0,1:0:0:0:
18,82,204318,101,0,3:0:0:0:
95,115,204404,1,0,3:0:0:0:
180,123,204490,1,10,1:0:0:0:
248,119,204576,1,0,3:0:0:0:
309,90,204662,1,2,3:1:0:0:
348,55,204749,1,0,3:0:0:0:
395,35,204835,1,0,3:0:0:0:
429,34,204921,1,0,3:0:0:0:
463,40,205007,6,0,L|455:95,1,56.25,0|0,1:0|0:0,0:0:0:0:
205,347,205180,2,0,L|212:291,1,56.25,10|0,1:0|0:0,0:0:0:0:
18,82,205352,2,0,L|10:137,1,56.25,2|0,1:0|0:0,0:0:0:0:
309,324,205524,21,0,1:0:0:0:
68,363,205697,1,0,1:0:0:0:
154,134,205869,1,8,1:0:0:0:
212,292,206042,101,0,1:0:0:0:
207,244,206128,1,0,3:0:0:0:
162,236,206214,1,0,1:0:0:0:
139,277,206301,1,0,3:0:0:0:
170,312,206387,1,0,1:0:0:0:
384,124,206559,37,10,1:0:0:0:
243,170,206731,1,0,1:0:0:0:
220,117,206818,1,0,1:0:0:0:
251,68,206904,1,0,1:0:0:0:
492,29,207077,1,0,1:0:0:0:
406,258,207249,1,8,1:0:0:0:
426,111,207421,101,0,1:0:0:0:
403,137,207508,1,0,3:0:0:0:
379,107,207593,1,2,1:0:0:0:
375,146,207680,1,0,3:0:0:0:
342,136,207766,1,2,1:0:0:0:
461,333,207939,69,10,1:0:0:0:
109,266,208111,1,0,1:0:0:0:
116,321,208197,1,0,1:0:0:0:
123,376,208283,1,0,1:0:0:0:
406,258,208455,1,0,1:0:0:0:
94,134,208628,102,0,L|100:189,1,56.25,8|0,1:0|0:0,0:0:0:0:
434,54,208800,1,0,1:0:0:0:
427,109,208886,1,0,1:0:0:0:
420,164,208973,2,0,L|364:157,1,56.25,8|0,1:0|0:0,0:0:0:0:
78,2,209145,2,0,L|84:57,1,56.25,0|0,1:0|0:0,0:0:0:0:
406,258,209318,5,2,1:0:0:0:
355,232,209404,101,2,0:0:0:0:
288,240,209490,5,10,1:0:0:0:
237,300,209576,101,2,0:0:0:0:
227,337,209662,86,0,L|186:332,1,40.4999987640381
116,321,210007,101,2,0:1:0:0:
116,321,210180,1,2,0:1:0:0:
399,91,210697,101,2,0:1:0:0:
399,91,210870,1,2,0:1:0:0:
413,162,211042,101,2,0:0:0:0:
503,173,211731,37,2,0:0:0:0:
413,162,211904,1,0,0:0:0:0:
323,151,212076,1,0,0:0:0:0:
413,162,212421,69,2,0:0:0:0:
416,356,212938,101,0,0:0:0:0:
509,336,213110,5,2,0:0:0:0:
448,269,213283,1,0,0:0:0:0:
380,269,213455,1,2,0:0:0:0:
340,290,213628,1,0,0:0:0:0:
327,309,213800,1,2,0:0:0:0:
327,309,214490,53,0,0:0:0:0:
237,298,214663,1,0,0:0:0:0:
147,287,214835,1,2,0:0:0:0:
64,270,215352,37,0,0:0:0:0:
84,230,215524,1,0,0:0:0:0:
145,202,215697,1,0,0:0:0:0:
233,219,215869,5,2,0:0:0:0:
206,99,216042,1,0,0:0:0:0:
314,0,216214,101,2,0:0:0:0:
253,230,216386,1,0,0:0:0:0:
206,99,216559,37,2,0:0:0:0:
296,88,217248,5,2,0:0:0:0:
206,99,217421,1,0,0:0:0:0:
116,110,217593,1,0,0:0:0:0:
206,99,217938,101,2,0:0:0:0:
0,295,218283,101,2,0:0:0:0:
106,251,218455,1,0,0:0:0:0:
0,295,218628,5,2,0:0:0:0:
70,352,218800,1,0,0:0:0:0:
137,350,218973,1,2,0:0:0:0:
175,328,219145,1,0,0:0:0:0:
185,309,219317,1,2,0:0:0:0:
185,309,220007,21,0,0:0:0:0:
275,298,220180,1,0,0:0:0:0:
365,287,220352,1,2,0:0:0:0:
448,270,220869,69,0,0:0:0:0:
428,230,221041,1,0,0:0:0:0:
367,202,221214,1,0,0:0:0:0:
279,219,221386,5,2,0:0:0:0:
306,99,221559,1,0,0:0:0:0:
259,230,221731,53,0,0:0:0:0:
198,0,221904,2,0,L|224:2,1,27,2|2,0:1|0:0,0:0:0:0:
