osu file format v14

[General]
AudioFilename: audio.mp3
AudioLeadIn: 0
PreviewTime: 50352
Countdown: 0
SampleSet: Soft
StackLeniency: 0.5
Mode: 0
LetterboxInBreaks: 0
WidescreenStoryboard: 1

[Editor]
DistanceSpacing: 1.5
BeatDivisor: 4
GridSize: 32
TimelineZoom: 2.1

[Metadata]
Title:Stay Alive (Jun Kuroda Bootleg Remix)
TitleUnicode:Stay Alive (Jun Kuroda Bootleg Remix)
Artist:EMILIA (CV: Takahashi Rie)
ArtistUnicode:エミリア (CV:高橋李依)
Creator:gary00737
Version:Moecho & 117's Expert
Source:Re:ゼロから始める異世界生活
Tags:Frey Moecho Moeri Moeriko CookieBite DreaM117er m1223961117 re:zero ed2 ending
BeatmapID:1836852
BeatmapSetID:671597

[Difficulty]
HPDrainRate:6
CircleSize:4.3
OverallDifficulty:8
ApproachRate:9.2
SliderMultiplier:1.7
SliderTickRate:1

[Events]
//Background and Video events
0,0,"774022.jpg",0,0
//Break Periods
2,45724,47713
2,106414,108403
2,156069,165524
//Storyboard Layer 0 (Background)
//Storyboard Layer 1 (Fail)
//Storyboard Layer 2 (Pass)
//Storyboard Layer 3 (Foreground)
//Storyboard Sound Samples

[TimingPoints]
1387,344.827586206897,4,2,100,40,1,0
2076,-133.333333333333,4,2,100,20,0,0
4490,-133.333333333333,4,2,100,10,0,0
4835,-133.333333333333,4,2,100,20,0,0
10007,-133.333333333333,4,2,100,10,0,0
10352,-133.333333333333,4,2,100,20,0,0
12421,-111.111111111111,4,2,100,40,0,0
23111,-111.111111111111,4,2,100,5,0,0
23455,-100,4,2,100,50,0,0
31731,-100,4,2,100,55,0,0
33111,-100,4,2,100,56,0,0
33800,-100,4,2,100,58,0,0
34490,-100,4,2,100,60,0,0
44835,-100,4,2,100,65,0,0
45524,-100,4,2,100,50,0,0
48283,-100,4,2,100,45,0,0
50352,-100,4,2,100,5,0,0
51042,-100,4,2,100,70,0,1
56300,-100,4,2,100,5,0,1
56387,-100,4,2,100,70,0,1
56473,-100,4,2,100,5,0,1
56559,-100,4,2,100,70,0,1
60438,-100,4,2,100,5,0,1
60524,-100,4,2,100,70,0,1
60611,-100,4,2,100,5,0,1
60697,-100,4,2,100,70,0,1
60955,-100,4,2,100,5,0,1
61042,-100,4,2,100,70,0,1
61128,-100,4,2,100,5,0,1
61214,-100,4,2,100,70,0,1
61645,-100,4,2,100,5,0,1
61731,-100,4,2,100,70,0,1
61990,-100,4,2,100,5,0,1
62076,-200,4,2,99,60,0,0
62335,-200,4,2,100,5,0,0
62421,-50,4,2,100,70,0,1
62593,-100,4,2,100,70,0,1
64835,-62.5,4,2,100,70,0,0
64921,-62.5,4,2,100,5,0,0
65007,-62.5,4,2,100,70,0,0
65093,-62.5,4,2,100,5,0,0
65180,-62.5,4,2,100,70,0,0
65266,-62.5,4,2,100,5,0,0
65352,-62.5,4,2,100,70,0,0
65438,-62.5,4,2,100,5,0,0
65697,-100,4,2,100,70,0,0
65869,-83.3333333333333,4,2,100,70,0,1
70352,-71.4285714285714,4,2,100,70,0,1
70783,-71.4285714285714,4,2,100,5,0,1
70869,-71.4285714285714,4,2,100,70,0,1
71128,-71.4285714285714,4,2,100,5,0,1
71214,-71.4285714285714,4,2,100,70,0,1
71731,-100,4,2,100,50,0,0
73111,-200,4,2,100,60,0,0
73369,-100,4,2,100,5,0,0
73455,-50,4,2,100,70,0,1
73800,-100,4,2,100,70,0,1
75869,-62.5,4,2,100,70,0,0
75955,-62.5,4,2,100,5,0,0
76042,-62.5,4,2,100,70,0,0
76128,-62.5,4,2,100,5,0,0
76214,-62.5,4,2,100,70,0,0
76300,-62.5,4,2,100,5,0,0
76387,-62.5,4,2,100,70,0,0
76473,-62.5,4,2,100,5,0,0
76731,-62.5,4,2,100,70,0,0
76904,-83.3333333333333,4,2,100,70,0,1
81387,-71.4285714285714,4,2,100,70,0,1
81818,-71.4285714285714,4,2,100,5,0,1
81904,-71.4285714285714,4,2,100,70,0,1
82162,-71.4285714285714,4,2,100,5,0,1
82249,-71.4285714285714,4,2,100,70,0,1
82766,-100,4,2,100,60,0,0
83973,-100,4,2,100,5,0,0
84145,-100,4,2,100,50,0,0
92421,-100,4,2,100,56,0,0
93111,-100,4,2,100,58,0,0
93800,-100,4,2,100,60,0,0
93973,-133.333333333333,4,2,100,40,0,0
94318,-100,4,2,100,5,0,0
94490,-200,4,2,100,40,0,0
94662,-100,4,2,100,5,0,0
94835,-400,4,2,100,40,0,0
95093,-100,4,2,100,5,0,0
95180,-100,4,2,100,60,0,0
104921,-100,4,2,100,5,0,0
105007,-100,4,2,100,60,0,0
105524,-100,4,2,100,50,0,0
106214,-100,4,2,100,60,0,0
108973,-100,4,2,100,45,0,0
111042,-100,4,2,100,5,0,0
111731,-100,4,2,100,70,0,1
121128,-100,4,2,100,5,0,1
121214,-100,4,2,100,70,0,1
121300,-100,4,2,100,5,0,1
121387,-100,4,2,100,70,0,1
121645,-100,4,2,100,5,0,1
121731,-100,4,2,100,70,0,1
121818,-100,4,2,100,5,0,1
121904,-100,4,2,100,70,0,1
122335,-100,4,2,100,5,0,1
122421,-100,4,2,100,70,0,1
122680,-100,4,2,100,5,0,1
122766,-200,4,2,99,60,0,0
123024,-200,4,2,100,5,0,0
123111,-50,4,2,100,70,0,1
123197,-50,4,2,100,5,0,1
123283,-100,4,2,100,70,0,1
124231,-100,4,2,100,5,0,1
124318,-100,4,2,100,70,0,1
124576,-100,4,2,100,5,0,1
124662,-100,4,2,100,70,0,1
125524,-62.5,4,2,100,70,0,0
125611,-62.5,4,2,100,5,0,0
125697,-62.5,4,2,100,70,0,0
125783,-62.5,4,2,100,5,0,0
125869,-62.5,4,2,100,70,0,0
125955,-62.5,4,2,100,5,0,0
126042,-62.5,4,2,100,70,0,0
126128,-62.5,4,2,100,5,0,0
126387,-100,4,2,100,70,0,0
126559,-83.3333333333333,4,2,100,70,0,1
131042,-71.4285714285714,4,2,100,70,0,1
132421,-400,4,2,100,50,0,0
132766,-100,4,2,100,50,0,0
133111,-100,4,2,100,55,0,0
133455,-100,4,2,100,60,0,0
133628,-125,4,2,100,70,0,0
134059,-125,4,2,100,5,0,0
134145,-125,4,2,100,70,0,0
134231,-125,4,2,100,5,0,0
134318,-125,4,2,100,70,0,0
134749,-125,4,2,100,5,0,0
134835,-83.3333333333333,4,2,100,70,0,0
134921,-100,4,2,100,5,0,0
135007,-83.3333333333333,4,2,100,70,0,0
135611,-83.3333333333333,4,2,100,5,0,0
135697,-66.6666666666667,4,2,100,70,0,0
135869,-66.6666666666667,4,2,100,70,0,0
136042,-166.666666666667,4,2,100,70,0,0
136128,-100,4,2,100,5,0,0
136214,-166.666666666667,4,2,100,70,0,0
136300,-100,4,2,100,5,0,0
136387,-125,4,2,100,70,0,0
136818,-100,4,2,100,5,0,0
136904,-125,4,2,100,70,0,0
136990,-100,4,2,100,5,0,0
137076,-100,4,2,100,70,0,0
137421,-125,4,2,100,70,0,0
137507,-100,4,2,100,5,0,0
137593,-125,4,2,100,70,0,0
137680,-100,4,2,100,5,0,0
137766,-83.3333333333333,4,2,100,70,0,0
138369,-83.3333333333333,4,2,100,5,0,0
138455,-200,4,2,100,70,0,0
138542,-200,4,2,100,5,0,0
138628,-90.9090909090909,4,2,100,70,0,0
138714,-83.3333333333333,4,2,100,70,0,0
138800,-76.9230769230769,4,2,100,70,0,0
138887,-71.4285714285714,4,2,100,70,0,0
138973,-66.6666666666667,4,2,100,70,0,0
139059,-62.5,4,2,100,70,0,0
139145,-58.8235294117647,4,2,100,70,0,0
139231,-55.5555555555556,4,2,100,70,0,0
139490,-133.333333333333,4,2,100,70,0,0
139576,-100,4,2,100,5,0,0
139662,-50,4,2,100,70,0,1
139749,-100,4,2,100,5,0,0
139835,-50,4,2,100,70,0,0
139921,-50,4,2,100,5,0,0
140007,-125,4,2,100,70,0,0
140266,-100,4,2,100,5,0,0
140352,-125,4,2,100,70,0,0
140438,-100,4,2,100,5,0,0
140524,-133.333333333333,4,2,100,70,0,0
140697,-100,4,2,100,5,0,0
140869,-125,4,2,100,70,0,0
140955,-100,4,2,100,5,0,0
141042,-125,4,2,100,70,0,0
141128,-125,4,2,100,5,0,0
141214,-125,4,2,100,70,0,0
141818,-100,4,2,100,5,0,0
141904,-125,4,2,100,70,0,0
141990,-100,4,2,100,5,0,0
142076,-100,4,2,100,70,0,0
142249,-125,4,2,100,70,0,0
142335,-100,4,2,100,5,0,0
142421,-125,4,2,100,70,0,0
142507,-100,4,2,100,5,0,0
142593,-100,4,2,100,70,0,0
143111,-125,4,2,100,70,0,0
143197,-100,4,2,100,5,0,0
143283,-133.333333333333,4,2,100,70,0,0
143455,-100,4,2,100,5,0,0
143628,-125,4,2,100,70,0,0
143714,-100,4,2,100,5,0,0
143800,-125,4,2,100,70,0,0
143887,-100,4,2,100,5,0,0
143973,-83.3333333333333,4,2,100,70,0,0
144231,-83.3333333333333,4,2,100,5,0,0
144318,-83.3333333333333,4,2,100,70,0,0
144404,-100,4,2,100,5,0,0
144490,-200,4,2,100,70,0,0
144835,-100,4,2,100,70,0,0
155180,-125,4,2,100,60,0,0
155869,-100,4,2,100,50,0,0
166904,-100,4,2,100,40,0,0
177249,-100,4,2,100,55,0,0
177938,-100,4,2,100,60,0,0
178369,-100,4,2,100,5,0,0
178455,-100,4,2,100,60,0,0
179059,-100,4,2,100,5,0,0
179145,-100,4,2,100,60,0,0
181128,-100,4,2,100,5,0,0
181214,-100,4,2,100,60,0,0
181818,-100,4,2,100,5,0,0
181904,-100,4,2,100,60,0,0
182507,-100,4,2,100,5,0,0
182593,-100,4,2,100,60,0,0
183887,-100,4,2,100,5,0,0
183973,-100,4,2,100,60,0,0
184576,-100,4,2,100,5,0,0
184662,-100,4,2,100,60,0,0
186214,-80,4,2,100,60,0,0
186473,-80,4,2,100,5,0,0
186559,-100,4,2,100,60,0,0
186645,-100,4,2,100,5,0,0
186731,-100,4,2,100,60,0,0
187593,-100,4,2,100,70,0,0
188283,-100,4,2,100,75,0,0
188542,-100,4,2,100,5,0,0
188628,-80,4,2,100,75,0,0
188887,-80,4,2,100,5,0,0
188973,-66.6666666666667,4,2,100,80,0,1
189231,-66.6666666666667,4,2,100,5,0,1
189318,-66.6666666666667,4,2,100,80,0,1
189404,-66.6666666666667,4,2,99,100,0,1
189490,-66.6666666666667,4,2,100,80,0,1
191818,-66.6666666666667,4,2,100,5,0,1
191904,-66.6666666666667,4,2,100,80,0,1
194318,-100,4,2,100,80,0,1
194490,-66.6666666666667,4,2,100,80,0,1
198887,-66.6666666666667,4,2,100,5,0,1
198973,-66.6666666666667,4,2,100,80,0,1
199059,-66.6666666666667,4,2,100,5,0,1
199145,-66.6666666666667,4,2,100,80,0,1
199576,-66.6666666666667,4,2,100,5,0,1
199662,-66.6666666666667,4,2,100,80,0,1
199921,-66.6666666666667,4,2,100,5,0,1
200007,-133.333333333333,4,2,99,65,0,0
200266,-66.6666666666667,4,2,100,5,0,0
200352,-50,4,2,100,80,0,1
200697,-66.6666666666667,4,2,100,80,0,1
202766,-50,4,2,100,80,0,0
202852,-50,4,2,100,5,0,0
202938,-50,4,2,100,80,0,0
203024,-50,4,2,100,5,0,0
203111,-66.6666666666667,4,2,100,80,0,0
203283,-133.333333333333,4,2,100,80,0,0
203455,-66.6666666666667,4,2,100,5,0,0
203628,-66.6666666666667,4,2,100,80,0,0
203800,-66.6666666666667,4,2,100,80,0,1
205266,-66.6666666666667,4,2,100,5,0,1
205352,-66.6666666666667,4,2,100,80,0,1
209662,-200,4,2,100,55,0,0
209921,-66.6666666666667,4,2,100,5,0,0
210007,-200,4,2,100,50,0,0
210697,-100,4,2,100,60,0,0
210869,-66.6666666666667,4,2,100,60,0,0
211042,-200,4,2,99,45,0,0
211387,-200,4,2,100,45,0,0
221904,-400,4,2,100,45,0,0
222421,-200,4,2,99,5,0,0

[Colours]
Combo1 : 255,128,64
Combo2 : 255,196,225
Combo3 : 180,104,255
Combo4 : 179,255,255
Combo5 : 0,128,255
Combo6 : 192,192,192
Combo7 : 128,128,128
Combo8 : 255,0,0

[HitObjects]
45,116,1387,85,0,1:0:0:0:
113,166,1731,1,0,0:0:0:0:
194,142,2076,1,2,0:0:0:0:
199,162,2249,1,0,0:0:0:0:
197,183,2421,1,0,0:0:0:0:
97,249,2766,101,2,0:0:0:0:
238,345,3283,69,0,0:0:0:0:
229,325,3455,1,2,0:0:0:0:
224,304,3628,1,0,0:0:0:0:
226,282,3800,1,2,0:0:0:0:
233,263,3973,1,0,0:0:0:0:
247,243,4145,54,0,P|300:276|381:249,1,127.500004863739,2|0,0:0|0:0,0:0:0:0:
315,183,4835,1,0,0:0:0:0:
313,162,5007,1,0,0:0:0:0:
318,142,5180,1,2,0:0:0:0:
216,14,5697,37,0,0:0:0:0:
220,33,5869,1,0,0:0:0:0:
224,52,6042,1,0,0:0:0:0:
228,71,6214,1,2,0:0:0:0:
232,89,6387,1,0,0:0:0:0:
236,108,6559,1,2,0:0:0:0:
467,268,6904,69,0,0:0:0:0:
399,218,7249,1,0,0:0:0:0:
318,242,7593,1,2,0:0:0:0:
313,222,7766,1,0,0:0:0:0:
315,201,7938,1,0,0:0:0:0:
415,135,8283,101,2,0:0:0:0:
258,23,8628,101,0,0:0:0:0:
274,39,8800,1,0,0:0:0:0:
283,59,8973,1,2,0:0:0:0:
288,80,9145,1,0,0:0:0:0:
286,102,9318,1,2,0:0:0:0:
279,121,9490,1,0,0:0:0:0:
265,141,9662,22,0,P|212:108|131:135,1,127.500004863739,2|0,0:0|0:0,0:0:0:0:
197,201,10352,1,0,0:0:0:0:
199,222,10524,1,0,0:0:0:0:
194,242,10697,1,2,0:0:0:0:
296,370,11214,69,0,0:0:0:0:
292,351,11387,1,0,0:0:0:0:
288,332,11559,1,0,0:0:0:0:
284,313,11731,1,2,0:0:0:0:
280,295,11904,1,0,0:0:0:0:
276,276,12076,1,2,0:0:0:0:
230,26,12421,101,0,1:0:0:0:
201,145,12593,1,0,3:0:0:0:
201,145,12938,1,0,3:0:0:0:
156,71,13111,2,0,P|123:51|85:50,1,76.4999976654053,8|0,3:0|0:0,0:0:0:0:
27,140,13455,2,0,L|102:124,1,76.4999976654053,0|0,3:0|0:0,0:0:0:0:
285,165,13800,101,0,1:0:0:0:
285,165,13973,1,0,3:0:0:0:
285,165,14318,1,2,3:2:0:0:
353,256,14490,1,8,3:3:0:0:
326,252,14662,1,2,3:2:0:0:
299,257,14835,1,2,3:2:0:0:
278,274,15007,1,0,0:0:0:0:
262,299,15180,6,0,L|108:268,1,152.999995330811,0|0,1:0|3:0,0:0:0:0:
67,196,15697,1,0,0:2:0:0:
146,170,15869,1,8,3:0:0:0:
186,95,16042,1,0,3:0:0:0:
167,13,16214,1,2,0:0:0:0:
472,153,16731,101,2,3:2:0:0:
437,169,16904,1,0,0:0:0:0:
398,168,17076,1,2,3:2:0:0:
360,159,17249,1,8,0:3:0:0:
338,127,17421,1,2,3:2:0:0:
308,103,17593,1,2,3:2:0:0:
269,99,17766,1,8,0:3:0:0:
235,117,17938,37,0,1:0:0:0:
264,236,18111,1,0,3:0:0:0:
264,236,18455,1,0,3:0:0:0:
308,162,18628,2,0,P|340:142|378:141,1,76.4999976654053,8|0,3:0|0:0,0:0:0:0:
437,231,18973,2,0,L|362:214,1,76.4999976654053,0|0,3:0|0:0,0:0:0:0:
176,271,19318,101,0,1:0:0:0:
176,271,19490,1,0,3:0:0:0:
176,271,19835,1,2,3:2:0:0:
108,180,20007,1,8,3:0:0:0:
135,184,20180,1,2,3:2:0:0:
162,179,20352,1,2,3:2:0:0:
183,162,20524,1,0,0:0:0:0:
199,137,20697,6,0,P|183:99|180:53,1,76.4999976654053,0|0,1:0|3:0,0:0:0:0:
305,86,21042,2,0,P|311:48|333:3,1,76.4999976654053,0|0,0:0|3:0,0:0:0:0:
451,118,21387,1,8,3:0:0:0:
427,123,21559,1,0,0:0:0:0:
406,138,21731,1,0,3:0:0:0:
398,149,22076,53,2,1:2:0:0:
256,192,22162,12,0,23111,0:0:0:0:
189,221,23455,21,4,1:0:0:0:
126,355,23628,2,0,P|111:316|124:276,1,85,0|8,0:0|0:0,0:0:0:0:
266,194,23973,1,2,3:2:0:0:
272,214,24059,1,0,3:0:0:0:
269,234,24145,1,0,3:0:0:0:
93,145,24318,70,0,L|144:156,1,42.5,2|0,1:0|0:0,0:0:0:0:
144,134,24490,6,0,L|188:125,1,42.5,2|0,1:0|0:0,0:0:0:0:
234,32,24662,5,0,3:0:0:0:
234,32,24749,1,0,3:0:0:0:
234,32,24835,2,0,L|215:120,1,85,8|2,0:0|0:0,0:0:0:0:
189,221,25180,1,8,0:0:0:0:
22,117,25352,1,0,3:0:0:0:
38,93,25438,1,0,3:0:0:0:
63,76,25524,1,2,3:2:0:0:
92,71,25611,1,0,3:0:0:0:
121,78,25697,1,10,1:2:0:0:
193,199,25869,2,0,P|233:200|286:166,1,85,10|0,0:0|0:0,0:0:0:0:
371,49,26214,38,0,B|317:67|317:67|256:42|256:42|203:62,1,170,2|8,1:2|0:0,0:0:0:0:
345,228,26731,2,0,P|359:188|350:145,1,85,2|0,1:2|3:0,0:0:0:0:
190,71,27076,38,0,L|205:128,1,42.5,2|0,1:0|0:0,0:0:0:0:
175,110,27249,6,0,L|163:167,1,42.5,2|0,1:0|0:0,0:0:0:0:
233,193,27421,102,0,L|244:234,1,42.5,2|0,1:0|0:0,0:0:0:0:
138,351,27593,54,0,P|98:350|45:384,1,85,2|2,1:0|0:0,0:0:0:0:
58,369,27938,1,8,0:0:0:0:
223,322,28111,1,0,3:0:0:0:
252,324,28197,1,0,3:0:0:0:
281,317,28283,1,2,3:2:0:0:
306,301,28369,1,0,3:0:0:0:
323,276,28455,54,0,P|314:252|306:223,1,42.5,2|0,1:0|0:0,0:0:0:0:
281,225,28628,6,0,P|291:203|299:179,1,42.5,2|0,1:0|0:0,0:0:0:0:
366,142,28800,102,0,L|324:99,1,42.5,2|0,1:0|0:0,0:0:0:0:
255,91,28973,37,2,1:2:0:0:
128,181,29145,2,0,P|169:181|206:160,1,85,0|8,0:0|0:0,0:0:0:0:
252,14,29490,1,2,3:2:0:0:
230,14,29576,1,0,3:0:0:0:
212,23,29662,1,0,3:0:0:0:
356,196,29835,70,0,L|367:147,1,42.5,2|0,1:0|0:0,0:0:0:0:
337,168,30007,6,0,L|324:116,1,42.5,2|0,1:0|0:0,0:0:0:0:
455,25,30180,5,0,3:0:0:0:
455,25,30266,1,0,3:0:0:0:
455,25,30352,2,0,P|411:38|353:56,1,85,8|2,0:0|0:0,0:0:0:0:
255,91,30697,1,8,0:0:0:0:
356,196,30869,1,0,3:0:0:0:
385,192,30955,1,0,3:0:0:0:
414,199,31042,1,2,3:2:0:0:
439,215,31128,1,0,3:0:0:0:
456,239,31214,1,10,1:2:0:0:
300,327,31387,2,0,P|287:286|296:245,1,85,10|2,0:0|0:0,0:0:0:0:
193,31,31731,38,0,P|224:95|196:199,1,170,2|8,1:2|0:0,0:0:0:0:
138,309,32249,2,0,P|93:308|54:279,1,85,2|0,1:2|3:0,0:0:0:0:
5,124,32593,38,0,L|53:110,1,42.5,2|0,1:0|0:0,0:0:0:0:
42,143,32766,6,0,L|89:152,1,42.5,2|0,1:0|0:0,0:0:0:0:
136,95,32938,102,0,L|185:81,1,42.5,2|0,1:0|0:0,0:0:0:0:
217,159,33111,38,0,L|258:169,3,42.5,2|0|0|0,1:0|0:0|3:0|3:0,0:0:0:0:
259,192,33455,102,0,L|299:178,3,42.5,8|0|0|0,0:0|0:0|0:0|0:0,0:0:0:0:
374,170,33800,38,0,L|384:121,1,42.5,2|0,3:2|3:0,0:0:0:0:
291,56,33973,102,0,L|305:99,1,42.5,2|0,3:2|3:0,0:0:0:0:
443,234,34145,69,2,1:2:0:0:
449,204,34231,1,0,1:0:0:0:
455,175,34318,1,0,1:0:0:0:
461,146,34404,1,0,1:0:0:0:
468,117,34490,21,4,1:0:0:0:
333,21,34662,2,0,P|306:56|311:114,1,85,0|8,0:0|1:2,0:0:0:0:
252,264,35007,1,2,3:2:0:0:
268,238,35093,1,0,3:0:0:0:
293,223,35180,1,0,3:0:0:0:
321,215,35266,1,0,3:0:0:0:
349,221,35352,1,0,1:0:0:0:
260,344,35524,2,0,P|218:340|185:314,1,85,10|0,1:2|3:0,0:0:0:0:
28,206,35869,102,0,L|110:186,1,85,0|2,1:0|0:0,0:0:0:0:
90,282,36214,1,8,1:2:0:0:
190,144,36387,1,0,3:0:0:0:
173,120,36473,1,0,3:0:0:0:
148,105,36559,1,2,3:2:0:0:
120,97,36645,1,0,3:0:0:0:
92,100,36731,1,0,1:0:0:0:
110,186,36904,1,10,1:2:0:0:
5,64,37076,1,0,3:0:0:0:
126,203,37249,6,0,B|64:217|-2:234|-2:234|48:190,1,170,2|8,1:2|1:2,0:0:0:0:
208,262,37766,2,0,P|228:304|218:363,1,85,2|0,1:2|3:0,0:0:0:0:
291,200,38111,70,0,L|303:146,1,42.5,0|0,1:0|0:0,0:0:0:0:
273,167,38283,6,0,L|260:123,1,42.5,10|0,1:2|0:0,0:0:0:0:
354,94,38455,102,0,L|367:40,1,42.5,0|0,3:0|0:0,0:0:0:0:
207,13,38628,22,0,L|228:95,1,85,0|2,1:0|3:2,0:0:0:0:
205,220,38973,1,8,1:2:0:0:
21,128,39145,1,0,3:0:0:0:
42,148,39231,1,0,3:0:0:0:
70,156,39318,1,2,3:2:0:0:
100,156,39404,1,0,3:0:0:0:
127,144,39490,1,0,1:0:0:0:
86,70,39662,1,10,1:2:0:0:
47,248,39835,1,0,1:0:0:0:
191,202,40007,38,0,P|275:202|333:288,1,170,2|8,1:2|1:2,0:0:0:0:
114,374,40524,1,2,3:2:0:0:
137,354,40611,1,0,3:0:0:0:
147,326,40697,1,0,3:0:0:0:
147,296,40783,1,0,3:0:0:0:
135,268,40869,1,0,1:0:0:0:
26,181,41042,2,0,L|44:237,1,42.5,10|0,1:2|0:0,0:0:0:0:
117,132,41214,2,0,L|105:203,1,42.5,0|0,3:0|3:0,0:0:0:0:
195,183,41387,101,0,1:0:0:0:
282,120,41559,1,2,0:0:0:0:
315,112,41645,1,0,0:0:0:0:
347,122,41731,1,8,1:2:0:0:
375,141,41818,1,0,0:0:0:0:
405,155,41904,1,0,3:0:0:0:
438,152,41990,1,0,3:0:0:0:
468,137,42076,1,2,3:2:0:0:
464,35,42249,2,0,P|416:12|370:30,1,85,0|10,1:0|1:2,0:0:0:0:
267,214,42593,1,0,3:0:0:0:
288,214,42680,1,0,3:0:0:0:
307,205,42766,5,2,1:2:0:0:
375,141,42938,1,0,0:0:0:0:
201,75,43111,1,8,1:2:0:0:
348,277,43283,2,0,L|491:245,1,127.5,2|0,1:2|3:0,0:0:0:0:
502,242,43628,38,0,L|491:294,1,42.5,0|0,1:0|0:0,0:0:0:0:
476,370,43800,1,10,1:2:0:0:
391,186,43973,6,0,L|404:233,1,42.5,0|0,1:0|0:0,0:0:0:0:
318,331,44145,102,0,L|336:268,1,42.5,0|0,1:0|0:0,0:0:0:0:
436,114,44318,5,2,1:2:0:0:
400,101,44404,1,0,0:0:0:0:
366,106,44490,1,8,1:2:0:0:
339,119,44576,1,0,0:0:0:0:
322,138,44662,1,0,1:0:0:0:
304,150,44749,1,0,0:0:0:0:
288,155,44835,53,10,1:2:0:0:
275,155,44921,1,2,0:0:0:0:
262,153,45007,2,0,L|246:91,1,42.5,0|0,1:0|0:0,0:0:0:0:
177,22,45180,101,10,1:2:0:0:
177,22,45266,1,8,1:2:0:0:
177,22,45352,2,0,L|164:84,1,42.5,0|0,1:0|0:0,0:0:0:0:
146,153,45524,37,2,0:0:0:0:
256,192,48283,12,2,49662,0:0:0:0:
256,192,49749,12,0,50352,0:0:0:0:
294,308,51042,54,0,P|369:333|418:270,1,170,6|10,1:0|1:0,0:0:0:0:
215,157,51559,1,2,3:1:0:0:
228,173,51645,1,0,3:0:0:0:
234,193,51731,1,0,3:0:0:0:
235,214,51818,1,0,3:0:0:0:
230,234,51904,1,0,1:0:0:0:
160,313,52076,1,10,1:0:0:0:
315,157,52249,1,2,3:1:0:0:
315,157,52335,1,0,3:0:0:0:
315,157,52421,102,0,P|361:161|400:193,1,85,0|0,1:0|0:0,0:0:0:0:
443,260,52766,1,10,1:0:0:0:
511,62,52938,1,2,3:1:0:0:
482,70,53024,1,0,3:0:0:0:
454,77,53111,1,0,3:0:0:0:
425,84,53197,1,0,3:0:0:0:
396,91,53283,1,0,1:0:0:0:
252,218,53455,2,0,L|356:242,1,85,10|2,1:0|3:1,0:0:0:0:
215,30,53800,6,0,P|149:81|173:163,1,170,0|8,1:0|1:0,0:0:0:0:
329,298,54318,1,2,3:1:0:0:
336,278,54404,1,0,3:0:0:0:
338,257,54490,1,0,3:0:0:0:
334,237,54576,1,0,3:0:0:0:
324,219,54662,1,0,1:0:0:0:
158,288,54835,2,0,P|206:277|259:264,1,85,10|2,1:0|3:1,0:0:0:0:
367,140,55180,102,0,P|305:86|226:105,1,170,0|8,1:0|1:0,0:0:0:0:
60,187,55697,1,0,3:0:0:0:
64,207,55783,1,0,3:0:0:0:
69,227,55869,1,2,3:1:0:0:
91,323,56042,1,2,1:0:0:0:
147,118,56214,86,0,L|137:176,1,42.5,10|0,1:0|0:0,0:0:0:0:
222,252,56387,6,0,L|209:193,1,42.5,2|0,1:0|0:0,0:0:0:0:
309,54,56559,22,0,P|267:68|223:82,1,85,0|0,1:0|0:0,0:0:0:0:
299,162,56904,1,10,1:0:0:0:
171,7,57076,1,0,3:0:0:0:
150,28,57162,1,0,3:0:0:0:
138,55,57249,1,2,3:1:0:0:
134,84,57335,1,0,3:0:0:0:
140,113,57421,1,0,1:0:0:0:
218,211,57593,1,10,1:0:0:0:
40,142,57766,1,0,3:0:0:0:
40,142,57852,1,0,3:0:0:0:
40,142,57938,102,0,P|79:120|132:130,1,85,0|0,1:0|0:0,0:0:0:0:
100,212,58283,1,10,1:0:0:0:
244,63,58455,1,0,3:0:0:0:
215,69,58542,1,0,3:0:0:0:
186,62,58628,1,2,3:1:0:0:
160,47,58714,1,0,3:0:0:0:
143,25,58800,1,0,1:0:0:0:
207,156,58973,1,8,1:0:0:0:
339,86,59145,1,2,3:1:0:0:
339,86,59231,1,0,3:0:0:0:
339,86,59318,6,0,P|325:141|315:183,1,85,0|0,1:0|0:0,0:0:0:0:
288,284,59662,1,10,1:0:0:0:
187,152,59835,1,2,3:1:0:0:
207,156,59921,1,0,3:0:0:0:
225,166,60007,1,0,3:0:0:0:
276,260,60180,1,0,1:0:0:0:
172,252,60352,70,0,L|132:265,1,42.5,10|0,1:0|0:0,0:0:0:0:
48,209,60524,2,0,L|-12:195,1,42.5,2|0,1:0|0:0,0:0:0:0:
107,348,60697,1,0,1:0:0:0:
133,100,60869,6,0,L|152:168,1,42.5,2|0,1:0|0:0,0:0:0:0:
256,259,61042,2,0,L|237:319,1,42.5,10|0,1:0|0:0,0:0:0:0:
141,229,61214,1,0,1:0:0:0:
322,160,61387,21,8,1:0:0:0:
322,160,61473,1,0,3:0:0:0:
322,160,61559,2,0,L|362:172,1,42.5,0|0,1:0|0:0,0:0:0:0:
469,112,61731,101,2,1:0:0:0:
469,112,61818,1,0,1:0:0:0:
469,112,61904,2,0,L|529:98,1,42.5,0|0,1:0|1:0,0:0:0:0:
427,238,62076,54,0,P|435:272|442:300,1,63.75,6|0,1:0|0:0,0:0:0:0:
449,320,62421,102,0,B|407:310|379:344|379:344|325:368|274:323,1,170,12|0,1:0|3:0,0:0:0:0:
206,253,62766,1,0,3:0:0:0:
206,253,62852,1,0,3:0:0:0:
206,253,62938,1,0,1:0:0:0:
331,150,63111,2,0,P|324:217|290:251,1,85,10|2,1:0|3:1,0:0:0:0:
172,348,63455,101,0,1:0:0:0:
245,170,63628,1,0,0:0:0:0:
279,317,63800,1,10,1:0:0:0:
141,233,63973,1,2,3:1:0:0:
108,222,64059,1,0,3:0:0:0:
74,225,64145,1,0,3:0:0:0:
44,242,64231,1,0,3:0:0:0:
25,270,64318,1,0,1:0:0:0:
214,374,64490,2,0,P|196:335|198:293,1,85,10|2,1:0|3:1,0:0:0:0:
230,116,64835,54,0,L|312:138,1,68,4|0,1:0|0:0,0:0:0:0:
417,267,65007,2,0,L|328:244,1,68,0|0,1:0|0:0,0:0:0:0:
141,224,65180,6,0,L|231:202,1,68,8|0,1:0|0:0,0:0:0:0:
512,159,65352,2,0,L|446:177,1,68,0|0,1:0|0:0,0:0:0:0:
27,23,65697,53,0,1:0:0:0:
27,23,65783,1,0,1:0:0:0:
27,23,65869,2,0,P|82:17|126:63,1,101.999996887207,14|0,1:0|0:0,0:0:0:0:
196,141,66214,102,0,L|182:198,3,50.9999984436036,0|0|0|0,1:0|0:0|0:0|0:0,0:0:0:0:
104,236,66559,2,0,L|123:305,3,50.9999984436036,10|0|0|0,1:0|0:0|0:0|0:0,0:0:0:0:
60,350,66904,69,0,3:0:0:0:
96,368,66990,1,0,3:0:0:0:
136,370,67076,1,0,1:0:0:0:
181,348,67162,1,0,0:0:0:0:
215,325,67249,1,10,1:0:0:0:
254,314,67335,1,0,0:0:0:0:
294,317,67421,1,2,1:0:0:0:
329,336,67507,1,0,0:0:0:0:
359,362,67593,53,0,1:0:0:0:
477,307,67766,1,0,1:0:0:0:
307,236,67938,1,8,1:2:0:0:
462,313,68111,101,0,1:0:0:0:
462,313,68197,1,0,3:0:0:0:
462,313,68283,1,0,1:0:0:0:
350,97,68455,1,0,1:0:0:0:
444,311,68628,1,10,1:2:0:0:
479,176,68800,101,0,1:0:0:0:
479,176,68887,1,0,1:0:0:0:
479,176,68973,1,0,1:0:0:0:
304,234,69145,1,0,1:0:0:0:
469,184,69318,1,8,1:2:0:0:
256,92,69490,1,0,1:0:0:0:
223,83,69576,1,0,3:0:0:0:
189,86,69662,1,2,1:0:0:0:
159,103,69749,1,0,3:0:0:0:
140,131,69835,1,2,1:0:0:0:
114,231,70007,1,10,1:2:0:0:
218,169,70180,101,0,1:0:0:0:
218,169,70266,1,0,1:0:0:0:
218,169,70352,1,0,1:0:0:0:
47,87,70524,1,0,1:0:0:0:
139,311,70697,2,0,L|124:254,1,59.4999981842042,8|0,1:0|0:0,0:0:0:0:
240,179,70869,101,0,1:0:0:0:
240,179,70955,1,0,1:0:0:0:
240,179,71042,2,0,L|222:269,1,59.4999981842042,10|0,1:0|0:0,0:0:0:0:
200,376,71214,1,0,1:0:0:0:
82,143,71387,53,2,1:0:0:0:
36,127,71473,101,2,1:2:0:0:
9,166,71559,101,8,1:0:0:0:
36,204,71645,101,2,1:2:0:0:
83,189,71731,69,0,0:0:0:0:
256,192,71818,12,2,72938,0:1:0:0:
85,146,73111,102,0,P|77:112|70:84,1,63.75,0|0,1:0|0:0,0:0:0:0:
63,64,73455,70,0,B|105:74|133:40|133:40|187:16|238:61,1,170,4|0,1:0|3:0,0:0:0:0:
306,131,73800,1,0,3:0:0:0:
306,131,73887,1,0,3:0:0:0:
306,131,73973,1,2,1:2:0:0:
181,234,74145,2,0,P|188:167|222:133,1,85,8|2,1:0|3:2,0:0:0:0:
340,36,74490,101,0,1:0:0:0:
267,214,74662,1,2,0:0:0:0:
233,67,74835,1,8,1:0:0:0:
371,151,75007,1,2,3:2:0:0:
404,162,75093,1,0,3:0:0:0:
438,159,75180,1,0,3:0:0:0:
468,142,75266,1,0,3:0:0:0:
487,114,75352,1,0,1:0:0:0:
298,10,75524,2,0,P|316:49|314:91,1,85,8|2,1:0|3:2,0:0:0:0:
282,268,75869,86,0,L|200:246,1,68,4|0,1:0|0:0,0:0:0:0:
95,117,76042,2,0,L|184:140,1,68,0|0,1:0|0:0,0:0:0:0:
371,160,76214,6,0,L|281:182,1,68,8|0,1:0|0:0,0:0:0:0:
0,225,76387,2,0,L|66:207,1,68,0|0,1:0|0:0,0:0:0:0:
485,361,76731,21,0,1:0:0:0:
485,361,76818,1,0,1:0:0:0:
485,361,76904,2,0,P|430:367|386:321,1,101.999996887207,12|0,1:0|0:0,0:0:0:0:
316,243,77249,102,0,L|330:186,3,50.9999984436036,0|0|0|0,1:0|0:0|0:0|0:0,0:0:0:0:
408,148,77593,2,0,L|389:79,3,50.9999984436036,8|0|0|0,1:0|0:0|0:0|0:0,0:0:0:0:
452,34,77938,101,0,3:0:0:0:
416,16,78024,1,0,3:0:0:0:
376,14,78111,1,0,1:0:0:0:
331,36,78197,1,0,0:0:0:0:
297,59,78283,1,8,1:0:0:0:
258,70,78369,1,0,0:0:0:0:
218,67,78455,1,0,1:0:0:0:
183,48,78542,1,0,0:0:0:0:
153,22,78628,21,0,1:0:0:0:
35,77,78800,1,2,1:2:0:0:
205,148,78973,1,8,1:2:0:0:
50,71,79145,1,2,1:2:0:0:
50,71,79231,1,0,0:0:0:0:
50,71,79318,101,0,1:0:0:0:
162,287,79490,1,2,1:2:0:0:
68,73,79662,1,8,1:2:0:0:
33,208,79835,1,2,1:2:0:0:
33,208,79921,1,0,1:0:0:0:
33,208,80007,37,0,1:0:0:0:
208,150,80180,1,2,1:2:0:0:
43,200,80352,1,8,1:2:0:0:
256,292,80524,1,2,1:2:0:0:
289,301,80611,1,0,0:0:0:0:
323,298,80697,1,0,1:0:0:0:
353,281,80783,1,0,0:0:0:0:
372,253,80869,1,2,1:2:0:0:
398,153,81042,1,8,1:2:0:0:
294,215,81214,1,2,1:2:0:0:
294,215,81300,1,0,1:0:0:0:
294,215,81387,101,0,1:0:0:0:
465,297,81559,1,2,1:2:0:0:
373,73,81731,2,0,L|388:130,1,59.4999981842042,8|0,1:0|0:0,0:0:0:0:
272,205,81904,69,0,1:0:0:0:
272,205,81990,1,0,1:0:0:0:
272,205,82076,2,0,L|290:115,1,59.4999981842042,8|0,1:0|0:0,0:0:0:0:
312,8,82249,1,0,1:0:0:0:
430,241,82421,21,0,1:0:0:0:
476,257,82507,101,0,0:0:0:0:
503,218,82593,37,8,1:0:0:0:
476,180,82680,101,0,0:0:0:0:
429,195,82766,37,2,1:0:0:0:
256,192,82852,12,0,83973,0:0:0:0:
189,221,84145,85,4,1:0:0:0:
58,164,84318,2,0,P|97:149|137:162,1,85,0|8,0:0|0:0,0:0:0:0:
210,296,84663,1,2,3:2:0:0:
190,302,84749,1,0,3:0:0:0:
170,299,84835,1,0,3:0:0:0:
269,204,85008,38,0,L|310:195,1,42.5,2|0,1:0|0:0,0:0:0:0:
256,221,85180,6,0,L|214:212,1,42.5,2|0,1:0|0:0,0:0:0:0:
248,129,85352,37,0,3:0:0:0:
248,129,85439,1,0,3:0:0:0:
248,129,85525,2,0,L|229:41,1,85,8|2,0:0|0:0,0:0:0:0:
390,177,85870,1,8,0:0:0:0:
327,302,86042,1,0,3:0:0:0:
343,278,86128,1,0,3:0:0:0:
368,261,86214,1,2,3:2:0:0:
397,256,86301,1,0,3:0:0:0:
426,263,86387,1,10,1:2:0:0:
504,110,86559,2,0,P|461:110|424:91,1,85,10|0,0:0|0:0,0:0:0:0:
146,42,86904,102,0,B|203:35|203:35|260:56|260:56|311:48,1,170,2|8,1:2|0:0,0:0:0:0:
84,219,87421,2,0,L|0:208,1,85,2|0,1:2|3:0,0:0:0:0:
146,42,87766,70,0,L|139:97,1,42.5,2|0,1:0|0:0,0:0:0:0:
120,99,87938,6,0,L|175:92,1,42.5,2|0,1:0|0:0,0:0:0:0:
238,117,88111,102,0,L|227:158,1,42.5,2|0,1:0|0:0,0:0:0:0:
162,303,88283,22,0,L|246:292,1,85,2|2,1:0|3:2,0:0:0:0:
84,219,88628,1,8,0:0:0:0:
45,360,88801,1,0,3:0:0:0:
67,340,88887,1,0,3:0:0:0:
95,331,88973,1,2,3:2:0:0:
124,332,89059,1,0,3:0:0:0:
150,344,89145,86,0,L|161:303,1,42.5,2|0,1:0|0:0,0:0:0:0:
173,363,89318,6,0,L|214:352,1,42.5,2|0,1:0|0:0,0:0:0:0:
288,384,89490,102,0,L|299:343,1,42.5,2|0,1:2|0:0,0:0:0:0:
318,258,89663,69,2,1:2:0:0:
468,341,89835,2,0,P|425:340|389:319,1,85,0|8,0:0|0:0,0:0:0:0:
277,185,90180,1,2,3:2:0:0:
295,176,90266,1,0,3:0:0:0:
317,176,90352,1,0,3:0:0:0:
469,228,90524,38,0,L|510:219,1,42.5,2|0,1:0|0:0,0:0:0:0:
456,245,90696,6,0,L|414:236,1,42.5,2|0,1:0|0:0,0:0:0:0:
448,153,90868,37,0,0:0:0:0:
448,153,90955,1,0,3:0:0:0:
448,153,91041,2,0,L|429:65,1,85,8|2,0:0|0:0,0:0:0:0:
318,258,91387,1,8,0:0:0:0:
468,341,91559,1,0,3:0:0:0:
439,337,91645,1,0,3:0:0:0:
410,344,91732,1,2,3:2:0:0:
385,360,91818,1,0,3:0:0:0:
368,384,91904,1,10,1:2:0:0:
290,180,92077,2,0,P|332:176|370:194,1,85,10|2,0:0|0:0,0:0:0:0:
185,359,92421,102,0,B|82:384|105:322|20:344,1,170,0|8,1:0|0:0,0:0:0:0:
290,180,92939,2,0,P|312:144|312:102,1,85,0|0,1:0|3:0,0:0:0:0:
45,29,93283,70,0,L|56:70,1,42.5,2|0,1:0|0:0,0:0:0:0:
38,94,93455,6,0,L|79:105,1,42.5,2|0,1:0|0:0,0:0:0:0:
149,71,93628,102,0,L|160:112,1,42.5,2|0,1:0|0:0,0:0:0:0:
189,196,93800,21,4,1:0:0:0:
189,196,93973,54,0,P|126:203|81:246,1,127.500004863739,2|0,0:0|0:0,0:0:0:0:
81,246,94490,6,0,P|103:247|121:257,1,42.5,2|0,0:0|0:0,0:0:0:0:
171,316,94835,2,0,P|173:331|170:347,1,31.875,2|0,0:0|0:0,0:0:0:0:
91,334,95180,85,4,1:0:0:0:
273,271,95352,2,0,P|240:244|198:241,1,85,0|8,0:0|1:2,0:0:0:0:
59,118,95697,1,2,3:2:0:0:
70,144,95783,1,0,3:0:0:0:
91,164,95870,1,0,3:0:0:0:
117,177,95956,1,0,3:0:0:0:
146,179,96042,1,0,1:0:0:0:
273,271,96214,2,0,L|357:258,1,85,10|0,1:2|3:0,0:0:0:0:
451,85,96559,102,0,L|438:169,1,85,0|2,1:0|0:0,0:0:0:0:
333,163,96904,1,8,1:2:0:0:
444,319,97076,1,0,3:0:0:0:
433,293,97162,1,0,3:0:0:0:
412,273,97249,1,2,3:2:0:0:
386,260,97335,1,0,3:0:0:0:
357,258,97421,1,0,1:0:0:0:
438,169,97594,1,10,1:2:0:0:
359,346,97766,1,0,3:0:0:0:
422,80,97939,102,0,B|396:51|396:51|413:117|427:179,1,170,2|8,1:2|1:2,0:0:0:0:
498,366,98456,2,0,P|455:365|418:384,1,85,2|0,1:2|3:0,0:0:0:0:
324,250,98800,70,0,L|282:243,1,42.5,0|0,1:0|0:0,0:0:0:0:
261,222,98973,6,0,L|274:266,1,42.5,10|0,1:2|0:0,0:0:0:0:
198,325,99145,102,0,L|144:312,1,42.5,0|0,1:0|0:0,0:0:0:0:
0,291,99318,22,0,L|24:372,1,85,0|2,1:0|3:2,0:0:0:0:
170,222,99663,1,8,1:2:0:0:
37,95,99835,1,0,3:0:0:0:
65,87,99921,1,0,3:0:0:0:
94,89,100008,1,2,3:2:0:0:
120,101,100094,1,0,3:0:0:0:
140,121,100180,1,0,1:0:0:0:
73,171,100352,1,10,1:2:0:0:
277,284,100525,1,0,1:0:0:0:
66,257,100697,38,0,P|114:323|196:331,1,170,2|8,1:2|1:2,0:0:0:0:
383,305,101214,1,2,3:2:0:0:
363,282,101301,1,0,3:0:0:0:
335,272,101387,1,0,3:0:0:0:
305,272,101473,1,0,3:0:0:0:
277,284,101559,1,0,1:0:0:0:
274,155,101731,2,0,L|268:197,1,42.5,10|0,1:2|0:0,0:0:0:0:
151,166,101904,2,0,L|166:206,1,42.5,0|0,3:0|3:0,0:0:0:0:
81,264,102077,101,0,1:0:0:0:
69,375,102249,1,2,0:0:0:0:
102,383,102335,1,0,0:0:0:0:
134,373,102421,1,8,1:2:0:0:
162,354,102508,1,0,0:0:0:0:
192,340,102594,1,0,3:0:0:0:
225,343,102680,1,0,3:0:0:0:
255,358,102766,1,2,3:2:0:0:
2,289,102939,2,0,P|-2:247|18:211,1,85,0|10,1:0|1:2,0:0:0:0:
254,220,103283,1,0,3:0:0:0:
233,220,103370,1,0,3:0:0:0:
214,211,103456,101,2,1:2:0:0:
192,138,103628,1,0,3:0:0:0:
377,86,103801,1,8,1:2:0:0:
203,300,103973,2,0,L|80:263,1,127.5,2|0,1:2|3:0,0:0:0:0:
53,262,104318,70,0,L|65:302,1,42.5,0|0,1:0|0:0,0:0:0:0:
27,181,104490,1,10,1:2:0:0:
188,62,104662,6,0,L|200:21,1,42.5,0|0,1:0|0:0,0:0:0:0:
274,167,104835,102,0,L|286:207,1,42.5,0|0,1:0|0:0,0:0:0:0:
131,343,105008,5,2,1:2:0:0:
167,330,105094,1,0,0:0:0:0:
201,335,105180,1,8,1:2:0:0:
228,348,105266,1,0,0:0:0:0:
245,367,105352,1,0,1:0:0:0:
263,379,105439,1,0,0:0:0:0:
279,384,105525,21,10,1:2:0:0:
292,384,105611,1,2,0:0:0:0:
305,382,105697,2,0,L|292:341,1,42.5,0|0,1:0|0:0,0:0:0:0:
459,219,105870,101,10,1:2:0:0:
459,219,105956,1,8,1:2:0:0:
459,219,106042,2,0,L|419:206,1,42.5,0|0,1:0|0:0,0:0:0:0:
354,273,106214,69,2,0:2:0:0:
256,192,108973,12,2,110352,0:0:0:0:
256,192,110439,12,0,111042,0:0:0:0:
191,319,111731,86,0,P|124:270|43:286,1,170,6|8,1:0|1:0,0:0:0:0:
155,86,112248,1,2,3:1:0:0:
158,106,112334,1,0,3:0:0:0:
161,126,112421,1,0,3:0:0:0:
164,146,112507,1,0,3:0:0:0:
167,166,112593,1,0,1:0:0:0:
62,183,112765,1,10,1:0:0:0:
253,268,112938,1,2,3:1:0:0:
253,268,113024,1,0,3:0:0:0:
253,268,113111,102,0,P|285:235|335:226,1,85,0|0,1:0|0:0,0:0:0:0:
407,235,113455,1,10,1:0:0:0:
412,23,113627,1,2,3:1:0:0:
404,52,113713,1,0,3:0:0:0:
397,80,113800,1,0,3:0:0:0:
390,109,113886,1,0,3:0:0:0:
383,138,113972,1,0,1:0:0:0:
472,307,114145,2,0,L|389:326,1,85,10|2,1:0|3:1,0:0:0:0:
159,258,114490,6,0,P|225:209|306:225,1,170,0|10,1:0|1:0,0:0:0:0:
507,153,115007,1,2,3:1:0:0:
500,133,115093,1,0,3:0:0:0:
498,112,115179,1,0,3:0:0:0:
502,92,115265,1,0,3:0:0:0:
512,74,115351,1,0,1:0:0:0:
333,82,115524,2,0,L|313:0,1,85,10|0,1:0|3:0,0:0:0:0:
205,131,115869,102,0,P|285:114|352:163,1,170,0|8,1:0|1:0,0:0:0:0:
512,262,116386,1,0,3:0:0:0:
508,282,116472,1,0,3:0:0:0:
503,302,116558,1,0,0:0:0:0:
433,216,116731,1,2,1:0:0:0:
258,337,116903,54,0,L|299:344,1,42.5,8|0,1:0|0:0,0:0:0:0:
350,235,117076,6,0,L|308:242,1,42.5,0|0,1:0|0:0,0:0:0:0:
207,88,117249,54,0,L|290:102,1,85,0|0,1:0|0:0,0:0:0:0:
232,185,117593,1,10,1:0:0:0:
148,0,117765,1,0,3:0:0:0:
127,21,117851,1,0,3:0:0:0:
100,33,117938,1,2,3:1:0:0:
71,37,118024,1,0,3:0:0:0:
42,31,118110,1,0,1:0:0:0:
120,131,118282,1,10,1:0:0:0:
19,291,118455,1,0,3:0:0:0:
19,291,118541,1,0,3:0:0:0:
18,291,118627,102,0,P|55:269|96:272,1,85,0|0,1:0|0:0,0:0:0:0:
169,318,118972,1,10,1:0:0:0:
340,208,119144,1,0,3:0:0:0:
323,230,119230,1,0,3:0:0:0:
297,245,119318,1,2,3:1:0:0:
268,252,119404,1,0,3:0:0:0:
239,246,119489,1,0,1:0:0:0:
354,334,119662,1,8,1:0:0:0:
484,265,119834,1,2,3:1:0:0:
484,265,119920,1,0,3:0:0:0:
484,265,120007,6,0,L|470:182,1,85,0|0,1:0|0:0,0:0:0:0:
445,345,120351,1,10,1:0:0:0:
269,346,120524,1,2,3:1:0:0:
273,366,120610,1,0,3:0:0:0:
283,384,120696,1,0,3:0:0:0:
353,304,120869,1,0,1:0:0:0:
292,217,121042,38,0,L|250:224,1,42.5,10|0,1:0|0:0,0:0:0:0:
181,299,121214,2,0,L|139:291,1,42.5,2|0,1:0|0:0,0:0:0:0:
237,143,121386,1,0,1:0:0:0:
428,317,121559,6,0,L|469:324,1,42.5,2|0,1:0|0:0,0:0:0:0:
365,169,121731,2,0,L|406:176,1,42.5,10|0,1:0|0:0,0:0:0:0:
278,291,121903,1,0,1:0:0:0:
148,164,122076,53,10,1:0:0:0:
148,164,122162,1,0,3:0:0:0:
148,164,122249,2,0,L|155:205,1,42.5,0|0,1:0|0:0,0:0:0:0:
50,252,122421,101,10,1:0:0:0:
50,252,122507,1,8,1:0:0:0:
50,252,122594,2,0,L|91:259,1,42.5,0|0,1:0|1:0,0:0:0:0:
27,114,122766,22,0,L|37:51,1,63.75,6|0,1:0|0:0,0:0:0:0:
42,30,123111,70,0,B|84:20|112:54|112:54|166:78|217:33,1,170,12|0,1:0|3:0,0:0:0:0:
315,120,123455,1,0,3:0:0:0:
315,120,123541,1,0,3:0:0:0:
315,120,123627,1,0,1:0:0:0:
424,0,123800,2,0,P|426:42|408:80,1,85,10|2,1:0|3:1,0:0:0:0:
223,127,124144,101,0,1:0:0:0:
404,222,124317,1,2,0:0:0:0:
337,21,124489,1,10,1:0:0:0:
404,222,124662,1,2,3:1:0:0:
372,207,124748,1,0,3:0:0:0:
338,207,124834,1,0,3:0:0:0:
306,220,124920,1,0,3:0:0:0:
284,246,125007,1,0,1:0:0:0:
78,197,125179,2,0,P|116:214|158:213,1,85,10|2,1:0|3:1,0:0:0:0:
282,82,125524,86,0,L|264:147,1,68,4|0,1:0|0:0,0:0:0:0:
141,279,125696,2,0,L|158:213,1,68,0|0,1:0|0:0,0:0:0:0:
184,3,125869,6,0,L|200:69,1,68,8|0,1:0|0:0,0:0:0:0:
235,376,126041,2,0,L|217:310,1,68,2|0,1:0|0:0,0:0:0:0:
512,40,126386,21,0,1:0:0:0:
512,40,126472,1,0,1:0:0:0:
512,40,126559,2,0,P|457:34|413:80,1,101.999996887207,14|0,1:0|0:0,0:0:0:0:
304,94,126903,102,0,L|318:151,3,50.9999984436036,0|0|0|0,1:0|0:0|0:0|0:0,0:0:0:0:
396,189,127248,2,0,L|377:258,3,50.9999984436036,10|0|0|0,1:0|0:0|0:0|0:0,0:0:0:0:
440,303,127593,101,0,3:0:0:0:
404,321,127679,1,0,3:0:0:0:
364,323,127765,1,0,1:0:0:0:
319,301,127851,1,0,0:0:0:0:
285,278,127938,1,10,1:0:0:0:
246,267,128024,1,0,0:0:0:0:
206,270,128110,1,2,1:0:0:0:
171,289,128196,1,0,0:0:0:0:
141,315,128283,21,0,1:0:0:0:
0,185,128455,1,0,1:0:0:0:
183,127,128628,1,8,1:2:0:0:
7,192,128800,101,0,1:0:0:0:
7,192,128886,1,0,3:0:0:0:
7,192,128973,1,0,1:0:0:0:
190,134,129145,1,0,1:0:0:0:
148,322,129318,1,10,1:2:0:0:
20,93,129490,37,0,1:0:0:0:
20,93,129576,1,0,1:0:0:0:
20,93,129662,1,0,1:0:0:0:
198,161,129834,1,0,1:0:0:0:
28,108,130007,1,8,1:2:0:0:
203,184,130179,1,0,1:0:0:0:
170,175,130265,1,0,3:0:0:0:
136,178,130352,1,2,1:0:0:0:
106,195,130438,1,0,3:0:0:0:
87,223,130524,1,2,1:0:0:0:
283,223,130696,1,10,1:2:0:0:
205,42,130869,101,0,1:0:0:0:
205,42,130955,1,0,1:0:0:0:
205,42,131041,1,0,1:0:0:0:
400,64,131214,1,0,1:0:0:0:
266,232,131387,2,0,L|207:222,1,59.4999981842042,8|0,1:0|0:0,0:0:0:0:
137,106,131558,69,0,1:0:0:0:
137,106,131644,1,0,1:0:0:0:
137,106,131731,2,0,L|147:165,1,59.4999981842042,8|0,1:0|0:0,0:0:0:0:
279,97,131903,1,2,1:0:0:0:
72,247,132076,21,2,1:0:0:0:
121,250,132162,101,0,0:0:0:0:
133,295,132248,37,8,1:0:0:0:
92,322,132334,101,0,0:0:0:0:
55,294,132421,38,0,L|95:281,1,42.5,2|0,0:0|0:0,0:0:0:0:
494,337,132938,5,0,0:0:0:0:
473,348,133024,1,0,0:0:0:0:
436,347,133111,1,2,3:2:0:0:
404,317,133197,1,0,3:0:0:0:
360,283,133283,1,0,3:0:0:0:
288,285,133369,1,0,3:0:0:0:
240,339,133455,6,0,L|246:364,7,21.25,2|0|0|0|2|0|0|0,0:0|0:0|0:0|0:0|0:0|0:0|0:0|0:0,0:0:0:0:
249,374,133800,21,4,1:0:0:0:
246,197,133973,70,0,L|213:191,1,34,2|0,0:1|0:0,0:0:0:0:
273,159,134145,6,0,L|240:167,1,34,2|0,0:1|0:0,0:0:0:0:
79,266,134318,5,0,1:0:0:0:
158,135,134490,1,8,1:0:0:0:
128,368,134662,86,0,L|117:322,1,34,2|0,0:1|0:0,0:0:0:0:
83,345,134835,6,0,L|103:277,1,50.9999984436036,2|0,1:0|0:0,0:0:0:0:
138,169,135007,21,2,1:0:0:0:
138,169,135352,101,2,1:0:0:0:
8,37,135524,2,0,L|66:94,1,50.9999984436036,2|0,1:0|0:0,0:0:0:0:
237,142,135697,1,0,0:0:0:0:
272,133,135783,1,0,0:0:0:0:
307,124,135869,86,0,L|381:105,1,63.7500024318696,10|0,1:3|0:0,0:0:0:0:
501,75,136042,6,0,P|491:89|484:116,1,25.4999992218018,2|0,1:3|0:0,0:0:0:0:
432,156,136214,102,0,P|434:168|439:180,1,25.4999992218018,2|0,0:3|0:0,0:0:0:0:
487,243,136387,37,2,1:0:0:0:
368,108,136559,21,0,1:0:0:0:
328,295,136731,38,0,P|324:279|315:265,1,34,2|0,0:1|0:0,0:0:0:0:
287,336,136904,6,0,P|294:321|296:304,1,34,2|0,0:1|0:0,0:0:0:0:
140,270,137076,37,0,1:0:0:0:
351,191,137249,1,8,1:0:0:0:
55,129,137421,54,0,P|59:145|68:159,1,34,2|0,0:1|0:0,0:0:0:0:
96,88,137594,6,0,P|89:103|87:120,1,34,2|0,1:0|0:0,0:0:0:0:
256,152,137766,53,2,1:0:0:0:
256,152,138111,101,10,1:0:0:0:
49,292,138283,2,0,L|0:306,1,50.9999984436036,2|0,1:0|0:0,0:0:0:0:
142,269,138455,6,0,L|122:276,1,21.25
297,141,138628,22,0,L|320:111,1,23.3750007133484,2|0,1:2|0:0,0:0:0:0:
253,126,138714,102,0,L|257:162,1,25.4999992218018,2|0,3:2|0:0,0:0:0:0:
232,116,138800,86,0,L|253:89,1,27.6249987354279,2|0,3:2|0:0,0:0:0:0:
189,108,138886,6,0,L|192:139,1,27.6249987354279,2|0,3:2|0:0,0:0:0:0:
170,87,138973,70,0,L|191:59,1,31.8750012159348,2|0,1:2|0:0,0:0:0:0:
124,90,139059,6,0,L|127:123,1,34,2|0,3:2|0:0,0:0:0:0:
102,64,139145,86,0,L|124:36,1,36.1250006890297,2|0,3:2|0:0,0:0:0:0:
60,72,139231,102,0,L|65:116,1,38.2499988327027,2|0,3:2|0:0,0:0:0:0:
32,40,139318,85,2,1:0:0:0:
244,242,139490,2,0,L|214:251,1,31.8750012159348,2|0,3:2|0:0,0:0:0:0:
266,238,139662,70,0,P|241:290|247:332,1,85,14|0,1:0|1:0,0:0:0:0:
384,359,139835,2,0,P|409:307|403:265,1,85,0|0,1:0|0:0,0:0:0:0:
327,298,140007,1,8,1:0:0:0:
96,166,140180,70,0,L|107:210,1,34,2|0,0:1|0:0,0:0:0:0:
185,200,140352,6,0,L|171:243,1,34,2|0,1:0|0:0,0:0:0:0:
36,356,140524,6,0,L|109:329,1,63.7500024318696,2|0,1:0|0:0,0:0:0:0:
36,356,140869,86,0,L|73:342,1,34,2|0,1:0|0:0,0:0:0:0:
119,270,141042,6,0,L|155:282,1,34,2|0,1:0|0:0,0:0:0:0:
374,273,141214,21,0,3:0:0:0:
343,258,141300,1,0,3:0:0:0:
309,252,141387,1,8,1:0:0:0:
276,260,141473,1,0,0:0:0:0:
246,277,141559,1,2,0:1:0:0:
228,305,141645,1,0,0:0:0:0:
218,337,141731,70,0,L|264:327,1,34,2|0,1:0|0:0,0:0:0:0:
339,179,141904,6,0,L|305:171,1,34,2|0,1:0|0:0,0:0:0:0:
396,300,142076,53,0,1:0:0:0:
512,113,142249,38,0,L|450:131,1,34,2|0,0:1|0:0,0:0:0:0:
452,208,142421,6,0,L|418:200,1,34,2|0,0:1|0:0,0:0:0:0:
327,67,142593,37,0,1:0:0:0:
282,63,142680,1,0,3:0:0:0:
242,80,142766,1,8,1:0:0:0:
212,111,142852,1,0,0:0:0:0:
173,127,142938,1,2,0:1:0:0:
132,127,143024,1,0,0:0:0:0:
94,110,143111,54,0,L|103:62,1,34,2|0,1:0|0:0,0:0:0:0:
129,206,143283,6,0,L|150:274,1,63.7500024318696,2|0,1:0|0:0,0:0:0:0:
129,206,143628,102,0,L|143:250,1,34,10|0,1:0|0:0,0:0:0:0:
55,264,143800,6,0,L|41:308,1,34,2|0,1:0|0:0,0:0:0:0:
221,180,143973,53,0,1:0:0:0:
272,53,144145,38,0,L|259:102,1,50.9999984436036,8|0,1:0|0:0,0:0:0:0:
336,256,144318,6,0,L|296:224,1,50.9999984436036,10|0,1:0|0:0,0:0:0:0:
129,206,144490,38,0,L|200:185,1,63.75,2|0,1:0|0:0,0:0:0:0:
221,180,144835,102,0,P|165:225|182:324,1,170,6|10,1:0|1:0,0:0:0:0:
370,374,145352,1,2,3:2:0:0:
354,353,145438,1,2,3:2:0:0:
332,340,145524,1,0,0:0:0:0:
307,335,145610,1,0,0:0:0:0:
282,339,145696,1,0,1:0:0:0:
96,337,145869,2,0,P|146:333|187:299,1,85,10|0,1:0|0:0,0:0:0:0:
279,150,146214,102,0,P|268:200|260:238,1,85,2|0,1:0|0:0,0:0:0:0:
366,221,146559,1,10,1:0:0:0:
171,85,146731,1,0,0:0:0:0:
175,106,146818,1,0,0:0:0:0:
178,126,146904,1,2,3:2:0:0:
182,147,146990,1,2,3:2:0:0:
186,168,147076,1,0,1:0:0:0:
337,315,147249,2,0,P|351:235|305:187,1,127.5,10|0,1:0|3:0,0:0:0:0:
303,189,147593,6,0,P|359:175|399:166,1,85,2|0,1:0|0:0,0:0:0:0:
308,70,147938,1,10,1:0:0:0:
223,238,148111,1,0,0:0:0:0:
192,249,148197,1,0,0:0:0:0:
159,246,148283,1,2,3:2:0:0:
131,228,148369,1,2,3:2:0:0:
110,199,148455,1,0,1:0:0:0:
265,154,148628,1,10,1:0:0:0:
195,335,148800,1,2,0:0:0:0:
394,294,148973,102,0,P|352:282|313:272,1,85,2|0,1:0|0:0,0:0:0:0:
185,318,149318,1,10,1:0:0:0:
252,193,149490,1,2,3:2:0:0:
264,168,149576,1,2,3:2:0:0:
269,139,149662,1,0,0:0:0:0:
262,111,149749,1,0,0:0:0:0:
245,85,149835,1,0,1:0:0:0:
165,228,150007,1,8,1:0:0:0:
350,171,150180,1,0,1:0:0:0:
181,21,150352,6,0,P|155:63|162:114,1,85,2|0,1:0|0:0,0:0:0:0:
264,265,150697,1,10,1:0:0:0:
140,235,150869,2,0,L|100:249,1,42.5,2|2,3:2|3:2,0:0:0:0:
34,210,151042,2,0,L|86:221,1,42.5,2|2,3:2|3:2,0:0:0:0:
149,310,151214,1,0,1:0:0:0:
207,184,151387,1,10,1:0:0:0:
55,354,151559,1,2,3:2:0:0:
55,354,151645,1,2,3:2:0:0:
55,354,151731,102,0,P|96:343|145:332,1,85,2|0,1:0|0:0,0:0:0:0:
381,202,152076,2,0,P|339:192|298:181,1,85,10|2,1:0|3:2,0:0:0:0:
277,197,152335,1,2,3:2:0:0:
257,179,152421,1,2,3:2:0:0:
229,173,152507,1,2,3:2:0:0:
201,179,152593,1,0,1:0:0:0:
137,333,152766,2,0,P|194:319|213:291,1,85,10|2,1:0|0:0,0:0:0:0:
92,111,153111,6,0,P|74:179|165:248,1,170,2|10,1:0|1:0,0:0:0:0:
279,372,153628,1,2,3:2:0:0:
299,356,153714,1,2,3:2:0:0:
322,346,153800,1,0,0:0:0:0:
347,343,153886,1,0,0:0:0:0:
373,345,153972,1,0,1:0:0:0:
512,230,154145,1,8,1:0:0:0:
391,198,154318,1,0,1:0:0:0:
503,242,154490,102,0,L|492:293,1,42.5,2|2,1:2|3:2,0:0:0:0:
398,289,154662,2,0,L|414:353,1,42.5,2|2,1:2|3:2,0:0:0:0:
305,226,154835,1,8,1:0:0:0:
266,241,154921,1,2,3:2:0:0:
224,238,155007,1,2,1:2:0:0:
188,216,155093,1,2,3:2:0:0:
166,180,155180,54,0,L|172:155,15,17,8|0|0|0|0|0|0|0|0|0|0|0|0|0|0|0,1:0|0:0|0:0|0:0|0:0|0:0|0:0|0:0|0:0|0:0|0:0|0:0|0:0|0:0|0:0|0:0,0:0:0:0:
174,151,155869,5,0,1:0:0:0:
458,101,166904,117,2,1:0:0:0:
458,101,167421,101,2,1:2:0:0:
388,69,167593,1,8,0:0:0:0:
316,88,167938,5,2,1:2:0:0:
285,157,168283,101,0,0:0:0:0:
310,228,168455,1,2,1:2:0:0:
285,299,168800,5,2,1:2:0:0:
217,332,168973,85,8,0:0:0:0:
200,328,169145,1,2,0:0:0:0:
183,324,169318,1,2,0:0:0:0:
166,320,169490,1,0,0:0:0:0:
92,341,169662,21,2,1:2:0:0:
109,266,170007,101,0,0:0:0:0:
61,210,170180,5,2,1:2:0:0:
40,136,170352,1,8,0:0:0:0:
45,121,170524,1,0,0:0:0:0:
50,106,170697,1,2,1:2:0:0:
102,50,171042,101,0,0:0:0:0:
172,78,171214,1,0,1:0:0:0:
177,154,171559,85,0,0:0:0:0:
250,134,171731,1,10,0:0:0:0:
266,140,171904,1,0,0:0:0:0:
279,145,172076,1,8,0:0:0:0:
318,210,172249,1,2,0:0:0:0:
285,279,172421,37,2,1:2:0:0:
331,339,172593,1,0,0:0:0:0:
406,323,172938,101,2,1:2:0:0:
472,360,173110,1,8,0:0:0:0:
472,283,173455,5,2,1:2:0:0:
510,216,173800,101,0,0:0:0:0:
446,258,173973,1,2,1:2:0:0:
369,253,174318,69,2,1:2:0:0:
318,196,174490,1,8,0:0:0:0:
321,180,174662,1,2,0:0:0:0:
325,164,174835,1,2,0:0:0:0:
329,150,175007,1,0,0:0:0:0:
306,76,175180,53,2,1:2:0:0:
233,98,175524,101,0,0:0:0:0:
178,43,175697,1,2,1:2:0:0:
102,27,175869,1,8,0:0:0:0:
88,31,176042,1,0,0:0:0:0:
74,34,176214,1,2,1:2:0:0:
24,100,176387,54,0,L|37:145,3,42.5
16,167,176731,6,0,L|72:183,1,42.5,2|0,1:2|0:0,0:0:0:0:
112,244,176904,22,0,L|153:233,3,42.5,0|0|0|0,0:0|0:0|1:0|0:0,0:0:0:0:
225,163,177249,101,10,0:0:0:0:
253,180,177335,1,2,0:0:0:0:
286,187,177421,1,2,0:0:0:0:
319,179,177507,1,2,0:0:0:0:
346,159,177593,1,2,1:2:0:0:
376,143,177680,1,2,1:2:0:0:
409,142,177766,1,10,1:2:0:0:
442,149,177852,1,2,1:2:0:0:
469,168,177938,101,4,1:0:0:0:
284,99,178111,1,0,0:0:0:0:
400,4,178283,2,0,L|394:46,1,42.5,8|0,1:2|0:0,0:0:0:0:
495,105,178455,101,2,3:2:0:0:
469,101,178542,1,0,3:0:0:0:
443,106,178628,1,0,3:0:0:0:
422,120,178714,1,0,3:0:0:0:
409,142,178800,1,0,1:0:0:0:
470,275,178973,2,0,L|512:269,1,42.5,10|0,1:2|0:0,0:0:0:0:
474,198,179145,1,0,3:0:0:0:
478,193,179231,1,0,3:0:0:0:
482,188,179318,5,0,1:0:0:0:
381,361,179490,2,0,P|342:344|300:349,1,85,2|8,0:0|1:2,0:0:0:0:
200,278,179835,1,0,3:0:0:0:
202,252,179921,1,0,3:0:0:0:
205,226,180007,1,2,3:2:0:0:
208,200,180093,1,0,3:0:0:0:
211,174,180180,1,0,1:0:0:0:
108,360,180352,2,0,L|150:354,1,42.5,10|0,1:2|0:0,0:0:0:0:
18,289,180524,1,0,3:0:0:0:
9,282,180611,1,0,3:0:0:0:
0,274,180697,102,0,B|27:238|27:238|66:240,1,85,2|0,1:2|3:0,0:0:0:0:
123,195,180955,1,0,3:0:0:0:
135,180,181042,2,0,L|129:138,1,42.5,8|0,1:2|0:0,0:0:0:0:
19,50,181214,1,2,3:2:0:0:
40,64,181300,1,0,3:0:0:0:
64,71,181387,1,0,3:0:0:0:
89,73,181473,1,0,3:0:0:0:
113,67,181559,1,0,1:0:0:0:
211,174,181731,2,0,L|205:216,1,42.5,10|0,1:2|0:0,0:0:0:0:
77,315,181904,1,0,0:0:0:0:
9,198,182076,5,0,1:0:0:0:
77,315,182249,1,2,3:2:0:0:
81,302,182335,1,0,3:0:0:0:
85,290,182421,2,0,L|43:296,1,42.5,8|0,1:2|0:0,0:0:0:0:
166,269,182593,1,0,3:0:0:0:
20,384,182766,101,2,3:2:0:0:
146,348,182938,1,0,1:0:0:0:
273,384,183111,2,0,L|283:333,1,42.5,10|0,1:2|0:0,0:0:0:0:
110,214,183283,1,0,1:0:0:0:
146,347,183455,38,0,P|171:314|211:303,1,85,2|0,1:2|0:0,0:0:0:0:
361,191,183800,2,0,L|371:242,1,42.5,8|0,1:2|0:0,0:0:0:0:
464,366,183973,1,2,3:2:0:0:
438,362,184059,1,0,3:0:0:0:
412,359,184145,1,2,0:0:0:0:
386,356,184231,1,0,0:0:0:0:
360,353,184318,1,2,1:2:0:0:
448,222,184490,2,0,L|489:213,1,42.5,10|0,1:2|0:0,0:0:0:0:
438,148,184662,1,2,0:0:0:0:
434,143,184748,1,0,0:0:0:0:
430,138,184835,101,2,1:2:0:0:
504,55,185007,1,2,0:0:0:0:
467,33,185093,1,0,0:0:0:0:
422,30,185180,1,8,1:2:0:0:
383,48,185266,1,0,0:0:0:0:
350,75,185352,1,0,3:0:0:0:
309,88,185438,1,0,3:0:0:0:
267,81,185524,2,0,L|275:39,1,42.5,2|0,3:2|3:0,0:0:0:0:
336,172,185697,1,0,1:0:0:0:
164,291,185869,2,0,L|155:249,1,42.5,10|0,1:2|3:0,0:0:0:0:
142,167,186042,1,0,3:0:0:0:
272,370,186214,6,0,B|200:363|200:363|180:371|180:371|114:363,1,159.375,2|0,1:2|0:0,0:0:0:0:
41,296,186559,2,0,L|0:304,1,42.5,8|0,1:2|0:0,0:0:0:0:
54,202,186731,1,2,3:2:0:0:
79,203,186818,1,0,3:0:0:0:
104,198,186904,1,0,3:0:0:0:
127,188,186990,1,0,3:0:0:0:
142,167,187076,1,0,1:0:0:0:
121,8,187249,2,0,L|79:0,1,42.5,10|0,1:2|0:0,0:0:0:0:
0,56,187421,1,0,1:0:0:0:
240,44,187593,101,0,1:0:0:0:
76,124,187766,1,2,1:2:0:0:
107,95,187852,1,0,0:0:0:0:
148,88,187938,1,8,1:2:0:0:
188,101,188024,1,0,0:0:0:0:
214,134,188111,1,0,1:0:0:0:
221,175,188197,1,0,0:0:0:0:
207,215,188283,69,10,1:2:0:0:
238,208,188369,1,0,0:0:0:0:
269,201,188455,2,0,L|277:159,1,42.5,0|0,1:0|0:0,0:0:0:0:
452,119,188628,101,10,1:2:0:0:
405,129,188714,1,8,1:2:0:0:
359,140,188800,2,0,L|349:192,1,53.125,0|0,1:0|0:0,0:0:0:0:
487,286,188973,38,0,B|511:231|476:197|476:197|414:210|407:259,1,191.250007295609,6|0,1:0|0:0,0:0:0:0:
442,349,189318,2,0,P|471:360|503:360,1,63.7500024318696,10|2,1:0|0:0,0:0:0:0:
329,272,189490,2,0,L|266:284,1,63.7500024318696,2|0,3:1|0:0,0:0:0:0:
212,339,189662,1,0,3:0:0:0:
187,318,189749,1,0,3:0:0:0:
185,286,189835,1,0,1:0:0:0:
349,192,190007,2,0,L|361:130,1,63.7500024318696,10|0,1:0|0:0,0:0:0:0:
379,47,190180,1,2,3:1:0:0:
384,29,190266,1,0,3:0:0:0:
388,10,190353,21,0,1:0:0:0:
294,76,190525,1,0,0:0:0:0:
480,102,190697,2,0,P|440:54|379:47,1,127.500004863739,10|0,1:0|3:0,0:0:0:0:
312,69,190955,1,0,3:0:0:0:
294,76,191042,2,0,L|306:14,1,63.7500024318696,0|0,3:0|0:0,0:0:0:0:
211,88,191214,1,0,1:0:0:0:
49,100,191387,2,0,B|19:83|19:83|111:65,1,127.500004863739,10|0,1:0|3:0,0:0:0:0:
193,82,191645,1,0,3:0:0:0:
211,88,191731,70,0,L|199:150,1,63.7500024318696,0|0,1:0|0:0,0:0:0:0:
137,204,191904,1,2,0:0:0:0:
274,300,192076,2,0,P|219:269|158:281,1,127.500004863739,10|0,1:0|3:0,0:0:0:0:
127,285,192335,1,0,3:0:0:0:
97,276,192421,1,0,3:0:0:0:
70,258,192507,1,0,3:0:0:0:
57,228,192593,1,0,1:0:0:0:
123,127,192766,2,0,L|111:65,1,63.7500024318696,10|0,1:0|0:0,0:0:0:0:
27,37,192938,1,2,3:1:0:0:
22,19,193024,1,0,3:0:0:0:
18,0,193111,21,0,1:0:0:0:
193,82,193283,1,0,0:0:0:0:
119,240,193455,2,0,L|57:228,1,63.7500024318696,8|0,1:0|0:0,0:0:0:0:
175,322,193628,1,0,3:0:0:0:
194,297,193714,1,0,3:0:0:0:
222,284,193800,1,2,3:1:0:0:
253,280,193887,1,0,3:0:0:0:
283,289,193973,1,2,1:0:0:0:
386,340,194145,54,0,L|448:328,1,63.7500024318696,8|0,1:0|0:0,0:0:0:0:
244,356,194318,6,0,L|252:314,1,42.5,0|0,1:0|0:0,0:0:0:0:
381,181,194490,22,0,B|364:151|364:151|346:243,1,127.500004863739,0|0,1:0|0:0,0:0:0:0:
376,324,194749,1,0,0:0:0:0:
386,340,194835,2,0,B|448:328|448:328|476:309|473:265,1,127.500004863739,10|0,1:0|3:0,0:0:0:0:
456,244,195093,1,0,3:0:0:0:
459,212,195180,1,2,3:1:0:0:
464,180,195266,1,0,3:0:0:0:
469,148,195352,1,0,1:0:0:0:
303,69,195524,2,0,L|241:81,1,63.7500024318696,10|0,1:0|0:0,0:0:0:0:
282,153,195697,1,0,3:0:0:0:
277,171,195783,1,0,3:0:0:0:
273,190,195870,21,0,1:0:0:0:
381,56,196042,1,0,0:0:0:0:
146,0,196214,2,0,B|167:47|167:47|149:120,1,127.500004863739,10|0,1:0|3:0,0:0:0:0:
87,177,196473,1,0,3:0:0:0:
73,190,196559,2,0,L|11:178,1,63.7500024318696,2|0,3:1|0:0,0:0:0:0:
81,54,196731,1,0,1:0:0:0:
274,96,196904,2,0,L|149:120,1,127.500004863739,8|0,1:0|3:0,0:0:0:0:
148,120,197162,1,0,3:0:0:0:
148,120,197249,69,0,1:0:0:0:
290,264,197421,2,0,P|319:252|339:228,1,63.7500024318696
274,96,197593,2,0,L|286:34,1,63.7500024318696,10|0,1:0|0:0,0:0:0:0:
368,82,197766,1,2,3:1:0:0:
399,77,197852,1,0,3:0:0:0:
430,72,197938,1,0,3:0:0:0:
461,68,198024,1,0,3:0:0:0:
492,62,198111,1,0,1:0:0:0:
479,255,198283,22,0,L|417:243,1,63.7500024318696,10|0,1:0|0:0,0:0:0:0:
267,188,198455,2,0,L|279:250,1,63.7500024318696,2|0,1:0|0:0,0:0:0:0:
463,169,198628,1,0,1:0:0:0:
220,360,198800,102,0,L|208:298,1,63.7500024318696,10|0,1:0|0:0,0:0:0:0:
479,255,198973,2,0,L|417:243,1,63.7500024318696,10|0,1:0|0:0,0:0:0:0:
452,96,199145,1,0,1:0:0:0:
467,93,199231,1,0,3:0:0:0:
482,91,199318,85,8,1:0:0:0:
472,130,199404,1,0,0:0:0:0:
463,169,199490,2,0,L|401:157,1,63.7500024318696,0|0,1:0|0:0,0:0:0:0:
479,255,199662,101,10,1:0:0:0:
469,294,199748,1,8,1:0:0:0:
460,333,199834,2,0,L|398:321,1,63.7500024318696,0|0,1:0|0:0,0:0:0:0:
124,275,200007,86,0,P|170:270|208:298,1,95.6250036478044,6|0,1:0|0:0,0:0:0:0:
214,314,200352,102,0,B|224:272|190:244|190:244|166:190|211:139,1,170,12|0,1:0|3:0,0:0:0:0:
248,43,200611,1,0,3:0:0:0:
231,34,200697,2,0,L|243:96,1,63.7500024318696,0|0,3:0|0:0,0:0:0:0:
262,205,200869,1,0,1:0:0:0:
420,113,201042,2,0,P|370:150|308:141,1,127.500004863739,10|0,1:0|3:0,0:0:0:0:
318,125,201300,1,0,3:0:0:0:
327,108,201387,85,0,1:0:0:0:
388,245,201559,1,0,0:0:0:0:
350,371,201731,2,0,P|332:345|329:313,1,63.7500024318696,10|0,1:0|0:0,0:0:0:0:
463,211,201904,1,2,3:1:0:0:
467,242,201990,1,0,3:0:0:0:
462,273,202076,1,0,3:0:0:0:
446,300,202162,1,0,3:0:0:0:
419,317,202249,1,0,1:0:0:0:
246,310,202421,53,10,1:0:0:0:
249,325,202593,101,2,3:1:0:0:
12,198,202766,22,0,P|45:171|86:164,1,85,4|0,1:0|1:0,0:0:0:0:
10,206,202938,6,0,P|42:179|83:172,1,85,0|8,1:0|1:0,0:0:0:0:
233,238,203111,85,8,1:0:0:0:
72,321,203283,102,0,L|81:258,1,63.7500024318696,2|0,1:0|0:0,0:0:0:0:
68,341,203628,21,0,1:0:0:0:
129,337,203714,1,0,1:0:0:0:
181,360,203800,2,0,L|156:234,1,127.500004863739,14|0,1:0|0:0,0:0:0:0:
192,163,204059,1,0,0:0:0:0:
205,149,204145,54,0,L|143:137,1,63.7500024318696,0|0,1:0|0:0,0:0:0:0:
43,71,204318,1,0,3:0:0:0:
78,34,204404,1,0,3:0:0:0:
127,21,204490,1,10,1:0:0:0:
176,31,204576,1,0,3:0:0:0:
216,61,204662,1,2,3:1:0:0:
261,85,204749,1,0,3:0:0:0:
311,85,204835,1,0,3:0:0:0:
355,60,204921,1,0,3:0:0:0:
374,12,205007,5,0,1:0:0:0:
282,166,205180,2,0,L|294:228,1,63.7500024318696,10|0,1:0|0:0,0:0:0:0:
311,301,205352,1,2,1:0:0:0:
208,214,205524,101,0,1:0:0:0:
406,125,205697,1,0,1:0:0:0:
384,340,205869,1,8,1:0:0:0:
377,213,206042,85,0,1:0:0:0:
408,203,206128,1,0,3:0:0:0:
426,229,206214,1,0,1:0:0:0:
408,255,206300,1,0,3:0:0:0:
377,245,206387,1,0,1:0:0:0:
238,334,206559,5,10,1:0:0:0:
174,226,206731,1,0,1:0:0:0:
225,230,206818,1,0,1:0:0:0:
275,237,206904,101,0,1:0:0:0:
130,367,207076,1,0,1:0:0:0:
89,176,207249,1,8,1:0:0:0:
34,286,207421,21,0,1:0:0:0:
62,300,207507,1,0,3:0:0:0:
57,268,207593,1,2,1:0:0:0:
73,295,207680,1,0,3:0:0:0:
90,268,207766,1,2,1:0:0:0:
238,334,207938,5,10,1:0:0:0:
364,148,208111,1,0,1:0:0:0:
313,152,208198,1,0,1:0:0:0:
263,159,208284,53,0,1:0:0:0:
420,278,208455,1,0,1:0:0:0:
445,83,208628,1,8,1:0:0:0:
344,289,208800,101,0,1:0:0:0:
293,278,208887,1,0,1:0:0:0:
263,236,208973,1,8,1:0:0:0:
499,157,209145,2,0,L|487:219,1,63.7500024318696,0|0,1:0|0:0,0:0:0:0:
495,355,209318,5,2,1:0:0:0:
454,337,209404,1,2,0:0:0:0:
397,343,209490,1,10,1:0:0:0:
340,384,209576,1,2,0:0:0:0:
324,370,209662,86,0,P|295:384|263:381,1,63.75
191,317,210007,85,2,0:1:0:0:
187,332,210180,102,0,L|210:329,5,21.25,2|0|0|0|0|0,0:1|0:0|0:0|0:0|0:0|0:0,0:0:0:0:
346,180,210697,102,0,L|303:184,1,42.5,2|0,0:1|0:0,0:0:0:0:
356,159,210869,102,0,L|292:166,1,63.7500024318696,2|0,0:1|0:0,0:0:0:0:
216,174,211042,69,2,0:0:0:0:
196,91,211386,1,0,0:0:0:0:
250,26,211731,1,2,0:0:0:0:
233,14,211904,1,0,0:0:0:0:
213,7,212076,1,0,0:0:0:0:
112,87,212421,101,2,0:0:0:0:
194,221,212938,101,0,0:0:0:0:
112,207,213111,1,2,0:0:0:0:
117,188,213283,1,0,0:0:0:0:
128,173,213455,1,2,0:0:0:0:
144,162,213628,1,0,0:0:0:0:
226,151,213800,21,2,0:0:0:0:
273,218,214145,1,0,0:0:0:0:
233,289,214490,1,0,0:0:0:0:
216,297,214662,1,0,0:0:0:0:
196,299,214835,2,0,P|157:282|112:293,1,85,2|0,0:0|0:0,0:0:0:0:
36,337,215352,69,0,0:0:0:0:
41,325,215524,1,0,0:0:0:0:
44,303,215697,1,0,0:0:0:0:
40,273,215869,5,2,0:0:0:0:
19,280,216042,1,0,0:0:0:0:
95,177,216214,101,2,0:0:0:0:
54,188,216387,1,0,0:0:0:0:
237,119,216559,37,2,0:0:0:0:
153,102,216904,1,0,0:0:0:0:
116,24,217249,1,2,0:0:0:0:
86,37,217421,1,0,0:0:0:0:
67,75,217593,1,0,0:0:0:0:
95,177,217938,53,2,0:0:0:0:
213,242,218283,101,2,0:0:0:0:
205,200,218455,1,0,0:0:0:0:
150,295,218628,5,2,0:0:0:0:
188,276,218800,1,0,0:0:0:0:
230,279,218973,1,2,0:0:0:0:
262,306,219145,1,0,0:0:0:0:
201,377,219318,102,0,L|116:370,1,85,2|0,0:0|0:0,0:0:0:0:
74,184,220007,69,0,0:0:0:0:
42,211,220179,1,0,0:0:0:0:
103,282,220352,54,0,L|187:275,1,85,2|0,0:0|0:0,0:0:0:0:
280,298,220869,53,0,0:0:0:0:
270,278,221042,101,0,0:0:0:0:
269,248,221214,1,0,0:0:0:0:
284,212,221387,101,2,0:0:0:0:
344,193,221559,1,0,0:0:0:0:
458,309,221731,101,0,0:0:0:0:
354,335,221904,2,0,L|363:271,1,63.75,2|2,0:1|0:0,0:0:0:0:
