osu file format v14

[General]
AudioFilename: audio.mp3
AudioLeadIn: 0
PreviewTime: 50352
Countdown: 0
SampleSet: Soft
StackLeniency: 0.6
Mode: 0
LetterboxInBreaks: 0
WidescreenStoryboard: 1

[Editor]
Bookmarks: 12413,23447,34482,45516,51034,56292,62068,62413,67585,71723,73103,73447,73534,82758,84137,95172,106206,111723,122758,123103,128275,132413,144827,155861,166896,177930,188965,199999,200344,205516,209654,221896
DistanceSpacing: 1.3
BeatDivisor: 4
GridSize: 16
TimelineZoom: 0.9999999

[Metadata]
Title:Stay Alive (Jun Kuroda Bootleg Remix)
TitleUnicode:Stay Alive (Jun Kuroda Bootleg Remix)
Artist:EMILIA (CV: Takahashi Rie)
ArtistUnicode:エミリア (CV:高橋李依)
Creator:gary00737
Version:Hard
Source:Re:ゼロから始める異世界生活
Tags:Frey Moecho Moeri Moeriko CookieBite DreaM117er m1223961117 re:zero ed2 ending
BeatmapID:1482568
BeatmapSetID:671597

[Difficulty]
HPDrainRate:5
CircleSize:3.5
OverallDifficulty:6
ApproachRate:7.5
SliderMultiplier:1.44
SliderTickRate:1

[Events]
//Background and Video events
0,0,"735306.jpg",0,0
//Break Periods
2,45724,49662
2,106414,110906
2,156069,165996
//Storyboard Layer 0 (Background)
//Storyboard Layer 1 (Fail)
//Storyboard Layer 2 (Pass)
//Storyboard Layer 3 (Foreground)
//Storyboard Sound Samples

[TimingPoints]
1387,344.827586206897,4,2,1,45,1,0
1387,-133.333333333333,4,2,1,45,0,0
1473,-133.333333333333,4,2,2,45,0,0
12421,-133.333333333333,4,2,2,45,0,0
12507,-133.333333333333,4,2,1,45,0,0
23455,-100,4,2,1,57,0,0
51042,-83.3333333333333,4,2,1,72,0,1
62076,-83.3333333333333,4,2,1,72,0,0
62421,-83.3333333333333,4,2,1,72,0,1
62593,-83.3333333333333,4,2,2,72,0,1
62680,-83.3333333333333,4,2,1,72,0,1
65869,-83.3333333333333,4,2,1,72,0,1
66214,-83.3333333333333,4,2,1,72,0,1
71731,-100,4,2,1,72,0,0
73455,-83.3333333333333,4,2,1,62,0,1
73542,-83.3333333333333,4,2,1,62,0,0
82766,-100,4,2,1,62,0,0
84145,-100,4,2,1,57,0,0
93800,-133.333333333333,4,2,1,57,0,0
95180,-100,4,2,1,57,0,0
111731,-83.3333333333333,4,2,1,75,0,1
122766,-83.3333333333333,4,2,1,75,0,0
123111,-83.3333333333333,4,2,1,75,0,1
123283,-83.3333333333333,4,2,2,75,0,1
123369,-83.3333333333333,4,2,1,75,0,1
126559,-83.3333333333333,4,2,1,75,0,1
126904,-83.3333333333333,4,2,1,75,0,1
132421,-100,4,2,1,75,0,0
133800,-100,4,2,1,65,0,0
144835,-83.3333333333333,4,2,1,57,0,0
152335,-83.3333333333333,4,2,1,57,0,0
152421,-83.3333333333333,4,2,1,57,0,0
155869,-83.3333333333333,4,2,2,45,0,0
155955,-83.3333333333333,4,2,1,45,0,0
166904,-133.333333333333,4,2,2,45,0,0
166990,-133.333333333333,4,2,1,30,0,0
177938,-100,4,2,1,57,0,0
188973,-83.3333333333333,4,2,1,80,0,1
200007,-83.3333333333333,4,2,1,80,0,0
200352,-83.3333333333333,4,2,1,80,0,1
200524,-83.3333333333333,4,2,2,80,0,1
200611,-83.3333333333333,4,2,1,80,0,1
203800,-83.3333333333333,4,2,1,80,0,1
204145,-83.3333333333333,4,2,1,80,0,1
209662,-100,4,2,1,45,0,0
210007,-100,4,2,1,45,0,0
211042,-100,4,2,2,45,0,0
211731,-133.333333333333,4,2,2,45,0,0

[Colours]
Combo1 : 136,255,255
Combo2 : 255,153,204
Combo3 : 255,119,255

[HitObjects]
332,156,1387,6,0,P|310:219|294:267,2,108.000004119873,4|0|2,1:0|0:0|2:0,0:0:0:0:
420,104,2249,1,0,0:0:0:0:
420,104,2421,1,0,0:0:0:0:
235,193,2766,2,0,B|186:208|186:208|66:185,1,162.00000617981,0|0,3:0|0:0,0:0:0:0:
8,111,3455,1,2,2:0:0:0:
77,187,3628,1,0,0:0:0:0:
22,273,3800,2,0,P|32:319|38:349,1,54.0000020599366,0|0,0:0|0:0,0:0:0:0:
162,266,4145,6,0,P|146:317|133:370,2,108.000004119873,0|0|2,3:0|0:0|2:0,0:0:0:0:
235,193,5007,1,0,0:0:0:0:
235,193,5180,2,0,B|284:178|284:178|404:201,1,162.00000617981,0|0,3:0|0:0,0:0:0:0:
500,272,5869,2,0,P|499:226|499:200,1,54.0000020599366,0|0,3:0|0:0,0:0:0:0:
498,118,6214,1,2,2:0:0:0:
498,118,6387,1,0,0:0:0:0:
419,28,6559,2,0,P|418:74|418:100,1,54.0000020599366,0|0,0:0|0:0,0:0:0:0:
317,109,6904,6,0,P|315:183|315:226,2,108.000004119873,0|0|2,3:0|0:0|2:0,0:0:0:0:
328,6,7766,1,0,0:0:0:0:
328,6,7938,1,0,0:0:0:0:
235,193,8283,2,0,P|177:195|124:166,1,108.000004119873,0|0,3:0|3:0,0:0:0:0:
94,78,8800,1,0,0:0:0:0:
30,159,8973,2,0,P|15:201|9:235,1,54.0000020599366,2|0,2:0|0:0,0:0:0:0:
85,284,9318,2,0,P|100:326|106:360,1,54.0000020599366,0|0,0:0|0:0,0:0:0:0:
206,275,9662,6,0,P|193:342|186:399,2,108.000004119873,0|0|2,3:0|0:0|2:0,0:0:0:0:
290,215,10524,1,0,0:0:0:0:
290,215,10697,2,0,B|275:166|275:166|298:46,1,162.00000617981,0|0,3:0|0:0,0:0:0:0:
390,17,11387,2,0,P|439:21|461:24,1,54.0000020599366,0|0,3:0|0:0,0:0:0:0:
511,98,11731,1,2,2:0:0:0:
511,98,11904,1,0,0:0:0:0:
432,163,12076,2,0,P|383:159|361:156,1,54.0000020599366,0|0,0:0|0:0,0:0:0:0:
295,57,12421,6,0,P|228:35|179:40,1,108.000004119873,4|0,2:0|0:0,0:0:0:0:
117,109,12938,1,8,3:0:0:0:
117,109,13111,2,0,P|127:153|128:183,1,54.0000020599366,8|0,1:0|0:0,0:0:0:0:
55,233,13455,2,0,P|45:277|44:307,1,54.0000020599366,8|0,3:0|0:0,0:0:0:0:
122,353,13800,6,0,B|171:368|171:368|291:345,1,162.00000617981,0|8,3:0|3:0,0:0:0:0:
351,273,14490,2,0,P|360:323|362:349,1,54.0000020599366,8|0,1:0|0:0,0:0:0:0:
449,227,14835,2,0,P|440:275|437:297,1,54.0000020599366,8|0,3:0|0:0,0:0:0:0:
483,374,15180,5,0,3:0:0:0:
279,347,15524,1,0,0:0:0:0:
345,169,15869,2,0,P|370:133|393:116,1,54.0000020599366,8|0,1:0|0:0,0:0:0:0:
457,59,16214,1,8,3:0:0:0:
457,59,16559,6,0,L|400:53,1,54.0000020599366,0|0,3:0|0:0,0:0:0:0:
302,34,16904,2,0,L|245:40,1,54.0000020599366,0|8,0:0|3:0,0:0:0:0:
152,76,17249,2,0,P|143:118|140:137,1,54.0000020599366,8|0,1:0|0:0,0:0:0:0:
47,38,17593,2,0,P|56:80|59:99,1,54.0000020599366,8|8,3:0|1:0,0:0:0:0:
25,189,17938,6,0,B|74:174|74:174|194:197,1,162.00000617981,2|8,3:0|3:0,0:0:0:0:
283,216,18628,2,0,P|277:253|268:285,1,54.0000020599366,8|0,1:0|0:0,0:0:0:0:
182,194,18973,2,0,P|175:167|171:141,1,54.0000020599366,8|0,3:0|0:0,0:0:0:0:
222,51,19318,6,0,P|267:25|326:27,1,108.000004119873,0|0,3:0|0:0,0:0:0:0:
402,89,19835,1,8,3:0:0:0:
497,51,20007,2,0,L|487:108,1,54.0000020599366,8|0,1:0|0:0,0:0:0:0:
421,183,20352,2,0,L|431:240,1,54.0000020599366,8|0,3:0|0:0,0:0:0:0:
453,336,20697,5,0,3:0:0:0:
256,192,20783,12,0,22076,0:0:0:0:
326,282,23455,6,0,P|335:335|332:369,2,72,4|0|2,2:0|0:0|2:0,0:0:0:0:
260,213,23973,1,0,0:0:0:0:
260,213,24145,2,0,P|208:230|159:222,1,72,0|8,0:0|2:0,0:0:0:0:
100,206,24490,2,0,P|86:172|92:111,1,72,2|0,2:0|0:0,0:0:0:0:
108,46,24835,6,0,P|166:57|196:57,1,72,4|0,2:0|0:0,0:0:0:0:
268,25,25180,1,2,2:0:0:0:
331,93,25352,1,0,0:0:0:0:
331,93,25524,2,0,P|317:142|312:172,1,72,0|0,0:0|0:0,0:0:0:0:
234,213,25869,2,0,P|261:273|273:305,1,72,2|0,2:0|0:0,0:0:0:0:
389,244,26214,6,0,P|358:309|332:383,1,144,4|2,2:0|2:0,0:0:0:0:
488,280,26731,2,0,P|463:212|432:147,1,144,8|8,2:0|2:0,0:0:0:0:
365,81,27249,1,2,2:0:0:0:
365,81,27421,1,8,2:0:0:0:
295,142,27593,6,0,B|246:157|246:157|154:139,2,144,4|2|0,2:0|2:0|0:0,0:0:0:0:
365,81,28455,1,8,2:0:0:0:
365,81,28628,1,2,2:0:0:0:
432,147,28800,1,0,0:0:0:0:
369,217,28973,6,0,P|362:260|359:293,1,72,4|0,2:0|0:0,0:0:0:0:
383,379,29318,1,2,2:0:0:0:
339,296,29490,2,0,P|278:284|238:281,1,72,0|0,0:0|0:0,0:0:0:0:
184,324,29835,1,8,2:0:0:0:
103,275,30007,2,0,P|106:234|112:181,1,72,2|0,2:0|0:0,0:0:0:0:
128,111,30352,5,4,2:0:0:0:
128,111,30524,1,0,0:0:0:0:
214,75,30697,2,0,P|246:91|292:94,1,72,2|0,2:0|0:0,0:0:0:0:
361,44,31042,1,0,0:0:0:0:
361,44,31214,1,0,0:0:0:0:
423,113,31387,2,0,P|403:157|396:196,1,72,2|0,2:0|0:0,0:0:0:0:
355,314,31731,6,0,P|333:233|296:169,1,144,12|2,2:0|2:0,0:0:0:0:
124,262,32249,2,0,P|205:283|279:283,1,144,12|12,2:0|2:0,0:0:0:0:
304,180,32766,1,2,2:0:0:0:
304,180,32938,1,8,2:0:0:0:
248,104,33111,5,8,2:0:0:0:
289,20,33283,1,0,0:0:0:0:
248,104,33455,2,0,P|201:94|180:82,1,72,2|12,2:0|2:0,0:0:0:0:
69,48,33800,2,0,P|81:101|84:132,1,72,0|12,0:0|2:0,0:0:0:0:
165,163,34145,2,0,P|156:197|150:233,1,72,2|0,2:0|0:0,0:0:0:0:
87,302,34490,6,0,P|41:307|8:306,2,72,4|0|2,1:0|0:0|2:0,0:0:0:0:
150,233,35007,2,0,P|186:234|229:229,2,72,0|0|0,0:0|0:0|0:0,0:0:0:0:
64,196,35524,1,2,2:0:0:0:
292,294,35869,5,4,2:0:0:0:
292,294,36214,2,0,P|329:283|370:280,1,72,2|0,2:0|0:0,0:0:0:0:
425,381,36559,2,0,P|389:377|354:366,1,72,0|8,0:0|2:0,0:0:0:0:
450,296,36904,1,2,2:0:0:0:
414,112,37249,6,0,P|344:117|277:165,1,144,4|2,2:0|2:0,0:0:0:0:
172,0,37766,2,0,P|242:5|309:53,1,144,0|8,0:0|2:0,0:0:0:0:
219,90,38283,1,2,2:0:0:0:
219,90,38455,1,8,2:0:0:0:
117,85,38628,5,4,2:0:0:0:
117,85,38973,2,0,P|101:135|97:164,1,72,2|0,2:0|0:0,0:0:0:0:
36,254,39318,2,0,P|72:248|114:249,1,72,0|8,0:0|2:0,0:0:0:0:
187,296,39662,2,0,P|222:296|258:290,1,72,2|8,2:0|2:0,0:0:0:0:
339,243,40007,5,4,2:0:0:0:
451,93,40352,1,2,2:0:0:0:
451,93,40524,2,0,P|389:57|294:66,1,144,0|8,0:0|2:0,0:0:0:0:
253,125,41042,2,0,P|265:158|276:210,1,72,2|0,2:0|0:0,0:0:0:0:
258,289,41387,6,0,P|212:285|177:284,1,72,4|0,2:0|0:0,0:0:0:0:
92,288,41731,1,2,2:0:0:0:
92,288,41904,2,0,P|101:243|101:201,1,72,0|0,0:0|0:0,0:0:0:0:
69,130,42249,1,8,2:0:0:0:
154,92,42421,2,0,P|201:94|250:98,1,72,2|0,2:0|0:0,0:0:0:0:
339,72,42766,6,0,P|312:148|301:216,1,144,12|2,2:0|2:0,0:0:0:0:
357,284,43283,1,0,0:0:0:0:
447,260,43456,2,0,P|411:263|376:271,1,72,0|12,0:0|2:0,0:0:0:0:
276,323,43800,1,2,2:0:0:0:
276,323,43973,1,8,2:0:0:0:
191,279,44145,6,0,P|211:241|230:206,2,72,8|8|2,2:0|2:0|2:0,0:0:0:0:
116,357,44662,2,0,P|75:359|33:345,1,72,12|0,2:0|0:0,0:0:0:0:
4,266,45007,1,12,2:0:0:0:
56,188,45180,1,2,2:0:0:0:
149,195,45352,1,8,2:0:0:0:
191,279,45524,5,4,1:0:0:0:
34,113,51042,6,0,B|114:81|114:145|210:113,1,172.799994726563,2|2,3:0|2:0,0:0:0:0:
253,35,51559,2,0,P|243:115|236:225,1,172.799994726563,0|8,0:0|2:0,0:0:0:0:
258,299,52076,1,2,2:0:0:0:
258,299,52249,1,0,0:0:0:0:
340,345,52421,6,0,P|433:342|459:266,1,172.799994726563,4|2,2:0|2:0,0:0:0:0:
406,198,52938,2,0,P|403:156|422:84,1,86.3999973632813,0|0,0:0|0:0,0:0:0:0:
465,34,53283,1,8,2:0:0:0:
332,87,53455,2,0,L|225:71,1,86.3999973632813,2|0,2:0|0:0,0:0:0:0:
155,14,53800,6,0,P|165:93|168:193,1,172.799994726563,4|2,2:0|2:0,0:0:0:0:
138,277,54318,1,0,0:0:0:0:
138,277,54662,1,8,2:0:0:0:
54,230,54835,2,0,P|48:179|61:127,1,86.3999973632813,2|0,2:0|0:0,0:0:0:0:
138,277,55180,6,0,L|126:384,1,86.3999973632813,4|0,2:0|0:0,0:0:0:0:
233,315,55524,2,0,L|223:229,1,86.3999973632813,2|0,2:0|0:0,0:0:0:0:
206,135,55869,1,0,0:0:0:0:
206,135,56042,1,8,2:0:0:0:
320,132,56214,2,0,L|310:217,1,86.3999973632813,2|8,2:0|2:0,0:0:0:0:
233,315,56559,6,0,B|285:295|285:295|421:327,2,172.799994726563,4|2|0,2:0|2:0|0:0,0:0:0:0:
148,358,57421,1,8,2:0:0:0:
82,289,57593,2,0,P|102:237|100:188,1,86.3999973632813,2|0,2:0|0:0,0:0:0:0:
44,131,57938,6,0,P|103:157|206:128,1,172.799994726563,4|2,2:0|2:0,0:0:0:0:
262,54,58455,2,0,P|341:25|421:52,1,172.799994726563,0|8,0:0|2:0,0:0:0:0:
479,129,58973,2,0,P|458:187|452:221,1,86.3999973632813,2|0,2:0|0:0,0:0:0:0:
480,302,59318,6,0,P|407:294|294:303,1,172.799994726563,4|2,2:0|2:0,0:0:0:0:
237,364,59835,2,0,P|262:296|165:236,1,172.799994726563,0|8,0:0|2:0,0:0:0:0:
102,235,60352,1,2,2:0:0:0:
102,235,60524,1,8,2:0:0:0:
180,151,60697,5,8,2:0:0:0:
180,151,60869,1,4,2:0:0:0:
96,73,61042,2,0,P|50:61|5:56,1,86.3999973632813,6|12,2:0|2:0,0:0:0:0:
182,24,61387,2,0,P|228:12|273:7,1,86.3999973632813,12|12,2:0|2:0,0:0:0:0:
336,70,61731,2,0,L|362:120,2,43.1999986816407,14|8|8,2:0|2:0|2:0,0:0:0:0:
252,107,62076,5,8,2:0:0:0:
490,192,62421,1,2,3:0:0:0:
429,265,62593,2,0,B|327:290|351:234|250:265,1,172.799994726563,4|8,2:0|2:0,0:0:0:0:
201,338,63111,2,0,P|133:323|103:326,1,86.3999973632813,2|0,2:0|0:0,0:0:0:0:
24,379,63455,6,0,P|36:312|24:191,1,172.799994726563,4|2,2:0|2:0,0:0:0:0:
0,102,63973,2,0,P|44:113|96:113,1,86.3999973632813,0|0,0:0|0:0,0:0:0:0:
166,64,64318,1,8,2:0:0:0:
238,125,64490,2,0,P|224:180|218:217,1,86.3999973632813,2|0,2:0|0:0,0:0:0:0:
228,334,64835,5,4,1:0:0:0:
332,264,65007,2,0,P|377:256|423:253,1,86.3999973632813,4|0,1:0|0:0,0:0:0:0:
506,164,65352,2,0,P|490:99|378:63,1,172.799994726563,4|8,1:0|2:0,0:0:0:0:
379,71,65783,1,8,2:0:0:0:
359,84,65869,2,0,P|299:89|242:78,1,86.3999973632813,4|0,1:0|0:0,0:0:0:0:
185,49,66214,6,0,P|195:117|199:166,1,86.3999973632813,4|0,2:0|0:0,0:0:0:0:
276,186,66559,2,0,P|254:252|246:292,1,86.3999973632813,2|0,2:0|0:0,0:0:0:0:
238,362,66904,1,0,0:0:0:0:
238,362,67076,1,8,2:0:0:0:
326,326,67249,1,2,2:0:0:0:
326,326,67421,1,8,2:0:0:0:
249,268,67593,6,0,P|207:275|165:268,1,86.3999973632813,8|4,2:0|2:0,0:0:0:0:
303,194,67938,2,0,L|417:173,1,86.3999973632813,6|12,2:0|2:0,0:0:0:0:
250,116,68283,2,0,P|197:109|157:119,1,86.3999973632813,12|12,2:0|2:0,0:0:0:0:
35,215,68628,2,0,P|49:157|42:114,1,86.3999973632813,14|8,2:0|2:0,0:0:0:0:
33,111,68887,1,8,2:0:0:0:
15,94,68973,6,0,P|13:51|26:9,1,86.3999973632813,8|8,2:0|2:0,0:0:0:0:
175,31,69318,2,0,P|177:74|164:116,1,86.3999973632813,10|4,2:0|2:0,0:0:0:0:
84,181,69662,2,0,L|96:231,2,43.1999986816407,4|0|12,2:0|0:0|2:0,0:0:0:0:
175,261,70007,2,0,P|224:273|287:273,1,86.3999973632813,14|8,2:0|2:0,0:0:0:0:
281,262,70266,1,8,2:0:0:0:
301,247,70352,6,0,P|350:235|413:235,1,86.3999973632813,8|8,2:0|2:0,0:0:0:0:
512,314,70697,1,2,0:0:0:0:
490,210,70869,2,0,L|501:162,2,43.1999986816407,8|8|8,2:0|2:0|2:0,0:0:0:0:
407,336,71214,1,8,2:0:0:0:
385,232,71387,6,0,L|374:184,4,43.1999986816407,2|0|0|0|2,0:0|0:0|0:0|0:0|3:0,0:0:0:0:
311,148,73111,5,0,0:0:0:0:
311,148,73455,6,0,P|233:128|259:259,1,259.199992089844,2|8,3:0|2:0,0:0:0:0:
344,327,74145,2,0,L|157:307,1,172.799994726563,2|4,2:0|2:0,0:0:0:0:
69,344,74662,1,0,0:0:0:0:
69,344,74835,2,0,P|72:284|55:141,1,172.799994726563,2|0,2:0|0:0,0:0:0:0:
10,91,75352,1,8,2:0:0:0:
86,34,75524,2,0,P|131:24|187:23,1,86.3999973632813,2|0,2:0|0:0,0:0:0:0:
273,68,75869,5,4,1:0:0:0:
182,133,76042,2,0,P|162:193|152:240,1,86.3999973632813,4|8,1:0|2:0,0:0:0:0:
273,68,76387,2,0,B|333:54|333:54|451:78,1,172.799994726563,4|8,1:0|2:0,0:0:0:0:
456,92,76817,1,8,2:0:0:0:
470,108,76904,2,0,P|490:168|500:215,1,86.3999973632813,4|0,1:0|0:0,0:0:0:0:
477,301,77249,6,0,P|414:293|367:291,1,86.3999973632813,4|0,2:0|0:0,0:0:0:0:
297,353,77593,2,0,P|296:297|287:244,1,86.3999973632813,2|0,2:0|0:0,0:0:0:0:
244,184,77938,1,0,0:0:0:0:
244,184,78111,1,8,2:0:0:0:
326,136,78283,1,2,2:0:0:0:
326,136,78455,1,8,2:0:0:0:
374,218,78628,6,0,P|419:229|464:218,1,86.3999973632813,4|8,2:0|2:0,0:0:0:0:
326,136,78973,2,0,P|293:169|281:213,1,86.3999973632813,10|8,2:0|2:0,0:0:0:0:
421,135,79318,2,0,P|408:90|375:57,1,86.3999973632813,8|8,2:0|2:0,0:0:0:0:
233,92,79662,2,0,P|190:96|124:92,1,86.3999973632813,10|8,2:0|2:0,0:0:0:0:
125,87,79921,1,8,2:0:0:0:
104,78,80007,6,0,P|107:144|107:198,1,86.3999973632813,4|8,2:0|2:0,0:0:0:0:
0,260,80352,2,0,P|54:251|100:256,1,86.3999973632813,10|8,2:0|2:0,0:0:0:0:
188,328,80697,2,0,L|172:380,2,43.1999986816407,8|0|8,2:0|0:0|2:0,0:0:0:0:
246,231,81042,2,0,P|284:248|338:256,1,86.3999973632813,10|8,2:0|2:0,0:0:0:0:
350,254,81300,1,8,2:0:0:0:
372,248,81387,6,0,P|375:184|368:133,1,86.3999973632813,4|8,2:0|2:0,0:0:0:0:
328,27,81731,1,10,2:0:0:0:
418,72,81904,2,0,L|461:67,2,43.1999986816407,8|8|8,2:0|2:0|2:0,0:0:0:0:
283,117,82249,1,8,2:0:0:0:
151,57,82421,6,0,L|155:13,4,43.1999986816407,10|0|4|0|4,2:0|0:0|3:0|0:0|2:0,0:0:0:0:
256,192,82852,12,0,84145,0:0:0:0:
318,71,84490,5,2,2:0:0:0:
251,136,84662,2,0,P|281:183|297:225,1,72,0|0,0:0|0:0,0:0:0:0:
299,290,85007,1,8,2:0:0:0:
214,332,85180,2,0,P|168:322|127:319,1,72,2|0,2:0|0:0,0:0:0:0:
58,359,85524,5,4,2:0:0:0:
11,277,85697,2,0,P|27:230|37:175,1,72,0|2,0:0|2:0,0:0:0:0:
17,115,86042,1,0,0:0:0:0:
17,115,86214,1,0,0:0:0:0:
64,33,86387,1,8,2:0:0:0:
64,33,86559,2,0,P|109:45|153:42,1,72,2|0,2:0|0:0,0:0:0:0:
262,0,86904,6,0,B|255:49|245:100|245:100|276:148,1,144,4|2,2:0|2:0,0:0:0:0:
274,271,87421,2,0,B|281:222|291:171|291:171|260:123,1,144,8|8,2:0|2:0,0:0:0:0:
186,188,87938,1,2,2:0:0:0:
186,188,88111,1,8,2:0:0:0:
120,116,88283,6,0,P|89:192|121:261,2,144,4|2|0,2:0|2:0|0:0,0:0:0:0:
204,71,89145,1,8,2:0:0:0:
204,71,89318,1,2,2:0:0:0:
268,143,89490,1,0,0:0:0:0:
332,75,89662,6,0,P|368:67|418:76,1,72,4|0,2:0|0:0,0:0:0:0:
475,130,90007,1,2,2:0:0:0:
411,199,90180,2,0,P|375:207|325:198,1,72,0|0,0:0|0:0,0:0:0:0:
268,143,90524,1,8,2:0:0:0:
212,218,90697,2,0,P|238:282|245:306,1,72,2|0,2:0|0:0,0:0:0:0:
247,378,91042,5,4,2:0:0:0:
247,378,91214,1,0,0:0:0:0:
324,325,91387,2,0,P|387:313|420:311,1,72,2|0,2:0|0:0,0:0:0:0:
482,345,91731,1,0,0:0:0:0:
467,254,91904,1,0,0:0:0:0:
499,166,92076,2,0,P|493:126|494:82,1,72,2|0,2:0|0:0,0:0:0:0:
373,27,92421,6,0,B|334:58|296:93|296:93|238:91,1,144,12|2,2:0|2:0,0:0:0:0:
137,20,92938,2,0,B|183:37|232:53|232:53|259:103,1,144,12|12,2:0|2:0,0:0:0:0:
269,183,93455,1,2,2:0:0:0:
269,183,93628,1,8,2:0:0:0:
150,143,93800,5,8,2:0:0:0:
85,199,93973,2,0,P|74:250|93:304,1,108.000004119873,0|0,0:0|0:0,0:0:0:0:
158,366,94490,1,0,0:0:0:0:
158,366,94835,1,0,0:0:0:0:
328,279,95180,6,0,P|343:221|352:195,2,72,4|0|2,1:0|0:0|2:0,0:0:0:0:
269,183,95697,2,0,P|254:125|245:99,2,72,0|0|8,0:0|0:0|0:2,0:0:0:0:
253,308,96214,1,2,2:0:0:0:
25,256,96559,6,0,P|11:200|53:124,1,144,4|2,2:0|2:0,0:0:0:0:
138,97,97076,1,0,0:0:0:0:
138,97,97249,1,0,0:0:0:0:
215,148,97421,1,8,2:0:0:0:
266,71,97593,2,0,P|301:58|356:61,1,72,2|0,2:0|0:0,0:0:0:0:
439,168,97938,6,0,P|446:99|431:17,1,144,4|2,2:0|2:0,0:0:0:0:
318,146,98455,2,0,P|311:215|326:297,1,144,8|8,2:0|2:0,0:0:0:0:
369,370,98973,1,2,2:0:0:0:
369,370,99145,1,8,2:0:0:0:
451,324,99318,6,0,P|459:283|448:243,1,72,4|0,2:0|0:0,0:0:0:0:
396,179,99662,1,2,2:0:0:0:
396,179,99835,1,0,0:0:0:0:
310,217,100007,2,0,P|273:221|219:200,1,72,0|8,0:0|2:0,0:0:0:0:
210,66,100352,2,0,P|231:96|240:153,1,72,2|8,2:0|2:0,0:0:0:0:
156,211,100697,6,0,L|-20:196,1,144,4|2,2:0|2:0,0:0:0:0:
143,294,101214,2,0,P|210:275|239:211,1,144,0|8,0:0|2:0,0:0:0:0:
159,128,101731,1,2,2:0:0:0:
159,128,101904,1,0,0:0:0:0:
239,211,102076,6,0,P|294:225|335:229,1,72,4|0,2:0|0:0,0:0:0:0:
390,181,102421,2,0,P|429:166|466:171,1,72,2|0,2:0|0:0,0:0:0:0:
508,247,102766,1,0,0:0:0:0:
508,247,102938,1,8,2:0:0:0:
489,339,103111,2,0,P|450:354|413:349,1,72,2|0,2:0|0:0,0:0:0:0:
325,275,103455,6,0,B|273:261|273:261|165:284,1,144,12|2,2:0|2:0,0:0:0:0:
101,379,103973,2,0,B|115:327|115:327|92:219,1,144,0|12,0:0|2:0,0:0:0:0:
67,149,104490,1,2,2:0:0:0:
67,149,104662,1,8,2:0:0:0:
173,96,104835,6,0,P|159:163|156:191,1,72,8|8,2:0|2:0,0:0:0:0:
189,255,105180,1,2,2:0:0:0:
282,253,105352,1,12,2:0:0:0:
377,177,105524,2,0,P|331:163|298:163,1,72,0|12,0:0|2:0,0:0:0:0:
209,39,105869,2,0,P|224:90|229:110,1,72,2|12,2:0|2:0,0:0:0:0:
189,255,106214,5,0,0:0:0:0:
52,156,111731,6,0,P|135:183|208:229,1,172.799994726563,2|2,3:0|2:0,0:0:0:0:
304,228,112249,2,0,P|378:182|460:156,1,172.799994726563,0|8,0:0|0:2,0:0:0:0:
415,262,112766,1,2,2:0:0:0:
415,262,112938,1,0,0:0:0:0:
361,125,113111,6,0,P|421:60|500:61,1,172.799994726563,4|2,2:0|2:0,0:0:0:0:
459,156,113628,1,0,0:0:0:0:
361,125,113800,2,0,P|285:111|251:110,1,86.3999973632813,0|8,0:0|2:0,0:0:0:0:
184,135,114145,1,2,2:0:0:0:
184,135,114318,1,0,0:0:0:0:
163,19,114490,6,0,P|177:65|185:107,1,86.3999973632813,4|0,2:0|0:0,0:0:0:0:
141,222,114835,1,2,2:0:0:0:
247,189,115007,2,0,P|291:194|340:206,1,86.3999973632813,0|0,0:0|0:0,0:0:0:0:
394,284,115352,1,8,2:0:0:0:
308,337,115524,2,0,P|264:332|215:320,1,86.3999973632813,2|0,2:0|0:0,0:0:0:0:
141,222,115869,6,0,P|146:270|146:320,1,86.3999973632813,4|0,2:0|0:0,0:0:0:0:
63,188,116214,2,0,P|91:152|145:137,1,86.3999973632813,2|0,2:0|0:0,0:0:0:0:
223,145,116559,1,0,0:0:0:0:
223,145,116731,1,8,2:0:0:0:
339,94,116904,2,0,P|317:168|301:195,1,86.3999973632813,2|8,2:0|2:0,0:0:0:0:
246,245,117249,6,0,P|324:225|388:289,2,172.799994726563,4|2|0,2:0|2:0|0:0,0:0:0:0:
215,335,118111,1,8,2:0:0:0:
160,227,118283,2,0,P|111:212|60:202,1,86.3999973632813,2|0,2:0|0:0,0:0:0:0:
222,157,118628,6,0,P|287:139|409:168,1,172.799994726563,4|2,2:0|2:0,0:0:0:0:
445,233,119145,2,0,B|423:186|423:186|447:58,1,172.799994726563,0|8,0:0|2:0,0:0:0:0:
367,4,119662,2,0,L|348:99,1,86.3999973632813,2|0,2:0|0:0,0:0:0:0:
313,176,120007,6,0,P|245:213|140:169,1,172.799994726563,4|2,2:0|2:0,0:0:0:0:
148,67,120524,2,0,P|216:30|321:74,1,172.799994726563,0|8,0:0|2:0,0:0:0:0:
313,176,121042,1,2,2:0:0:0:
313,176,121214,1,8,2:0:0:0:
231,127,121387,5,8,2:0:0:0:
231,127,121559,1,4,2:0:0:0:
257,243,121731,2,0,P|306:263|343:258,1,86.3999973632813,6|12,2:0|2:0,0:0:0:0:
367,113,122076,2,0,P|325:145|311:179,1,86.3999973632813,12|12,2:0|2:0,0:0:0:0:
440,198,122421,2,0,L|383:193,2,43.1999986816407,14|8|8,2:0|2:0|2:0,0:0:0:0:
503,269,122766,5,8,2:0:0:0:
285,99,123111,1,2,3:0:0:0:
201,144,123283,2,0,P|131:135|95:127,1,86.3999973632813,4|0,2:0|0:0,0:0:0:0:
40,72,123628,1,8,2:0:0:0:
18,164,123800,2,0,L|26:265,1,86.3999973632813,2|0,2:0|0:0,0:0:0:0:
90,318,124145,6,0,P|136:330|190:317,1,86.3999973632813,4|0,2:0|0:0,0:0:0:0:
248,265,124490,2,0,L|240:164,1,86.3999973632813,2|0,2:0|0:0,0:0:0:0:
229,84,124835,1,0,0:0:0:0:
229,84,125007,1,8,2:0:0:0:
316,121,125180,2,0,P|370:133|416:129,1,86.3999973632813,2|0,2:0|0:0,0:0:0:0:
512,94,125524,5,4,1:0:0:0:
433,229,125697,2,0,P|422:287|423:315,1,86.3999973632813,4|0,1:0|0:0,0:0:0:0:
332,209,126042,2,0,B|246:180|246:246|147:208,1,172.799994726563,4|8,1:0|2:0,0:0:0:0:
143,203,126473,1,8,2:0:0:0:
127,189,126559,2,0,L|119:96,1,86.3999973632813,4|0,1:0|0:0,0:0:0:0:
196,47,126904,6,0,P|237:62|290:67,1,86.3999973632813,4|0,2:0|0:0,0:0:0:0:
401,29,127249,2,0,P|372:90|361:123,1,86.3999973632813,2|0,2:0|0:0,0:0:0:0:
355,201,127593,1,0,0:0:0:0:
355,201,127766,1,8,2:0:0:0:
431,258,127938,2,0,P|450:201|438:157,1,86.3999973632813,2|8,2:0|2:0,0:0:0:0:
271,214,128283,6,0,P|294:262|346:285,1,86.3999973632813,8|4,2:0|2:0,0:0:0:0:
431,258,128628,1,6,2:0:0:0:
355,201,128800,1,12,2:0:0:0:
421,344,128973,2,0,P|476:333|509:291,1,86.3999973632813,12|12,2:0|2:0,0:0:0:0:
505,218,129318,2,0,P|498:170|496:123,1,86.3999973632813,14|8,2:0|2:0,0:0:0:0:
496,110,129576,1,8,2:0:0:0:
496,89,129662,6,0,P|425:99|402:95,1,86.3999973632813,8|8,2:0|2:0,0:0:0:0:
311,13,130007,2,0,P|323:80|326:122,1,86.3999973632813,10|4,2:0|2:0,0:0:0:0:
285,198,130352,2,0,L|227:179,2,43.1999986816407,4|0|12,2:0|0:0|2:0,0:0:0:0:
161,248,130697,2,0,P|116:249|74:229,1,86.3999973632813,14|8,2:0|2:0,0:0:0:0:
65,216,130955,1,8,2:0:0:0:
57,195,131042,6,0,L|68:98,1,86.3999973632813,8|8,2:0|2:0,0:0:0:0:
80,8,131387,1,2,0:0:0:0:
167,122,131559,2,0,L|175:176,2,43.1999986816407,8|8|8,2:0|2:0|2:0,0:0:0:0:
180,21,131904,1,8,2:0:0:0:
66,109,132076,6,0,L|58:163,4,43.1999986816407,2|0|0|0|2,0:0|0:0|0:0|0:0|3:0,0:0:0:0:
406,299,133800,6,0,P|305:264|233:343,1,216,2|8,3:0|2:0,0:0:0:0:
166,268,134490,2,0,P|174:230|179:187,1,72,2|0,2:0|0:0,0:0:0:0:
166,103,134835,1,8,2:0:0:0:
166,103,135007,1,8,2:0:0:0:
337,27,135352,5,8,2:0:0:0:
337,27,135524,1,8,2:0:0:0:
462,166,135869,1,0,1:0:0:0:
373,198,136042,2,0,B|347:268|347:268|383:357,1,144,0|0,1:0|1:0,0:0:0:0:
469,354,136559,6,0,P|510:259|462:166,1,216,4|8,2:0|2:0,0:0:0:0:
390,104,137249,2,0,P|390:63|397:17,1,72,2|0,2:0|0:0,0:0:0:0:
484,10,137593,1,8,2:0:0:0:
484,10,137766,1,8,2:0:0:0:
292,122,138111,5,8,2:0:0:0:
292,122,138283,2,0,L|211:114,1,72,8|0,2:0|0:0,0:0:0:0:
137,70,138628,6,0,L|143:32,6,36,2|0|0|0|0|0|0,2:0|0:0|0:0|0:0|0:0|0:0|0:0,0:0:0:0:
84,148,139318,6,0,P|102:187|115:224,1,72,2|0,1:0|1:0,0:0:0:0:
124,306,139662,1,2,3:0:0:0:
37,270,139835,1,8,2:0:0:0:
198,250,140007,2,0,L|279:241,1,72,2|0,2:0|0:0,0:0:0:0:
361,224,140352,1,8,2:0:0:0:
361,224,140524,1,8,2:0:0:0:
286,52,140869,5,8,2:0:0:0:
286,52,141042,1,8,2:0:0:0:
449,143,141387,2,0,P|468:101|463:61,1,72,2|0,2:0|0:0,0:0:0:0:
377,51,141731,2,0,P|358:93|363:133,1,72,8|8,2:0|2:0,0:0:0:0:
381,209,142076,5,4,2:0:0:0:
290,182,142249,1,0,0:0:0:0:
290,182,142421,2,0,P|244:179|201:183,1,72,0|8,0:0|2:0,0:0:0:0:
141,263,142766,1,2,2:0:0:0:
113,173,142938,2,0,L|93:94,2,72,0|8|8,0:0|2:0|2:0,0:0:0:0:
256,293,143628,6,0,L|238:362,2,72,8|8|0,2:0|2:0|0:0,0:0:0:0:
280,202,144145,1,2,1:0:0:0:
280,202,144318,1,2,1:0:0:0:
351,261,144490,2,0,P|369:228|370:181,1,72,8|0,2:0|0:0,0:0:0:0:
313,31,144835,6,0,L|319:138,1,86.3999973632813,2|0,3:0|0:0,0:0:0:0:
230,78,145180,2,0,P|116:47|22:160,1,259.199992089844,2|8,2:0|2:0,0:0:0:0:
68,222,145869,2,0,P|79:259|87:309,1,86.3999973632813,2|0,2:0|0:0,0:0:0:0:
167,356,146214,6,0,P|205:324|265:306,1,86.3999973632813,4|0,2:0|0:0,0:0:0:0:
333,322,146559,2,0,B|338:280|314:242|283:227|283:227|299:185|299:185|283:139|283:139|283:69,1,259.199992089844,2|8,2:0|2:0,0:0:0:0:
211,184,147249,1,2,2:0:0:0:
405,118,147593,6,0,L|502:124,1,86.3999973632813,4|0,2:0|0:0,0:0:0:0:
441,204,147938,1,2,2:0:0:0:
346,188,148111,2,0,P|314:120|366:35,1,172.799994726563,0|8,0:0|2:0,0:0:0:0:
276,138,148628,2,0,L|189:132,1,86.3999973632813,2|0,2:0|0:0,0:0:0:0:
101,97,148973,6,0,P|107:159|111:203,1,86.3999973632813,4|0,2:0|0:0,0:0:0:0:
109,278,149318,2,0,B|253:198|253:342|381:278,1,259.199992089844,2|8,2:0|2:0,0:0:0:0:
414,215,150007,1,2,2:0:0:0:
320,200,150180,1,8,2:0:0:0:
448,303,150352,5,4,2:0:0:0:
448,303,150697,2,0,P|508:212|401:120,1,259.199992089844,2|8,2:0|2:0,0:0:0:0:
332,164,151387,2,0,P|278:170|234:159,1,86.3999973632813,2|0,2:0|0:0,0:0:0:0:
152,118,151731,6,0,L|166:208,1,86.3999973632813,4|0,2:0|0:0,0:0:0:0:
242,258,152076,2,0,P|221:330|211:391,2,129.599996044922,2|0|8,2:0|0:0|2:0,0:0:0:0:
332,164,152766,1,2,2:0:0:0:
332,164,153111,6,0,P|385:168|425:167,2,86.3999973632813,4|0|2,2:0|0:0|2:0,0:0:0:0:
249,117,153628,2,0,P|178:103|72:119,1,172.799994726563,0|8,0:0|2:0,0:0:0:0:
4,175,154145,1,2,2:0:0:0:
4,175,154318,1,8,2:0:0:0:
131,214,154490,6,0,P|114:265|108:303,1,86.3999973632813,4|8,2:0|2:0,0:0:0:0:
245,233,154835,2,0,P|237:190|222:149,1,86.3999973632813,2|8,2:0|2:0,0:0:0:0:
163,47,155180,1,2,3:0:0:0:
494,117,155869,5,4,2:0:0:0:
186,323,166904,6,0,P|199:252|193:198,1,108.000004119873,4|0,2:0|0:0,0:0:0:0:
145,127,167421,1,8,2:0:0:0:
145,127,167593,2,0,P|140:69|181:14,2,108.000004119873,2|8|0,3:0|2:0|0:0,0:0:0:0:
246,146,168455,2,0,P|271:99|264:46,1,108.000004119873,0|8,0:0|2:0,0:0:0:0:
163,27,168973,2,0,L|101:18,1,54.0000020599366,2|0,3:0|0:0,0:0:0:0:
8,95,169318,2,0,L|70:86,1,54.0000020599366,8|0,2:0|0:0,0:0:0:0:
152,134,169662,6,0,P|168:194|173:257,1,108.000004119873,0|0,0:0|0:0,0:0:0:0:
164,342,170180,1,8,2:0:0:0:
260,306,170352,2,0,P|291:303|326:301,1,54.0000020599366,2|0,3:0|0:0,0:0:0:0:
414,321,170697,2,0,L|425:202,1,108.000004119873,8|0,2:0|0:0,0:0:0:0:
471,122,171214,1,0,0:0:0:0:
471,122,171387,2,0,L|463:61,1,54.0000020599366,0|8,0:0|2:0,0:0:0:0:
364,44,171731,2,0,L|356:97,1,54.0000020599366,2|0,3:0|0:0,0:0:0:0:
249,19,172076,2,0,L|256:72,1,54.0000020599366,8|0,2:0|3:0,0:0:0:0:
222,169,172421,6,0,P|160:166|101:145,1,108.000004119873,0|0,0:0|0:0,0:0:0:0:
23,107,172938,1,8,2:0:0:0:
45,196,173111,2,0,P|55:238|59:264,1,54.0000020599366,2|0,3:0|0:0,0:0:0:0:
152,286,173455,1,8,2:0:0:0:
152,286,173628,2,0,P|142:328|138:354,2,54.0000020599366,0|0|0,0:0|0:0|0:0,0:0:0:0:
211,201,174145,1,0,0:0:0:0:
211,201,174318,1,8,2:0:0:0:
296,260,174490,2,0,P|303:291|307:320,1,54.0000020599366,2|0,3:0|0:0,0:0:0:0:
405,286,174835,2,0,P|398:317|394:346,1,54.0000020599366,8|0,2:0|0:0,0:0:0:0:
512,321,175180,6,0,P|513:257|480:202,1,108.000004119873,0|0,0:0|0:0,0:0:0:0:
403,169,175697,1,8,2:0:0:0:
403,169,175869,2,0,L|408:101,1,54.0000020599366,2|0,3:0|0:0,0:0:0:0:
346,32,176214,2,0,P|303:45|271:42,1,54.0000020599366,8|0,2:0|0:0,0:0:0:0:
195,62,176559,1,0,0:0:0:0:
195,62,176731,2,0,P|227:92|241:121,1,54.0000020599366,0|0,0:0|0:0,0:0:0:0:
297,178,177076,1,8,2:0:0:0:
297,178,177249,2,0,P|307:134|325:108,1,54.0000020599366,2|0,3:0|0:0,0:0:0:0:
403,169,177593,2,0,P|393:213|375:239,1,54.0000020599366
343,307,177938,6,0,P|378:311|413:320,2,72,4|0|2,2:0|0:0|2:0,0:0:0:0:
251,327,178455,2,0,P|212:338|167:333,1,72,0|0,0:0|0:0,0:0:0:0:
91,308,178800,1,8,2:0:0:0:
159,243,178973,2,0,P|175:176|171:146,1,72,2|0,2:0|0:0,0:0:0:0:
112,68,179318,6,0,P|96:135|100:165,2,72,4|0|2,2:0|0:0|2:0,0:0:0:0:
193,21,179835,1,0,0:0:0:0:
193,21,180007,2,0,P|228:35|279:41,1,72,0|8,0:0|2:0,0:0:0:0:
353,20,180352,1,2,2:0:0:0:
353,20,180524,1,0,0:0:0:0:
373,111,180697,6,0,P|435:139|510:116,1,144,4|2,2:0|2:0,0:0:0:0:
373,111,181214,2,0,L|385:263,1,144,0|8,0:0|2:0,0:0:0:0:
394,347,181731,1,2,2:0:0:0:
394,347,181904,1,0,0:0:0:0:
308,309,182076,6,0,P|264:306|235:309,1,72,4|0,2:0|0:0,0:0:0:0:
155,357,182421,1,2,2:0:0:0:
155,357,182593,1,0,0:0:0:0:
79,262,182766,2,0,P|123:259|152:262,1,72,0|8,0:0|2:0,0:0:0:0:
236,308,183111,2,0,P|247:254|238:217,1,72,2|8,2:0|2:0,0:0:0:0:
195,158,183455,6,0,P|257:195|326:179,1,144,4|2,2:0|2:0,0:0:0:0:
342,87,183973,2,0,P|280:50|211:66,1,144,0|8,0:0|2:0,0:0:0:0:
132,113,184490,2,0,P|151:169|157:200,1,72,2|0,2:0|0:0,0:0:0:0:
138,274,184835,5,4,2:0:0:0:
138,274,185007,2,0,P|81:264|55:264,1,72,0|2,0:0|2:0,0:0:0:0:
56,366,185352,2,0,P|91:363|126:355,1,72,0|0,0:0|0:0,0:0:0:0:
224,292,185697,1,8,2:0:0:0:
224,292,185869,2,0,P|207:355|200:383,1,72,2|0,2:0|0:0,0:0:0:0:
316,349,186214,6,0,P|329:266|286:203,1,144,4|2,2:0|2:0,0:0:0:0:
209,195,186731,1,0,0:0:0:0:
209,195,186904,2,0,P|194:244|188:274,1,72,0|8,0:0|2:0,0:0:0:0:
93,158,187249,2,0,P|108:206|115:238,1,72,2|8,2:0|2:0,0:0:0:0:
117,320,187593,5,4,2:0:0:0:
23,278,187766,2,0,P|11:240|17:188,2,72,8|2|8,2:0|2:0|2:0,0:0:0:0:
117,320,188283,2,0,P|168:312|192:310,1,72,0|8,0:0|2:0,0:0:0:0:
281,317,188628,1,2,2:0:0:0:
188,310,188800,1,8,2:0:0:0:
356,359,188973,6,0,P|347:262|272:231,1,172.799994726563,2|2,3:0|2:0,0:0:0:0:
188,310,189490,2,0,B|206:254|206:254|183:101,1,172.799994726563,0|8,0:0|2:0,0:0:0:0:
128,45,190007,2,0,P|167:60|226:54,1,86.3999973632813,2|0,2:0|0:0,0:0:0:0:
341,5,190352,6,0,B|323:61|323:61|346:214,1,172.799994726563,4|2,2:0|2:0,0:0:0:0:
358,267,190869,1,0,0:0:0:0:
358,267,191042,2,0,P|296:253|258:248,1,86.3999973632813,0|8,0:0|2:0,0:0:0:0:
178,250,191387,1,2,2:0:0:0:
226,333,191559,1,0,0:0:0:0:
225,166,191731,6,0,B|230:49|230:49|176:107,1,172.799994726563,4|2,2:0|2:0,0:0:0:0:
309,201,192249,2,0,L|314:27,1,172.799994726563,0|8,0:0|2:0,0:0:0:0:
397,81,192766,2,0,L|395:174,1,86.3999973632813,2|0,2:0|0:0,0:0:0:0:
464,232,193111,6,0,P|432:278|414:333,1,86.3999973632813,4|0,2:0|0:0,0:0:0:0:
338,352,193455,2,0,P|282:306|240:292,1,86.3999973632813,2|0,2:0|0:0,0:0:0:0:
179,271,193800,1,0,0:0:0:0:
179,271,193973,1,8,2:0:0:0:
89,303,194145,1,2,2:0:0:0:
89,303,194318,1,8,2:0:0:0:
219,358,194490,6,0,P|272:289|235:193,1,172.799994726563,4|2,2:0|2:0,0:0:0:0:
188,140,195007,1,0,0:0:0:0:
188,140,195180,2,0,P|180:96|200:40,1,86.3999973632813,0|8,0:0|2:0,0:0:0:0:
327,62,195524,2,0,P|335:106|315:162,1,86.3999973632813,2|0,2:0|0:0,0:0:0:0:
253,211,195869,6,0,L|57:190,1,172.799994726563,4|2,2:0|2:0,0:0:0:0:
8,255,196387,1,0,0:0:0:0:
8,255,196559,2,0,P|29:290|45:344,1,86.3999973632813,0|8,0:0|2:0,0:0:0:0:
81,192,196904,2,0,L|73:79,1,86.3999973632813,2|0,2:0|0:0,0:0:0:0:
152,24,197249,6,0,B|253:4|214:76|328:53,1,172.799994726563,4|2,2:0|2:0,0:0:0:0:
427,25,197766,1,0,0:0:0:0:
427,25,197938,2,0,P|417:78|413:121,1,86.3999973632813,0|8,0:0|2:0,0:0:0:0:
435,203,198283,1,2,2:0:0:0:
435,203,198455,1,8,2:0:0:0:
321,132,198628,6,0,L|219:115,1,86.3999973632813,8|4,2:0|2:0,0:0:0:0:
413,110,198973,2,0,L|523:91,1,86.3999973632813,6|12,2:0|2:0,0:0:0:0:
330,235,199318,2,0,L|287:228,2,43.1999986816407,12|0|12,2:0|0:0|2:0,0:0:0:0:
448,193,199662,2,0,L|490:186,2,43.1999986816407,14|8|8,2:0|2:0|2:0,0:0:0:0:
308,122,200007,5,8,2:0:0:0:
68,53,200352,1,2,3:0:0:0:
126,127,200524,2,0,P|141:185|145:231,1,86.3999973632813,4|0,2:0|0:0,0:0:0:0:
111,300,200869,1,8,2:0:0:0:
168,199,201042,2,0,P|217:188|263:184,1,86.3999973632813,2|0,2:0|0:0,0:0:0:0:
356,108,201387,6,0,P|338:148|341:205,1,86.3999973632813,4|0,2:0|0:0,0:0:0:0:
390,268,201731,1,2,2:0:0:0:
469,218,201904,2,0,P|487:178|484:121,1,86.3999973632813,0|0,0:0|0:0,0:0:0:0:
432,50,202248,1,8,2:0:0:0:
432,50,202421,2,0,P|380:32|341:22,1,86.3999973632813,2|0,2:0|0:0,0:0:0:0:
205,36,202766,5,4,1:0:0:0:
130,127,202938,2,0,P|71:124|43:118,1,86.3999973632813,4|0,1:0|0:0,0:0:0:0:
230,123,203283,2,0,P|202:206|191:293,1,172.799994726563,4|8,1:0|2:0,0:0:0:0:
192,311,203714,1,8,2:0:0:0:
194,333,203800,2,0,P|136:322|90:319,1,86.3999973632813,4|0,1:0|0:0,0:0:0:0:
2,226,204145,6,0,P|42:236|107:218,1,86.3999973632813,4|0,2:0|0:0,0:0:0:0:
159,79,204490,2,0,P|130:108|113:173,1,86.3999973632813,2|0,2:0|0:0,0:0:0:0:
179,219,204835,1,0,0:0:0:0:
179,219,205007,1,8,2:0:0:0:
272,203,205180,1,2,2:0:0:0:
272,203,205352,1,8,2:0:0:0:
175,308,205524,6,0,P|127:292|97:252,1,86.3999973632813,8|4,2:0|2:0,0:0:0:0:
114,150,205869,1,6,2:0:0:0:
114,150,206042,1,12,2:0:0:0:
230,123,206214,2,0,P|215:173|205:215,1,86.3999973632813,12|12,2:0|2:0,0:0:0:0:
348,285,206559,2,0,P|337:243|324:201,1,86.3999973632813,14|8,2:0|2:0,0:0:0:0:
317,181,206817,1,8,2:0:0:0:
307,162,206904,6,0,P|354:166|398:156,1,86.3999973632813,8|8,2:0|2:0,0:0:0:0:
483,45,207249,2,0,P|471:104|470:136,1,86.3999973632813,10|4,2:0|2:0,0:0:0:0:
497,257,207593,2,0,L|514:202,2,43.1999986816407,4|0|12,2:0|0:0|2:0,0:0:0:0:
434,348,207938,2,0,P|380:339|337:331,1,86.3999973632813,14|8,2:0|2:0,0:0:0:0:
327,329,208197,1,8,2:0:0:0:
306,326,208283,6,0,P|261:336|208:320,1,86.3999973632813,8|8,2:0|2:0,0:0:0:0:
165,240,208628,1,2,0:0:0:0:
243,128,208800,2,0,L|238:69,2,43.1999986816407,8|8|8,2:0|2:0|2:0,0:0:0:0:
314,219,209145,1,8,2:0:0:0:
392,107,209317,6,0,L|395:63,4,43.1999986816407,2|0|0|0|2,0:0|0:0|0:0|0:0|3:0,0:0:0:0:
256,192,209749,12,0,211042,0:0:0:0:
95,164,211387,5,0,0:0:0:0:
243,22,211731,2,0,P|218:102|203:187,1,162.00000617981,2|0,2:0|0:0,0:0:0:0:
255,268,212421,2,0,P|312:276|365:264,2,108.000004119873,0|0|2,3:0|3:0|2:0,0:0:0:0:
203,178,213283,1,0,0:0:0:0:
130,249,213455,2,0,P|143:284|151:316,1,54.0000020599366,0|0,0:0|0:0,0:0:0:0:
27,278,213800,6,0,P|30:211|67:162,2,108.000004119873,0|0|2,3:0|0:0|2:0,0:0:0:0:
89,359,214662,1,0,0:0:0:0:
89,359,214835,2,0,P|150:306|242:303,1,162.00000617981,0|0,3:0|0:0,0:0:0:0:
323,335,215524,2,0,L|317:279,1,54.0000020599366,0|0,3:0|0:0,0:0:0:0:
263,158,215869,2,0,L|257:214,1,54.0000020599366,2|0,2:0|0:0,0:0:0:0:
351,135,216214,2,0,L|345:79,1,54.0000020599366,0|0,0:0|0:0,0:0:0:0:
260,22,216559,6,0,P|210:11|144:36,1,108.000004119873,0|0,3:0|0:0,0:0:0:0:
59,208,217249,2,0,P|138:288|158:345,1,162.00000617981,2|0,2:0|0:0,0:0:0:0:
230,263,217938,2,0,P|283:246|343:240,1,108.000004119873,0|0,3:0|3:0,0:0:0:0:
434,215,218455,1,0,0:0:0:0:
434,215,218628,2,0,P|422:262|418:286,1,54.0000020599366,2|0,2:0|0:0,0:0:0:0:
404,368,218973,1,0,0:0:0:0:
404,368,219145,1,0,0:0:0:0:
500,333,219318,5,0,3:0:0:0:
500,333,219662,1,0,0:0:0:0:
294,324,220007,2,0,P|246:332|216:338,1,54.0000020599366,2|0,2:0|0:0,0:0:0:0:
144,370,220352,2,0,B|164:314|164:314|152:194,1,162.00000617981,0|0,3:0|3:0,0:0:0:0:
61,136,221042,2,0,P|98:139|122:136,1,54.0000020599366,2|0,0:0|0:0,0:0:0:0:
215,108,221387,2,0,L|212:43,1,54.0000020599366,2|2,2:0|0:0,0:0:0:0:
318,14,221731,2,0,L|315:67,1,54.0000020599366,0|2,0:0|0:0,0:0:0:0:
