osu file format v14

[General]
AudioFilename: audio.mp3
AudioLeadIn: 0
PreviewTime: 50352
Countdown: 0
SampleSet: Soft
StackLeniency: 0.4
Mode: 0
LetterboxInBreaks: 0
WidescreenStoryboard: 1

[Editor]
Bookmarks: 141387
DistanceSpacing: 1
BeatDivisor: 4
GridSize: 4
TimelineZoom: 2

[Metadata]
Title:Stay Alive (Jun Kuroda Bootleg Remix)
TitleUnicode:Stay Alive (Jun Kuroda Bootleg Remix)
Artist:EMILIA (CV: Takahashi Rie)
ArtistUnicode:エミリア (CV:高橋李依)
Creator:gary00737
Version:Extra
Source:Re:ゼロから始める異世界生活
Tags:Frey Moecho Moeri Moeriko CookieBite DreaM117er m1223961117 re:zero ed2 ending
BeatmapID:1419954
BeatmapSetID:671597

[Difficulty]
HPDrainRate:5.3
CircleSize:4.3
OverallDifficulty:9
ApproachRate:9.4
SliderMultiplier:1.74
SliderTickRate:1

[Events]
//Background and Video events
0,0,"735306.jpg",0,0
//Break Periods
2,45724,47683
2,106414,108373
2,156069,166304
//Storyboard Layer 0 (Background)
//Storyboard Layer 1 (Fail)
//Storyboard Layer 2 (Pass)
//Storyboard Layer 3 (Foreground)
//Storyboard Sound Samples

[TimingPoints]
1387,344.827586206897,4,2,1,40,1,0
1387,-133.333333333333,4,2,1,40,0,0
1473,-133.333333333333,4,2,0,40,0,0
12421,-100,4,2,2,40,0,0
12507,-100,4,2,1,45,0,0
13111,-100,4,2,0,45,0,0
13197,-100,4,2,1,45,0,0
14490,-100,4,2,0,45,0,0
14576,-100,4,2,1,45,0,0
15869,-100,4,2,0,45,0,0
15955,-100,4,2,1,45,0,0
17249,-100,4,2,0,45,0,0
17335,-100,4,2,1,45,0,0
17766,-100,4,2,0,45,0,0
17852,-100,4,2,1,45,0,0
18628,-100,4,2,0,45,0,0
18714,-100,4,2,1,45,0,0
20007,-100,4,2,0,45,0,0
20093,-100,4,2,1,45,0,0
22076,-100,4,2,0,45,0,0
23455,-100,4,2,1,60,0,0
25352,-100,4,2,0,60,0,0
25697,-100,4,2,1,60,0,0
28111,-100,4,2,0,60,0,0
28455,-100,4,2,1,60,0,0
29490,-100,4,2,0,60,0,0
29835,-100,4,2,1,60,0,0
30869,-100,4,2,0,60,0,0
31214,-100,4,2,1,60,0,0
33283,-100,4,2,0,60,0,0
33455,-100,4,2,1,60,0,0
35007,-100,4,2,0,60,0,0
35352,-100,4,2,1,60,0,0
35697,-100,4,2,0,60,0,0
35869,-100,4,2,1,60,0,0
36387,-100,4,2,0,60,0,0
36731,-100,4,2,1,60,0,0
37766,-100,4,2,0,60,0,0
38111,-100,4,2,1,60,0,0
39145,-100,4,2,0,60,0,0
39490,-100,4,2,1,60,0,0
40524,-100,4,2,0,60,0,0
40869,-100,4,2,1,60,0,0
41559,-100,4,2,0,60,0,0
41731,-100,4,2,1,60,0,0
42076,-100,4,2,0,60,0,0
42249,-100,4,2,1,60,0,0
43283,-100,4,2,0,60,0,0
43628,-100,4,2,1,60,0,0
49662,-100,4,2,0,57,0,0
50352,-100,4,2,1,5,0,0
51042,-80,4,2,1,75,0,1
51559,-80,4,2,0,75,0,1
51904,-80,4,2,1,75,0,1
52249,-80,4,2,0,75,0,1
52421,-80,4,2,1,75,0,1
52938,-80,4,2,0,75,0,1
53283,-80,4,2,1,75,0,1
54318,-80,4,2,0,75,0,1
54662,-80,4,2,1,75,0,1
55697,-80,4,2,0,75,0,1
56042,-80,4,2,1,75,0,1
57076,-80,4,2,0,75,0,1
57421,-80,4,2,1,75,0,1
58455,-80,4,2,0,75,0,1
58800,-80,4,2,1,75,0,1
59835,-80,4,2,0,75,0,1
60180,-80,4,2,1,75,0,1
62076,-100,4,2,1,75,0,0
62421,-80,4,2,1,75,0,1
62593,-80,4,2,2,75,0,1
62680,-80,4,2,1,75,0,1
63973,-80,4,2,0,75,0,1
64318,-80,4,2,1,75,0,1
65869,-133.333333333333,4,2,1,72,0,1
66214,-80,4,2,1,72,0,1
66387,-80,4,2,0,72,0,1
66559,-80,4,2,1,72,0,1
66731,-80,4,2,0,72,0,1
67076,-80,4,2,1,72,0,1
71731,-100,4,2,1,75,0,0
73455,-100,4,2,1,65,0,1
73542,-100,4,2,1,65,0,0
77421,-100,4,2,0,65,0,0
77593,-100,4,2,1,65,0,0
77938,-100,4,2,0,65,0,0
78111,-100,4,2,1,65,0,0
82766,-133.333333333333,4,2,1,62,0,0
84145,-100,4,2,1,55,0,0
84662,-100,4,2,0,55,0,0
85007,-100,4,2,1,55,0,0
86042,-100,4,2,0,55,0,0
86387,-100,4,2,1,55,0,0
88800,-100,4,2,0,55,0,0
89145,-100,4,2,1,55,0,0
90180,-100,4,2,0,55,0,0
90524,-100,4,2,1,55,0,0
91559,-100,4,2,0,55,0,0
91904,-100,4,2,1,55,0,0
93800,-133.333333333333,4,2,0,55,0,0
94490,-133.333333333333,4,2,0,55,0,0
95180,-100,4,2,1,60,0,0
95697,-100,4,2,0,60,0,0
96042,-100,4,2,1,60,0,0
97076,-100,4,2,0,60,0,0
97421,-100,4,2,1,60,0,0
98455,-100,4,2,0,60,0,0
98800,-100,4,2,1,60,0,0
99835,-100,4,2,0,60,0,0
100180,-100,4,2,1,60,0,0
101214,-100,4,2,0,60,0,0
101559,-100,4,2,1,60,0,0
102249,-100,4,2,0,60,0,0
102421,-100,4,2,1,60,0,0
102766,-100,4,2,0,60,0,0
102938,-100,4,2,1,60,0,0
103973,-100,4,2,0,60,0,0
104318,-100,4,2,1,60,0,0
110352,-100,4,2,0,57,0,0
111042,-100,4,2,1,5,0,0
111731,-80,4,2,1,75,0,1
112249,-80,4,2,0,75,0,1
112593,-80,4,2,1,75,0,1
113628,-80,4,2,0,75,0,1
113973,-80,4,2,1,75,0,1
115007,-80,4,2,0,75,0,1
115352,-80,4,2,1,75,0,1
116387,-80,4,2,0,75,0,1
116731,-80,4,2,1,75,0,1
117766,-80,4,2,0,75,0,1
118111,-80,4,2,1,75,0,1
119145,-80,4,2,0,75,0,1
119490,-80,4,2,1,75,0,1
120524,-80,4,2,0,75,0,1
120869,-80,4,2,1,75,0,1
122766,-80,4,2,1,75,0,0
123111,-80,4,2,1,75,0,1
123283,-80,4,2,2,75,0,1
123369,-80,4,2,1,75,0,1
124662,-80,4,2,0,75,0,1
125007,-80,4,2,1,75,0,1
126559,-133.333333333333,4,2,1,75,0,1
126904,-80,4,2,1,75,0,1
127076,-80,4,2,0,75,0,1
127249,-80,4,2,1,75,0,1
127593,-80,4,2,0,75,0,1
127766,-80,4,2,1,75,0,1
132421,-133.333333333333,4,2,1,75,0,0
133800,-100,4,2,1,65,0,0
133973,-100,4,2,0,65,0,0
134318,-100,4,2,1,65,0,0
134662,-100,4,2,0,65,0,0
134835,-100,4,2,1,65,0,0
135869,-66.6666666666667,4,2,1,65,0,0
136559,-100,4,2,1,65,0,0
136731,-100,4,2,0,65,0,0
137076,-100,4,2,1,65,0,0
137421,-100,4,2,0,65,0,0
137593,-100,4,2,1,65,0,0
138628,-66.6666666666667,4,2,1,65,0,0
138973,-66.6666666666667,4,2,0,65,0,0
139318,-133.333333333333,4,2,1,65,0,0
139490,-100,4,2,1,65,0,0
139662,-66.6666666666667,4,2,1,65,0,0
140007,-100,4,2,1,65,0,0
140180,-100,4,2,0,65,0,0
140352,-100,4,2,1,65,0,0
141559,-100,4,2,0,65,0,0
141731,-100,4,2,1,65,0,0
142421,-100,4,2,0,65,0,0
142593,-100,4,2,1,65,0,0
142938,-100,4,2,0,65,0,0
143111,-100,4,2,1,65,0,0
144145,-66.6666666666667,4,2,1,65,0,0
144490,-200,4,2,1,65,0,0
144835,-100,4,2,1,60,0,0
145352,-100,4,2,0,60,0,0
145697,-100,4,2,1,60,0,0
146731,-100,4,2,0,60,0,0
147076,-100,4,2,1,60,0,0
148111,-100,4,2,0,60,0,0
148455,-100,4,2,1,60,0,0
149490,-100,4,2,0,60,0,0
149835,-100,4,2,1,60,0,0
150869,-100,4,2,0,60,0,0
151214,-100,4,2,1,60,0,0
152249,-100,4,2,0,60,0,0
152593,-100,4,2,1,60,0,0
153628,-100,4,2,0,60,0,0
153973,-100,4,2,1,60,0,0
155180,-133.333333333333,4,2,1,57,0,0
155783,-133.333333333333,4,2,1,57,0,0
155869,-100,4,2,2,45,0,0
155955,-100,4,2,1,45,0,0
166904,-133.333333333333,4,2,2,45,0,0
166990,-133.333333333333,4,2,1,30,0,0
176559,-100,4,2,0,35,0,0
176904,-100,4,2,0,40,0,0
177249,-100,4,2,0,45,0,0
177593,-100,4,2,0,50,0,0
177938,-100,4,2,1,60,0,0
178455,-100,4,2,0,60,0,0
178800,-100,4,2,1,60,0,0
179835,-100,4,2,0,60,0,0
180180,-100,4,2,1,60,0,0
181214,-100,4,2,0,60,0,0
181559,-100,4,2,1,60,0,0
182249,-100,4,2,0,60,0,0
182421,-100,4,2,1,60,0,0
182593,-100,4,2,0,60,0,0
182938,-100,4,2,1,60,0,0
183973,-100,4,2,0,60,0,0
184318,-100,4,2,1,60,0,0
185007,-100,4,2,0,60,0,0
185180,-100,4,2,1,60,0,0
185524,-100,4,2,0,60,0,0
185697,-100,4,2,1,60,0,0
186214,-100,4,2,1,65,0,0
186731,-100,4,2,0,65,0,0
187076,-100,4,2,1,65,0,0
188973,-80,4,2,1,75,0,1
189490,-80,4,2,0,75,0,1
189835,-80,4,2,1,75,0,1
190869,-80,4,2,0,75,0,1
191214,-80,4,2,1,75,0,1
192249,-80,4,2,0,75,0,1
192593,-80,4,2,1,75,0,1
193628,-80,4,2,0,75,0,1
193973,-80,4,2,1,75,0,1
195007,-80,4,2,0,75,0,1
195352,-80,4,2,1,75,0,1
196387,-80,4,2,0,75,0,1
196731,-80,4,2,1,75,0,1
197766,-80,4,2,0,75,0,1
198111,-80,4,2,1,75,0,1
200007,-100,4,2,1,75,0,0
200352,-80,4,2,1,75,0,1
200524,-80,4,2,2,75,0,1
200611,-80,4,2,1,75,0,1
201904,-80,4,2,0,75,0,1
202249,-80,4,2,1,75,0,1
203800,-133.333333333333,4,2,1,80,0,1
204145,-80,4,2,1,80,0,1
204318,-80,4,2,0,80,0,1
204490,-80,4,2,1,80,0,1
204835,-80,4,2,0,80,0,1
205007,-80,4,2,1,80,0,1
209662,-133.333333333333,4,2,1,45,0,0
210007,-100,4,2,0,45,0,0
211042,-133.333333333333,4,2,2,45,0,0
211387,-100,4,2,2,45,0,0
211731,-133.333333333333,4,2,0,45,0,0

[Colours]
Combo1 : 136,255,255
Combo2 : 255,153,204
Combo3 : 255,119,255

[HitObjects]
197,298,1387,6,0,B|197:257|197:257|182:226|182:226|182:160,1,130.50000497818,0|0,3:0|0:0,0:0:0:0:
256,140,1904,1,0,0:0:0:0:
256,140,2076,2,0,L|256:227,1,65.2500024890901,2|0,2:0|0:0,0:0:0:0:
315,298,2421,1,0,0:0:0:0:
315,298,2766,6,0,B|315:257|315:257|330:226|330:226|330:160,1,130.50000497818,0|0,0:0|0:0,0:0:0:0:
267,23,3283,1,0,0:0:0:0:
427,43,3455,1,2,2:0:0:0:
415,134,3628,1,0,0:0:0:0:
330,170,3800,1,0,0:0:0:0:
256,114,3973,1,0,0:0:0:0:
415,146,4145,6,0,L|415:287,1,130.50000497818,0|0,0:0|0:0,0:0:0:0:
415,276,4835,1,2,2:0:0:0:
415,146,5007,1,0,0:0:0:0:
316,259,5180,2,0,B|276:320|208:311|176:264|176:264|187:314,1,195.75000746727,0|0,0:0|0:0,0:0:0:0:
222,131,5869,5,2,0:0:0:0:
244,221,6042,1,0,0:0:0:0:
129,124,6214,1,0,0:0:0:0:
93,210,6387,1,0,0:0:0:0:
181,46,6559,2,0,L|97:27,1,65.2500024890901,2|0,0:0|0:0,0:0:0:0:
166,270,6904,6,0,B|206:289|206:289|302:271,1,130.50000497818,0|0,0:0|0:0,0:0:0:0:
376,171,7421,1,0,0:0:0:0:
376,171,7593,2,0,P|371:218|371:253,1,65.2500024890901,2|0,2:0|0:0,0:0:0:0:
409,340,7938,1,0,0:0:0:0:
409,340,8283,6,0,P|340:336|264:338,1,130.50000497818,0|0,0:0|0:0,0:0:0:0:
118,357,8800,1,0,0:0:0:0:
278,337,8973,1,2,2:0:0:0:
266,246,9145,1,0,0:0:0:0:
181,210,9318,1,0,0:0:0:0:
107,266,9490,1,0,0:0:0:0:
272,236,9662,6,0,B|291:198|291:198|292:154|272:104,1,130.50000497818,0|0,0:0|0:0,0:0:0:0:
275,111,10352,1,2,2:0:0:0:
348,241,10524,1,0,0:0:0:0:
501,196,10697,2,0,B|455:165|455:165|412:164|369:189|348:240,1,195.75000746727,0|0,0:0|0:0,0:0:0:0:
348,335,11387,5,2,0:0:0:0:
348,241,11559,1,0,0:0:0:0:
254,335,11731,1,0,2:0:0:0:
348,335,11904,1,0,0:0:0:0:
386,188,12076,2,0,P|364:211|348:240,1,65.2500024890901,2|0,0:0|0:0,0:0:0:0:
488,101,12421,5,4,2:0:0:0:
488,101,12593,2,0,L|315:88,1,174,0|0,0:0|3:0,0:0:0:0:
249,214,13111,2,0,P|289:196|317:157,1,87,8|0,1:2|0:0,0:0:0:0:
158,101,13455,2,0,P|153:143|173:187,1,87,0|0,3:0|0:0,0:0:0:0:
302,78,13800,5,0,3:0:0:0:
302,78,13973,2,0,B|246:66|246:66|209:29|209:29|120:10,1,174,0|0,0:0|3:0,0:0:0:0:
73,119,14490,2,0,L|158:100,1,87,8|0,1:2|0:0,0:0:0:0:
255,202,14835,2,0,L|169:183,1,87,0|0,3:0|0:0,0:0:0:0:
51,335,15180,5,0,3:0:0:0:
51,335,15524,1,0,0:0:0:0:
178,351,15697,1,0,3:0:0:0:
94,217,15869,2,0,P|51:200|-14:188,1,87,8|0,1:2|0:0,0:0:0:0:
170,267,16214,1,0,3:0:0:0:
170,267,16559,6,0,P|213:250|278:238,1,87,0|0,3:0|0:0,0:0:0:0:
348,271,16904,1,0,0:0:0:0:
406,190,17076,1,0,3:0:0:0:
316,82,17249,1,8,1:2:0:0:
307,181,17421,1,0,0:0:0:0:
415,91,17593,1,0,3:0:0:0:
225,123,17766,1,8,1:2:0:0:
406,190,17938,5,0,3:0:0:0:
406,190,18283,1,0,0:0:0:0:
397,289,18455,1,0,3:0:0:0:
307,181,18628,1,8,1:2:0:0:
298,280,18800,1,0,0:0:0:0:
406,190,18972,1,0,3:0:0:0:
46,305,19318,5,0,3:0:0:0:
46,305,19662,1,0,0:0:0:0:
158,204,19835,1,0,3:0:0:0:
190,351,20007,1,8,1:2:0:0:
73,222,20180,1,0,0:0:0:0:
216,269,20352,1,0,3:0:0:0:
104,370,20524,1,0,0:0:0:0:
158,204,20697,5,0,3:0:0:0:
256,192,20783,12,2,22076,3:2:0:0:
93,226,23455,6,0,B|141:216|141:216|194:237|194:237|261:223,1,174,4|2,2:0|2:0,0:0:0:0:
267,96,23973,1,0,0:0:0:0:
267,96,24059,1,0,0:0:0:0:
267,96,24145,2,0,P|221:123|202:174,1,87,0|8,0:0|2:0,0:0:0:0:
374,197,24490,2,0,P|373:143|338:101,1,87,2|0,2:0|0:0,0:0:0:0:
261,224,24835,5,4,2:0:0:0:
261,224,25180,1,2,2:0:0:0:
295,304,25352,1,2,0:0:0:0:
258,311,25438,1,0,0:0:0:0:
221,302,25524,1,0,0:0:0:0:
192,278,25611,1,0,0:0:0:0:
176,244,25697,1,8,2:0:0:0:
261,224,25869,1,2,2:0:0:0:
151,347,26042,1,0,0:0:0:0:
89,170,26214,6,0,L|204:159,1,87,4|0,2:0|0:0,0:0:0:0:
93,262,26559,1,2,2:0:0:0:
85,78,26731,2,0,B|147:72|147:72|196:47|196:47|281:41,1,174,8|8,2:0|2:0,0:0:0:0:
428,99,27249,2,0,P|393:63|336:51,1,87,2|8,2:0|2:0,0:0:0:0:
283,155,27593,6,0,P|318:191|375:203,1,87,4|0,2:0|0:0,0:0:0:0:
428,99,27938,1,2,2:0:0:0:
422,203,28111,1,2,0:0:0:0:
420,230,28197,1,0,0:0:0:0:
418,257,28283,1,0,0:0:0:0:
416,284,28369,1,0,0:0:0:0:
414,311,28455,1,8,2:0:0:0:
333,220,28628,1,2,2:0:0:0:
330,314,28800,1,0,0:0:0:0:
493,163,28973,5,4,2:0:0:0:
487,351,29145,1,0,0:0:0:0:
253,170,29318,1,2,2:0:0:0:
250,264,29490,1,2,0:0:0:0:
254,268,29576,1,0,0:0:0:0:
258,272,29662,1,0,0:0:0:0:
255,366,29835,1,8,2:0:0:0:
424,267,30007,1,2,2:0:0:0:
253,170,30180,1,0,0:0:0:0:
253,170,30266,1,0,0:0:0:0:
253,170,30352,6,0,L|69:156,1,174,4|2,2:0|2:0,0:0:0:0:
136,325,30869,1,2,0:0:0:0:
139,303,30955,1,0,0:0:0:0:
140,281,31042,1,0,0:0:0:0:
138,260,31128,1,0,0:0:0:0:
133,238,31214,1,8,2:0:0:0:
9,151,31387,1,2,2:0:0:0:
36,251,31559,1,0,0:0:0:0:
85,87,31731,6,0,B|131:44|131:44|168:37|220:49|256:77,1,174,12|2,2:0|2:0,0:0:0:0:
270,154,32249,1,12,2:0:0:0:
270,154,32335,1,0,0:0:0:0:
270,154,32421,1,0,0:0:0:0:
326,31,32593,1,12,2:0:0:0:
189,134,32766,1,2,2:0:0:0:
358,120,32938,1,8,2:0:0:0:
150,60,33111,5,8,2:0:0:0:
195,216,33283,1,2,0:0:0:0:
195,216,33369,1,0,0:0:0:0:
195,216,33455,2,0,P|201:161|176:120,1,87,2|12,2:0|2:0,0:0:0:0:
192,137,33714,1,0,0:0:0:0:
196,141,33800,2,0,L|152:137,1,43.5,0|0,0:0|0:0,0:0:0:0:
73,257,33973,6,0,L|130:252,1,43.5,12|0,2:0|0:0,0:0:0:0:
232,306,34145,2,0,L|175:301,1,43.5,2|0,2:0|0:0,0:0:0:0:
203,173,34318,2,0,L|195:216,1,43.5,0|0,0:0|0:0,0:0:0:0:
172,376,34490,5,4,1:0:0:0:
127,177,34662,1,0,0:0:0:0:
78,350,34835,1,2,2:0:0:0:
127,177,35007,5,2,0:0:0:0:
99,167,35093,1,0,0:0:0:0:
68,164,35180,1,0,0:0:0:0:
38,168,35266,1,0,0:0:0:0:
10,179,35352,1,0,0:0:0:0:
73,257,35524,1,2,2:0:0:0:
222,151,35697,5,0,0:0:0:0:
222,151,35783,1,0,0:0:0:0:
222,151,35869,2,0,P|168:85|84:86,1,174,4|2,2:0|2:0,0:0:0:0:
89,249,36387,1,2,0:0:0:0:
106,236,36473,1,0,0:0:0:0:
119,219,36559,1,0,0:0:0:0:
126,198,36645,1,0,0:0:0:0:
126,176,36731,1,8,2:0:0:0:
10,179,36904,1,2,2:0:0:0:
221,151,37076,5,0,0:0:0:0:
221,151,37162,1,0,0:0:0:0:
221,151,37249,2,0,L|416:136,1,174,4|2,2:0|2:0,0:0:0:0:
481,65,37766,1,2,0:0:0:0:
451,71,37852,1,0,0:0:0:0:
425,86,37938,1,0,0:0:0:0:
405,109,38024,1,0,0:0:0:0:
394,137,38111,1,8,2:0:0:0:
421,311,38283,1,2,2:0:0:0:
465,218,38455,1,8,2:0:0:0:
320,298,38628,6,0,L|208:288,1,87,4|0,2:0|0:0,0:0:0:0:
215,220,38887,1,0,0:0:0:0:
215,220,38973,2,0,P|168:222|103:230,1,87,2|2,2:0|0:0,0:0:0:0:
54,251,39231,1,0,0:0:0:0:
54,251,39318,2,0,L|58:306,1,43.5,0|0,0:0|0:0,0:0:0:0:
63,376,39490,1,8,2:0:0:0:
200,312,39662,5,2,2:0:0:0:
61,298,39835,1,8,2:0:0:0:
215,220,40007,6,0,P|234:182|231:117,1,87,4|0,2:0|0:0,0:0:0:0:
189,0,40352,1,2,2:0:0:0:
55,91,40524,1,2,0:0:0:0:
69,117,40610,1,0,0:0:0:0:
90,139,40696,1,0,0:0:0:0:
117,152,40782,1,0,0:0:0:0:
147,156,40868,1,8,2:0:0:0:
139,70,41042,1,2,2:0:0:0:
54,251,41214,1,0,0:0:0:0:
54,251,41300,1,0,0:0:0:0:
54,251,41387,5,4,2:0:0:0:
215,220,41559,1,2,0:0:0:0:
237,183,41645,1,0,0:0:0:0:
242,140,41731,1,2,2:0:0:0:
229,98,41817,1,0,0:0:0:0:
201,66,41904,6,0,P|172:55|131:49,1,43.5,0|0,0:0|0:0,0:0:0:0:
128,179,42076,2,0,P|152:159|177:126,1,43.5,2|0,0:0|0:0,0:0:0:0:
66,59,42249,2,0,P|70:89|86:128,1,43.5,8|0,2:0|0:0,0:0:0:0:
146,275,42421,1,2,2:0:0:0:
350,206,42593,1,0,0:0:0:0:
367,193,42680,1,0,0:0:0:0:
380,176,42766,6,0,P|358:286|350:349,1,174,12|2,2:0|2:0,0:0:0:0:
239,201,43283,2,0,P|241:229|247:266,1,43.5,2|0,0:0|0:0,0:0:0:0:
167,159,43455,2,0,P|163:186|161:224,1,43.5,0|0,0:0|0:0,0:0:0:0:
105,102,43628,1,12,2:0:0:0:
330,212,43800,1,2,2:0:0:0:
344,18,43973,1,8,2:0:0:0:
508,176,44145,1,8,2:0:0:0:
330,212,44318,5,8,2:0:0:0:
298,208,44404,1,0,0:0:0:0:
267,204,44490,1,2,2:0:0:0:
236,202,44576,1,0,0:0:0:0:
200,233,44662,5,12,2:0:0:0:
179,235,44749,1,0,0:0:0:0:
158,237,44835,1,0,0:0:0:0:
137,239,44921,1,0,0:0:0:0:
107,203,45007,5,8,0:0:0:0:
90,201,45093,1,0,0:0:0:0:
73,199,45180,2,0,P|57:237|52:262,1,43.5,2|0,2:0|0:0,0:0:0:0:
130,369,45352,2,0,P|146:331|151:306,1,43.5,8|0,2:0|0:0,0:0:0:0:
172,129,45524,5,4,1:0:0:0:
256,192,48283,12,0,49662,0:0:0:0:
256,192,49749,12,0,50352,0:0:0:0:
112,213,51042,6,0,B|175:199|175:199|246:227|246:227|335:209,1,217.5,2|2,3:0|2:0,0:0:0:0:
305,60,51559,1,2,0:0:0:0:
305,60,51645,1,0,0:0:0:0:
305,60,51731,2,0,P|251:103|258:159,1,108.75,0|8,0:0|2:0,0:0:0:0:
313,303,52076,1,2,2:0:0:0:
414,194,52249,5,0,0:0:0:0:
414,194,52335,1,0,0:0:0:0:
414,194,52421,2,0,B|297:169|326:251|190:215,1,217.5,4|2,2:0|2:0,0:0:0:0:
117,36,52938,1,2,0:0:0:0:
120,73,53024,1,0,0:0:0:0:
123,111,53110,1,0,0:0:0:0:
126,149,53196,1,0,0:0:0:0:
129,187,53282,1,8,2:0:0:0:
141,305,53455,1,2,2:0:0:0:
215,139,53628,5,0,0:0:0:0:
215,139,53714,1,0,0:0:0:0:
215,139,53800,2,0,P|154:151|126:199,1,108.75,4|0,2:0|0:0,0:0:0:0:
147,349,54145,1,2,2:0:0:0:
352,203,54318,5,2,0:0:0:0:
314,197,54404,1,0,0:0:0:0:
277,203,54490,1,0,0:0:0:0:
242,218,54576,1,0,0:0:0:0:
204,219,54662,1,8,2:0:0:0:
323,59,54835,1,2,2:0:0:0:
317,338,55007,2,0,L|319:284,1,54.375,0|0,0:0|0:0,0:0:0:0:
323,59,55180,5,4,2:0:0:0:
204,219,55352,1,0,0:0:0:0:
409,116,55524,1,2,2:0:0:0:
200,223,55697,5,2,0:0:0:0:
162,220,55783,1,0,0:0:0:0:
124,218,55869,1,0,0:0:0:0:
86,215,55955,1,0,0:0:0:0:
48,213,56041,1,8,2:0:0:0:
156,340,56214,2,0,P|178:312|185:279,1,54.375,2|0,2:0|0:0,0:0:0:0:
71,83,56387,2,0,L|76:141,1,54.375,8|0,2:0|0:0,0:0:0:0:
92,310,56559,6,0,B|185:292|153:349|272:323,1,163.125,4|0,2:0|0:0,0:0:0:0:
246,331,56904,2,0,P|224:359|217:392,1,54.375,2|0,2:0|0:0,0:0:0:0:
187,218,57076,1,2,0:0:0:0:
189,180,57162,1,0,0:0:0:0:
191,142,57248,1,0,0:0:0:0:
194,104,57334,1,0,0:0:0:0:
196,66,57420,1,8,2:0:0:0:
183,294,57593,1,2,2:0:0:0:
71,83,57766,1,0,0:0:0:0:
71,83,57852,1,0,0:0:0:0:
71,83,57938,5,4,2:0:0:0:
354,197,58111,1,0,0:0:0:0:
283,77,58283,1,2,2:0:0:0:
114,268,58455,2,2,P|110:308|123:338,1,54.375,2|0,0:0|0:0,0:0:0:0:
253,320,58628,2,0,P|257:280|244:250,1,54.375,0|0,0:0|0:0,0:0:0:0:
155,81,58800,1,8,2:0:0:0:
155,81,58973,6,0,L|167:208,1,108.75,2|0,2:0|0:0,0:0:0:0:
183,294,59231,1,0,0:0:0:0:
183,294,59318,2,0,P|85:279|52:277,1,108.75,4|0,2:0|0:0,0:0:0:0:
281,242,59662,1,2,2:0:0:0:
433,225,59835,2,0,L|489:221,1,54.375,2|0,0:0|0:0,0:0:0:0:
365,118,60007,2,0,L|369:174,1,54.375,0|0,0:0|0:0,0:0:0:0:
378,294,60180,1,8,2:0:0:0:
350,23,60352,1,2,2:0:0:0:
253,320,60524,1,8,2:0:0:0:
157,23,60697,5,8,2:0:0:0:
410,207,60869,1,4,2:0:0:0:
98,207,61042,1,6,2:0:0:0:
350,23,61214,1,12,2:0:0:0:
346,49,61300,1,0,0:0:0:0:
342,76,61387,2,0,L|332:142,1,54.375,2|8,2:0|0:0,0:0:0:0:
295,383,61559,1,8,2:0:0:0:
355,18,61731,5,2,2:0:0:0:
346,71,61817,1,8,2:0:0:0:
337,126,61904,1,8,2:0:0:0:
328,182,61990,1,0,0:0:0:0:
319,237,62076,1,8,2:0:0:0:
15,114,62421,6,0,L|71:111,1,54.375,2|0,3:0|0:0,0:0:0:0:
255,103,62593,2,0,L|482:92,1,217.5,4|8,2:0|2:0,0:0:0:0:
181,131,63111,2,0,P|178:158|181:185,1,54.375,2|0,2:0|0:0,0:0:0:0:
346,185,63283,2,0,P|350:158|347:131,1,54.375,0|0,0:0|0:0,0:0:0:0:
266,26,63455,6,0,L|39:15,1,217.5,4|2,2:0|2:0,0:0:0:0:
53,261,63973,1,2,0:0:0:0:
105,251,64059,1,0,0:0:0:0:
141,212,64145,1,0,0:0:0:0:
146,159,64231,1,0,0:0:0:0:
118,114,64317,1,8,2:0:0:0:
15,160,64490,2,0,P|38:172|65:177,1,54.375,2|0,2:0|0:0,0:0:0:0:
266,152,64662,1,0,0:0:0:0:
261,178,64748,1,0,0:0:0:0:
256,205,64835,6,0,L|243:282,1,54.375,4|0,1:0|0:0,0:0:0:0:
233,348,65007,1,4,1:0:0:0:
162,291,65180,1,0,0:0:0:0:
502,177,65352,5,4,1:0:0:0:
77,33,65697,6,0,P|85:68|105:97,1,54.375,8|8,2:0|2:0,0:0:0:0:
284,180,65869,6,0,P|239:135|176:140,1,130.50000497818,4|4,1:0|2:0,0:0:0:0:
80,312,66387,5,2,0:0:0:0:
113,270,66473,1,0,0:0:0:0:
118,216,66559,1,2,2:0:0:0:
92,169,66645,1,0,0:0:0:0:
65,215,66731,5,0,0:0:0:0:
98,231,66817,1,0,0:0:0:0:
136,237,66904,1,2,0:0:0:0:
173,232,66989,1,0,0:0:0:0:
208,216,67075,5,8,2:0:0:0:
260,54,67249,1,2,2:0:0:0:
255,340,67421,1,8,2:0:0:0:
386,103,67593,5,8,2:0:0:0:
458,287,67766,1,4,2:0:0:0:
475,65,67938,1,6,2:0:0:0:
272,262,68111,2,0,P|310:260|344:256,1,54.375,12|0,2:0|0:0,0:0:0:0:
502,177,68283,5,12,2:0:0:0:
309,80,68455,1,12,2:0:0:0:
387,358,68628,1,14,2:0:0:0:
390,130,68800,6,0,L|390:210,1,54.375,8|8,2:0|2:0,0:0:0:0:
387,358,68973,1,8,2:0:0:0:
502,177,69145,1,8,2:0:0:0:
310,332,69318,1,10,2:0:0:0:
364,63,69490,6,0,P|391:59|418:65,1,54.375,4|0,2:0|0:0,0:0:0:0:
355,246,69662,2,0,P|328:250|302:245,1,54.375,4|0,2:0|0:0,0:0:0:0:
178,142,69835,1,12,2:0:0:0:
205,335,70007,1,14,2:0:0:0:
219,17,70180,6,0,L|216:80,1,54.375,8|8,2:0|2:0,0:0:0:0:
205,335,70352,1,8,2:0:0:0:
111,106,70524,1,8,2:0:0:0:
302,245,70697,1,2,0:0:0:0:
31,281,70869,6,0,L|34:227,1,54.375,8|8,2:0|2:0,0:0:0:0:
49,49,71042,1,8,2:0:0:0:
140,271,71214,1,8,2:0:0:0:
389,292,71387,5,2,0:0:0:0:
401,237,71473,1,0,0:0:0:0:
383,185,71559,1,0,0:0:0:0:
338,152,71645,1,0,0:0:0:0:
282,148,71731,5,2,3:0:0:0:
256,192,71818,12,0,73111,0:0:0:0:
330,178,73455,6,0,P|232:216|264:317,1,217.5,2|0,3:0|0:0,0:0:0:0:
251,308,73973,1,8,2:0:0:0:
330,178,74145,2,0,P|280:136|211:135,1,130.5,2|0,2:0|0:0,0:0:0:0:
217,133,74490,6,0,L|215:29,1,87,4|0,2:0|0:0,0:0:0:0:
66,134,74835,2,0,P|113:126|155:90,2,87,2|0|0,2:0|0:0|0:0,0:0:0:0:
75,42,75352,1,8,2:0:0:0:
144,103,75524,2,0,L|146:207,1,87,2|0,2:0|0:0,0:0:0:0:
150,324,75869,5,4,1:0:0:0:
336,195,76042,1,4,1:0:0:0:
176,195,76214,1,8,2:0:0:0:
362,324,76387,1,4,1:0:0:0:
362,324,76731,6,0,L|313:309,1,43.5,8|8,2:0|2:0,0:0:0:0:
188,334,76904,2,0,P|266:327|387:323,1,174,4|4,1:0|2:0,0:0:0:0:
478,294,77421,1,2,0:0:0:0:
486,251,77507,1,0,0:0:0:0:
475,210,77593,1,2,2:0:0:0:
449,175,77680,1,0,0:0:0:0:
440,132,77766,1,0,0:0:0:0:
449,90,77852,1,0,0:0:0:0:
472,53,77938,6,0,L|407:40,1,43.5,2|0,0:0|0:0,0:0:0:0:
317,41,78111,1,8,2:0:0:0:
312,174,78283,2,0,P|345:168|374:153,1,43.5,2|0,2:0|0:0,0:0:0:0:
317,41,78455,1,8,2:0:0:0:
246,217,78628,5,4,2:0:0:0:
241,138,78800,1,8,2:0:0:0:
120,262,78973,1,10,2:0:0:0:
125,183,79145,1,8,2:0:0:0:
274,324,79318,1,8,2:0:0:0:
269,245,79490,1,8,2:0:0:0:
115,341,79662,1,10,2:0:0:0:
120,262,79835,5,8,2:0:0:0:
120,262,79921,1,8,2:0:0:0:
120,262,80007,1,4,2:0:0:0:
24,343,80180,1,8,2:0:0:0:
0,219,80352,5,10,2:0:0:0:
115,341,80524,1,8,2:0:0:0:
119,339,80611,1,0,0:0:0:0:
123,337,80697,1,8,2:0:0:0:
127,335,80783,1,0,0:0:0:0:
131,333,80869,1,8,2:0:0:0:
125,183,81042,1,10,2:0:0:0:
311,56,81214,1,8,2:0:0:0:
311,56,81300,1,8,2:0:0:0:
311,56,81387,6,0,P|321:93|320:121,1,43.5,4|0,2:0|0:0,0:0:0:0:
291,334,81559,2,0,P|261:310|245:287,1,43.5,8|0,2:0|0:0,0:0:0:0:
223,29,81731,1,10,2:0:0:0:
402,202,81904,5,8,2:0:0:0:
402,202,81990,1,8,2:0:0:0:
402,202,82076,2,0,P|370:223|343:230,1,43.5,8|0,2:0|0:0,0:0:0:0:
143,97,82249,2,0,P|181:99|208:109,1,43.5,8|0,2:0|0:0,0:0:0:0:
291,334,82421,2,0,P|261:310|245:287,1,43.5,10|0,2:0|0:0,0:0:0:0:
311,56,82593,2,0,P|321:93|320:121,1,43.5,4|0,3:0|0:0,0:0:0:0:
131,269,82766,5,4,2:0:0:0:
256,192,82852,12,0,83973,0:0:0:0:
137,127,84145,6,0,L|147:229,1,87,0|0,0:0|0:0,0:0:0:0:
138,339,84490,1,2,2:0:0:0:
54,227,84662,1,2,0:0:0:0:
54,227,84749,1,0,0:0:0:0:
54,227,84835,2,0,L|156:217,1,87,0|8,0:0|2:0,0:0:0:0:
242,158,85180,2,0,L|328:166,1,87,2|0,2:0|0:0,0:0:0:0:
360,155,85438,1,0,0:0:0:0:
360,155,85524,6,0,P|378:113|372:67,1,87,4|0,2:0|0:0,0:0:0:0:
242,240,85869,2,0,P|224:282|230:328,1,87,2|2,2:0|0:0,0:0:0:0:
251,343,86128,1,0,0:0:0:0:
277,340,86214,1,0,0:0:0:0:
303,338,86300,1,0,0:0:0:0:
329,336,86386,1,8,2:0:0:0:
500,259,86559,2,0,P|458:241|412:247,1,87,2|0,2:0|0:0,0:0:0:0:
337,344,86904,6,0,P|324:272|312:225,1,87,4|0,2:0|0:0,0:0:0:0:
264,92,87249,1,2,2:0:0:0:
128,175,87421,2,0,B|220:145|207:215|321:177,1,174,8|8,2:0|2:0,0:0:0:0:
416,84,87938,2,0,P|406:126|399:169,1,87,2|8,2:0|2:0,0:0:0:0:
337,344,88283,6,0,P|324:272|312:225,1,87,4|0,2:0|0:0,0:0:0:0:
297,183,88542,1,0,0:0:0:0:
293,179,88628,1,2,2:0:0:0:
185,134,88800,1,2,0:0:0:0:
142,126,88886,1,0,0:0:0:0:
101,139,88972,1,0,0:0:0:0:
59,151,89058,1,0,0:0:0:0:
17,143,89144,1,8,2:0:0:0:
147,205,89318,1,2,2:0:0:0:
56,77,89490,1,0,0:0:0:0:
8,241,89662,6,0,L|16:330,1,87,4|0,2:0|0:0,0:0:0:0:
162,250,90007,2,0,P|155:222|144:193,1,43.5,2|0,0:0|0:0,0:0:0:0:
282,151,90180,1,2,0:0:0:0:
265,136,90266,1,0,0:0:0:0:
247,124,90352,1,0,0:0:0:0:
138,94,90524,1,8,2:0:0:0:
269,239,90697,2,0,P|311:229|354:222,1,87,2|0,2:0|0:0,0:0:0:0:
433,252,90955,1,0,0:0:0:0:
437,256,91042,6,0,P|386:210|430:100,1,174,4|2,2:0|2:0,0:0:0:0:
510,68,91559,2,0,L|457:62,1,43.5,2|0,0:0|0:0,0:0:0:0:
342,24,91731,1,0,0:0:0:0:
320,26,91817,1,0,0:0:0:0:
298,29,91903,1,0,0:0:0:0:
147,179,92076,2,0,P|195:184|233:165,1,87,2|0,2:0|0:0,0:0:0:0:
169,18,92421,6,0,L|182:112,1,87,12|0,2:0|0:0,0:0:0:0:
203,284,92766,1,2,2:0:0:0:
339,106,92938,1,12,2:0:0:0:
343,102,93024,1,0,0:0:0:0:
347,98,93111,2,0,L|334:192,1,87,0|12,0:0|2:0,0:0:0:0:
313,364,93455,1,2,2:0:0:0:
199,288,93628,1,8,2:0:0:0:
339,180,93800,5,0,1:0:0:0:
195,292,93973,2,0,L|58:273,1,130.50000497818,2|0,0:0|0:0,0:0:0:0:
88,89,94490,2,0,P|114:125|122:164,1,65.2500024890901,2|0,0:0|0:0,0:0:0:0:
195,148,94835,2,0,P|194:192|178:228,1,65.2500024890901,2|0,0:0|0:0,0:0:0:0:
28,368,95180,5,4,1:0:0:0:
183,215,95352,1,0,0:0:0:0:
84,85,95524,1,2,2:0:0:0:
156,293,95697,1,2,0:0:0:0:
185,297,95783,1,0,0:0:0:0:
215,290,95869,1,0,0:0:0:0:
240,273,95955,1,0,0:0:0:0:
257,248,96041,1,8,0:2:0:0:
190,128,96214,2,0,P|183:213|181:241,1,87,2|0,2:0|0:0,0:0:0:0:
263,352,96559,6,0,L|306:348|349:344,1,87,4|0,2:0|0:0,0:0:0:0:
466,226,96904,1,2,2:0:0:0:
327,85,97076,1,2,0:0:0:0:
329,115,97162,1,0,0:0:0:0:
332,145,97248,1,0,0:0:0:0:
334,176,97334,1,0,0:0:0:0:
337,206,97420,1,8,2:0:0:0:
353,348,97593,1,2,2:0:0:0:
250,243,97766,2,0,P|222:235|199:230,1,43.5,0|0,0:0|0:0,0:0:0:0:
72,223,97938,6,0,B|108:254|108:254|151:216|139:160|79:129,1,174,4|2,2:0|2:0,0:0:0:0:
16,32,98455,1,2,2:0:0:0:
35,55,98541,1,0,0:0:0:0:
61,70,98627,1,0,0:0:0:0:
91,76,98713,1,0,0:0:0:0:
121,70,98799,1,8,2:0:0:0:
247,17,98973,2,0,P|216:55|211:99,1,87,2|8,2:0|2:0,0:0:0:0:
334,153,99318,6,0,P|317:107|281:81,1,87,4|0,2:0|0:0,0:0:0:0:
173,160,99662,2,0,P|220:168|261:150,1,87,2|2,2:0|0:0,0:0:0:0:
397,47,100007,2,0,L|390:98,1,43.5
334,153,100180,2,0,L|341:204,1,43.5,8|0,2:0|0:0,0:0:0:0:
437,227,100352,2,0,P|419:244|408:268,1,43.5,2|0,2:0|0:0,0:0:0:0:
276,301,100524,2,0,P|294:318|305:342,1,43.5,8|0,2:0|0:0,0:0:0:0:
178,240,100697,6,0,B|82:220|113:282|4:256,1,174,4|2,2:0|2:0,0:0:0:0:
0,83,101214,1,2,0:0:0:0:
21,104,101300,1,0,0:0:0:0:
38,129,101386,1,0,0:0:0:0:
48,158,101472,1,0,0:0:0:0:
51,188,101558,1,8,2:0:0:0:
0,366,101731,1,2,2:0:0:0:
142,308,101904,6,0,L|132:260,2,43.5,0|0|4,0:0|0:0|2:0,0:0:0:0:
214,130,102249,1,2,0:0:0:0:
390,50,102421,2,0,L|381:92,1,43.5,2|0,2:0|0:0,0:0:0:0:
312,156,102593,2,0,L|320:198,1,43.5,0|0,0:0|0:0,0:0:0:0:
395,294,102766,1,2,0:0:0:0:
395,294,102852,1,0,0:0:0:0:
395,294,102938,2,0,L|386:336,1,43.5,8|0,2:0|0:0,0:0:0:0:
429,189,103111,2,0,P|457:156|483:222,1,130.5,2|0,2:0|0:0,0:0:0:0:
407,208,103455,6,0,L|287:194,1,87,12|0,2:0|0:0,0:0:0:0:
186,180,103800,1,2,2:0:0:0:
322,82,103973,2,0,P|307:117|302:137,1,43.5,2|0,0:0|0:0,0:0:0:0:
216,21,104145,2,0,P|231:56|236:76,1,43.5,0|0,0:0|0:0,0:0:0:0:
243,270,104318,1,12,2:0:0:0:
309,118,104490,1,2,2:0:0:0:
182,184,104662,1,8,2:0:0:0:
385,130,104835,5,8,2:0:0:0:
178,188,105008,1,8,2:0:0:0:
134,183,105094,1,0,0:0:0:0:
91,179,105180,1,2,2:0:0:0:
48,175,105266,1,0,0:0:0:0:
17,197,105352,5,12,2:0:0:0:
5,220,105438,1,0,0:0:0:0:
2,247,105524,1,0,0:0:0:0:
7,272,105610,1,0,0:0:0:0:
38,290,105697,5,12,2:0:0:0:
59,296,105783,1,0,0:0:0:0:
79,288,105869,2,0,P|110:260|125:229,1,43.5,2|0,2:0|0:0,0:0:0:0:
218,332,106042,2,0,P|194:305|181:274,1,43.5,12|0,2:0|0:0,0:0:0:0:
147,94,106214,5,8,0:0:0:0:
256,192,108973,12,0,110352,0:0:0:0:
256,192,110438,12,0,111042,0:0:0:0:
240,178,111731,6,0,P|237:244|168:169,1,217.5,2|2,3:0|2:0,0:0:0:0:
174,52,112249,1,2,0:0:0:0:
179,57,112335,1,0,0:0:0:0:
183,62,112421,2,0,P|189:102|189:145,1,54.375,0|0,0:0|0:0,0:0:0:0:
99,287,112593,1,8,0:2:0:0:
244,174,112766,2,0,L|360:162,1,108.75,2|0,2:0|0:0,0:0:0:0:
454,131,113024,1,0,0:0:0:0:
449,126,113111,6,0,P|433:200|427:248,1,108.75,4|0,2:0|0:0,0:0:0:0:
457,358,113455,1,2,2:0:0:0:
336,258,113628,1,2,0:0:0:0:
298,252,113714,1,0,0:0:0:0:
261,258,113800,1,0,0:0:0:0:
226,273,113886,1,0,0:0:0:0:
188,274,113972,1,8,2:0:0:0:
29,210,114145,1,2,2:0:0:0:
173,91,114318,1,0,0:0:0:0:
178,96,114404,1,0,0:0:0:0:
183,101,114490,6,0,P|212:143|204:211,1,108.75,4|0,2:0|0:0,0:0:0:0:
98,334,114835,1,2,2:0:0:0:
138,165,115007,1,2,0:0:0:0:
176,166,115093,1,0,0:0:0:0:
211,181,115179,1,0,0:0:0:0:
248,187,115265,1,0,0:0:0:0:
286,181,115351,1,8,2:0:0:0:
407,44,115524,1,2,2:0:0:0:
237,102,115697,1,0,0:0:0:0:
242,107,115783,1,0,0:0:0:0:
247,112,115869,5,4,2:0:0:0:
386,217,116042,1,0,0:0:0:0:
289,36,116214,2,0,B|259:22|259:22|169:34,1,108.75,2|2,2:0|0:0,0:0:0:0:
162,54,116473,1,0,0:0:0:0:
124,48,116559,1,0,0:0:0:0:
86,43,116645,1,0,0:0:0:0:
48,38,116731,1,8,2:0:0:0:
107,247,116904,2,0,P|115:209|121:169,1,54.375,2|0,2:0|0:0,0:0:0:0:
0,111,117076,2,0,P|4:137|10:164,1,54.375,8|0,2:0|0:0,0:0:0:0:
28,307,117249,6,0,P|99:346|181:313,1,163.125,4|0,2:0|0:0,0:0:0:0:
184,304,117593,2,0,P|176:342|170:382,1,54.375,2|0,2:0|0:0,0:0:0:0:
366,251,117766,1,2,0:0:0:0:
337,225,117852,1,0,0:0:0:0:
302,212,117938,1,0,0:0:0:0:
264,214,118024,1,0,0:0:0:0:
229,229,118110,1,8,2:0:0:0:
348,102,118283,1,2,2:0:0:0:
291,290,118455,1,0,0:0:0:0:
295,294,118542,1,0,0:0:0:0:
299,298,118628,5,4,2:0:0:0:
263,126,118800,1,0,0:0:0:0:
431,186,118973,1,2,2:0:0:0:
225,233,119145,1,2,0:0:0:0:
187,229,119231,1,0,0:0:0:0:
149,226,119317,1,0,0:0:0:0:
111,223,119403,1,0,0:0:0:0:
73,219,119489,1,8,2:0:0:0:
65,41,119662,1,2,2:0:0:0:
254,94,119835,1,0,0:0:0:0:
258,98,119921,1,0,0:0:0:0:
262,102,120007,6,0,P|210:140|149:124,1,108.75,4|0,2:0|0:0,0:0:0:0:
46,23,120352,1,2,2:0:0:0:
267,107,120524,1,2,0:0:0:0:
305,103,120610,1,0,0:0:0:0:
343,100,120696,1,0,0:0:0:0:
381,97,120782,1,0,0:0:0:0:
419,93,120868,1,8,2:0:0:0:
315,215,121042,1,2,2:0:0:0:
329,1,121214,1,8,2:0:0:0:
331,9,121300,1,0,0:0:0:0:
333,17,121387,5,8,2:0:0:0:
376,274,121559,1,4,2:0:0:0:
203,46,121731,5,6,2:0:0:0:
461,179,121904,2,0,P|422:178|379:165,1,54.375,12|0,2:0|0:0,0:0:0:0:
176,264,122076,2,0,P|206:256|233:237,1,54.375,2|8,2:0|0:0,0:0:0:0:
335,25,122249,1,8,2:0:0:0:
337,33,122421,5,2,2:0:0:0:
327,86,122507,1,8,2:0:0:0:
319,140,122593,1,8,2:0:0:0:
312,194,122679,1,0,0:0:0:0:
305,248,122765,1,8,2:0:0:0:
301,252,123111,6,0,P|259:248|228:235,1,54.375,2|0,3:0|0:0,0:0:0:0:
96,165,123283,2,0,B|154:140|154:140|196:179|187:268|107:283,1,217.5,4|8,2:0|2:0,0:0:0:0:
65,100,123800,2,0,L|138:69,1,54.375,2|0,2:0|0:0,0:0:0:0:
274,133,123973,1,0,0:0:0:0:
272,139,124059,1,0,0:0:0:0:
270,145,124145,6,0,P|220:166|167:158,1,108.75,4|0,2:0|0:0,0:0:0:0:
51,293,124490,2,0,P|100:276|126:225,1,108.75,2|2,2:0|0:0,0:0:0:0:
145,253,124748,1,0,0:0:0:0:
182,263,124834,1,0,0:0:0:0:
220,264,124920,1,0,0:0:0:0:
257,257,125006,1,8,2:0:0:0:
366,130,125180,2,0,P|359:164|353:197,1,54.375,2|0,2:0|0:0,0:0:0:0:
427,313,125352,2,0,P|421:286|416:259,1,54.375,0|0,0:0|0:0,0:0:0:0:
356,111,125524,5,4,1:0:0:0:
442,333,125697,1,4,1:0:0:0:
475,192,125869,1,0,0:0:0:0:
51,293,126042,1,4,1:0:0:0:
306,0,126387,6,0,P|297:30|290:58,1,54.375,8|8,2:0|2:0,0:0:0:0:
295,215,126559,6,0,P|281:145|224:114,1,130.50000497818,4|4,1:0|2:0,0:0:0:0:
40,244,127076,1,2,0:0:0:0:
98,237,127162,1,0,0:0:0:0:
138,195,127249,5,2,2:0:0:0:
95,227,127335,1,0,0:0:0:0:
79,278,127421,1,0,0:0:0:0:
94,329,127507,1,0,0:0:0:0:
137,362,127593,5,2,0:0:0:0:
163,357,127680,1,0,0:0:0:0:
190,353,127766,1,8,2:0:0:0:
416,305,127938,1,2,2:0:0:0:
234,115,128111,2,0,L|249:207,1,54.375,8|0,2:0|0:0,0:0:0:0:
282,370,128283,5,8,2:0:0:0:
369,109,128455,1,4,2:0:0:0:
100,165,128628,1,6,2:0:0:0:
365,239,128800,6,0,P|360:200|341:168,1,54.375,12|0,2:0|0:0,0:0:0:0:
167,26,128973,2,0,P|157:51|156:78,1,54.375,12|0,2:0|0:0,0:0:0:0:
203,342,129145,1,12,2:0:0:0:
303,40,129318,1,14,2:0:0:0:
47,283,129490,6,0,L|101:291,1,54.375,8|8,2:0|2:0,0:0:0:0:
307,321,129662,1,8,2:0:0:0:
56,90,129835,1,8,2:0:0:0:
411,300,130007,1,10,2:0:0:0:
113,300,130180,5,4,2:0:0:0:
73,264,130266,1,0,0:0:0:0:
64,212,130352,1,4,2:0:0:0:
90,165,130438,1,0,0:0:0:0:
140,146,130524,1,12,2:0:0:0:
474,247,130697,1,14,2:0:0:0:
126,310,130869,6,0,L|72:302,1,54.375,8|8,2:0|2:0,0:0:0:0:
226,143,131042,1,8,2:0:0:0:
197,352,131214,1,8,2:0:0:0:
245,13,131387,1,2,0:0:0:0:
346,273,131559,5,8,2:0:0:0:
348,300,131645,1,8,2:0:0:0:
350,327,131731,1,8,2:0:0:0:
331,71,131904,1,8,2:0:0:0:
355,332,132076,5,2,0:0:0:0:
402,356,132162,1,0,0:0:0:0:
453,340,132249,1,0,0:0:0:0:
478,294,132335,1,0,0:0:0:0:
408,285,132421,6,0,L|268:308,1,130.50000497818,2|0,3:0|0:0,0:0:0:0:
163,250,132938,1,0,0:0:0:0:
163,250,133024,1,0,0:0:0:0:
163,250,133111,2,0,L|152:218,3,32.625001244545,0|0|0|0,0:0|0:0|0:0|0:0,0:0:0:0:
232,175,133455,5,0,0:0:0:0:
233,148,133542,1,0,0:0:0:0:
235,122,133628,1,0,0:0:0:0:
238,83,133714,1,0,0:0:0:0:
241,44,133800,5,0,0:0:0:0:
444,120,133973,2,0,L|388:107,1,43.5,2|0,3:2|0:0,0:0:0:0:
356,214,134145,2,0,L|313:223,1,43.5,2|0,3:2|0:0,0:0:0:0:
163,250,134318,1,8,2:0:0:0:
449,42,134490,5,2,2:0:0:0:
321,231,134662,2,0,L|278:240,1,43.5,2|0,3:2|0:0,0:0:0:0:
494,138,134835,2,0,L|438:125,1,43.5,8|0,2:0|0:0,0:0:0:0:
333,137,135007,1,8,2:0:0:0:
337,141,135352,5,8,2:0:0:0:
64,100,135524,1,8,2:0:0:0:
60,96,135869,6,0,L|71:168,1,65.2500024890901,0|0,1:0|0:0,0:0:0:0:
90,275,136042,1,0,1:0:0:0:
86,271,136387,6,0,L|97:343,1,65.2500024890901,0|0,1:0|0:0,0:0:0:0:
249,249,136559,6,0,P|216:242|175:242,1,43.5,4|0,2:0|0:0,0:0:0:0:
332,175,136731,2,0,P|299:182|258:182,1,43.5,2|0,3:2|0:0,0:0:0:0:
368,292,136904,2,0,P|345:266|312:242,1,43.5,2|0,3:2|0:0,0:0:0:0:
130,209,137076,1,8,2:0:0:0:
503,32,137249,5,2,2:0:0:0:
428,178,137421,2,0,P|421:211|421:252,1,43.5,2|0,3:2|0:0,0:0:0:0:
324,132,137593,2,0,P|331:165|331:206,1,43.5,8|0,2:0|0:0,0:0:0:0:
299,329,137766,1,8,2:0:0:0:
295,333,138111,5,8,2:0:0:0:
398,100,138283,1,8,2:0:0:0:
291,337,138455,2,0,L|236:331,1,43.5,0|0,0:0|0:0,0:0:0:0:
116,348,138628,5,2,2:0:0:0:
137,315,138714,1,0,0:0:0:0:
142,277,138800,1,0,0:0:0:0:
128,240,138886,1,0,0:0:0:0:
70,193,138973,5,2,0:0:0:0:
49,138,139059,1,0,0:0:0:0:
57,81,139145,1,0,0:0:0:0:
90,33,139231,1,0,0:0:0:0:
170,14,139318,6,0,L|213:9,1,32.625001244545,2|0,1:0|0:0,0:0:0:0:
268,94,139490,6,0,L|311:99,1,43.5,0|0,1:0|0:0,0:0:0:0:
469,45,139662,6,0,P|458:81|449:124,1,65.2500024890901,2|0,3:0|0:0,0:0:0:0:
379,181,139835,2,0,P|390:217|399:260,1,65.2500024890901,8|0,2:0|0:0,0:0:0:0:
399,356,140007,1,2,2:0:0:0:
235,211,140180,1,2,3:2:0:0:
239,215,140266,1,0,0:0:0:0:
243,219,140352,6,0,L|286:214,1,43.5,8|0,2:0|0:0,0:0:0:0:
133,274,140524,2,0,L|176:269,1,43.5,8|0,2:0|0:0,0:0:0:0:
129,278,140869,6,0,L|172:273,1,43.5,8|0,2:0|0:0,0:0:0:0:
19,333,141041,2,0,L|62:328,1,43.5,8|0,2:0|0:0,0:0:0:0:
223,223,141387,1,2,2:0:0:0:
227,227,141473,1,0,0:0:0:0:
231,231,141559,6,0,L|274:226,1,43.5,2|0,3:2|0:0,0:0:0:0:
121,286,141731,2,0,L|164:281,1,43.5,8|0,2:0|0:0,0:0:0:0:
11,341,141904,2,0,L|54:336,1,43.5,8|0,2:0|0:0,0:0:0:0:
219,219,142076,5,4,2:0:0:0:
399,116,142249,1,0,0:0:0:0:
395,112,142335,1,0,0:0:0:0:
391,108,142421,2,0,L|386:151,1,43.5,2|0,3:2|0:0,0:0:0:0:
367,292,142593,1,8,2:0:0:0:
270,120,142766,6,0,L|291:157,1,43.5,2|0,2:0|0:0,0:0:0:0:
179,200,142938,2,0,L|218:218,1,43.5,2|0,3:2|0:0,0:0:0:0:
152,318,143111,2,0,L|194:309,1,43.5,8|0,2:0|0:0,0:0:0:0:
387,104,143283,1,8,2:0:0:0:
383,100,143628,6,0,L|378:143,1,43.5,8|0,2:0|0:0,0:0:0:0:
262,112,143800,2,0,L|283:149,1,43.5,8|0,2:0|0:0,0:0:0:0:
171,192,143973,1,0,0:0:0:0:
167,188,144145,6,0,L|243:223,1,65.2500024890901,2|0,1:0|0:0,0:0:0:0:
140,306,144318,2,0,L|208:291,1,65.2500024890901,2|0,1:0|0:0,0:0:0:0:
379,96,144490,1,8,2:0:0:0:
367,292,144662,1,0,0:0:0:0:
184,112,144835,6,0,B|110:98|127:144|43:121,1,130.5,2|0,3:0|0:0,0:0:0:0:
31,112,145180,2,0,P|56:162|34:216,1,87,2|2,2:0|0:0,0:0:0:0:
33,211,145438,1,0,0:0:0:0:
21,234,145524,1,0,0:0:0:0:
16,259,145610,1,0,0:0:0:0:
19,285,145696,1,8,2:0:0:0:
187,256,145869,2,0,L|94:261,1,87,2|0,2:0|0:0,0:0:0:0:
250,305,146128,1,0,0:0:0:0:
256,301,146214,6,0,P|269:246|245:197,1,87,4|0,2:0|0:0,0:0:0:0:
117,111,146559,2,0,P|158:149|212:153,1,87,2|2,2:0|0:0,0:0:0:0:
210,141,146818,1,0,0:0:0:0:
234,129,146904,1,0,0:0:0:0:
259,124,146990,1,0,0:0:0:0:
285,127,147076,1,8,2:0:0:0:
407,340,147249,2,0,B|394:304|394:304|413:201,1,130.5,2|0,2:0|0:0,0:0:0:0:
427,181,147593,6,0,P|365:199|309:179,1,87,4|0,2:0|0:0,0:0:0:0:
195,49,147938,2,0,P|257:31|313:51,1,87,2|2,2:0|0:0,0:0:0:0:
299,53,148197,1,0,0:0:0:0:
325,56,148283,1,0,0:0:0:0:
350,51,148369,1,0,0:0:0:0:
374,39,148455,1,8,2:0:0:0:
260,218,148628,2,0,P|240:278|235:324,1,87,2|0,2:0|0:0,0:0:0:0:
177,134,148973,6,0,P|136:148|94:156,1,87,4|0,2:0|0:0,0:0:0:0:
124,331,149318,2,0,P|82:283|44:256,1,87,2|2,2:0|0:0,0:0:0:0:
36,246,149576,1,0,0:0:0:0:
76,261,149662,1,0,0:0:0:0:
119,256,149748,1,0,0:0:0:0:
155,234,149834,1,8,2:0:0:0:
196,32,150007,1,2,2:0:0:0:
85,161,150180,1,8,2:0:0:0:
348,164,150352,6,0,P|318:132|277:120,1,87,4|0,2:0|0:0,0:0:0:0:
157,276,150697,1,2,2:0:0:0:
280,324,150869,1,2,0:0:0:0:
286,294,150955,1,0,0:0:0:0:
282,264,151041,1,0,0:0:0:0:
274,235,151127,1,0,0:0:0:0:
278,205,151213,1,8,2:0:0:0:
347,50,151387,1,2,2:0:0:0:
417,243,151559,2,0,L|369:236,1,43.5,0|0,0:0|0:0,0:0:0:0:
186,209,151731,6,0,L|72:192,1,87,4|0,2:0|0:0,0:0:0:0:
10,347,152076,2,0,L|123:330,1,87,2|2,2:0|0:0,0:0:0:0:
124,310,152335,1,0,0:0:0:0:
167,316,152421,1,0,0:0:0:0:
210,322,152507,1,0,0:0:0:0:
253,328,152593,1,8,2:0:0:0:
486,282,152766,2,0,P|431:274|418:346,1,130.5,2|0,2:0|0:0,0:0:0:0:
415,339,153111,6,0,P|411:288|376:246,1,87,4|0,2:0|0:0,0:0:0:0:
259,183,153455,1,2,2:0:0:0:
366,132,153628,1,2,0:0:0:0:
362,153,153714,1,0,0:0:0:0:
359,175,153800,1,0,0:0:0:0:
339,321,153973,5,8,2:0:0:0:
198,115,154145,1,2,2:0:0:0:
147,325,154318,1,8,2:0:0:0:
114,76,154490,6,0,L|123:133,1,43.5,4|0,2:0|0:0,0:0:0:0:
151,329,154662,2,0,L|142:272,1,43.5,8|0,2:0|0:0,0:0:0:0:
5,221,154835,2,0,L|47:214,1,43.5,2|0,2:0|0:0,0:0:0:0:
259,183,155007,2,0,L|216:189,1,43.5,8|0,2:0|0:0,0:0:0:0:
132,202,155180,1,2,3:0:0:0:
132,202,155869,5,0,0:0:0:0:
14,252,166904,6,0,B|96:229|71:279|168:252,1,130.50000497818,4|0,2:0|0:0,0:0:0:0:
195,178,167421,1,8,2:0:0:0:
199,182,167593,2,0,P|182:243|227:297,1,130.50000497818,2|8,3:0|2:0,0:0:0:0:
318,222,168111,2,0,P|286:218|256:228,1,65.2500024890901,0|0,0:0|0:0,0:0:0:0:
294,293,168455,5,0,0:0:0:0:
298,297,168628,1,0,0:0:0:0:
311,139,168800,1,8,2:0:0:0:
302,301,168973,2,0,L|297:370,1,65.2500024890901,2|0,3:0|0:0,0:0:0:0:
399,243,169318,1,8,2:0:0:0:
256,228,169490,1,0,0:0:0:0:
433,318,169662,6,0,P|472:280|461:188,1,130.50000497818,0|0,0:0|0:0,0:0:0:0:
317,76,170180,1,8,2:0:0:0:
317,76,170352,2,0,P|306:106|310:138,1,65.2500024890901,2|0,3:0|0:0,0:0:0:0:
504,133,170697,6,0,P|448:101|386:114,1,130.50000497818,8|0,2:0|0:0,0:0:0:0:
443,239,171214,2,0,P|447:207|437:177,1,65.2500024890901,0|0,0:0|0:0,0:0:0:0:
306,220,171559,1,8,2:0:0:0:
306,220,171731,2,0,L|375:215,1,65.2500024890901,2|0,3:0|0:0,0:0:0:0:
245,134,172076,2,0,L|310:138,1,65.2500024890901,8|0,2:0|3:0,0:0:0:0:
157,250,172421,6,0,L|295:240,1,130.50000497818,0|0,0:0|0:0,0:0:0:0:
110,185,172938,1,8,2:0:0:0:
110,185,173111,2,0,P|77:246|113:316,1,130.50000497818,2|8,3:0|2:0,0:0:0:0:
216,273,173628,2,0,P|174:252|141:250,1,65.2500024890901,0|0,0:0|0:0,0:0:0:0:
281,163,173973,5,0,0:0:0:0:
281,163,174145,1,0,0:0:0:0:
337,13,174318,1,8,2:0:0:0:
281,163,174490,2,0,P|239:184|206:186,1,65.2500024890901,2|0,3:0|0:0,0:0:0:0:
358,271,174835,2,0,P|316:250|283:248,1,65.2500024890901,8|0,2:0|0:0,0:0:0:0:
486,179,175180,6,0,B|404:156|429:206|332:179,1,130.50000497818,0|0,0:0|0:0,0:0:0:0:
226,104,175697,1,8,2:0:0:0:
226,104,175869,2,0,P|268:83|301:81,1,65.2500024890901,2|0,0:3|0:0,0:0:0:0:
486,179,176214,6,0,L|480:224,5,32.625001244545,8|0|0|0|0|0,2:0|0:0|0:0|0:0|0:0|0:0,0:0:0:0:
400,260,176731,6,0,L|408:312,5,43.5,0|0|2|0|8|0,0:0|0:0|0:0|0:0|2:0|0:0,0:0:0:0:
311,324,177249,5,2,3:0:0:0:
270,308,177335,1,0,0:0:0:0:
244,274,177421,1,0,0:0:0:0:
238,231,177507,1,0,0:0:0:0:
256,192,177593,5,2,0:0:0:0:
273,231,177679,1,0,0:0:0:0:
268,273,177765,1,0,0:0:0:0:
241,307,177851,1,0,0:0:0:0:
201,322,177937,5,4,2:0:0:0:
14,247,178111,1,0,0:0:0:0:
172,122,178283,1,2,2:0:0:0:
86,333,178455,6,0,P|80:305|83:282,1,43.5,2|0,0:0|0:0,0:0:0:0:
176,118,178628,2,0,P|182:146|179:169,1,43.5,0|0,0:0|0:0,0:0:0:0:
133,227,178800,1,8,2:0:0:0:
256,66,178973,2,0,L|351:59,1,87,2|0,2:0|0:0,0:0:0:0:
360,49,179231,1,0,0:0:0:0:
351,91,179317,5,4,2:0:0:0:
331,212,179490,1,0,0:0:0:0:
441,61,179662,1,2,2:0:0:0:
327,216,179835,5,2,0:0:0:0:
296,214,179921,1,0,0:0:0:0:
268,224,180007,1,0,0:0:0:0:
239,232,180093,1,0,0:0:0:0:
208,230,180179,1,8,2:0:0:0:
254,74,180352,2,0,L|236:165,1,87,2|0,2:0|0:0,0:0:0:0:
207,313,180611,1,0,0:0:0:0:
211,309,180697,6,0,L|116:302,1,87,4|0,2:0|0:0,0:0:0:0:
241,155,181042,1,2,2:0:0:0:
306,292,181214,6,0,L|297:337,1,43.5,2|0,0:0|0:0,0:0:0:0:
377,201,181387,2,0,L|368:246,1,43.5,0|0,0:0|0:0,0:0:0:0:
448,110,181559,1,8,2:0:0:0:
179,26,181731,1,2,2:0:0:0:
116,179,181904,1,0,0:0:0:0:
138,177,181990,1,0,0:0:0:0:
160,176,182076,5,4,2:0:0:0:
267,251,182248,1,2,0:0:0:0:
245,249,182334,1,0,0:0:0:0:
223,248,182421,2,0,L|232:293,1,43.5,2|0,2:0|0:0,0:0:0:0:
344,75,182593,5,2,0:0:0:0:
323,70,182679,1,0,0:0:0:0:
302,66,182766,2,0,L|311:111,1,43.5,0|0,0:0|0:0,0:0:0:0:
432,145,182938,2,0,L|384:141,1,43.5,8|0,2:0|0:0,0:0:0:0:
237,176,183111,6,0,L|280:179,1,43.5,2|0,2:0|0:0,0:0:0:0:
366,254,183283,2,0,L|357:211,1,43.5,8|0,2:0|0:0,0:0:0:0:
210,86,183455,5,4,2:0:0:0:
255,267,183628,1,0,0:0:0:0:
306,62,183800,1,2,2:0:0:0:
194,189,183973,1,2,0:0:0:0:
163,185,184059,1,0,0:0:0:0:
133,182,184145,1,0,0:0:0:0:
103,179,184231,1,0,0:0:0:0:
72,176,184317,1,8,2:0:0:0:
221,53,184490,5,2,2:0:0:0:
198,193,184662,2,0,L|185:268,1,43.5,0|0,0:0|0:0,0:0:0:0:
167,375,184835,1,4,2:0:0:0:
399,281,185007,5,0,0:0:0:0:
379,257,185093,1,0,0:0:0:0:
353,242,185179,1,2,2:0:0:0:
323,236,185265,1,0,0:0:0:0:
293,241,185352,2,0,L|280:316,1,43.5,0|0,0:0|0:0,0:0:0:0:
405,181,185524,2,0,L|412:138,1,43.5,2|0,0:0|0:0,0:0:0:0:
427,54,185697,1,8,2:0:0:0:
135,143,185869,5,2,2:0:0:0:
326,156,186042,1,0,0:0:0:0:
28,70,186214,6,0,L|42:155,1,87,4|0,2:0|0:0,0:0:0:0:
86,376,186559,1,2,2:0:0:0:
221,222,186731,2,0,L|213:264,1,43.5,2|0,0:0|0:0,0:0:0:0:
131,161,186904,2,0,L|138:203,1,43.5,0|0,0:0|0:0,0:0:0:0:
246,110,187076,1,8,2:0:0:0:
16,66,187249,1,2,2:0:0:0:
93,288,187421,1,8,2:0:0:0:
251,105,187593,5,4,2:0:0:0:
457,245,187766,5,8,2:0:0:0:
423,271,187852,1,0,0:0:0:0:
380,280,187938,1,2,2:0:0:0:
339,268,188024,1,0,0:0:0:0:
316,232,188111,5,8,2:0:0:0:
285,207,188197,1,0,0:0:0:0:
246,199,188283,1,0,0:0:0:0:
208,211,188369,1,0,0:0:0:0:
181,240,188455,2,0,L|173:282,1,43.5,8|0,2:0|0:0,0:0:0:0:
14,137,188628,5,2,2:0:0:0:
50,107,188714,1,0,0:0:0:0:
96,98,188800,1,8,2:0:0:0:
141,112,188886,1,0,0:0:0:0:
173,146,188973,6,0,P|239:193|346:94,1,217.5,2|2,3:0|2:0,0:0:0:0:
94,182,189490,2,0,L|86:250,1,54.375,2|0,0:0|0:0,0:0:0:0:
222,280,189662,2,0,L|167:286,1,54.375,0|0,0:0|0:0,0:0:0:0:
48,323,189835,1,8,2:0:0:0:
254,100,190007,1,2,2:0:0:0:
401,185,190180,1,0,0:0:0:0:
404,212,190266,1,0,0:0:0:0:
408,240,190352,5,4,2:0:0:0:
384,64,190524,1,0,0:0:0:0:
218,284,190697,1,2,2:0:0:0:
89,167,190869,5,2,0:0:0:0:
111,118,190955,1,0,0:0:0:0:
155,86,191041,1,0,0:0:0:0:
208,81,191127,1,0,0:0:0:0:
257,103,191213,1,8,2:0:0:0:
412,268,191387,2,0,L|303:255,1,108.75,2|0,2:0|0:0,0:0:0:0:
218,284,191645,1,0,0:0:0:0:
214,288,191731,5,4,2:0:0:0:
366,353,191904,1,0,0:0:0:0:
257,103,192076,1,2,2:0:0:0:
89,167,192249,2,0,L|97:235,1,54.375,2|0,0:0|0:0,0:0:0:0:
174,79,192421,2,0,L|166:147,1,54.375,0|0,0:0|0:0,0:0:0:0:
66,12,192593,1,8,2:0:0:0:
108,314,192766,1,2,2:0:0:0:
349,127,192939,1,0,0:0:0:0:
346,154,193025,1,0,0:0:0:0:
342,182,193111,5,4,2:0:0:0:
170,75,193283,1,0,0:0:0:0:
451,120,193455,1,2,2:0:0:0:
245,22,193628,1,2,0:0:0:0:
248,49,193714,1,0,0:0:0:0:
252,77,193800,2,0,L|260:145,1,54.375,0|0,0:0|0:0,0:0:0:0:
283,332,193973,1,8,2:0:0:0:
361,49,194145,1,2,2:0:0:0:
213,235,194318,1,8,2:0:0:0:
200,237,194404,1,0,0:0:0:0:
186,239,194490,6,0,P|129:230|61:221,1,108.75,4|0,2:0|0:0,0:0:0:0:
262,127,194835,2,0,P|205:136|137:145,1,108.75,2|2,2:0|0:0,0:0:0:0:
68,173,195093,1,0,0:0:0:0:
72,169,195180,2,0,L|80:237,1,54.375,0|0,0:0|0:0,0:0:0:0:
160,88,195352,2,0,L|152:156,1,54.375,8|0,2:0|0:0,0:0:0:0:
57,19,195524,1,2,2:0:0:0:
311,59,195697,1,0,0:0:0:0:
341,102,195783,1,0,0:0:0:0:
340,156,195869,5,4,2:0:0:0:
213,235,196042,1,0,0:0:0:0:
411,129,196214,1,2,2:0:0:0:
146,166,196387,5,2,0:0:0:0:
119,212,196473,1,0,0:0:0:0:
122,266,196559,1,0,0:0:0:0:
152,310,196645,1,0,0:0:0:0:
202,330,196731,1,8,2:0:0:0:
486,261,196904,2,0,P|428:257|377:285,1,108.75,2|0,2:0|0:0,0:0:0:0:
311,338,197162,1,0,0:0:0:0:
317,343,197249,6,0,P|306:278|293:228,1,108.75,4|0,2:0|0:0,0:0:0:0:
390,91,197593,2,0,P|377:143|368:197,1,108.75,2|2,2:0|0:0,0:0:0:0:
329,161,197852,1,0,0:0:0:0:
276,156,197938,1,0,0:0:0:0:
231,184,198024,1,0,0:0:0:0:
213,234,198110,1,8,2:0:0:0:
394,15,198283,1,2,2:0:0:0:
295,236,198455,1,8,2:0:0:0:
285,272,198541,1,0,0:0:0:0:
278,310,198627,5,8,2:0:0:0:
225,0,198800,1,4,2:0:0:0:
274,314,198973,1,6,2:0:0:0:
460,119,199145,2,0,L|364:136,1,54.375,12|0,2:0|0:0,0:0:0:0:
42,191,199317,2,0,L|95:181,1,54.375,12|0,2:0|0:0,0:0:0:0:
251,155,199490,1,12,2:0:0:0:
255,159,199662,5,14,2:0:0:0:
294,121,199749,1,8,2:0:0:0:
270,71,199835,1,8,2:0:0:0:
217,79,199921,1,0,0:0:0:0:
208,133,200007,1,8,2:0:0:0:
204,137,200352,6,0,L|213:190,1,54.375,2|0,3:0|0:0,0:0:0:0:
371,330,200524,2,0,B|381:278|321:243|321:243|252:230|225:278,1,217.5,4|8,2:0|2:0,0:0:0:0:
80,170,201042,2,0,L|133:179,1,54.375,2|0,2:0|0:0,0:0:0:0:
292,323,201214,1,0,0:0:0:0:
296,327,201300,1,0,0:0:0:0:
300,331,201386,5,4,2:0:0:0:
397,191,201559,1,0,0:0:0:0:
218,356,201731,1,2,2:0:0:0:
76,166,201904,5,2,0:0:0:0:
129,159,201990,1,0,0:0:0:0:
179,178,202076,1,0,0:0:0:0:
231,191,202162,1,0,0:0:0:0:
284,183,202248,1,8,2:0:0:0:
249,47,202421,2,0,P|234:91|233:128,1,54.375,2|0,2:0|0:0,0:0:0:0:
126,251,202593,2,0,P|131:277|142:302,1,54.375,0|0,0:0|0:0,0:0:0:0:
326,355,202766,5,4,1:0:0:0:
291,177,202938,1,4,1:0:0:0:
214,363,203111,1,0,0:0:0:0:
489,41,203283,1,4,1:0:0:0:
20,271,203628,1,8,2:0:0:0:
73,261,203714,1,8,2:0:0:0:
126,251,203800,5,4,1:0:0:0:
211,134,203973,1,0,0:0:0:0:
206,159,204059,1,0,0:0:0:0:
202,185,204145,1,4,2:0:0:0:
383,282,204318,5,2,0:0:0:0:
340,241,204404,1,0,0:0:0:0:
281,232,204490,5,2,2:0:0:0:
326,261,204576,1,0,0:0:0:0:
379,263,204662,1,0,0:0:0:0:
427,238,204748,1,0,0:0:0:0:
455,192,204834,1,2,0:0:0:0:
456,139,204921,1,0,0:0:0:0:
429,92,205007,1,8,2:0:0:0:
141,99,205180,1,2,2:0:0:0:
126,323,205352,2,0,L|131:268,1,54.375,8|0,2:0|0:0,0:0:0:0:
196,21,205524,5,8,2:0:0:0:
49,203,205697,1,4,2:0:0:0:
356,162,205869,1,6,2:0:0:0:
209,344,206042,5,12,2:0:0:0:
213,289,206128,1,0,0:0:0:0:
218,235,206214,1,12,2:0:0:0:
223,181,206300,1,0,0:0:0:0:
228,127,206386,1,12,2:0:0:0:
51,337,206559,1,14,2:0:0:0:
51,337,206731,6,0,L|56:282,1,54.375,8|8,2:0|2:0,0:0:0:0:
81,62,206904,1,8,2:0:0:0:
209,344,207076,1,8,2:0:0:0:
343,82,207249,1,10,2:0:0:0:
5,85,207422,5,4,2:0:0:0:
10,139,207508,1,0,0:0:0:0:
15,193,207594,1,4,2:0:0:0:
20,247,207680,1,0,0:0:0:0:
25,302,207766,1,12,2:0:0:0:
0,31,207938,1,14,2:0:0:0:
266,194,208111,5,8,2:0:0:0:
221,223,208197,1,8,2:0:0:0:
168,219,208283,1,8,2:0:0:0:
257,53,208455,1,8,2:0:0:0:
190,320,208628,1,2,0:0:0:0:
131,71,208800,5,8,2:0:0:0:
178,95,208886,1,8,2:0:0:0:
201,143,208972,1,8,2:0:0:0:
186,324,209145,1,8,2:0:0:0:
435,129,209318,5,2,0:0:0:0:
385,97,209404,1,0,0:0:0:0:
326,100,209490,1,0,0:0:0:0:
281,137,209576,1,0,0:0:0:0:
266,194,209662,1,2,3:0:0:0:
256,352,210007,5,2,0:0:0:0:
183,269,210180,1,0,0:0:0:0:
182,277,210266,1,0,0:0:0:0:
181,286,210352,1,0,0:0:0:0:
181,294,210439,1,0,0:0:0:0:
179,303,210525,1,0,0:0:0:0:
178,311,210611,1,0,0:0:0:0:
177,320,210697,5,2,0:0:0:0:
203,286,210783,1,0,0:0:0:0:
243,269,210869,1,0,0:0:0:0:
286,275,210955,1,0,0:0:0:0:
320,300,211043,5,0,0:0:0:0:
402,280,211388,1,0,0:0:0:0:
484,260,211732,1,2,2:0:0:0:
488,264,212422,5,0,0:0:0:0:
406,284,212767,1,0,0:0:0:0:
324,304,213111,2,0,L|241:292,1,65.2500024890901,2|0,2:0|0:0,0:0:0:0:
185,238,213455,2,0,L|102:250,1,65.2500024890901,0|0,0:0|0:0,0:0:0:0:
16,303,213800,6,0,P|47:240|5:174,1,130.50000497818,0|0,0:0|0:0,0:0:0:0:
20,184,214490,2,0,P|67:183|109:165,1,65.2500024890901,2|0,2:0|0:0,0:0:0:0:
164,90,214835,1,0,0:0:0:0:
160,86,215352,5,0,0:0:0:0:
255,141,215524,1,2,0:0:0:0:
351,87,215697,1,0,0:0:0:0:
158,199,215869,2,0,P|151:231|159:263,1,65.2500024890901
353,263,216214,2,0,P|360:232|354:200,1,65.2500024890901,2|0,0:0|0:0,0:0:0:0:
350,196,216559,6,0,L|491:181,1,130.50000497818,0|0,0:0|0:0,0:0:0:0:
483,178,217250,1,2,2:0:0:0:
253,359,217939,5,0,0:0:0:0:
249,355,218284,1,0,0:0:0:0:
254,127,218455,1,0,0:0:0:0:
49,238,218628,2,0,P|72:260|103:269,1,65.2500024890901,2|0,2:0|2:0,2:0:0:0:
162,163,218973,2,0,P|131:171|104:200,1,65.2500024890901
127,344,219318,6,0,P|174:302|172:239,1,130.50000497818
168,235,220008,1,2,2:0:0:0:
256,308,220180,1,0,0:0:0:0:
344,235,220352,1,0,0:0:0:0:
348,239,220869,5,0,0:0:0:0:
260,312,221043,1,2,0:0:0:0:
172,239,221215,1,0,0:0:0:0:
352,243,221388,5,0,2:0:0:0:
264,316,221560,1,0,0:0:0:0:
176,243,221732,1,0,0:0:0:0:
264,90,221904,5,2,0:0:0:0:
