osu file format v14

[General]
AudioFilename: audio.mp3
AudioLeadIn: 0
PreviewTime: 50352
Countdown: 0
SampleSet: Soft
StackLeniency: 0.7
Mode: 0
LetterboxInBreaks: 0
WidescreenStoryboard: 1

[Editor]
Bookmarks: 12413,23447,34482,45516,51034,56292,62068,62413,67585,71723,73103,73447,73534,82758,84137,95172,106206,111723,122758,123103,128275,132413,144827,155861,166896,177930,188965,199999,200344,205516,209654,221896
DistanceSpacing: 1
BeatDivisor: 2
GridSize: 8
TimelineZoom: 0.7

[Metadata]
Title:Stay Alive (Jun Kuroda Bootleg Remix)
TitleUnicode:Stay Alive (Jun Kuroda Bootleg Remix)
Artist:EMILIA (CV: Takahashi Rie)
ArtistUnicode:エミリア (CV:高橋李依)
Creator:gary00737
Version:CookieBite's Easy
Source:Re:ゼロから始める異世界生活
Tags:Frey Moecho Moeri Moeriko CookieBite DreaM117er m1223961117 re:zero ed2 ending
BeatmapID:1552360
BeatmapSetID:671597

[Difficulty]
HPDrainRate:2
CircleSize:3
OverallDifficulty:2
ApproachRate:2
SliderMultiplier:0.799999999999999
SliderTickRate:1

[Events]
//Background and Video events
0,0,"735306.jpg",0,0
//Break Periods
2,45724,48792
2,106414,109482
2,156069,165344
//Storyboard Layer 0 (Background)
//Storyboard Layer 1 (Fail)
//Storyboard Layer 2 (Pass)
//Storyboard Layer 3 (Foreground)
//Storyboard Sound Samples

[TimingPoints]
1387,344.827586206897,4,2,1,40,1,0
1387,-100,4,2,1,40,0,0
1473,-100,4,2,2,40,0,0
12421,-100,4,2,2,40,0,0
12507,-100,4,2,1,45,0,0
13111,-100,4,2,2,45,0,0
13197,-100,4,2,1,45,0,0
14490,-100,4,2,2,45,0,0
14576,-100,4,2,1,45,0,0
15869,-100,4,2,2,45,0,0
15955,-100,4,2,1,45,0,0
17249,-100,4,2,2,45,0,0
17335,-100,4,2,1,45,0,0
17766,-100,4,2,2,45,0,0
17852,-100,4,2,1,45,0,0
18628,-100,4,2,2,45,0,0
18714,-100,4,2,1,45,0,0
20007,-100,4,2,2,45,0,0
20093,-100,4,2,1,45,0,0
22076,-100,4,2,2,45,0,0
23455,-100,4,2,1,60,0,0
25352,-100,4,2,1,60,0,0
25697,-100,4,2,1,60,0,0
28111,-100,4,2,1,60,0,0
28455,-100,4,2,1,60,0,0
29490,-100,4,2,1,60,0,0
29835,-100,4,2,1,60,0,0
30869,-100,4,2,1,60,0,0
31214,-100,4,2,1,60,0,0
33283,-100,4,2,1,60,0,0
33455,-100,4,2,1,60,0,0
35007,-100,4,2,1,60,0,0
35352,-100,4,2,1,60,0,0
35697,-100,4,2,1,60,0,0
35869,-100,4,2,1,60,0,0
36387,-100,4,2,1,60,0,0
36731,-100,4,2,1,60,0,0
37766,-100,4,2,1,60,0,0
38111,-100,4,2,1,60,0,0
39145,-100,4,2,1,60,0,0
39490,-100,4,2,1,60,0,0
40524,-100,4,2,1,60,0,0
40869,-100,4,2,1,60,0,0
41559,-100,4,2,1,60,0,0
41731,-100,4,2,1,60,0,0
42076,-100,4,2,1,60,0,0
42249,-100,4,2,1,60,0,0
43283,-100,4,2,1,60,0,0
43628,-100,4,2,1,60,0,0
49662,-100,4,2,1,60,0,0
51042,-100,4,2,1,75,0,1
51559,-100,4,2,1,75,0,1
51904,-100,4,2,1,75,0,1
52249,-100,4,2,1,75,0,1
52421,-100,4,2,1,75,0,1
52938,-100,4,2,1,75,0,1
53283,-100,4,2,1,75,0,1
54318,-100,4,2,1,75,0,1
54662,-100,4,2,1,75,0,1
55697,-100,4,2,1,75,0,1
56042,-100,4,2,1,75,0,1
57076,-100,4,2,1,75,0,1
57421,-100,4,2,1,75,0,1
58455,-100,4,2,1,75,0,1
58800,-100,4,2,1,75,0,1
59835,-100,4,2,1,75,0,1
60180,-100,4,2,1,75,0,1
62076,-100,4,2,1,75,0,0
62421,-100,4,2,1,75,0,1
62593,-100,4,2,2,75,0,1
62680,-100,4,2,1,75,0,1
63973,-100,4,2,1,75,0,1
64318,-100,4,2,1,75,0,1
65869,-100,4,2,1,75,0,1
66214,-100,4,2,1,75,0,1
66387,-100,4,2,1,75,0,1
66559,-100,4,2,1,75,0,1
66731,-100,4,2,1,75,0,1
67076,-100,4,2,1,75,0,1
71731,-100,4,2,1,75,0,0
73455,-100,4,2,1,65,0,1
73542,-100,4,2,1,65,0,0
77421,-100,4,2,1,65,0,0
77593,-100,4,2,1,65,0,0
77938,-100,4,2,1,65,0,0
78111,-100,4,2,1,65,0,0
82766,-100,4,2,1,65,0,0
84145,-100,4,2,1,55,0,0
84662,-100,4,2,1,55,0,0
85007,-100,4,2,1,55,0,0
86042,-100,4,2,1,55,0,0
86387,-100,4,2,1,55,0,0
88800,-100,4,2,1,55,0,0
89145,-100,4,2,1,55,0,0
90180,-100,4,2,1,55,0,0
90524,-100,4,2,1,55,0,0
91559,-100,4,2,1,55,0,0
91904,-100,4,2,1,55,0,0
93800,-100,4,2,0,55,0,0
95180,-100,4,2,1,60,0,0
95697,-100,4,2,1,60,0,0
96042,-100,4,2,1,60,0,0
97076,-100,4,2,1,60,0,0
97421,-100,4,2,1,60,0,0
98455,-100,4,2,1,60,0,0
98800,-100,4,2,1,60,0,0
99835,-100,4,2,1,60,0,0
100180,-100,4,2,1,60,0,0
101214,-100,4,2,1,60,0,0
101559,-100,4,2,1,60,0,0
102249,-100,4,2,1,60,0,0
102421,-100,4,2,1,60,0,0
102766,-100,4,2,1,60,0,0
102938,-100,4,2,1,60,0,0
103973,-100,4,2,1,60,0,0
104318,-100,4,2,1,60,0,0
110352,-100,4,2,1,60,0,0
111731,-100,4,2,1,75,0,1
112249,-100,4,2,1,75,0,1
112593,-100,4,2,1,75,0,1
113628,-100,4,2,1,75,0,1
113973,-100,4,2,1,75,0,1
115007,-100,4,2,1,75,0,1
115352,-100,4,2,1,75,0,1
116387,-100,4,2,1,75,0,1
116731,-100,4,2,1,75,0,1
117766,-100,4,2,1,75,0,1
118111,-100,4,2,1,75,0,1
119145,-100,4,2,1,75,0,1
119490,-100,4,2,1,75,0,1
120524,-100,4,2,1,75,0,1
120869,-100,4,2,1,75,0,1
122766,-100,4,2,1,75,0,0
123111,-100,4,2,1,75,0,1
123283,-100,4,2,2,75,0,1
123369,-100,4,2,1,75,0,1
124662,-100,4,2,1,75,0,1
125007,-100,4,2,1,75,0,1
126559,-100,4,2,1,75,0,1
126904,-100,4,2,1,75,0,1
127076,-100,4,2,1,75,0,1
127249,-100,4,2,1,75,0,1
127593,-100,4,2,1,75,0,1
127766,-100,4,2,1,75,0,1
132421,-100,4,2,1,75,0,0
133800,-100,4,2,1,65,0,0
133973,-100,4,2,1,65,0,0
134318,-100,4,2,1,65,0,0
134662,-100,4,2,1,65,0,0
134835,-100,4,2,1,65,0,0
135869,-100,4,2,1,65,0,0
136559,-100,4,2,1,65,0,0
136731,-100,4,2,1,65,0,0
137076,-100,4,2,1,65,0,0
137421,-100,4,2,1,65,0,0
137593,-100,4,2,1,65,0,0
138628,-100,4,2,1,65,0,0
138973,-100,4,2,1,65,0,0
139318,-100,4,2,1,65,0,0
140180,-100,4,2,1,65,0,0
140352,-100,4,2,1,65,0,0
141559,-100,4,2,1,65,0,0
141731,-100,4,2,1,65,0,0
142421,-100,4,2,1,65,0,0
142593,-100,4,2,1,65,0,0
142938,-100,4,2,1,65,0,0
143111,-100,4,2,1,65,0,0
144145,-100,4,2,1,65,0,0
144490,-100,4,2,1,65,0,0
144835,-100,4,2,1,60,0,0
145352,-100,4,2,1,60,0,0
145697,-100,4,2,1,60,0,0
146731,-100,4,2,1,60,0,0
147076,-100,4,2,1,60,0,0
148111,-100,4,2,1,60,0,0
148455,-100,4,2,1,60,0,0
149490,-100,4,2,1,60,0,0
149835,-100,4,2,1,60,0,0
150869,-100,4,2,1,60,0,0
151214,-100,4,2,1,60,0,0
152249,-100,4,2,1,60,0,0
152593,-100,4,2,1,60,0,0
153628,-100,4,2,1,60,0,0
153973,-100,4,2,1,60,0,0
155180,-100,4,2,1,60,0,0
155783,-100,4,2,1,60,0,0
155869,-100,4,2,2,45,0,0
155955,-100,4,2,1,45,0,0
166904,-100,4,2,2,45,0,0
166990,-100,4,2,1,30,0,0
176559,-100,4,2,2,35,0,0
176904,-100,4,2,2,40,0,0
177249,-100,4,2,2,45,0,0
177593,-100,4,2,2,50,0,0
177938,-100,4,2,1,60,0,0
178455,-100,4,2,1,60,0,0
178800,-100,4,2,1,60,0,0
179835,-100,4,2,1,60,0,0
180180,-100,4,2,1,60,0,0
181214,-100,4,2,1,60,0,0
181559,-100,4,2,1,60,0,0
182249,-100,4,2,1,60,0,0
182421,-100,4,2,1,60,0,0
182593,-100,4,2,1,60,0,0
182938,-100,4,2,1,60,0,0
183973,-100,4,2,1,60,0,0
184318,-100,4,2,1,60,0,0
185007,-100,4,2,1,60,0,0
185180,-100,4,2,1,60,0,0
185524,-100,4,2,1,60,0,0
185697,-100,4,2,1,60,0,0
186214,-100,4,2,1,65,0,0
186731,-100,4,2,1,65,0,0
187076,-100,4,2,1,65,0,0
188973,-100,4,2,1,75,0,1
189490,-100,4,2,1,75,0,1
189835,-100,4,2,1,75,0,1
190869,-100,4,2,1,75,0,1
191214,-100,4,2,1,75,0,1
192249,-100,4,2,1,75,0,1
192593,-100,4,2,1,75,0,1
193628,-100,4,2,1,75,0,1
193973,-100,4,2,1,75,0,1
195007,-100,4,2,1,75,0,1
195352,-100,4,2,1,75,0,1
196387,-100,4,2,1,75,0,1
196731,-100,4,2,1,75,0,1
197766,-100,4,2,1,75,0,1
198111,-100,4,2,1,75,0,1
200007,-100,4,2,1,75,0,0
200352,-100,4,2,1,75,0,1
200524,-100,4,2,2,75,0,1
200611,-100,4,2,1,75,0,1
201904,-100,4,2,1,75,0,1
202249,-100,4,2,1,75,0,1
203800,-100,4,2,1,75,0,1
204145,-100,4,2,1,75,0,1
204318,-100,4,2,1,75,0,1
204490,-100,4,2,1,75,0,1
204835,-100,4,2,1,75,0,1
205007,-100,4,2,1,75,0,1
209662,-100,4,2,1,45,0,0
210007,-100,4,2,1,45,0,0
211042,-100,4,2,2,45,0,0
211731,-100,4,2,2,45,0,0

[Colours]
Combo1 : 136,255,255
Combo2 : 255,153,204
Combo3 : 255,119,255

[HitObjects]
72,80,1387,6,0,P|41:168|167:103,1,320,0|0,3:0|0:0,0:0:0:0:
460,266,4145,2,0,P|389:248|331:306,1,160,0|2,0:0|2:0,0:0:0:0:
303,378,5180,1,0,0:0:0:0:
179,276,5869,2,0,L|86:287,2,79.9999999999999,2|0|2,0:0|0:0|0:0,0:0:0:0:
228,212,6904,6,0,P|286:235|232:115,1,320,0|0,0:0|0:0,0:0:0:0:
28,348,9662,2,0,P|101:315|194:330,1,160,0|2,0:0|2:0,0:0:0:0:
250,358,10697,1,0,0:0:0:0:
359,241,11387,2,0,L|352:160,2,79.9999999999999,2|0|2,0:0|2:0|0:0,0:0:0:0:
401,309,12421,6,0,P|338:280|242:293,1,160,4|8,2:0|1:2,0:0:0:0:
168,151,13800,2,0,P|240:181|319:170,1,160,0|8,3:0|1:2,0:0:0:0:
380,118,14835,1,0,3:0:0:0:
434,176,15180,2,0,L|425:343,1,160,0|8,3:0|1:2,0:0:0:0:
354,373,16214,1,0,3:0:0:0:
236,263,16904,2,0,L|156:268,2,79.9999999999999,0|8|0,0:0|1:2|3:0,0:0:0:0:
273,192,17938,6,0,P|194:158|103:163,1,160,0|8,3:0|1:2,0:0:0:0:
51,119,18973,1,0,3:0:0:0:
2,182,19318,2,0,L|8:359,1,160,0|8,3:0|1:2,0:0:0:0:
81,372,20352,1,0,3:0:0:0:
126,306,20697,2,0,P|200:283|264:326,1,160,0|0,3:0|0:0,0:0:0:0:
326,377,21731,2,0,L|419:363,1,79.9999999999999,0|2,0:0|3:2,0:0:0:0:
255,82,23455,6,0,P|202:108|143:100,2,120,4|0|2,2:0|0:0|2:0,0:0:0:0:
302,17,24835,2,0,P|327:48|334:87,1,79.9999999999999,4|2,2:0|2:0,0:0:0:0:
386,147,25524,2,0,P|371:184|341:210,1,79.9999999999999,0|2,0:0|2:0,0:0:0:0:
272,250,26214,6,0,P|318:286|376:281,2,120,4|8|2,2:0|2:0|2:0,0:0:0:0:
246,174,27593,2,0,L|256:95,1,79.9999999999999,4|2,2:0|2:0,0:0:0:0:
329,61,28283,2,0,L|338:140,1,79.9999999999999,0|2,0:0|2:0,0:0:0:0:
393,198,28973,6,0,L|512:212,2,120,4|0|2,2:0|0:0|2:0,0:0:0:0:
334,252,30352,2,0,L|325:335,1,79.9999999999999,4|2,2:0|2:0,0:0:0:0:
245,323,31042,2,0,L|162:332,1,79.9999999999999,0|2,0:0|2:0,0:0:0:0:
97,373,31731,5,12,2:0:0:0:
25,336,32076,2,0,P|-10:267|33:199,1,160,2|2,2:0|2:0,0:0:0:0:
70,270,33111,2,0,B|156:292|123:216|218:240,1,160,8|0,2:0|0:0,0:0:0:0:
282,192,34145,1,2,2:0:0:0:
331,255,34490,6,0,P|389:262|439:232,2,120,4|0|2,1:0|0:0|2:0,0:0:0:0:
282,192,35869,2,0,L|291:112,1,79.9999999999999,4|2,2:0|2:0,0:0:0:0:
249,43,36559,2,0,L|169:52,1,79.9999999999999,0|2,0:0|2:0,0:0:0:0:
132,123,37249,6,0,P|73:130|17:107,2,120,4|0|2,2:0|0:0|2:0,0:0:0:0:
201,163,38628,1,4,2:0:0:0:
268,119,38973,1,2,2:0:0:0:
342,149,39318,2,0,P|351:190|349:228,1,79.9999999999999,0|2,0:0|2:0,0:0:0:0:
301,292,40007,5,4,2:0:0:0:
226,262,40352,2,0,P|173:261|94:346,1,160,2|2,2:0|2:0,0:0:0:0:
26,293,41387,2,0,L|35:211,1,79.9999999999999,4|2,2:0|2:0,0:0:0:0:
97,164,42076,2,0,L|88:82,1,79.9999999999999,0|2,0:0|2:0,0:0:0:0:
149,32,42766,6,0,P|215:72|292:56,1,160,12|0,2:0|0:0,0:0:0:0:
354,7,43800,1,2,2:0:0:0:
415,58,44145,2,0,P|414:97|407:137,1,79.9999999999999,8|2,2:0|2:0,0:0:0:0:
341,182,44835,2,0,P|341:221|348:261,1,79.9999999999999,0|2,0:0|2:0,0:0:0:0:
402,320,45524,5,4,1:0:0:0:
402,320,50352,5,0,0:0:0:0:
326,177,51042,6,0,B|195:130|235:259|104:209,1,240,2|2,3:0|2:0,0:0:0:0:
61,142,52421,2,0,L|73:7,2,120,4|0|2,2:0|0:0|2:0,0:0:0:0:
7,201,53800,2,0,P|29:249|37:319,1,120,4|0,2:0|0:0,0:0:0:0:
142,373,54835,1,2,2:0:0:0:
200,318,55180,2,0,L|286:329,1,79.9999999999999,4|2,2:0|2:0,0:0:0:0:
343,280,55869,2,0,L|332:194,1,79.9999999999999,0|2,0:0|2:0,0:0:0:0:
282,138,56559,6,0,P|360:149|421:94,1,160,4|0,2:0|0:0,0:0:0:0:
478,46,57593,2,0,P|461:125|463:216,1,160,2|2,2:0|2:0,0:0:0:0:
502,272,58628,2,0,L|486:364,1,79.9999999999999,0|2,0:0|2:0,0:0:0:0:
407,353,59318,6,0,P|338:316|260:325,1,160,4|0,2:0|0:0,0:0:0:0:
194,278,60352,2,0,L|207:199,1,79.9999999999999,2|8,2:0|2:0,0:0:0:0:
253,133,61042,2,0,L|332:120,2,79.9999999999999,6|2|2,2:0|2:0|2:0,0:0:0:0:
203,69,62076,1,8,2:0:0:0:
132,106,62421,6,0,P|90:185|105:252,1,160,2|2,3:0|2:0,0:0:0:0:
162,305,63455,2,0,L|284:294,2,120,4|0|2,2:0|0:0|2:0,0:0:0:0:
104,250,64835,1,4,1:0:0:0:
152,140,65352,1,4,1:0:0:0:
206,32,65869,6,0,P|269:77|347:66,1,160,4|2,1:0|2:0,0:0:0:0:
410,17,66904,2,0,L|501:31,1,79.9999999999999,0|2,0:0|2:0,0:0:0:0:
500,109,67593,5,8,2:0:0:0:
440,162,67938,1,6,2:0:0:0:
487,226,68283,2,0,L|477:313,1,79.9999999999999,12|14,2:0|2:0,0:0:0:0:
414,355,68973,1,8,2:0:0:0:
346,312,69318,1,10,2:0:0:0:
284,362,69662,2,0,L|197:352,1,79.9999999999999,4|14,2:0|2:0,0:0:0:0:
124,340,70352,6,0,P|85:220|201:273,1,320,8|2,2:0|3:0,0:0:0:0:
201,273,73111,5,0,0:0:0:0:
260,326,73455,2,0,P|326:343|393:279,1,160,2|2,3:0|2:0,0:0:0:0:
313,264,74490,2,0,L|305:183,1,79.9999999999999,4|2,2:0|2:0,0:0:0:0:
378,151,75180,2,0,L|386:70,1,79.9999999999999,0|2,0:0|2:0,0:0:0:0:
439,11,75869,6,0,L|319:22,1,120,4|4,1:0|1:0,0:0:0:0:
244,115,76904,2,0,L|84:99,1,160,4|2,1:0|2:0,0:0:0:0:
32,159,77938,2,0,L|40:242,1,79.9999999999999,0|2,0:0|2:0,0:0:0:0:
84,304,78628,5,4,2:0:0:0:
151,260,78973,1,10,2:0:0:0:
210,314,79318,2,0,L|293:306,1,79.9999999999999,8|10,2:0|2:0,0:0:0:0:
357,264,80007,1,4,2:0:0:0:
310,198,80352,1,10,2:0:0:0:
364,139,80697,2,0,L|356:56,1,79.9999999999999,8|10,2:0|2:0,0:0:0:0:
279,36,81387,6,0,P|162:75|276:123,1,320,4|4,2:0|2:0,0:0:0:0:
34,331,84145,6,0,P|20:275|15:207,2,120,0|0|2,0:0|0:0|2:0,0:0:0:0:
190,368,85869,2,0,L|269:357,1,79.9999999999999,2|0,2:0|0:0,0:0:0:0:
319,295,86559,1,2,2:0:0:0:
386,338,86904,6,0,P|444:347|500:320,2,120,4|8|2,2:0|2:0|2:0,0:0:0:0:
319,295,88283,2,0,L|328:215,1,79.9999999999999,4|2,2:0|2:0,0:0:0:0:
382,156,88973,2,0,L|373:76,1,79.9999999999999,0|2,0:0|2:0,0:0:0:0:
304,35,89662,6,0,P|244:35|189:59,2,120,4|0|2,2:0|0:0|2:0,0:0:0:0:
373,76,91042,2,0,L|453:67,1,79.9999999999999,4|2,2:0|2:0,0:0:0:0:
510,122,91731,2,0,L|501:202,1,79.9999999999999,0|2,0:0|2:0,0:0:0:0:
449,262,92421,6,0,P|389:266|326:239,2,120,12|12|2,2:0|2:0|2:0,0:0:0:0:
501,201,93800,1,0,1:0:0:0:
414,66,94490,2,0,P|376:71|329:88,1,79.9999999999999,2|2,0:0|0:0,0:0:0:0:
287,147,95180,6,0,L|205:138,1,79.9999999999999,4|2,1:0|2:0,0:0:0:0:
149,83,95869,2,0,P|85:82|22:105,2,120,0|0|2,0:0|0:0|2:0,0:0:0:0:
207,138,97249,1,0,0:0:0:0:
160,202,97593,1,2,2:0:0:0:
217,258,97938,6,0,P|276:250|332:279,2,120,4|8|2,2:0|2:0|2:0,0:0:0:0:
166,320,99318,2,0,L|74:311,1,79.9999999999999,4|2,2:0|2:0,0:0:0:0:
9,335,100007,2,0,L|0:243,1,79.9999999999999,0|2,0:0|2:0,0:0:0:0:
54,195,100697,6,0,L|65:75,2,120,4|0|2,2:0|0:0|2:0,0:0:0:0:
99,259,102076,2,0,P|135:244|175:247,1,79.9999999999999,4|2,2:0|2:0,0:0:0:0:
236,299,102766,1,0,0:0:0:0:
297,247,103111,1,2,2:0:0:0:
359,296,103455,6,0,P|417:307|474:281,2,120,12|0|2,2:0|0:0|2:0,0:0:0:0:
297,247,104835,2,0,L|310:164,1,79.9999999999999,8|2,2:0|2:0,0:0:0:0:
256,108,105524,2,0,L|176:120,1,79.9999999999999,0|2,0:0|2:0,0:0:0:0:
108,79,106214,5,8,0:0:0:0:
108,79,111042,5,0,0:0:0:0:
255,140,111731,6,0,P|313:147|369:125,2,120,2|0|2,3:0|0:0|2:0,0:0:0:0:
200,81,113111,2,0,P|142:74|86:96,2,120,4|0|2,2:0|0:0|2:0,0:0:0:0:
255,140,114490,2,0,L|242:270,1,120,4|0,2:0|0:0,0:0:0:0:
327,344,115524,1,2,2:0:0:0:
383,287,115869,2,0,L|462:278,1,79.9999999999999,4|2,2:0|2:0,0:0:0:0:
508,212,116559,1,0,0:0:0:0:
469,141,116904,1,2,2:0:0:0:
505,69,117249,6,0,P|437:68|390:157,1,160,4|0,2:0|0:0,0:0:0:0:
423,210,118283,2,0,B|338:237|352:170|270:190,1,160,2|2,2:0|2:0,0:0:0:0:
236,116,119318,2,0,L|243:36,1,79.9999999999999,0|2,0:0|2:0,0:0:0:0:
165,17,120007,6,0,P|100:62|24:48,1,160,4|0,2:0|0:0,0:0:0:0:
0,124,121042,1,2,2:0:0:0:
27,199,121387,1,8,2:0:0:0:
104,181,121731,2,0,L|183:192,2,79.9999999999999,6|2|2,2:0|2:0|2:0,0:0:0:0:
27,199,122766,1,8,2:0:0:0:
58,272,123111,6,0,P|136:272|197:321,1,160,2|2,3:0|2:0,0:0:0:0:
255,377,124145,2,0,L|374:369,2,120,4|0|2,2:0|0:0|2:0,0:0:0:0:
197,321,125524,2,0,L|205:202,1,120,4|4,1:0|1:0,0:0:0:0:
246,88,126559,6,0,L|86:98,1,160,4|2,1:0|2:0,0:0:0:0:
30,154,127593,2,0,P|20:192|23:232,1,79.9999999999999,0|2,0:0|2:0,0:0:0:0:
80,289,128283,5,8,2:0:0:0:
148,247,128628,1,6,2:0:0:0:
207,300,128973,2,0,L|296:290,1,79.9999999999999,12|14,2:0|2:0,0:0:0:0:
333,226,129662,1,8,2:0:0:0:
403,263,130007,1,10,2:0:0:0:
456,205,130352,2,0,L|446:116,1,79.9999999999999,4|14,2:0|2:0,0:0:0:0:
411,52,131042,6,0,P|285:49|368:145,1,320,8|2,2:0|3:0,0:0:0:0:
368,145,133800,6,0,P|288:142|214:171,1,160,0|2,0:0|2:0,0:0:0:0:
265,280,135007,1,8,2:0:0:0:
210,337,135352,2,0,P|265:360|324:334,1,120,8|0,2:0|1:0,0:0:0:0:
310,179,136559,6,0,P|232:170|174:222,1,160,4|2,2:0|2:0,0:0:0:0:
138,108,137766,1,8,2:0:0:0:
77,160,138111,2,0,P|63:227|73:301,1,120,8|2,2:0|2:0,0:0:0:0:
132,323,138973,2,0,L|217:314,1,79.9999999999999,0|2,0:0|1:0,0:0:0:0:
258,249,139662,5,2,3:0:0:0:
314,305,140007,2,0,P|373:312|432:306,1,120,2|8,2:0|2:0,0:0:0:0:
478,241,140869,2,0,P|470:181|476:122,1,120,8|2,2:0|2:0,0:0:0:0:
506,47,141731,1,8,2:0:0:0:
432,11,142076,6,0,P|355:23|301:80,1,160,4|2,2:0|2:0,0:0:0:0:
258,192,143283,1,8,2:0:0:0:
207,253,143628,2,0,P|179:202|193:146,1,120,8|2,2:0|1:0,0:0:0:0:
212,68,144490,1,8,2:0:0:0:
284,102,144835,6,0,P|355:119|419:48,1,160,2|0,3:0|0:0,0:0:0:0:
487,100,145869,1,2,2:0:0:0:
462,175,146214,2,0,B|475:262|407:232|421:323,1,160,4|0,2:0|0:0,0:0:0:0:
350,359,147249,1,2,2:0:0:0:
291,305,147593,6,0,P|215:333|131:331,1,160,4|0,2:0|0:0,0:0:0:0:
98,261,148628,1,2,2:0:0:0:
58,190,148973,2,0,P|134:187|178:250,1,160,4|0,2:0|0:0,0:0:0:0:
236,306,150007,1,2,2:0:0:0:
301,260,150352,6,0,P|329:186|332:106,1,160,4|0,2:0|0:0,0:0:0:0:
269,56,151387,1,2,2:0:0:0:
200,96,151731,2,0,P|134:54|61:80,1,160,4|0,2:0|0:0,0:0:0:0:
15,146,152766,1,2,2:0:0:0:
72,201,153111,6,0,L|151:191,2,79.9999999999999,4|2|0,2:0|2:0|0:0,0:0:0:0:
39,274,154145,1,2,2:0:0:0:
96,329,154490,2,0,L|175:319,1,79.9999999999999,4|2,2:0|2:0,0:0:0:0:
249,349,155180,2,0,P|271:272|276:192,1,160,2|0,3:0|0:0,0:0:0:0:
160,188,166904,6,0,P|238:200|310:162,1,160,4|2,2:0|3:0,0:0:0:0:
379,307,168283,2,0,P|301:294|231:330,1,160,0|2,0:0|3:0,0:0:0:0:
159,367,169318,1,8,2:0:0:0:
91,324,169662,6,0,L|78:157,1,160,0|2,0:0|3:0,0:0:0:0:
34,97,170697,1,8,2:0:0:0:
185,44,171387,2,0,L|277:33,2,79.9999999999999,0|2|8,0:0|3:0|2:0,0:0:0:0:
143,112,172421,6,0,P|184:178|197:264,1,160,0|2,0:0|3:0,0:0:0:0:
133,305,173455,1,8,2:0:0:0:
190,361,173800,2,0,P|268:348|336:306,1,160,0|2,0:0|3:0,0:0:0:0:
377,238,174835,1,8,2:0:0:0:
332,171,175180,6,0,L|161:186,1,160,0|0,0:0|0:0,0:0:0:0:
160,105,176214,2,0,L|319:91,1,160,8|2,2:0|0:0,0:0:0:0:
380,39,177249,2,0,P|419:44|448:71,1,79.9999999999999,2|2,3:0|0:0,0:0:0:0:
475,146,177938,6,0,P|452:192|440:279,2,120,4|0|2,2:0|0:0|2:0,0:0:0:0:
448,71,179318,2,0,L|369:84,1,79.9999999999999,4|2,2:0|2:0,0:0:0:0:
316,144,180007,2,0,L|237:130,1,79.9999999999999,0|2,0:0|2:0,0:0:0:0:
184,69,180697,6,0,P|129:92|69:94,2,120,4|0|2,2:0|0:0|2:0,0:0:0:0:
245,17,182076,1,4,2:0:0:0:
311,61,182421,2,0,L|299:155,1,79.9999999999999,2|0,2:0|0:0,0:0:0:0:
244,197,183111,1,2,2:0:0:0:
292,260,183455,6,0,L|411:244,2,120,4|0|2,2:0|0:0|2:0,0:0:0:0:
233,314,184835,2,0,P|193:315|156:299,1,79.9999999999999,4|2,2:0|2:0,0:0:0:0:
115,230,185524,2,0,L|122:150,1,79.9999999999999,0|2,0:0|2:0,0:0:0:0:
148,74,186214,6,0,P|88:66|32:85,2,120,4|0|2,2:0|0:0|2:0,0:0:0:0:
207,127,187593,2,0,L|297:118,1,79.9999999999999,4|2,2:0|2:0,0:0:0:0:
354,162,188283,2,0,L|345:252,1,79.9999999999999,0|2,0:0|2:0,0:0:0:0:
291,300,188973,6,0,P|348:291|396:324,2,120,2|0|2,3:0|0:0|2:0,0:0:0:0:
228,349,190352,2,0,P|170:357|122:324,2,120,4|0|2,2:0|0:0|2:0,0:0:0:0:
291,300,191731,2,0,L|303:180,1,120,4|0,2:0|0:0,0:0:0:0:
233,82,192766,1,2,2:0:0:0:
172,134,193111,2,0,L|81:124,1,79.9999999999999,4|2,2:0|2:0,0:0:0:0:
35,182,193800,2,0,L|44:272,1,79.9999999999999,0|2,0:0|2:0,0:0:0:0:
101,316,194490,5,4,2:0:0:0:
169,273,194835,1,2,2:0:0:0:
233,321,195180,2,0,P|273:326|321:299,1,79.9999999999999,0|2,0:0|2:0,0:0:0:0:
361,250,195869,1,4,2:0:0:0:
314,184,196214,1,2,2:0:0:0:
359,118,196559,2,0,P|399:113|447:140,1,79.9999999999999,0|2,0:0|2:0,0:0:0:0:
474,197,197249,6,0,L|463:289,1,79.9999999999999,4|2,2:0|2:0,0:0:0:0:
406,331,197938,1,0,0:0:0:0:
334,294,198283,2,0,L|254:304,1,79.9999999999999,2|8,2:0|2:0,0:0:0:0:
198,247,198973,2,0,L|208:167,2,79.9999999999999,6|12|14,2:0|2:0|2:0,0:0:0:0:
127,285,200007,1,8,2:0:0:0:
51,254,200352,6,0,P|37:175|40:96,1,160,2|2,3:0|2:0,0:0:0:0:
92,34,201387,2,0,L|211:40,2,120,4|0|2,2:0|0:0|2:0,0:0:0:0:
40,96,202766,2,0,L|46:215,1,120,4|4,1:0|1:0,0:0:0:0:
134,296,203800,6,0,P|191:243|268:263,1,160,4|2,1:0|2:0,0:0:0:0:
304,190,204835,2,0,L|297:110,1,79.9999999999999,0|2,0:0|2:0,0:0:0:0:
227,72,205524,5,8,2:0:0:0:
160,116,205869,1,6,2:0:0:0:
100,62,206214,2,0,L|21:68,1,79.9999999999999,12|14,2:0|2:0,0:0:0:0:
2,146,206904,1,8,2:0:0:0:
61,199,207249,1,10,2:0:0:0:
8,259,207593,2,0,L|15:339,1,79.9999999999999,4|14,2:0|2:0,0:0:0:0:
92,358,208283,6,0,P|194:359|91:281,1,320,8|2,2:0|3:0,0:0:0:0:
93,278,211042,6,0,P|227:279|169:158,1,320,0|0,0:0|0:0,0:0:0:0:
430,343,213800,2,0,P|424:265|467:182,1,160,0|2,0:0|2:0,0:0:0:0:
503,126,214835,1,0,0:0:0:0:
345,101,215524,2,0,L|265:113,2,79.9999999999999,2|0|2,0:0|2:0|0:0,0:0:0:0:
416,137,216559,6,0,P|501:160|423:58,1,320,0|0,0:0|0:0,0:0:0:0:
317,356,219318,2,0,P|237:360|163:331,1,160,0|2,0:0|2:0,0:0:0:0:
125,261,220352,1,0,0:0:0:0:
216,129,221042,6,0,P|297:127|232:191,1,200,2|2,0:0|0:0,0:0:0:0:
