osu file format v14

[General]
AudioFilename: audio.mp3
AudioLeadIn: 0
PreviewTime: 111384
Countdown: 1
SampleSet: Normal
StackLeniency: 0.2
Mode: 0
LetterboxInBreaks: 0
WidescreenStoryboard: 0

[Editor]
DistanceSpacing: 2
BeatDivisor: 4
GridSize: 4
TimelineZoom: 1.7

[Metadata]
Title:Stay Alive(Jun Kuroda Bootleg Remix)
TitleUnicode:Stay Alive(Jun Kuroda Bootleg Remix)
Artist:EMILIA (CV: Rie Takahashi)
ArtistUnicode:エミリア(CV:高橋李依)
Creator:_railgun
Version:Alive
Source:Re:ゼロから始める異世界生活
Tags:
BeatmapID:1369260
BeatmapSetID:646217

[Difficulty]
HPDrainRate:5
CircleSize:4
OverallDifficulty:8
ApproachRate:9.3
SliderMultiplier:1.4
SliderTickRate:1

[Events]
//Background and Video events
0,0,"bg.jpg",0,0
//Break Periods
2,156067,165313
//Storyboard Layer 0 (Background)
//Storyboard Layer 1 (Fail)
//Storyboard Layer 2 (Pass)
//Storyboard Layer 3 (Foreground)
//Storyboard Sound Samples

[TimingPoints]
5,344.827586206897,4,1,0,100,1,0
2418,-66.6666666666667,4,1,0,100,0,0
4142,-133.333333333333,4,1,0,100,0,0
6556,-66.6666666666667,4,1,0,100,0,0
9660,-100,4,1,0,100,0,0
13108,-50,4,1,0,100,0,0
15177,-100,4,1,0,100,0,0
18625,-133.333333333333,4,1,0,100,0,0
23453,-66.6666666666667,4,1,0,100,0,0
26556,-50,4,1,0,100,0,0
28108,-100,4,1,0,100,0,0
28970,-66.6666666666667,4,1,0,100,0,0
46211,-100,4,1,0,100,0,0
51039,-50,4,1,0,100,0,1
62073,-100,4,1,0,100,0,1
62418,-50,4,1,0,100,0,1
65349,-66.6666666666667,4,1,0,100,0,1
65867,-50,4,1,0,100,0,1
76211,-66.6666666666667,4,1,0,100,0,1
81901,-50,4,1,0,100,0,1
82763,-100,4,1,0,100,0,0
84142,-33.3333333333333,4,1,0,100,0,0
85005,-66.6666666666667,4,1,0,100,0,0
89832,-66.6666666666667,4,1,0,100,0,0
105005,-50,4,1,0,100,0,0
106901,-100,4,1,0,100,0,0
111729,-50,4,1,0,100,0,1
125694,-66.6666666666667,4,1,0,100,0,1
132418,-50,4,1,0,100,0,0
138625,-66.6666666666667,4,1,0,100,0,0
139487,-50,4,1,0,100,0,0
142418,-66.6666666666667,4,1,0,100,0,0
154142,-100,4,1,0,100,0,0
168625,-66.6666666666667,4,1,0,100,0,0
169660,-100,4,1,0,100,0,0
177936,-66.6666666666667,4,1,0,100,0,0
181729,-50,4,1,0,100,0,0
183625,-66.6666666666667,4,1,0,100,0,0
188970,-66.6666666666667,4,1,0,100,0,1
198280,-50,4,1,0,100,0,1
202591,-66.6666666666667,4,1,0,100,0,1
205005,-50,4,1,0,100,0,1
209660,-100,4,1,0,100,0,0

[HitObjects]
132,252,1384,6,0,P|180:324|176:260,1,210
192,192,2073,1,0,0:0:0:0:
233,134,2246,1,0,0:0:0:0:
312,79,2418,2,0,P|416:41|312:144,1,420.000016021729
233,134,3280,5,0,0:0:0:0:
99,218,3453,1,0,0:0:0:0:
232,135,3625,1,0,0:0:0:0:
173,281,3798,1,0,0:0:0:0:
234,136,3970,1,0,0:0:0:0:
269,293,4142,2,0,P|363:286|430:227,1,157.500006008148
412,250,4832,5,0,0:0:0:0:
260,217,5005,1,0,0:0:0:0:
148,123,5177,2,0,B|100:89|100:89|68:122,1,105.000004005432
84,336,5694,1,0,0:0:0:0:
258,335,5867,1,0,0:0:0:0:
428,336,6039,1,0,0:0:0:0:
258,335,6211,1,0,0:0:0:0:
256,192,6384,1,0,0:0:0:0:
256,192,6556,2,0,L|255:44,1,105.000004005432
256,34,6901,5,0,0:0:0:0:
420,121,7591,1,0,0:0:0:0:
420,121,7763,1,0,0:0:0:0:
420,121,7936,1,0,0:0:0:0:
332,256,8280,5,0,0:0:0:0:
100,45,8798,1,0,0:0:0:0:
74,155,8970,1,0,0:0:0:0:
180,50,9142,1,0,0:0:0:0:
74,155,9315,1,0,0:0:0:0:
35,40,9487,1,0,0:0:0:0:
46,264,9660,2,0,B|98:315|160:220|246:274,1,210.000008010865
359,328,10349,6,0,L|435:284,2,70
464,40,11211,1,0,0:0:0:0:
447,191,11384,1,0,0:0:0:0:
464,40,11556,2,0,L|383:39,3,70
162,45,12418,6,0,B|106:55|106:55|82:145,1,140
376,206,13108,2,0,L|244:256,2,140
140,180,13798,1,0,0:0:0:0:
134,339,14315,1,0,0:0:0:0:
42,192,14487,1,0,0:0:0:0:
42,192,14660,1,0,0:0:0:0:
228,188,14832,1,0,0:0:0:0:
134,339,15005,1,0,0:0:0:0:
228,188,15177,2,0,P|299:239|317:152,1,210
323,31,15867,5,0,0:0:0:0:
239,129,16039,1,0,0:0:0:0:
155,221,16211,1,0,0:0:0:0:
372,111,16729,1,0,0:0:0:0:
310,213,16901,1,0,0:0:0:0:
445,217,17073,1,0,0:0:0:0:
375,43,17246,1,0,0:0:0:0:
245,243,17418,1,0,0:0:0:0:
502,252,17591,1,0,0:0:0:0:
194,103,17936,5,0,0:0:0:0:
197,342,18625,2,0,L|267:336,2,52.5000020027161
329,336,19315,1,0,0:0:0:0:
37,112,19832,1,0,0:0:0:0:
112,203,20005,1,0,0:0:0:0:
183,108,20177,1,0,0:0:0:0:
183,108,20349,2,0,L|238:104,2,52.5000020027161
256,192,21039,12,0,23108,0:0:0:0:
139,169,23453,6,0,B|125:115|125:115|218:112,1,105.000004005432
222,108,23711,1,0,0:0:0:0:
238,106,23798,1,0,0:0:0:0:
387,58,23970,1,0,0:0:0:0:
311,192,24142,1,0,0:0:0:0:
256,45,24315,1,0,0:0:0:0:
134,170,24487,1,0,0:0:0:0:
397,149,24660,1,0,0:0:0:0:
252,269,24832,5,0,0:0:0:0:
256,45,25005,1,0,0:0:0:0:
124,289,25177,1,0,0:0:0:0:
344,97,25349,5,0,0:0:0:0:
320,129,25436,1,0,0:0:0:0:
297,161,25522,1,0,0:0:0:0:
275,191,25608,1,0,0:0:0:0:
243,216,25694,2,0,P|178:238|120:200,1,105.000004005432
36,138,26039,5,0,0:0:0:0:
116,336,26211,1,0,0:0:0:0:
187,122,26384,1,0,0:0:0:0:
187,122,26470,1,0,0:0:0:0:
187,122,26556,2,0,L|256:120,1,70
256,119,26729,2,0,L|255:45,2,70
373,270,27073,5,0,0:0:0:0:
187,122,27246,1,0,0:0:0:0:
421,136,27418,1,0,0:0:0:0:
176,268,27591,1,0,0:0:0:0:
254,42,27763,1,0,0:0:0:0:
312,318,27936,1,0,0:0:0:0:
104,104,28108,5,0,0:0:0:0:
125,139,28194,1,0,0:0:0:0:
154,168,28280,1,0,0:0:0:0:
189,190,28366,1,0,0:0:0:0:
227,205,28452,1,0,0:0:0:0:
267,216,28539,1,0,0:0:0:0:
319,226,28625,1,0,0:0:0:0:
456,342,28798,5,0,0:0:0:0:
420,143,28970,6,0,P|316:103|200:94,1,210.000008010865
86,98,29487,5,0,0:0:0:0:
86,98,29573,1,0,0:0:0:0:
86,98,29660,1,0,0:0:0:0:
143,302,29832,1,0,0:0:0:0:
86,98,30005,2,0,L|169:187,1,105.000004005432
281,291,30349,1,0,0:0:0:0:
480,288,30522,6,0,L|396:288,1,52.5000020027161
281,291,30694,1,0,0:0:0:0:
308,204,30866,5,0,0:0:0:0:
324,156,30953,1,0,0:0:0:0:
341,106,31039,1,0,0:0:0:0:
358,57,31125,1,0,0:0:0:0:
368,0,31211,2,0,L|304:0,1,52.5000020027161
231,46,31384,6,0,L|192:81,1,52.5000020027161
146,129,31556,1,0,0:0:0:0:
146,129,31729,2,0,L|294:140,1,105.000004005432
409,174,32073,2,0,L|289:224,1,105.000004005432
103,282,32332,1,0,0:0:0:0:
78,282,32418,2,0,L|72:218,1,52.5000020027161
66,184,32591,5,0,0:0:0:0:
152,338,32763,1,0,0:0:0:0:
247,185,32936,1,0,0:0:0:0:
354,348,33108,1,0,0:0:0:0:
413,208,33280,1,0,0:0:0:0:
382,190,33366,1,0,0:0:0:0:
351,174,33452,1,0,0:0:0:0:
319,158,33538,1,0,0:0:0:0:
287,144,33624,5,0,0:0:0:0:
254,132,33711,1,0,0:0:0:0:
220,125,33797,1,0,0:0:0:0:
184,125,33883,1,0,0:0:0:0:
153,139,33969,1,0,0:0:0:0:
139,170,34055,1,0,0:0:0:0:
139,212,34142,2,0,L|172:294,3,52.5000020027161
187,331,34487,1,0,0:0:0:0:
311,280,34660,6,0,B|354:274|384:206,1,105.000004005432
401,160,35005,1,0,0:0:0:0:
416,130,35091,1,0,0:0:0:0:
427,96,35177,1,0,0:0:0:0:
421,65,35263,1,0,0:0:0:0:
394,38,35349,1,0,0:0:0:0:
246,116,35522,1,0,0:0:0:0:
85,223,35694,5,0,0:0:0:0:
81,237,35780,1,0,0:0:0:0:
75,254,35867,2,0,B|48:302|48:302|137:310,1,105.000004005432
179,298,36211,2,0,L|196:237,1,52.5000020027161
206,196,36384,5,0,0:0:0:0:
219,148,36470,1,0,0:0:0:0:
237,99,36556,1,0,0:0:0:0:
264,59,36642,1,0,0:0:0:0:
307,55,36729,2,0,L|357:158,1,105.000004005432
373,200,37073,1,0,0:0:0:0:
373,200,37160,1,0,0:0:0:0:
373,200,37246,2,0,L|419:101,1,105.000004005432
486,43,37591,6,0,L|490:141,1,52.5000020027161
486,172,37763,1,0,0:0:0:0:
486,172,37849,1,0,0:0:0:0:
486,172,37936,1,0,0:0:0:0:
487,306,38108,2,0,L|395:279,1,52.5000020027161
362,274,38280,1,0,0:0:0:0:
200,193,38453,5,0,0:0:0:0:
200,193,38539,1,0,0:0:0:0:
200,193,38625,1,0,0:0:0:0:
44,212,38798,5,0,0:0:0:0:
53,186,38884,1,0,0:0:0:0:
63,162,38970,1,0,0:0:0:0:
73,230,39142,5,0,0:0:0:0:
108,208,39228,1,0,0:0:0:0:
144,188,39314,1,0,0:0:0:0:
180,164,39400,1,0,0:0:0:0:
216,140,39487,2,0,P|253:122|306:135,1,52.5000020027161
304,112,39660,1,0,0:0:0:0:
405,315,39832,5,0,0:0:0:0:
436,91,40005,2,0,L|343:172,1,105.000004005432
242,245,40349,1,0,0:0:0:0:
128,80,40522,1,0,0:0:0:0:
156,64,40608,1,0,0:0:0:0:
186,55,40694,1,0,0:0:0:0:
218,51,40780,1,0,0:0:0:0:
250,54,40866,1,0,0:0:0:0:
350,148,41039,6,0,L|416:220,1,52.5000020027161
444,312,41211,1,0,0:0:0:0:
428,284,41298,1,0,0:0:0:0:
412,257,41384,2,0,P|396:240|348:220,1,52.5000020027161
328,192,41556,5,0,0:0:0:0:
308,166,41642,1,0,0:0:0:0:
278,148,41728,1,0,0:0:0:0:
246,132,41814,1,0,0:0:0:0:
214,118,41900,1,0,0:0:0:0:
182,104,41987,1,0,0:0:0:0:
142,95,42073,2,0,L|142:170,1,52.5000020027161
40,336,42246,5,0,0:0:0:0:
281,214,42418,1,0,0:0:0:0:
148,101,42591,1,0,0:0:0:0:
148,101,42677,1,0,0:0:0:0:
148,101,42763,1,0,0:0:0:0:
200,228,42936,2,0,L|132:284,1,52.5000020027161
52,348,43108,1,0,0:0:0:0:
209,224,43280,5,0,0:0:0:0:
261,224,43366,1,0,0:0:0:0:
314,224,43452,1,0,0:0:0:0:
365,216,43538,1,0,0:0:0:0:
417,196,43624,1,0,0:0:0:0:
311,355,43798,6,0,L|288:254,1,52.5000020027161
268,130,43970,1,0,0:0:0:0:
268,130,44056,1,0,0:0:0:0:
268,130,44142,2,0,L|334:101,1,52.5000020027161
453,54,44315,1,0,0:0:0:0:
424,64,44401,1,0,0:0:0:0:
400,80,44487,1,0,0:0:0:0:
380,104,44573,5,0,0:0:0:0:
348,124,44659,1,0,0:0:0:0:
316,144,44746,1,0,0:0:0:0:
284,164,44832,1,0,0:0:0:0:
252,180,44918,1,0,0:0:0:0:
216,188,45004,1,0,0:0:0:0:
180,200,45090,1,0,0:0:0:0:
144,200,45177,1,0,0:0:0:0:
148,164,45263,1,0,0:0:0:0:
165,146,45349,1,0,0:0:0:0:
182,126,45435,1,0,0:0:0:0:
199,108,45521,1,0,0:0:0:0:
25,89,46211,6,0,L|111:137,1,70
176,169,46556,1,0,0:0:0:0:
454,113,47418,2,0,L|386:185,1,70
230,299,47936,1,0,0:0:0:0:
245,40,48280,2,0,L|245:150,1,105
256,192,48625,12,0,50005,0:0:0:0:
112,244,50349,6,0,P|244:232|328:140,1,245
348,192,51039,6,0,P|217:203|176:120,1,210
144,192,51384,6,0,P|188:196|232:168,1,70
276,156,51556,1,0,0:0:0:0:
276,156,51642,1,0,0:0:0:0:
276,156,51729,2,0,L|340:108,2,70
376,300,52073,1,0,0:0:0:0:
104,144,52246,5,0,0:0:0:0:
116,140,52332,1,0,0:0:0:0:
128,136,52418,1,0,0:0:0:0:
440,64,52591,1,0,0:0:0:0:
256,320,52763,1,0,0:0:0:0:
84,191,52936,5,0,0:0:0:0:
111,179,53022,1,0,0:0:0:0:
139,168,53108,1,0,0:0:0:0:
165,157,53194,1,0,0:0:0:0:
193,146,53280,1,0,0:0:0:0:
328,92,53453,6,0,B|360:58|360:58|188:32,2,210
28,352,54142,1,0,0:0:0:0:
432,228,54315,1,0,0:0:0:0:
389,207,54401,1,0,0:0:0:0:
346,187,54487,1,0,0:0:0:0:
382,172,54573,1,0,0:0:0:0:
428,157,54659,1,0,0:0:0:0:
68,148,54832,5,0,0:0:0:0:
111,169,54918,1,0,0:0:0:0:
154,189,55004,1,0,0:0:0:0:
118,204,55090,1,0,0:0:0:0:
72,219,55176,1,0,0:0:0:0:
256,36,55349,1,0,0:0:0:0:
256,328,55522,1,0,0:0:0:0:
206,142,55694,5,0,0:0:0:0:
231,89,55780,1,0,0:0:0:0:
256,36,55866,1,0,0:0:0:0:
274,80,55952,1,0,0:0:0:0:
293,137,56038,1,0,0:0:0:0:
256,328,56211,1,0,0:0:0:0:
68,100,56384,5,0,0:0:0:0:
54,67,56470,1,0,0:0:0:0:
40,35,56556,1,0,0:0:0:0:
28,272,56729,1,0,0:0:0:0:
420,32,56901,1,0,0:0:0:0:
304,292,57073,5,0,0:0:0:0:
269,266,57159,1,0,0:0:0:0:
234,242,57245,1,0,0:0:0:0:
199,217,57331,1,0,0:0:0:0:
164,192,57417,1,0,0:0:0:0:
452,192,57591,1,0,0:0:0:0:
304,92,57763,1,0,0:0:0:0:
269,67,57849,1,0,0:0:0:0:
234,42,57935,1,0,0:0:0:0:
24,340,58108,5,0,0:0:0:0:
20,60,58280,1,0,0:0:0:0:
240,224,58453,1,0,0:0:0:0:
264,240,58539,1,0,0:0:0:0:
288,252,58625,2,0,L|356:288,2,70
416,12,58970,1,0,0:0:0:0:
292,164,59142,5,0,0:0:0:0:
266,190,59229,1,0,0:0:0:0:
232,196,59315,2,0,B|205:168|205:168|300:108,1,140
460,76,59660,2,0,L|400:172,1,70
344,260,59832,2,0,L|384:200,2,70
328,284,60091,1,0,0:0:0:0:
312,308,60177,1,0,0:0:0:0:
256,48,60349,1,0,0:0:0:0:
140,236,60522,5,0,0:0:0:0:
137,250,60608,1,0,0:0:0:0:
133,264,60694,1,0,0:0:0:0:
96,32,60867,1,0,0:0:0:0:
232,336,61039,1,0,0:0:0:0:
408,72,61211,5,0,0:0:0:0:
408,72,61297,1,0,0:0:0:0:
408,72,61383,1,0,0:0:0:0:
100,192,61556,1,0,0:0:0:0:
256,12,61729,1,0,0:0:0:0:
256,56,61815,1,0,0:0:0:0:
256,100,61901,1,0,0:0:0:0:
256,145,61987,1,0,0:0:0:0:
256,189,62073,2,0,B|255:225|255:225|320:188,1,105
460,48,62418,6,0,B|449:78|449:78|328:80,1,140
112,80,62763,1,0,0:0:0:0:
112,80,62849,1,0,0:0:0:0:
112,80,62936,2,0,L|168:184,1,70
248,320,63108,1,0,0:0:0:0:
256,52,63280,5,0,0:0:0:0:
256,52,63366,1,0,0:0:0:0:
256,52,63452,1,0,0:0:0:0:
24,308,63625,1,0,0:0:0:0:
116,88,63798,2,0,B|120:118|120:118|264:120,1,140
280,116,64056,1,0,0:0:0:0:
323,99,64142,1,0,0:0:0:0:
367,82,64228,1,0,0:0:0:0:
411,65,64314,1,0,0:0:0:0:
320,224,64487,6,0,B|315:254|315:254|172:256,1,140
28,188,64832,1,0,0:0:0:0:
28,188,65005,1,0,0:0:0:0:
238,188,65177,1,0,0:0:0:0:
28,188,65349,2,0,L|248:188,1,210.000008010865
238,188,65780,1,0,0:0:0:0:
240,192,65867,2,0,L|112:192,1,70
36,196,66039,5,0,0:0:0:0:
36,196,66125,1,0,0:0:0:0:
36,196,66211,1,0,0:0:0:0:
136,196,66384,1,0,0:0:0:0:
156,153,66556,2,0,L|250:103,1,70
156,230,66729,2,0,L|250:280,1,70
256,56,66901,2,0,L|364:20,1,70
256,329,67073,2,0,L|364:364,1,70
437,102,67246,5,0,0:0:0:0:
74,102,67418,1,0,0:0:0:0:
334,33,67591,5,0,0:0:0:0:
334,352,67763,1,0,0:0:0:0:
420,272,67936,5,0,0:0:0:0:
96,280,68108,5,0,0:0:0:0:
96,280,68194,1,0,0:0:0:0:
96,280,68280,1,0,0:0:0:0:
256,48,68453,1,0,0:0:0:0:
256,336,68625,1,0,0:0:0:0:
416,104,68798,5,0,0:0:0:0:
416,104,68884,1,0,0:0:0:0:
416,104,68970,1,0,0:0:0:0:
87,192,69142,1,0,0:0:0:0:
424,192,69314,1,0,0:0:0:0:
256,344,69487,5,0,0:0:0:0:
256,301,69573,1,0,0:0:0:0:
256,258,69659,1,0,0:0:0:0:
256,216,69745,1,0,0:0:0:0:
256,173,69831,1,0,0:0:0:0:
136,24,70005,1,0,0:0:0:0:
376,152,70177,5,0,0:0:0:0:
376,152,70263,1,0,0:0:0:0:
376,152,70349,1,0,0:0:0:0:
144,284,70522,1,0,0:0:0:0:
368,144,70694,1,0,0:0:0:0:
140,32,70867,5,0,0:0:0:0:
140,32,70953,1,0,0:0:0:0:
140,32,71039,1,0,0:0:0:0:
140,32,71125,1,0,0:0:0:0:
140,32,71211,1,0,0:0:0:0:
152,256,71384,5,0,0:0:0:0:
152,256,71470,1,0,0:0:0:0:
152,256,71556,1,0,0:0:0:0:
152,256,71642,1,0,0:0:0:0:
152,256,71728,1,0,0:0:0:0:
256,192,72073,12,0,72763,0:0:0:0:
476,132,73108,5,0,0:0:0:0:
476,132,73453,2,0,B|480:166|480:166|336:168,1,140
36,192,73798,5,0,0:0:0:0:
36,192,73884,1,0,0:0:0:0:
36,192,73970,1,0,0:0:0:0:
200,68,74142,1,0,0:0:0:0:
396,368,74315,5,0,0:0:0:0:
396,368,74401,1,0,0:0:0:0:
396,368,74487,1,0,0:0:0:0:
52,40,74660,2,0,P|104:88|92:188,1,140
88,368,75005,1,0,0:0:0:0:
137,343,75091,1,0,0:0:0:0:
178,305,75177,1,0,0:0:0:0:
206,258,75263,1,0,0:0:0:0:
220,204,75349,1,0,0:0:0:0:
424,16,75522,5,0,0:0:0:0:
375,41,75608,1,0,0:0:0:0:
334,79,75694,1,0,0:0:0:0:
306,126,75780,1,0,0:0:0:0:
292,180,75866,1,0,0:0:0:0:
252,24,76039,1,0,0:0:0:0:
252,24,76211,2,0,P|324:76|348:128,1,105.000004005432
188,368,76729,5,0,0:0:0:0:
188,368,76815,1,0,0:0:0:0:
188,368,76901,1,0,0:0:0:0:
96,92,77073,2,0,L|56:156,2,52.5000020027161
410,71,77418,1,0,0:0:0:0:
368,86,77504,1,0,0:0:0:0:
324,95,77590,1,0,0:0:0:0:
279,104,77676,1,0,0:0:0:0:
240,132,77762,5,0,0:0:0:0:
204,164,77849,1,0,0:0:0:0:
164,188,77935,1,0,0:0:0:0:
120,176,78021,1,0,0:0:0:0:
108,132,78107,1,0,0:0:0:0:
140,96,78193,1,0,0:0:0:0:
188,88,78280,1,0,0:0:0:0:
220,124,78366,1,0,0:0:0:0:
256,156,78452,1,0,0:0:0:0:
288,192,78538,1,0,0:0:0:0:
320,224,78624,1,0,0:0:0:0:
432,48,78798,1,0,0:0:0:0:
72,48,78970,1,0,0:0:0:0:
260,292,79142,5,0,0:0:0:0:
260,292,79228,1,0,0:0:0:0:
260,292,79314,1,0,0:0:0:0:
255,52,79487,1,0,0:0:0:0:
448,192,79659,1,0,0:0:0:0:
96,192,79832,5,0,0:0:0:0:
96,192,79918,1,0,0:0:0:0:
96,192,80004,1,0,0:0:0:0:
376,348,80177,1,0,0:0:0:0:
157,47,80349,1,0,0:0:0:0:
468,192,80522,1,0,0:0:0:0:
423,192,80608,1,0,0:0:0:0:
379,192,80694,1,0,0:0:0:0:
335,192,80780,5,0,0:0:0:0:
290,192,80866,1,0,0:0:0:0:
12,20,81039,1,0,0:0:0:0:
152,288,81211,5,0,0:0:0:0:
152,288,81297,1,0,0:0:0:0:
152,288,81383,1,0,0:0:0:0:
255,52,81556,1,0,0:0:0:0:
448,192,81728,1,0,0:0:0:0:
256,192,81901,2,0,P|271:138|308:120,1,70
256,192,82073,2,0,P|240:245|204:264,1,70
256,192,82246,2,0,P|309:207|328:244,1,70
256,192,82418,2,0,P|202:176|184:140,1,70
256,192,82591,2,0,P|271:138|308:120,1,70
256,192,82763,12,0,83798,0:0:0:0:
144,96,84142,6,0,P|200:116|116:140,1,210.000008010865
119,155,84401,1,0,0:0:0:0:
119,155,84487,1,0,0:0:0:0:
28,28,84660,5,0,0:0:0:0:
28,28,84746,1,0,0:0:0:0:
28,28,84832,1,0,0:0:0:0:
200,160,85005,2,0,L|112:92,2,105.000004005432
244,192,85436,5,0,0:0:0:0:
244,192,85522,1,0,0:0:0:0:
280,164,85694,2,0,L|368:96,2,105.000004005432
244,192,86125,1,0,0:0:0:0:
223,208,86211,1,0,0:0:0:0:
202,224,86297,1,0,0:0:0:0:
182,240,86383,1,0,0:0:0:0:
56,112,86556,5,0,0:0:0:0:
364,240,86729,1,0,0:0:0:0:
180,240,86901,2,0,L|276:168,1,105.000004005432
408,80,87246,1,0,0:0:0:0:
272,184,87418,1,0,0:0:0:0:
272,184,87505,1,0,0:0:0:0:
272,184,87591,1,0,0:0:0:0:
69,11,87763,5,0,0:0:0:0:
56,68,87936,5,0,0:0:0:0:
38,120,88108,5,0,0:0:0:0:
28,204,88280,6,0,P|16:236|44:284,1,52.5000020027161
36,288,88453,1,0,0:0:0:0:
53,308,88539,1,0,0:0:0:0:
76,319,88625,1,0,0:0:0:0:
28,204,88798,5,0,0:0:0:0:
56,232,88884,1,0,0:0:0:0:
91,250,88970,1,0,0:0:0:0:
130,257,89056,1,0,0:0:0:0:
169,264,89142,1,0,0:0:0:0:
205,281,89229,1,0,0:0:0:0:
235,307,89315,2,0,P|292:336|356:296,1,105.000004005432
504,224,89660,1,0,0:0:0:0:
272,184,89832,6,0,P|244:168|224:128,1,52.5000020027161
312,40,90005,2,0,P|340:56|360:96,1,52.5000020027161
288,108,90177,2,0,L|240:72,2,52.5000020027161
428,204,90522,6,0,L|488:204,1,52.5000020027161
460,264,90694,2,0,L|520:264,1,52.5000020027161
512,308,90867,1,0,0:0:0:0:
512,308,91039,6,0,L|440:224,1,105.000004005432
340,88,91384,1,0,0:0:0:0:
229,184,91556,1,0,0:0:0:0:
192,203,91642,1,0,0:0:0:0:
151,209,91728,1,0,0:0:0:0:
114,191,91814,1,0,0:0:0:0:
96,154,91900,1,0,0:0:0:0:
256,192,92073,12,0,94832,0:0:0:0:
172,16,95177,6,0,L|144:128,1,105.000004005432
132,160,95436,1,0,0:0:0:0:
120,196,95522,1,0,0:0:0:0:
340,16,95694,5,0,0:0:0:0:
353,66,95780,1,0,0:0:0:0:
367,117,95866,1,0,0:0:0:0:
380,168,95952,1,0,0:0:0:0:
394,218,96038,1,0,0:0:0:0:
434,370,96211,6,0,P|392:376|364:356,1,52.5000020027161
256,192,96384,1,0,0:0:0:0:
248,156,96470,1,0,0:0:0:0:
240,120,96556,1,0,0:0:0:0:
8,144,96729,2,0,L|32:264,1,105.000004005432
144,228,97073,1,0,0:0:0:0:
136,192,97159,1,0,0:0:0:0:
128,156,97245,1,0,0:0:0:0:
120,120,97332,1,0,0:0:0:0:
112,84,97418,1,0,0:0:0:0:
244,16,97591,6,0,L|264:108,1,52.5000020027161
264,112,97763,1,0,0:0:0:0:
272,148,97849,1,0,0:0:0:0:
280,184,97935,1,0,0:0:0:0:
328,380,98108,1,0,0:0:0:0:
344,296,98280,6,0,L|364:204,1,52.5000020027161
364,200,98452,1,0,0:0:0:0:
372,164,98538,1,0,0:0:0:0:
380,128,98624,1,0,0:0:0:0:
388,92,98711,1,0,0:0:0:0:
396,56,98798,1,0,0:0:0:0:
108,56,98970,6,0,L|160:56,1,52.5000020027161
200,60,99142,1,0,0:0:0:0:
236,60,99229,1,0,0:0:0:0:
272,60,99315,1,0,0:0:0:0:
84,192,99487,5,0,0:0:0:0:
120,192,99574,1,0,0:0:0:0:
156,192,99660,1,0,0:0:0:0:
24,320,99832,5,0,0:0:0:0:
60,320,99919,1,0,0:0:0:0:
96,320,100005,1,0,0:0:0:0:
132,320,100091,1,0,0:0:0:0:
168,320,100177,1,0,0:0:0:0:
392,320,100349,5,0,0:0:0:0:
256,68,100522,1,0,0:0:0:0:
256,68,100608,1,0,0:0:0:0:
256,68,100694,1,0,0:0:0:0:
412,136,100867,2,0,P|368:180|304:208,1,105.000004005432
224,211,101211,1,0,0:0:0:0:
194,174,101297,1,0,0:0:0:0:
147,165,101383,1,0,0:0:0:0:
117,201,101470,1,0,0:0:0:0:
69,211,101556,1,0,0:0:0:0:
224,20,101729,6,0,L|172:20,1,52.5000020027161
132,16,101901,1,0,0:0:0:0:
96,16,101988,1,0,0:0:0:0:
60,16,102074,1,0,0:0:0:0:
224,20,102246,5,0,0:0:0:0:
233,64,102332,1,0,0:0:0:0:
223,109,102418,1,0,0:0:0:0:
206,152,102504,1,0,0:0:0:0:
208,196,102590,1,0,0:0:0:0:
198,241,102677,1,0,0:0:0:0:
181,284,102763,1,0,0:0:0:0:
183,328,102849,1,0,0:0:0:0:
173,373,102936,1,0,0:0:0:0:
368,272,103108,6,0,L|377:220,1,52.5000020027161
387,181,103280,1,0,0:0:0:0:
393,146,103367,1,0,0:0:0:0:
399,111,103453,1,0,0:0:0:0:
228,80,103625,6,0,L|204:204,1,105.000004005432
200,232,103970,1,0,0:0:0:0:
194,260,104056,1,0,0:0:0:0:
189,288,104142,1,0,0:0:0:0:
183,315,104228,1,0,0:0:0:0:
177,343,104314,1,0,0:0:0:0:
84,164,104487,6,0,L|74:215,1,52.5000020027161
65,255,104659,1,0,0:0:0:0:
59,290,104746,1,0,0:0:0:0:
53,325,104832,1,0,0:0:0:0:
168,56,105005,6,0,P|128:76|100:116,1,70
132,212,105177,2,0,P|172:192|200:152,1,70
88,28,105349,2,0,P|48:48|20:88,1,70
188,248,105521,2,0,P|228:228|256:188,1,70
272,184,105694,1,0,0:0:0:0:
297,157,105780,1,0,0:0:0:0:
323,130,105866,1,0,0:0:0:0:
349,104,105952,1,0,0:0:0:0:
375,77,106038,1,0,0:0:0:0:
401,51,106125,1,0,0:0:0:0:
427,25,106211,1,0,0:0:0:0:
128,40,106901,6,0,L|128:128,1,70
128,204,107246,2,0,P|120:304|176:216,1,280
176,216,108108,1,0,0:0:0:0:
36,216,108280,2,0,L|188:216,1,140
256,192,108970,12,0,110694,0:0:0:0:
400,140,111039,6,0,P|268:152|184:244,1,245
164,192,111729,6,0,P|295:181|336:264,1,210
368,192,112074,6,0,P|324:188|280:216,1,70
236,228,112246,1,0,0:0:0:0:
236,228,112332,1,0,0:0:0:0:
236,228,112419,2,0,L|172:276,2,70
212,136,112763,6,0,P|168:132|124:160,1,70
80,172,112935,1,0,0:0:0:0:
80,172,113021,1,0,0:0:0:0:
80,172,113108,1,0,0:0:0:0:
48,88,113280,6,0,P|100:52|188:44,1,140
256,68,113625,1,0,0:0:0:0:
289,101,113711,1,0,0:0:0:0:
307,145,113797,1,0,0:0:0:0:
349,170,113883,1,0,0:0:0:0:
395,184,113969,1,0,0:0:0:0:
216,336,114142,5,0,0:0:0:0:
404,56,114315,1,0,0:0:0:0:
404,56,114401,1,0,0:0:0:0:
404,56,114487,1,0,0:0:0:0:
448,192,114660,2,0,L|356:192,1,70
256,192,114832,1,0,0:0:0:0:
457,192,115005,5,0,0:0:0:0:
406,192,115091,1,0,0:0:0:0:
356,192,115177,1,0,0:0:0:0:
306,192,115263,1,0,0:0:0:0:
256,192,115349,1,0,0:0:0:0:
60,40,115522,2,0,L|60:124,1,70
56,208,115694,1,0,0:0:0:0:
56,208,115780,1,0,0:0:0:0:
56,208,115867,1,0,0:0:0:0:
60,40,116039,6,0,P|59:108|136:160,1,140
176,200,116384,1,0,0:0:0:0:
216,225,116470,1,0,0:0:0:0:
257,250,116556,1,0,0:0:0:0:
298,275,116642,1,0,0:0:0:0:
339,300,116729,1,0,0:0:0:0:
320,104,116901,6,0,L|388:148,1,70
408,168,117073,1,0,0:0:0:0:
449,193,117159,1,0,0:0:0:0:
490,218,117246,1,0,0:0:0:0:
192,104,117418,6,0,L|124:148,1,70
104,168,117590,1,0,0:0:0:0:
175,300,117763,5,0,0:0:0:0:
216,275,117850,1,0,0:0:0:0:
257,250,117936,1,0,0:0:0:0:
298,225,118022,1,0,0:0:0:0:
338,200,118108,1,0,0:0:0:0:
473,38,118280,6,0,L|473:130,1,70
472,300,118453,1,0,0:0:0:0:
472,300,118539,1,0,0:0:0:0:
472,300,118625,1,0,0:0:0:0:
288,92,118798,1,0,0:0:0:0:
492,192,118970,1,0,0:0:0:0:
473,38,119142,5,0,0:0:0:0:
439,78,119228,1,0,0:0:0:0:
405,119,119314,1,0,0:0:0:0:
371,159,119400,1,0,0:0:0:0:
338,200,119486,1,0,0:0:0:0:
203,362,119660,5,0,0:0:0:0:
416,288,119832,1,0,0:0:0:0:
416,288,119918,1,0,0:0:0:0:
416,288,120005,1,0,0:0:0:0:
199,210,120177,5,0,0:0:0:0:
339,78,120349,1,0,0:0:0:0:
339,78,120436,1,0,0:0:0:0:
339,78,120522,1,0,0:0:0:0:
339,78,120608,1,0,0:0:0:0:
339,78,120694,1,0,0:0:0:0:
339,78,120780,1,0,0:0:0:0:
339,78,120867,1,0,0:0:0:0:
199,210,121039,6,0,L|132:116,1,70
128,104,121211,1,0,0:0:0:0:
100,64,121298,1,0,0:0:0:0:
72,24,121384,1,0,0:0:0:0:
200,140,121556,6,0,P|221:178|269:198,1,70
324,176,121729,2,0,P|309:144|281:123,1,70
184,204,121901,2,0,P|205:242|253:262,1,70
340,116,122073,2,0,P|325:84|297:63,1,70
172,272,122246,2,0,P|193:310|241:330,1,70
348,52,122418,2,0,P|333:20|305:0,1,70
160,340,122591,2,0,P|185:354|236:360,1,70
444,304,122763,1,0,0:0:0:0:
44,344,123108,6,0,L|100:192,1,140
148,72,123453,1,0,0:0:0:0:
148,72,123539,1,0,0:0:0:0:
148,72,123625,1,0,0:0:0:0:
200,208,123798,5,0,0:0:0:0:
214,243,123884,1,0,0:0:0:0:
229,278,123970,1,0,0:0:0:0:
243,313,124056,1,0,0:0:0:0:
258,349,124142,1,0,0:0:0:0:
256,32,124315,2,0,L|256:192,1,140
258,349,124660,5,0,0:0:0:0:
273,313,124746,1,0,0:0:0:0:
287,278,124832,1,0,0:0:0:0:
302,243,124918,1,0,0:0:0:0:
316,208,125004,1,0,0:0:0:0:
48,76,125177,5,0,0:0:0:0:
49,374,125349,1,0,0:0:0:0:
48,76,125522,1,0,0:0:0:0:
48,76,125694,2,0,L|48:184,1,105.000004005432
49,286,126039,1,0,0:0:0:0:
8,192,126384,5,0,0:0:0:0:
44,192,126470,1,0,0:0:0:0:
80,192,126556,2,0,B|132:164|132:164|188:192,1,105.000004005432
220,192,126815,1,0,0:0:0:0:
256,192,126901,1,0,0:0:0:0:
428,192,127073,1,0,0:0:0:0:
256,77,127246,5,0,0:0:0:0:
256,115,127332,1,0,0:0:0:0:
256,154,127418,1,0,0:0:0:0:
256,192,127504,1,0,0:0:0:0:
256,230,127590,1,0,0:0:0:0:
256,269,127677,1,0,0:0:0:0:
256,307,127763,1,0,0:0:0:0:
392,108,127936,5,0,0:0:0:0:
125,275,128108,1,0,0:0:0:0:
125,275,128194,1,0,0:0:0:0:
125,275,128280,1,0,0:0:0:0:
256,93,128453,1,0,0:0:0:0:
256,307,128625,1,0,0:0:0:0:
256,16,128798,5,0,0:0:0:0:
256,54,128884,1,0,0:0:0:0:
256,93,128970,1,0,0:0:0:0:
256,131,129056,1,0,0:0:0:0:
256,169,129142,1,0,0:0:0:0:
256,372,129315,1,0,0:0:0:0:
460,192,129487,1,0,0:0:0:0:
460,192,129573,1,0,0:0:0:0:
460,192,129660,1,0,0:0:0:0:
256,16,129832,1,0,0:0:0:0:
460,192,130005,5,0,0:0:0:0:
256,372,130177,1,0,0:0:0:0:
205,358,130263,1,0,0:0:0:0:
158,335,130349,1,0,0:0:0:0:
116,304,130435,1,0,0:0:0:0:
81,264,130521,1,0,0:0:0:0:
256,192,130694,5,0,0:0:0:0:
307,206,130780,1,0,0:0:0:0:
354,229,130866,1,0,0:0:0:0:
396,260,130952,1,0,0:0:0:0:
431,300,131038,1,0,0:0:0:0:
256,284,131211,6,0,P|184:248|152:200,1,105.000004005432
104,136,131556,2,0,B|124:112|124:112|184:104,3,52.5000020027161
188,104,131901,1,0,0:0:0:0:
172,36,132073,1,0,0:0:0:0:
108,40,132246,2,0,P|129:42|160:64,2,52.5000020027161
256,192,132591,12,0,133625,0:0:0:0:
28,328,133798,6,0,B|128:328|128:328|120:288,1,140
32,204,134142,1,0,0:0:0:0:
124,243,134315,6,0,B|24:243|24:243|32:203,1,140
120,119,134659,1,0,0:0:0:0:
120,119,134832,6,0,B|336:120|336:120|280:228,1,280
224,336,135349,1,0,0:0:0:0:
224,336,135522,1,0,0:0:0:0:
456,228,135867,2,0,P|426:210|410:179,1,70
432,107,136039,2,0,P|461:124|477:155,1,70
416,299,136211,2,0,P|386:281|370:250,1,70
484,360,136384,1,0,0:0:0:0:
484,360,136556,6,0,P|454:342|368:256,1,140
288,164,136901,1,0,0:0:0:0:
480,280,137246,6,0,P|450:262|364:176,1,140
284,84,137591,1,0,0:0:0:0:
284,84,137763,6,0,B|313:27|313:27|97:26,1,280
8,24,138280,1,0,0:0:0:0:
8,24,138453,1,0,0:0:0:0:
8,24,138625,2,0,B|4:80|52:80|32:128|32:128|72:116|72:116|52:160|52:160|88:160|88:160|76:200|76:200|116:192|116:192|160:288,1,420.000016021729
484,328,139660,6,0,B|384:328|384:328|392:288,1,140
480,204,140004,1,0,0:0:0:0:
388,243,140177,6,0,B|488:243|488:243|480:203,1,140
392,119,140522,6,0,B|176:120|176:120|232:228,1,280
288,332,141039,1,0,0:0:0:0:
344,256,141211,2,0,L|408:308,2,70
78,77,141729,6,0,P|104:95|178:189,1,140
288,332,142074,1,0,0:0:0:0:
288,332,142246,1,0,0:0:0:0:
78,77,142418,6,0,P|94:107|110:217,1,105.000004005432
128,376,142763,1,0,0:0:0:0:
120,276,142936,1,0,0:0:0:0:
112,176,143108,2,0,L|72:60,1,105.000004005432
104,76,143625,5,0,0:0:0:0:
120,276,143798,1,0,0:0:0:0:
256,192,143970,12,0,144660,0:0:0:0:
476,192,144832,5,0,0:0:0:0:
476,192,145005,2,0,B|394:193|394:193|376:140,1,105.000004005432
312,92,145349,1,0,0:0:0:0:
303,133,145435,1,0,0:0:0:0:
295,175,145521,1,0,0:0:0:0:
286,216,145607,1,0,0:0:0:0:
278,258,145693,1,0,0:0:0:0:
110,175,145867,5,0,0:0:0:0:
156,175,145953,1,0,0:0:0:0:
202,175,146039,1,0,0:0:0:0:
249,175,146125,1,0,0:0:0:0:
295,175,146211,1,0,0:0:0:0:
375,242,146384,2,0,L|295:175,1,105.000004005432
262,148,146729,5,0,0:0:0:0:
230,120,146815,1,0,0:0:0:0:
198,93,146901,1,0,0:0:0:0:
166,65,146987,1,0,0:0:0:0:
134,37,147074,1,0,0:0:0:0:
96,188,147246,2,0,L|160:188,1,52.5000020027161
262,148,147591,6,0,P|232:88|160:72,1,105.000004005432
60,40,147936,1,0,0:0:0:0:
60,40,148022,1,0,0:0:0:0:
60,40,148108,1,0,0:0:0:0:
60,40,148194,1,0,0:0:0:0:
60,40,148280,1,0,0:0:0:0:
60,40,148367,1,0,0:0:0:0:
60,40,148453,1,0,0:0:0:0:
112,204,148625,5,0,0:0:0:0:
112,204,148711,1,0,0:0:0:0:
112,204,148797,1,0,0:0:0:0:
112,204,148883,1,0,0:0:0:0:
112,204,148969,1,0,0:0:0:0:
16,196,149142,6,0,P|46:256|118:272,1,105.000004005432
172,312,149487,1,0,0:0:0:0:
172,312,149573,1,0,0:0:0:0:
172,312,149659,1,0,0:0:0:0:
172,312,149745,1,0,0:0:0:0:
172,312,149831,1,0,0:0:0:0:
256,116,150005,5,0,0:0:0:0:
256,116,150091,1,0,0:0:0:0:
256,116,150177,1,0,0:0:0:0:
168,120,150349,6,0,P|198:180|270:196,1,105.000004005432
336,232,150694,1,0,0:0:0:0:
336,232,150867,1,0,0:0:0:0:
416,152,151039,6,0,L|432:96,3,52.5000020027161
356,104,151383,2,0,L|340:48,3,52.5000020027161
376,72,151728,2,0,L|421:46,3,52.5000020027161
368,40,152073,2,0,L|322:14,3,52.5000020027161
336,40,152418,2,0,L|321:90,3,52.5000020027161
288,176,152763,1,0,0:0:0:0:
500,8,153108,5,0,0:0:0:0:
480,64,153280,2,0,L|494:114,3,52.5000020027161
412,88,153625,2,0,L|396:32,3,52.5000020027161
392,16,153970,1,0,0:0:0:0:
198,42,154142,1,0,0:0:0:0:
182,67,154228,1,0,0:0:0:0:
189,95,154314,1,0,0:0:0:0:
210,117,154400,1,0,0:0:0:0:
230,139,154486,1,0,0:0:0:0:
245,164,154573,5,0,0:0:0:0:
251,193,154659,1,0,0:0:0:0:
249,223,154745,1,0,0:0:0:0:
242,252,154831,1,0,0:0:0:0:
237,282,154917,1,0,0:0:0:0:
245,310,155004,1,0,0:0:0:0:
268,328,155090,1,0,0:0:0:0:
295,341,155176,1,0,0:0:0:0:
256,192,155867,1,0,0:0:0:0:
256,192,165867,12,0,166556,0:0:0:0:
84,128,166901,6,0,P|132:88|228:88,1,140
168,160,167418,1,0,0:0:0:0:
168,160,167591,2,0,P|216:120|312:120,1,140
384,152,168108,2,0,P|336:192|240:192,1,140
296,120,168625,2,0,P|332:84|400:72,1,105.000004005432
480,32,168970,6,0,L|480:148,2,105.000004005432
476,244,169487,1,0,0:0:0:0:
476,244,169660,2,0,P|364:292|272:244,1,210
200,200,170349,1,0,0:0:0:0:
148,144,170521,1,0,0:0:0:0:
96,88,170694,1,0,0:0:0:0:
96,88,171211,5,0,0:0:0:0:
162,99,171383,1,0,0:0:0:0:
195,158,171555,1,0,0:0:0:0:
169,221,171728,1,0,0:0:0:0:
103,239,171900,1,0,0:0:0:0:
49,199,172073,1,0,0:0:0:0:
96,88,172418,6,0,P|52:124|68:224,1,140
292,256,173108,2,0,L|300:216,1,35
448,84,173453,5,0,0:0:0:0:
400,304,173626,1,0,0:0:0:0:
416,88,173798,2,0,B|357:230,1,140
416,88,174315,5,0,0:0:0:0:
350,99,174487,1,0,0:0:0:0:
317,158,174659,1,0,0:0:0:0:
343,221,174832,1,0,0:0:0:0:
409,239,175004,1,0,0:0:0:0:
463,199,175177,2,0,P|448:108|344:100,1,210
256,192,175867,12,0,177591,0:0:0:0:
144,68,177936,6,0,L|124:192,1,105.000004005432
104,280,178280,1,0,0:0:0:0:
304,72,178453,1,0,0:0:0:0:
312,123,178539,1,0,0:0:0:0:
320,175,178625,1,0,0:0:0:0:
328,226,178711,1,0,0:0:0:0:
336,278,178797,1,0,0:0:0:0:
144,68,178970,6,0,L|160:160,1,52.5000020027161
164,180,179142,1,0,0:0:0:0:
168,215,179228,1,0,0:0:0:0:
174,252,179314,1,0,0:0:0:0:
336,278,179487,2,0,L|368:160,1,105.000004005432
372,144,179832,1,0,0:0:0:0:
376,111,179918,1,0,0:0:0:0:
381,80,180004,1,0,0:0:0:0:
386,47,180090,1,0,0:0:0:0:
391,16,180176,1,0,0:0:0:0:
74,116,180349,5,0,0:0:0:0:
121,116,180435,1,0,0:0:0:0:
169,116,180521,1,0,0:0:0:0:
216,116,180607,1,0,0:0:0:0:
263,116,180693,1,0,0:0:0:0:
437,268,180867,2,0,L|352:192,1,105.000004005432
437,268,181211,5,0,0:0:0:0:
390,268,181297,1,0,0:0:0:0:
343,268,181383,1,0,0:0:0:0:
295,268,181469,1,0,0:0:0:0:
248,268,181555,1,0,0:0:0:0:
492,92,181729,2,0,B|492:116|492:116|416:116,1,70
396,116,181901,1,0,0:0:0:0:
348,116,181987,1,0,0:0:0:0:
301,116,182073,1,0,0:0:0:0:
201,40,182246,5,0,0:0:0:0:
249,40,182332,1,0,0:0:0:0:
296,40,182418,1,0,0:0:0:0:
64,164,182591,1,0,0:0:0:0:
97,175,182677,1,0,0:0:0:0:
120,202,182763,1,0,0:0:0:0:
135,234,182849,1,0,0:0:0:0:
159,260,182935,1,0,0:0:0:0:
192,273,183022,5,0,0:0:0:0:
228,277,183108,1,0,0:0:0:0:
263,279,183194,1,0,0:0:0:0:
298,285,183280,1,0,0:0:0:0:
330,301,183366,1,0,0:0:0:0:
354,328,183453,1,0,0:0:0:0:
452,160,183625,2,0,L|440:216,2,52.5000020027161
476,36,183970,5,0,0:0:0:0:
476,36,184056,1,0,0:0:0:0:
476,36,184142,1,0,0:0:0:0:
476,36,184229,1,0,0:0:0:0:
476,36,184315,1,0,0:0:0:0:
476,348,184487,5,0,0:0:0:0:
476,348,184573,1,0,0:0:0:0:
476,348,184659,1,0,0:0:0:0:
476,348,184746,1,0,0:0:0:0:
476,348,184832,1,0,0:0:0:0:
464,24,185005,1,0,0:0:0:0:
431,35,185091,1,0,0:0:0:0:
408,62,185177,1,0,0:0:0:0:
393,94,185263,1,0,0:0:0:0:
369,120,185349,1,0,0:0:0:0:
336,133,185436,5,0,0:0:0:0:
300,137,185522,1,0,0:0:0:0:
265,139,185608,1,0,0:0:0:0:
230,145,185694,1,0,0:0:0:0:
198,161,185780,1,0,0:0:0:0:
165,150,185867,1,0,0:0:0:0:
142,123,185953,1,0,0:0:0:0:
127,91,186039,1,0,0:0:0:0:
103,65,186125,1,0,0:0:0:0:
79,39,186211,1,0,0:0:0:0:
198,161,186384,6,0,P|172:208|200:272,1,105.000004005432
260,232,186729,1,0,0:0:0:0:
260,232,186815,1,0,0:0:0:0:
260,232,186901,1,0,0:0:0:0:
260,232,186987,1,0,0:0:0:0:
260,232,187073,1,0,0:0:0:0:
312,176,187246,2,0,P|338:223|310:287,1,105.000004005432
256,192,187591,12,0,188625,0:0:0:0:
40,60,188970,6,0,B|28:96|28:96|212:96,1,210.000008010865
276,92,189487,1,0,0:0:0:0:
328,92,189573,1,0,0:0:0:0:
381,92,189659,1,0,0:0:0:0:
433,92,189745,1,0,0:0:0:0:
486,92,189831,1,0,0:0:0:0:
256,360,190005,6,0,L|256:296,1,52.5000020027161
256,261,190177,1,0,0:0:0:0:
256,215,190263,1,0,0:0:0:0:
256,169,190349,1,0,0:0:0:0:
40,60,190522,6,0,L|144:112,1,105.000004005432
162,122,190867,1,0,0:0:0:0:
208,145,190953,1,0,0:0:0:0:
255,168,191039,1,0,0:0:0:0:
301,191,191125,1,0,0:0:0:0:
348,214,191211,1,0,0:0:0:0:
512,168,191384,6,0,L|454:138,1,52.5000020027161
423,122,191556,1,0,0:0:0:0:
381,100,191642,1,0,0:0:0:0:
340,80,191728,1,0,0:0:0:0:
140,196,191901,5,0,0:0:0:0:
340,80,192073,1,0,0:0:0:0:
340,311,192246,1,0,0:0:0:0:
340,311,192332,1,0,0:0:0:0:
340,311,192418,1,0,0:0:0:0:
340,311,192505,1,0,0:0:0:0:
340,311,192591,1,0,0:0:0:0:
98,220,192763,5,0,0:0:0:0:
381,55,192935,1,0,0:0:0:0:
381,55,193022,1,0,0:0:0:0:
381,55,193108,1,0,0:0:0:0:
46,200,193280,5,0,0:0:0:0:
392,330,193452,1,0,0:0:0:0:
480,140,193625,5,0,0:0:0:0:
427,140,193711,1,0,0:0:0:0:
375,140,193798,1,0,0:0:0:0:
322,140,193884,1,0,0:0:0:0:
270,140,193971,1,0,0:0:0:0:
388,260,194142,2,0,L|316:260,1,52.5000020027161
268,260,194315,1,0,0:0:0:0:
215,260,194401,1,0,0:0:0:0:
163,260,194488,1,0,0:0:0:0:
304,48,194660,5,0,0:0:0:0:
163,260,194832,1,0,0:0:0:0:
22,48,195005,5,0,0:0:0:0:
22,48,195091,1,0,0:0:0:0:
22,48,195177,1,0,0:0:0:0:
22,48,195263,1,0,0:0:0:0:
22,48,195349,1,0,0:0:0:0:
24,188,195522,5,0,0:0:0:0:
58,227,195608,1,0,0:0:0:0:
104,253,195694,1,0,0:0:0:0:
155,263,195780,1,0,0:0:0:0:
207,256,195866,1,0,0:0:0:0:
311,66,196039,5,0,0:0:0:0:
207,256,196211,1,0,0:0:0:0:
392,132,196384,5,0,0:0:0:0:
357,92,196470,1,0,0:0:0:0:
311,66,196556,1,0,0:0:0:0:
260,56,196642,1,0,0:0:0:0:
208,63,196728,1,0,0:0:0:0:
64,288,196901,5,0,0:0:0:0:
98,327,196987,1,0,0:0:0:0:
144,353,197073,1,0,0:0:0:0:
195,363,197159,1,0,0:0:0:0:
247,356,197245,1,0,0:0:0:0:
388,328,197418,2,0,P|456:296|464:264,1,105.000004005432
464,96,197763,5,0,0:0:0:0:
429,56,197849,1,0,0:0:0:0:
383,30,197935,1,0,0:0:0:0:
332,20,198021,1,0,0:0:0:0:
280,27,198107,1,0,0:0:0:0:
168,112,198280,2,0,P|128:136|128:188,1,70
144,224,198453,2,0,P|184:200|184:148,1,70
168,36,198625,2,0,P|123:48|109:99,1,70
144,300,198798,2,0,P|188:287|202:236,1,70
190,179,198970,6,0,P|175:210|144:224,1,70
121,156,199143,2,0,P|136:125|168:112,1,70
256,96,199315,5,0,0:0:0:0:
308,89,199401,1,0,0:0:0:0:
359,99,199487,1,0,0:0:0:0:
405,125,199573,1,0,0:0:0:0:
440,165,199659,1,0,0:0:0:0:
447,217,199746,1,0,0:0:0:0:
437,268,199832,1,0,0:0:0:0:
411,314,199918,1,0,0:0:0:0:
371,349,200004,1,0,0:0:0:0:
248,96,200349,6,0,P|292:96|328:108,1,70
379,120,200522,1,0,0:0:0:0:
411,161,200609,1,0,0:0:0:0:
428,211,200695,1,0,0:0:0:0:
429,264,200781,1,0,0:0:0:0:
411,314,200867,1,0,0:0:0:0:
248,96,201039,6,0,P|204:96|168:108,1,70
117,120,201212,1,0,0:0:0:0:
85,161,201299,1,0,0:0:0:0:
68,211,201385,1,0,0:0:0:0:
411,314,201556,5,0,0:0:0:0:
68,211,201729,1,0,0:0:0:0:
411,314,201901,5,0,0:0:0:0:
450,278,201987,1,0,0:0:0:0:
477,233,202073,1,0,0:0:0:0:
487,182,202159,1,0,0:0:0:0:
479,130,202245,1,0,0:0:0:0:
408,4,202418,1,0,0:0:0:0:
300,252,202591,6,0,L|332:188,2,52.5000020027161
408,4,202936,1,0,0:0:0:0:
408,4,203108,1,0,0:0:0:0:
300,252,203280,6,0,L|352:144,1,105.000004005432
288,16,203625,6,0,L|256:80,2,52.5000020027161
404,224,203970,1,0,0:0:0:0:
404,224,204056,1,0,0:0:0:0:
404,224,204142,1,0,0:0:0:0:
60,260,204315,1,0,0:0:0:0:
81,218,204401,1,0,0:0:0:0:
129,213,204487,1,0,0:0:0:0:
171,192,204573,1,0,0:0:0:0:
208,162,204659,1,0,0:0:0:0:
255,158,204746,1,0,0:0:0:0:
301,171,204832,1,0,0:0:0:0:
332,138,204918,1,0,0:0:0:0:
236,48,205005,6,0,L|348:48,1,70
264,128,205177,2,0,L|152:128,1,70
172,72,205349,2,0,P|136:104|132:144,1,70
312,104,205522,2,0,P|348:72|352:32,1,70
152,324,205694,6,0,L|222:324,1,70
352,212,205866,2,0,L|282:212,1,70
112,368,206039,6,0,L|182:368,1,70
312,172,206211,2,0,L|242:172,1,70
112,364,206384,6,0,L|176:300,1,70
312,168,206556,2,0,L|236:240,1,70
120,160,206729,2,0,L|184:224,1,70
316,360,206901,2,0,L|244:284,1,70
120,216,207073,6,0,P|152:184|192:168,1,70
192,244,207246,2,0,P|160:276|120:292,1,70
120,160,207418,2,0,P|152:128|192:112,1,70
228,284,207591,2,0,P|196:316|156:332,1,70
36,364,207763,5,0,0:0:0:0:
309,204,207936,1,0,0:0:0:0:
36,45,208108,1,0,0:0:0:0:
36,45,208194,1,0,0:0:0:0:
36,45,208280,1,0,0:0:0:0:
309,204,208453,1,0,0:0:0:0:
288,96,208625,2,0,L|304:144,7,35
228,136,208970,2,0,L|180:152,7,35
192,72,209315,2,0,L|176:24,7,35
256,192,209660,12,0,210867,0:0:0:0:
428,256,211039,6,0,P|380:296|284:296,1,140
344,224,211556,1,0,0:0:0:0:
344,224,211729,2,0,P|296:264|200:264,1,140
128,232,212246,2,0,P|176:192|384:224,1,280
328,72,213108,5,0,0:0:0:0:
317,138,213280,1,0,0:0:0:0:
258,171,213452,1,0,0:0:0:0:
195,145,213625,1,0,0:0:0:0:
177,79,213797,1,0,0:0:0:0:
312,184,214487,1,0,0:0:0:0:
364,240,214659,1,0,0:0:0:0:
416,296,214832,1,0,0:0:0:0:
416,296,215349,5,0,0:0:0:0:
350,285,215521,1,0,0:0:0:0:
317,226,215693,1,0,0:0:0:0:
343,163,215866,1,0,0:0:0:0:
409,145,216038,1,0,0:0:0:0:
463,185,216211,1,0,0:0:0:0:
416,296,216556,6,0,P|460:260|444:160,1,140
220,128,217246,2,0,L|200:204,1,70
202,195,217936,1,0,0:0:0:0:
58,262,218280,1,0,0:0:0:0:
103,235,218452,1,0,0:0:0:0:
152,214,218624,1,0,0:0:0:0:
202,195,218797,1,0,0:0:0:0:
254,181,218969,1,0,0:0:0:0:
300,157,219142,1,0,0:0:0:0:
346,133,219315,1,0,0:0:0:0:
388,340,220005,5,0,0:0:0:0:
316,220,220177,1,0,0:0:0:0:
244,100,220350,1,0,0:0:0:0:
88,176,220867,5,0,0:0:0:0:
132,268,221039,1,0,0:0:0:0:
120,48,221211,5,0,0:0:0:0:
187,188,221383,1,0,0:0:0:0:
220,80,221556,5,0,0:0:0:0:
311,271,221728,1,0,0:0:0:0:
311,271,221901,1,0,0:0:0:0:
256,192,222073,12,0,223453,0:0:0:0:
