osu file format v14

[General]
AudioFilename: audio.mp3
AudioLeadIn: 0
PreviewTime: 49660
Countdown: 0
SampleSet: Soft
StackLeniency: 0.2
Mode: 0
LetterboxInBreaks: 0
WidescreenStoryboard: 1

[Editor]
Bookmarks: 1384,23453,51039,73108,95177,111729,133798,144832,155953,156039,156211,156298,156470,156556,156729,156901,156987,157073,157246,157332,157505,157591,157677,157763,157849,157936,158022,158108,158194,158280,158367,158453,158625,158711,158798,158884,158970,159056,159142,159229,159315,159401,159487,159573,159660,159746,159832,159918,160091,160177,160263,160349,160436,160522,160608,160694,160780,160867,160953,161039,161125,161211,161298,161384,161470,161556,161642,161729,161815,161901,161987,162160,162246,162332,162418,162505,162591,162677,162763,162849,162936,163022,163194,163280,163367,163453,163539,163625,163798,163884,163970,164142,164315,164401,164487,164573,164660,164832,164918,165005,165091,165177,165349,165522,165608,165780,165867,166039,166211,166384,166556,166729,166815,166901,188970,200005,211039,221901
DistanceSpacing: 0.8
BeatDivisor: 2
GridSize: 32
TimelineZoom: 1.3

[Metadata]
Title:Stay Alive(Jun Kuroda Bootleg Remix)
TitleUnicode:Stay Alive(Jun Kuroda Bootleg Remix)
Artist:EMILIA (CV: Rie Takahashi)
ArtistUnicode:エミリア(CV:高橋李依)
Creator:Nathan
Version:Normal
Source:Re:ゼロから始める異世界生活
Tags:professionalbox collab dnb rezero drum and bass len fast sukinathan winber1 rlc
BeatmapID:1649461
BeatmapSetID:509121

[Difficulty]
HPDrainRate:4
CircleSize:3
OverallDifficulty:4
ApproachRate:5
SliderMultiplier:1.13
SliderTickRate:1

[Events]
//Background and Video events
0,0,"andrewchan.jpg",0,0
//Break Periods
2,156067,165701
//Storyboard Layer 0 (Background)
//Storyboard Layer 1 (Fail)
//Storyboard Layer 2 (Pass)
//Storyboard Layer 3 (Foreground)
//Storyboard Sound Samples

[TimingPoints]
5,344.827586206897,4,2,2,30,1,0
45521,-125,4,2,1,60,0,0
45522,-125,4,2,2,60,0,0
51039,-95.2380952380952,4,2,1,60,0,1
62073,-95.2380952380952,4,2,1,60,0,0
62418,-95.2380952380952,4,2,1,60,0,1
71729,-100,4,2,2,60,0,0
73108,-100,4,2,1,60,0,0
73453,-100,4,2,1,60,0,1
73539,-100,4,2,1,60,0,0
82763,-100,4,2,2,60,0,0
84142,-100,4,2,1,60,0,0
93798,-100,4,2,2,60,0,0
95177,-100,4,2,1,60,0,0
106211,-125,4,2,2,60,0,0
111729,-95.2380952380952,4,2,1,60,0,1
122763,-95.2380952380952,4,2,1,60,0,0
123108,-95.2380952380952,4,2,1,60,0,1
132418,-95.2380952380952,4,2,1,60,0,0
133798,-100,4,2,1,60,0,1
133884,-100,4,2,1,60,0,0
135866,-100,4,2,1,60,0,0
136384,-100,4,2,1,60,0,0
138625,-100,4,2,1,60,0,0
139142,-100,4,2,1,60,0,0
155694,-100,4,2,2,60,0,0
155867,-100,4,2,1,60,0,0
166901,-100,4,2,2,40,0,0
177935,-100,4,2,1,50,0,0
188625,-100,4,2,1,60,0,0
188970,-95.2380952380952,4,2,1,60,0,1
200005,-95.2380952380952,4,2,1,60,0,0
200349,-95.2380952380952,4,2,1,60,0,1
209660,-100,4,2,1,60,0,0

[Colours]
Combo1 : 214,214,214
Combo2 : 196,136,255
Combo3 : 247,177,252
Combo4 : 141,180,252

[HitObjects]
12,289,1384,5,0,3:0:0:0:
179,356,2073,2,0,P|234:357|328:328,2,113,2|2|0,0:0|0:0|0:0,0:0:0:0:
131,228,3280,1,2,0:0:0:0:
176,227,3453,2,0,P|214:185|241:136,1,113,2|2,0:0|0:0,0:0:0:0:
251,46,4142,5,2,0:0:0:0:
70,59,4832,1,2,0:0:0:0:
123,131,5177,1,2,0:0:0:0:
277,37,5867,1,0,0:0:0:0:
285,126,6211,2,0,P|257:125|231:115,2,56.5,2|0|2,0:0|0:0|0:0,0:0:0:0:
360,75,6901,5,2,0:0:0:0:
246,216,7591,2,0,P|188:221|121:255,2,113,2|2|0,0:0|0:0|0:0,0:0:0:0:
336,317,8798,1,2,0:0:0:0:
365,282,8970,2,0,P|364:209|343:146,1,113,2|2,0:0|0:0,0:0:0:0:
324,84,9660,5,2,0:0:0:0:
149,128,10349,1,2,0:0:0:0:
70,83,10694,1,2,0:0:0:0:
245,128,11384,1,0,0:0:0:0:
198,205,11729,2,0,P|198:240|207:273,2,56.5,2|0|2,0:0|0:0|0:0,0:0:0:0:
146,130,12418,6,0,P|114:166|86:261,1,113,2|0,0:0|0:0,0:0:0:0:
132,305,13108,1,10,0:0:0:0:
302,365,13798,2,0,L|432:347,1,113,0|0,0:0|0:0,0:0:0:0:
457,337,14315,1,2,1:2:0:0:
486,302,14487,2,0,L|495:227,2,56.5,10|0|2,0:0|0:0|1:2,0:0:0:0:
402,267,15177,6,0,L|386:155,1,113,2|0,0:0|0:0,0:0:0:0:
371,65,15867,1,10,0:0:0:0:
304,125,16211,2,0,P|235:129|159:78,1,113,2|0,1:2|0:0,0:0:0:0:
104,112,16901,1,0,0:0:0:0:
149,190,17246,2,0,P|167:242|161:298,1,113,10|2,0:0|1:2,0:0:0:0:
140,338,17763,1,8,0:0:0:0:
120,379,17936,6,0,L|7:371,1,113,2|0,0:0|0:0,0:0:0:0:
28,283,18625,2,0,L|23:226,2,56.5,10|0|2,0:0|0:0|1:2,0:0:0:0:
109,244,19315,2,0,P|190:265|251:249,1,113,0|0,0:0|0:0,0:0:0:0:
265,184,20005,2,0,L|275:32,1,113,10|2,0:0|1:2,0:0:0:0:
354,32,20694,5,2,0:0:0:0:
256,192,20867,12,6,22073,3:2:0:0:
63,274,23453,6,0,P|118:275|176:294,1,113,2|0,3:2|0:0,0:0:0:0:
254,253,24142,2,0,P|282:251|309:243,2,56.5,0|0|0,0:0|0:0|0:0,0:0:0:0:
224,218,24660,2,0,L|232:79,1,113,0|0,0:0|0:0,0:0:0:0:
233,59,25177,1,0,0:0:0:0:
308,8,25522,1,0,0:0:0:0:
318,97,25866,1,0,0:0:0:0:
407,110,26211,6,0,P|385:167|397:282,2,169.5,2|2|2,3:2|3:2|0:0,0:0:0:0:
318,97,27591,2,0,L|158:86,1,113,0|2,0:0|0:0,0:0:0:0:
204,43,28108,2,0,L|91:50,1,113,2|0,0:0|3:0,0:0:0:0:
47,37,28625,1,0,0:0:0:0:
31,129,28970,5,2,3:2:0:0:
66,156,29142,2,0,P|141:178|209:158,1,113,2|2,0:0|0:0,0:0:0:0:
264,175,29832,1,2,0:0:0:0:
252,219,30005,2,0,P|227:248|207:261,1,56.5,2|0,0:0|0:0,0:0:0:0:
169,272,30349,2,0,L|157:406,2,113,0|0|0,0:0|0:0|0:0,0:0:0:0:
127,253,31211,1,0,3:0:0:0:
98,218,31384,1,0,0:0:0:0:
176,172,31729,6,0,L|165:59,1,113,2|0,3:2|0:0,0:0:0:0:
179,16,32246,2,0,P|241:38|310:22,1,113,2|0,3:2|0:0,0:0:0:0:
328,14,32763,1,2,0:0:0:0:
388,81,33108,6,0,B|344:125|289:142|289:142|377:150|443:223|443:223|387:276|297:247,1,452,2|0,0:0|3:0,0:0:0:0:
207,232,34832,6,0,P|127:209|82:218,1,113,8|0,0:0|0:0,0:0:0:0:
61,231,35349,1,0,3:0:0:0:
16,224,35522,1,8,0:0:0:0:
48,139,35867,2,0,L|40:67,1,56.5,0|0,0:0|0:0,0:0:0:0:
60,41,36211,2,0,L|201:52,1,113,8|0,0:0|0:0,0:0:0:0:
263,54,36901,1,8,0:0:0:0:
333,110,37246,6,0,P|415:88|508:103,2,169.5,2|2|10,3:2|0:0|0:0,0:0:0:0:
367,193,38625,2,0,L|254:178,1,113,0|10,3:0|0:0,0:0:0:0:
182,232,39315,2,0,L|167:119,1,113,2|8,0:0|0:0,0:0:0:0:
196,85,39832,1,0,3:0:0:0:
197,39,40005,5,0,3:0:0:0:
107,53,40349,2,0,P|56:92|3:106,1,113,8|0,0:0|0:0,0:0:0:0:
8,195,41039,2,0,P|61:212|91:239,1,56.5,8|0,0:0|0:0,0:0:0:0:
85,250,41384,5,0,3:0:0:0:
152,189,41729,2,0,P|202:149|255:135,1,113,10|2,0:0|0:0,0:0:0:0:
331,171,42418,1,8,0:0:0:0:
414,205,42763,6,0,L|430:81,1,113,0|8,3:0|0:0,0:0:0:0:
439,49,43280,2,0,L|326:63,1,113,0|0,0:0|3:0,0:0:0:0:
283,48,43798,1,8,0:0:0:0:
262,135,44142,5,0,3:0:0:0:
256,192,44315,12,2,45522,0:0:0:0:
165,127,46901,5,2,0:0:0:0:
453,153,48280,1,2,0:0:0:0:
296,352,49487,1,2,0:0:0:0:
331,343,49660,6,0,P|354:256|265:274,1,180.8,2|0,0:0|0:0,0:0:0:0:
109,316,51039,5,4,3:2:0:0:
176,249,51384,2,0,P|183:159|165:95,1,118.649996379089,8|0,0:0|0:0,0:0:0:0:
162,86,51901,1,0,3:0:0:0:
181,42,52073,2,0,L|272:27,1,59.3249981895447,8|0,0:0|0:0,0:0:0:0:
286,27,52418,1,0,3:0:0:0:
268,120,52763,2,0,L|433:149,1,118.649996379089,8|0,0:0|0:0,0:0:0:0:
430,153,53280,1,0,3:0:0:0:
477,159,53453,1,8,0:0:0:0:
456,257,53798,5,0,3:0:0:0:
379,313,54142,1,8,0:0:0:0:
334,296,54315,2,0,P|278:303|208:344,1,118.649996379089,2|0,0:0|3:0,0:0:0:0:
178,347,54832,2,0,P|107:338|85:323,1,59.3249981895447,10|0,0:0|0:0,0:0:0:0:
82,313,55177,5,0,3:0:0:0:
155,253,55522,1,8,0:0:0:0:
71,206,55867,1,2,0:0:0:0:
48,101,56211,2,0,P|99:112|115:126,1,59.3249981895447,10|0,0:0|0:0,0:0:0:0:
147,135,56556,1,0,3:0:0:0:
219,81,56901,2,0,P|308:66|365:97,2,118.649996379089,10|2|10,0:0|0:0|0:0,0:0:0:0:
225,176,57936,5,0,3:0:0:0:
318,164,58280,1,10,0:0:0:0:
283,252,58625,2,0,P|290:300|301:321,1,59.3249981895447,2|0,0:0|3:0,0:0:0:0:
322,348,58970,1,8,0:0:0:0:
408,308,59315,2,0,L|414:162,1,118.649996379089,0|10,3:0|0:0,0:0:0:0:
413,141,59832,2,0,B|332:120|332:120|294:136,1,118.649996379089,2|0,0:0|3:0,0:0:0:0:
257,156,60349,1,10,0:0:0:0:
198,230,60694,5,0,3:0:0:0:
164,140,61039,1,10,0:0:0:0:
221,64,61384,1,0,3:0:0:0:
127,47,61729,2,0,P|95:39|68:40,1,59.3249981895447,10|0,0:0|3:0,0:0:0:0:
33,72,62073,1,0,3:0:0:0:
52,164,62418,2,0,L|200:148,1,118.649996379089,12|0,0:0|0:0,0:0:0:0:
213,171,62936,1,0,3:0:0:0:
259,160,63108,1,8,0:0:0:0:
352,141,63453,6,0,P|342:171|343:214,1,59.3249981895447,0|0,3:0|0:0,0:0:0:0:
332,245,63798,2,0,P|241:248|190:286,1,118.649996379089,8|0,0:0|0:0,0:0:0:0:
131,297,64487,1,8,0:0:0:0:
93,199,64832,5,4,3:2:0:0:
103,152,65005,2,0,L|113:91,1,59.3249981895447,4|8,3:2|0:0,0:0:0:0:
123,47,65349,1,4,3:2:0:0:
215,26,65694,1,0,3:0:0:0:
254,52,65867,6,0,B|301:37|301:37|395:49,1,118.649996379089,12|0,0:0|3:0,0:0:0:0:
464,49,66556,2,0,L|441:206,1,118.649996379089,10|0,0:0|0:0,0:0:0:0:
414,256,67246,2,0,P|379:256|349:241,1,59.3249981895447,8|0,0:0|3:0,0:0:0:0:
324,211,67591,5,2,3:2:0:0:
253,147,67936,1,8,0:0:0:0:
162,174,68280,1,0,3:0:0:0:
127,262,68625,2,0,P|133:278|154:325,1,59.3249981895447,8|0,0:0|3:0,0:0:0:0:
167,347,68970,5,2,3:2:0:0:
226,273,69315,1,8,0:0:0:0:
191,184,69660,1,0,3:0:0:0:
96,171,70005,2,0,P|106:143|118:116,1,59.3249981895447,8|0,0:0|3:0,0:0:0:0:
145,77,70349,6,0,P|174:72|203:69,1,59.3249981895447,2|0,3:2|3:0,0:0:0:0:
251,67,70694,1,8,0:0:0:0:
343,87,71039,2,0,P|361:110|378:134,1,59.3249981895447,8|0,0:0|3:0,0:0:0:0:
394,179,71384,2,0,P|393:208|390:237,1,59.3249981895447,10|10,0:0|0:0,0:0:0:0:
379,282,71729,1,0,3:0:0:0:
87,351,72763,2,0,L|77:220,1,113,0|0,0:0|3:0,0:0:0:0:
50,151,73453,6,0,B|136:130|134:201|234:172,1,169.5,12|0,0:0|3:0,0:0:0:0:
256,166,74142,1,8,0:0:0:0:
291,82,74487,2,0,P|346:139|346:193,1,113,0|8,3:0|0:0,0:0:0:0:
300,245,75177,2,0,P|376:225|423:252,1,113,0|8,0:0|0:0,0:0:0:0:
448,252,75694,1,0,0:0:0:0:
489,234,75867,6,0,B|505:205|505:205|486:109,1,113,4|8,3:2|0:0,0:0:0:0:
480,82,76384,1,4,3:2:0:0:
390,96,76729,1,0,3:0:0:0:
345,92,76901,2,0,L|217:77,1,113,12|0,0:0|3:0,0:0:0:0:
149,41,77591,2,0,L|21:56,1,113,10|2,0:0|0:0,0:0:0:0:
22,143,78280,2,0,P|12:174|11:220,1,56.5,10|2,0:0|3:2,0:0:0:0:
27,239,78625,6,0,L|42:384,2,113,2|8|0,3:2|0:0|3:0,0:0:0:0:
105,192,79660,1,8,0:0:0:0:
166,258,80005,2,0,L|315:273,1,113,2|8,3:2|0:0,0:0:0:0:
361,232,80694,2,0,B|386:181|386:181|360:86,1,113,0|8,3:0|0:0,0:0:0:0:
293,76,81384,5,2,3:2:0:0:
290,167,81729,1,8,0:0:0:0:
213,119,82073,2,0,P|190:118|154:124,1,56.5,8|0,0:0|3:0,0:0:0:0:
113,135,82418,2,0,P|90:136|54:130,1,56.5,10|10,0:0|0:0,0:0:0:0:
18,107,82763,5,0,0:0:0:0:
256,192,82936,12,2,84142,0:0:0:0:
453,174,84832,6,0,P|395:173|330:199,1,113,0|2,0:0|0:0,0:0:0:0:
304,214,85349,2,0,L|159:199,1,113,0|0,0:0|0:0,0:0:0:0:
146,196,85867,1,0,0:0:0:0:
56,188,86211,2,0,B|41:130|41:130|74:73,1,113,0|0,0:0|0:0,0:0:0:0:
157,93,86901,2,0,P|246:85|348:41,2,169.5,2|2|2,3:2|3:2|0:0,0:0:0:0:
156,183,88280,6,0,L|178:323,1,113,0|2,0:0|0:0,0:0:0:0:
219,292,88798,2,0,P|267:296|329:319,1,113,2|0,0:0|3:0,0:0:0:0:
371,308,89315,1,0,0:0:0:0:
432,241,89660,1,2,3:2:0:0:
432,196,89832,2,0,L|410:56,1,113,0|2,0:0|0:0,0:0:0:0:
336,38,90522,1,0,0:0:0:0:
324,81,90694,2,0,L|335:154,1,56.5,2|0,0:0|0:0,0:0:0:0:
293,160,91039,6,0,B|256:183|256:183|138:167,1,113,0|0,0:0|0:0,0:0:0:0:
163,134,91556,2,0,B|94:124|94:124|57:147,1,113,0|0,0:0|3:0,0:0:0:0:
32,184,92073,1,0,0:0:0:0:
116,215,92418,2,0,P|136:283|135:423,2,169.5,2|2|2,3:2|3:2|0:0,0:0:0:0:
47,274,93798,1,0,0:0:0:0:
37,44,95177,5,2,3:2:0:0:
126,59,95522,2,0,L|264:47,1,113,8|0,0:0|0:0,0:0:0:0:
283,51,96039,1,0,3:0:0:0:
320,76,96211,2,0,P|346:120|351:142,1,56.5,8|0,0:0|0:0,0:0:0:0:
339,169,96556,1,0,3:0:0:0:
348,258,96901,2,0,L|199:240,1,113,8|0,0:0|0:0,0:0:0:0:
145,234,97591,1,8,0:0:0:0:
120,321,97936,6,0,P|95:249|102:112,2,169.5,2|2|10,3:2|0:0|0:0,0:0:0:0:
208,338,99315,2,0,P|277:309|363:307,1,113,0|8,3:0|0:0,0:0:0:0:
404,316,100005,1,0,0:0:0:0:
366,234,100349,1,8,0:0:0:0:
415,158,100694,6,0,L|263:136,1,113,0|8,3:0|0:0,0:0:0:0:
263,163,101211,2,0,L|111:141,1,113,0|0,0:0|3:0,0:0:0:0:
110,167,101729,1,8,0:0:0:0:
107,76,102073,1,0,3:0:0:0:
28,120,102418,1,10,0:0:0:0:
28,210,102763,2,0,L|48:360,1,113,2|8,0:0|0:0,0:0:0:0:
133,319,103453,6,0,P|195:295|210:291,1,56.5,0|0,3:0|0:0,0:0:0:0:
229,306,103798,2,0,P|308:331|414:262,1,169.5,8|0,0:0|3:0,0:0:0:0:
422,275,104487,1,8,0:0:0:0:
349,221,104832,5,0,3:0:0:0:
256,192,105005,12,2,106211,3:2:0:0:
376,291,107591,5,2,0:0:0:0:
96,215,108970,1,2,0:0:0:0:
307,75,110177,1,2,0:0:0:0:
341,84,110349,6,0,P|371:124|279:189,1,180.8,2|0,0:0|0:0,0:0:0:0:
109,68,111729,5,4,3:2:0:0:
176,135,112074,2,0,B|190:195|190:195|165:289,1,118.649996379089,8|0,0:0|0:0,0:0:0:0:
161,295,112591,1,0,3:0:0:0:
176,339,112763,2,0,L|267:354,1,59.3249981895447,8|0,0:0|0:0,0:0:0:0:
281,355,113108,1,0,3:0:0:0:
268,264,113453,2,0,P|326:251|438:269,1,118.649996379089,8|0,0:0|0:0,0:0:0:0:
424,281,113970,1,0,3:0:0:0:
456,315,114143,1,8,0:0:0:0:
498,230,114488,5,0,3:0:0:0:
426,168,114832,1,8,0:0:0:0:
393,132,115005,2,0,L|381:-8,1,118.649996379089,2|0,0:0|3:0,0:0:0:0:
340,34,115522,2,0,P|269:25|247:10,1,59.3249981895447,10|0,0:0|0:0,0:0:0:0:
235,16,115867,5,0,3:0:0:0:
245,110,116212,1,8,0:0:0:0:
157,73,116557,1,2,0:0:0:0:
171,166,116901,2,0,P|182:217|196:233,1,59.3249981895447,10|0,0:0|0:0,0:0:0:0:
205,265,117246,1,0,3:0:0:0:
282,210,117591,2,0,L|428:226,2,118.649996379089,10|2|10,0:0|0:0|0:0,0:0:0:0:
293,304,118626,5,0,3:0:0:0:
217,361,118970,1,10,0:0:0:0:
132,318,119315,2,0,P|125:270|114:249,1,59.3249981895447,2|0,0:0|3:0,0:0:0:0:
85,228,119660,1,8,0:0:0:0:
156,102,120005,2,0,L|275:98,1,118.649996379089,0|10,3:0|0:0,0:0:0:0:
322,96,120522,2,0,B|343:177|343:177|327:215,1,118.649996379089,2|0,0:0|3:0,0:0:0:0:
302,248,121039,1,10,0:0:0:0:
211,277,121384,5,0,3:0:0:0:
277,346,121729,1,10,3:2:0:0:
370,323,122074,1,8,0:0:0:0:
394,230,122419,2,0,P|402:198|401:171,1,59.3249981895447,10|0,0:0|3:0,0:0:0:0:
376,132,122763,1,0,3:0:0:0:
402,40,123108,2,0,L|254:24,1,118.649996379089,12|0,0:0|0:0,0:0:0:0:
237,17,123626,1,0,3:0:0:0:
189,12,123798,1,8,0:0:0:0:
182,106,124143,6,0,P|192:136|191:179,1,59.3249981895447,0|0,3:0|0:0,0:0:0:0:
194,211,124488,2,0,B|253:205|253:205|314:229,1,118.649996379089,8|0,0:0|0:0,0:0:0:0:
395,264,125177,1,8,0:0:0:0:
439,187,125522,5,4,3:2:0:0:
443,139,125695,2,0,P|441:105|433:78,1,59.3249981895447,4|8,3:2|0:0,0:0:0:0:
409,40,126039,1,4,3:2:0:0:
317,14,126384,1,0,3:0:0:0:
278,40,126557,6,0,P|226:55|137:37,1,118.649996379089,4|0,3:2|3:0,0:0:0:0:
68,37,127246,2,0,P|57:88|91:194,1,118.649996379089,10|0,0:0|0:0,0:0:0:0:
118,244,127936,2,0,P|147:245|175:234,1,59.3249981895447,8|0,0:0|3:0,0:0:0:0:
208,199,128281,5,2,3:2:0:0:
279,135,128626,1,8,0:0:0:0:
370,162,128970,1,0,3:0:0:0:
405,250,129315,2,0,P|399:266|378:313,1,59.3249981895447,8|0,0:0|3:0,0:0:0:0:
365,335,129660,5,2,3:2:0:0:
306,261,130005,1,8,0:0:0:0:
341,172,130350,1,0,3:0:0:0:
436,159,130695,2,0,P|426:131|414:104,1,59.3249981895447,8|0,0:0|3:0,0:0:0:0:
387,65,131039,6,0,P|358:60|329:57,1,59.3249981895447,2|0,3:2|3:0,0:0:0:0:
281,55,131384,1,8,0:0:0:0:
189,75,131729,2,0,P|171:98|154:122,1,59.3249981895447,8|0,0:0|3:0,0:0:0:0:
138,167,132074,1,10,0:0:0:0:
137,214,132246,1,10,0:0:0:0:
256,192,132418,12,6,133798,3:2:0:0:
395,40,134487,6,0,P|354:100|334:164,1,113,8|2,0:0|3:2,0:0:0:0:
357,179,135005,2,0,B|317:160|317:160|208:173,1,113,2|2,3:2|3:2,0:0:0:0:
204,178,135522,1,2,3:2:0:0:
125,223,135867,2,0,B|112:198|112:198|113:136,1,56.5,10|2,0:1|3:1,0:0:0:0:
122,125,136211,2,0,L|101:25,1,56.5,2|2,0:1|3:1,0:0:0:0:
104,24,136556,1,0,3:0:0:0:
207,111,137073,1,2,3:2:0:0:
255,104,137246,2,0,L|243:48,2,56.5,10|8|2,0:0|0:0|3:2,0:0:0:0:
299,94,137763,6,0,B|353:86|353:86|426:121,1,113,2|8,3:2|0:0,0:0:0:0:
446,131,138280,1,0,3:0:0:0:
374,186,138625,2,0,P|354:225|361:266,1,56.5,12|2,0:0|0:0,0:0:0:0:
395,254,138970,2,0,L|480:271,1,56.5,2|2,0:0|0:0,0:0:0:0:
494,274,139315,1,2,3:2:0:0:
447,351,139660,1,14,0:0:0:0:
356,353,140005,2,0,P|345:316|346:277,2,56.5,8|2|2,0:0|0:0|3:2,0:0:0:0:
311,362,140522,6,0,P|229:342|169:312,1,113,2|2,3:2|3:2,0:0:0:0:
168,301,141039,1,0,3:0:0:0:
215,223,141384,1,8,0:0:0:0:
142,168,141729,1,2,3:2:0:0:
92,243,142073,2,0,P|45:150|67:66,1,169.5,0|2,3:0|3:0,0:0:0:0:
97,72,142763,2,0,B|96:43|96:43|78:5,2,56.5,10|2|2,0:0|0:0|3:2,0:0:0:0:
140,84,143280,6,0,P|210:97|289:81,1,113,2|10,3:2|0:0,0:0:0:0:
286,63,143798,1,10,0:0:0:0:
366,102,144142,1,8,0:0:0:0:
409,114,144315,1,10,0:0:0:0:
453,105,144487,2,0,P|491:112|518:143,1,56.5,2|2,3:2|0:0,0:0:0:0:
503,167,144832,5,6,3:2:0:0:
506,257,145177,2,0,L|367:230,1,113,8|0,0:0|0:0,0:0:0:0:
351,224,145694,1,0,3:0:0:0:
313,250,145867,1,8,0:0:0:0:
283,335,146211,5,2,3:2:0:0:
226,264,146556,2,0,L|115:242,1,113,8|0,0:0|0:0,0:0:0:0:
70,233,147073,1,0,3:0:0:0:
25,222,147246,1,8,0:0:0:0:
13,132,147591,2,0,P|11:87|27:63,1,56.5,2|0,3:2|0:0,0:0:0:0:
58,62,147936,2,0,P|136:60|188:105,1,113,8|0,0:0|0:0,0:0:0:0:
201,102,148453,1,0,3:0:0:0:
244,90,148625,1,8,0:0:0:0:
298,162,148970,5,2,3:2:0:0:
257,243,149315,2,0,P|179:245|127:200,1,113,8|0,0:0|0:0,0:0:0:0:
112,203,149832,1,0,3:0:0:0:
94,161,150004,1,8,0:0:0:0:
183,146,150349,5,2,3:2:0:0:
262,102,150694,2,0,B|340:106|340:106|379:141,1,113,8|0,0:0|0:0,0:0:0:0:
394,164,151211,1,0,3:0:0:0:
439,158,151384,1,8,0:0:0:0:
500,224,151729,5,2,3:2:0:0:
421,268,152074,2,0,B|343:264|343:264|304:229,1,113,8|0,0:0|0:0,0:0:0:0:
290,204,152591,1,0,3:0:0:0:
262,167,152764,1,10,0:0:0:0:
201,99,153108,2,0,P|137:100|57:60,2,113,2|8|0,3:2|0:0|0:0,0:0:0:0:
240,76,153970,1,0,3:0:0:0:
285,76,154142,2,0,P|309:89|331:106,1,56.5,8|0,0:0|3:0,0:0:0:0:
256,192,154487,12,2,155867,0:0:0:0:
366,130,166901,6,0,B|402:172|402:172|422:225,1,113,2|0,0:0|0:0,0:0:0:0:
380,305,167591,1,8,0:0:0:0:
210,365,168281,2,0,P|147:353|80:347,1,113,0|0,0:0|0:0,0:0:0:0:
55,337,168798,1,2,1:2:0:0:
26,302,168970,2,0,L|17:227,2,56.5,10|0|2,0:0|0:0|1:2,0:0:0:0:
110,267,169660,6,0,P|127:211|126:155,1,113,2|0,0:0|0:0,0:0:0:0:
141,65,170350,1,10,0:0:0:0:
208,125,170694,2,0,P|277:129|353:78,1,113,2|0,1:2|0:0,0:0:0:0:
408,112,171384,1,0,0:0:0:0:
363,190,171729,2,0,L|350:312,1,113,10|2,0:0|1:2,0:0:0:0:
372,338,172246,1,8,0:0:0:0:
392,379,172419,6,0,L|505:371,1,113,2|0,0:0|0:0,0:0:0:0:
484,283,173108,2,0,L|489:226,2,56.5,8|0|0,0:0|0:0|1:0,0:0:0:0:
402,244,173798,2,0,B|350:263|350:263|294:261,1,113,0|0,0:0|0:0,0:0:0:0:
247,184,174488,2,0,L|237:32,1,113,10|2,0:0|1:2,0:0:0:0:
158,32,175177,5,2,0:0:0:0:
256,192,175350,12,2,177246,0:0:0:0:
305,231,178280,6,0,B|357:211|357:211|413:212,1,113,8|0,0:0|0:0,0:0:0:0:
451,231,178797,1,0,3:0:0:0:
496,224,178970,1,8,0:0:0:0:
464,139,179315,2,0,L|472:67,1,56.5,0|0,3:0|0:0,0:0:0:0:
452,41,179660,2,0,P|393:61|311:52,1,113,8|0,0:0|0:0,0:0:0:0:
249,54,180349,1,8,0:0:0:0:
179,110,180694,6,0,B|97:88|97:88|4:103,2,169.5,2|2|10,3:2|0:0|0:0,0:0:0:0:
147,194,182073,2,0,L|260:179,1,113,0|8,3:0|0:0,0:0:0:0:
330,232,182763,2,0,L|345:119,1,113,0|8,0:0|0:0,0:0:0:0:
316,85,183280,1,0,3:0:0:0:
315,39,183453,5,2,3:2:0:0:
405,53,183797,2,0,B|456:92|456:92|503:104,1,113,8|2,0:0|0:0,0:0:0:0:
504,195,184487,2,0,P|451:212|421:239,1,56.5,8|0,0:0|0:0,0:0:0:0:
427,250,184832,5,2,3:2:0:0:
360,189,185177,2,0,L|237:204,1,113,10|2,0:0|0:0,0:0:0:0:
176,147,185866,1,8,0:0:0:0:
98,205,186211,6,0,L|82:81,1,113,2|8,3:2|0:0,0:0:0:0:
73,49,186728,2,0,P|136:62|186:63,1,113,0|0,0:0|3:0,0:0:0:0:
225,42,187246,1,8,0:0:0:0:
312,64,187591,1,0,3:0:0:0:
346,35,187763,2,0,P|435:55|421:228,1,282.5,2|10,3:2|0:0,0:0:0:0:
400,307,188970,5,4,3:2:0:0:
336,249,189315,2,0,P|329:159|347:95,1,118.649996379089,8|0,0:0|0:0,0:0:0:0:
350,86,189832,1,0,3:0:0:0:
331,42,190004,2,0,L|240:27,1,59.3249981895447,8|0,0:0|0:0,0:0:0:0:
226,27,190349,1,0,3:0:0:0:
244,120,190694,2,0,P|176:122|79:149,1,118.649996379089,8|0,0:0|0:0,0:0:0:0:
85,156,191211,1,0,3:0:0:0:
37,158,191384,1,8,0:0:0:0:
56,257,191729,5,0,3:0:0:0:
133,313,192073,1,8,0:0:0:0:
177,296,192246,2,0,B|236:303|236:303|288:330,1,118.649996379089,2|2,0:0|3:2,0:0:0:0:
334,347,192763,2,0,P|405:338|427:323,1,59.3249981895447,10|2,0:0|0:0,0:0:0:0:
430,313,193108,5,0,0:0:0:0:
357,253,193453,1,8,0:0:0:0:
441,206,193798,1,2,0:0:0:0:
464,101,194142,2,0,P|413:112|397:126,1,59.3249981895447,10|0,0:0|0:0,0:0:0:0:
365,135,194487,1,0,0:0:0:0:
293,81,194832,2,0,L|139:58,2,118.649996379089,10|2|10,0:0|0:0|0:0,0:0:0:0:
287,176,195867,5,0,0:0:0:0:
194,164,196211,1,10,0:0:0:0:
229,252,196556,2,0,P|222:300|211:321,1,59.3249981895447,2|0,0:0|3:0,0:0:0:0:
190,348,196901,1,8,0:0:0:0:
104,308,197246,2,0,L|98:162,1,118.649996379089,0|10,3:0|0:0,0:0:0:0:
99,141,197763,2,0,P|156:127|218:136,1,118.649996379089,2|0,0:0|3:0,0:0:0:0:
255,156,198280,1,10,0:0:0:0:
314,230,198625,5,0,3:0:0:0:
348,140,198970,1,8,3:2:0:0:
443,140,199315,1,8,0:0:0:0:
501,215,199660,2,0,P|509:247|508:274,1,59.3249981895447,10|0,0:0|3:0,0:0:0:0:
493,317,200004,1,0,3:0:0:0:
415,371,200349,5,12,0:0:0:0:
332,323,200694,2,0,P|271:311|178:334,1,118.649996379089,0|8,0:0|0:0,0:0:0:0:
172,339,201211,1,0,0:0:0:0:
126,326,201383,2,0,L|116:268,1,59.3249981895447,0|0,3:0|0:0,0:0:0:0:
110,220,201728,1,8,0:0:0:0:
150,134,202073,2,0,B|208:147|208:147|267:145,1,118.649996379089,0|8,0:0|0:0,0:0:0:0:
286,101,202590,1,0,0:0:0:0:
329,82,202763,5,4,3:2:0:0:
376,86,202936,2,0,P|395:114|401:150,1,59.3249981895447,4|8,3:2|0:0,0:0:0:0:
405,185,203280,1,4,3:2:0:0:
430,272,203625,1,0,3:0:0:0:
391,299,203798,6,0,B|344:314|344:314|250:302,1,118.649996379089,12|0,0:0|3:0,0:0:0:0:
185,339,204487,2,0,L|208:182,1,118.649996379089,10|2,0:0|0:0,0:0:0:0:
194,126,205177,2,0,P|229:126|259:141,1,59.3249981895447,8|0,0:0|3:0,0:0:0:0:
289,163,205522,5,2,3:2:0:0:
366,218,205867,1,8,0:0:0:0:
457,192,206211,1,0,3:0:0:0:
489,102,206556,2,0,P|485:40|480:24,1,59.3249981895447,8|0,0:0|3:0,0:0:0:0:
450,10,206901,5,2,3:2:0:0:
389,83,207246,1,8,0:0:0:0:
310,29,207591,1,0,3:0:0:0:
250,102,207936,2,0,P|230:111|164:104,1,59.3249981895447,8|0,0:0|3:0,0:0:0:0:
145,113,208280,2,0,P|115:113|88:124,1,59.3249981895447,2|0,3:2|3:0,0:0:0:0:
49,153,208625,1,8,0:0:0:0:
128,205,208970,2,0,P|139:235|140:278,1,59.3249981895447,8|0,0:0|3:0,0:0:0:0:
150,308,209315,2,0,P|120:319|77:320,1,59.3249981895447,10|10,0:0|0:0,0:0:0:0:
256,192,209660,12,2,211039,0:0:0:0:
500,289,212419,5,0,0:0:0:0:
333,356,213108,2,0,P|278:357|185:323,2,113,2|2|2,0:0|0:0|0:0,0:0:0:0:
381,228,214315,1,0,0:0:0:0:
336,227,214488,2,0,P|298:185|271:136,1,113,2|2,0:0|0:0,0:0:0:0:
442,59,215867,5,2,0:0:0:0:
383,133,216211,2,0,P|363:171|361:227,1,56.5,2|0,0:0|0:0,0:0:0:0:
358,229,216556,1,2,0:0:0:0:
443,197,216902,1,0,0:0:0:0:
428,286,217246,2,0,P|456:285|482:275,2,56.5,2|0|0,0:0|0:0|0:0,0:0:0:0:
344,322,217936,5,2,0:0:0:0:
269,157,218626,2,0,P|211:162|144:196,2,113,2|2|2,0:0|0:0|0:0,0:0:0:0:
356,261,219833,1,0,0:0:0:0:
364,216,220005,2,0,P|363:143|342:80,1,113,2|2,0:0|0:0,0:0:0:0:
83,67,221384,1,2,0:0:0:0:
60,154,221729,1,2,0:0:0:0:
