osu file format v14

[General]
AudioFilename: audio.mp3
AudioLeadIn: 0
PreviewTime: 47196
Countdown: 0
SampleSet: Normal
StackLeniency: 0.7
Mode: 1
LetterboxInBreaks: 0
WidescreenStoryboard: 1

[Editor]
Bookmarks: 13768,27482,61764,75478
DistanceSpacing: 0.5
BeatDivisor: 4
GridSize: 32
TimelineZoom: 1.2

[Metadata]
Title:Stay Alive
TitleUnicode:Stay Alive
Artist:EMILIA (CV: Rie Takahashi)
ArtistUnicode:エミリア (CV:高橋李依)
Creator:tasuke912
Version:Oni
Source:Re:ゼロから始める異世界生活
Tags:Zero Kara Hajimeru Isekai Seikatsu Life in a different world from rezero Re:zero
BeatmapID:1051709
BeatmapSetID:493891

[Difficulty]
HPDrainRate:6
CircleSize:2
OverallDifficulty:5
ApproachRate:5
SliderMultiplier:2.1
SliderTickRate:1

[Events]
//Background and Video events
0,0,"BG.png",0,160
Video,-500,"Video.avi"
//Break Periods
//Storyboard Layer 0 (Background)
//Storyboard Layer 1 (Fail)
//Storyboard Layer 2 (Pass)
//Storyboard Layer 3 (Foreground)
//Storyboard Sound Samples

[TimingPoints]
50,857.142857142857,4,1,0,40,1,0
13657,-100,4,1,0,70,0,0
41085,-100,4,1,0,60,0,0
46228,-100,4,1,0,30,0,0
47942,-100,4,1,0,60,0,0
48049,-75,4,1,0,85,0,1
75478,848.656294200849,4,1,0,70,1,0
75478,-75.7575757575758,4,1,0,70,0,0

[Colours]
Combo1 : 192,192,192
Combo2 : 74,165,255
Combo3 : 255,96,96

[HitObjects]
256,192,50,5,2,0:0:0:0:
256,192,907,1,2,0:0:0:0:
256,192,1121,1,2,0:0:0:0:
256,192,1335,1,2,0:0:0:0:
256,192,3478,1,2,0:0:0:0:
256,192,3907,1,0,0:0:0:0:
256,192,4335,1,2,0:0:0:0:
256,192,4549,1,2,0:0:0:0:
256,192,4764,1,2,0:0:0:0:
256,192,6907,1,2,0:0:0:0:
256,192,7764,1,2,0:0:0:0:
256,192,7978,1,2,0:0:0:0:
256,192,8192,1,2,0:0:0:0:
256,192,10335,1,2,0:0:0:0:
256,192,10764,1,0,0:0:0:0:
256,192,11192,1,0,0:0:0:0:
256,192,11407,1,2,0:0:0:0:
256,192,11621,1,2,0:0:0:0:
256,192,13764,5,0,0:0:0:0:
256,192,14192,1,0,0:0:0:0:
256,192,14621,1,2,0:0:0:0:
256,192,15049,1,2,0:0:0:0:
256,192,15264,1,0,0:0:0:0:
256,192,15692,1,2,0:0:0:0:
256,192,15907,1,0,0:0:0:0:
256,192,16335,1,2,0:0:0:0:
256,192,16764,1,2,0:0:0:0:
256,192,17192,1,0,0:0:0:0:
256,192,17621,1,0,0:0:0:0:
256,192,17835,1,0,0:0:0:0:
256,192,18049,1,2,0:0:0:0:
256,192,18478,1,0,0:0:0:0:
256,192,18692,1,2,0:0:0:0:
256,192,19121,1,0,0:0:0:0:
256,192,19335,1,2,0:0:0:0:
256,192,19764,1,2,0:0:0:0:
256,192,20192,1,2,0:0:0:0:
256,192,20407,1,2,0:0:0:0:
256,192,20621,1,0,0:0:0:0:
256,192,21049,1,0,0:0:0:0:
256,192,21478,1,2,0:0:0:0:
256,192,21907,1,0,0:0:0:0:
256,192,22121,1,2,0:0:0:0:
256,192,22549,1,2,0:0:0:0:
256,192,22764,1,0,0:0:0:0:
256,192,23192,1,2,0:0:0:0:
256,192,23621,1,2,0:0:0:0:
256,192,24049,1,0,0:0:0:0:
256,192,24478,1,0,0:0:0:0:
256,192,24692,1,0,0:0:0:0:
256,192,24907,1,2,0:0:0:0:
256,192,25335,1,2,0:0:0:0:
256,192,25549,1,2,0:0:0:0:
256,192,25978,1,2,0:0:0:0:
256,192,26192,1,0,0:0:0:0:
256,192,26621,1,2,0:0:0:0:
256,192,26835,1,0,0:0:0:0:
256,192,27049,1,2,0:0:0:0:
256,192,27157,1,2,0:0:0:0:
256,192,27264,1,0,0:0:0:0:
256,192,27478,5,0,0:0:0:0:
256,192,27692,1,0,0:0:0:0:
256,192,28335,1,2,0:0:0:0:
256,192,28764,1,2,0:0:0:0:
256,192,28978,1,0,0:0:0:0:
256,192,29407,1,0,0:0:0:0:
256,192,29621,1,2,0:0:0:0:
256,192,30049,1,2,0:0:0:0:
256,192,30478,1,2,0:0:0:0:
256,192,30692,1,2,0:0:0:0:
256,192,30907,1,0,0:0:0:0:
256,192,31121,1,0,0:0:0:0:
256,192,31764,1,2,0:0:0:0:
256,192,32192,1,2,0:0:0:0:
256,192,32407,1,0,0:0:0:0:
256,192,32835,1,0,0:0:0:0:
256,192,33049,1,2,0:0:0:0:
256,192,33478,1,2,0:0:0:0:
256,192,33692,1,0,0:0:0:0:
256,192,33907,1,2,0:0:0:0:
256,192,34121,1,0,0:0:0:0:
256,192,34335,1,0,0:0:0:0:
256,192,34549,1,0,0:0:0:0:
256,192,34978,1,0,0:0:0:0:
256,192,35192,1,2,0:0:0:0:
256,192,35621,1,2,0:0:0:0:
256,192,35835,1,2,0:0:0:0:
256,192,36049,1,0,0:0:0:0:
256,192,36264,1,2,0:0:0:0:
256,192,36478,1,0,0:0:0:0:
256,192,36907,1,2,0:0:0:0:
256,192,37335,1,2,0:0:0:0:
256,192,37764,1,0,0:0:0:0:
256,192,37978,1,0,0:0:0:0:
256,192,38621,1,2,0:0:0:0:
256,192,39049,1,2,0:0:0:0:
256,192,39264,1,2,0:0:0:0:
256,192,39478,1,2,0:0:0:0:
256,192,39907,1,0,0:0:0:0:
256,192,40335,1,2,0:0:0:0:
256,192,40549,1,0,0:0:0:0:
256,192,40764,1,2,0:0:0:0:
256,192,40871,1,2,0:0:0:0:
256,192,40978,1,0,0:0:0:0:
256,192,41192,5,0,0:0:0:0:
256,192,42907,1,2,0:0:0:0:
256,192,44621,1,2,0:0:0:0:
96,128,46335,2,0,L|320:96,1,210
256,192,48049,1,4,0:0:0:0:
256,192,48478,1,0,0:0:0:0:
256,192,48907,1,2,0:0:0:0:
256,192,49335,1,0,0:0:0:0:
256,192,49549,1,0,0:0:0:0:
256,192,49978,1,2,0:0:0:0:
256,192,50192,1,0,0:0:0:0:
256,192,50621,1,2,0:0:0:0:
256,192,51049,1,2,0:0:0:0:
256,192,51264,1,2,0:0:0:0:
256,192,51478,1,0,0:0:0:0:
256,192,51907,1,0,0:0:0:0:
256,192,52121,1,0,0:0:0:0:
256,192,52335,1,2,0:0:0:0:
256,192,52764,1,0,0:0:0:0:
256,192,52978,1,2,0:0:0:0:
256,192,53407,1,2,0:0:0:0:
256,192,53621,1,0,0:0:0:0:
256,192,54049,1,2,0:0:0:0:
256,192,54264,1,0,0:0:0:0:
256,192,54478,1,2,0:0:0:0:
256,192,54907,1,0,0:0:0:0:
256,192,55335,1,0,0:0:0:0:
256,192,55764,1,2,0:0:0:0:
256,192,56192,1,0,0:0:0:0:
256,192,56407,1,0,0:0:0:0:
256,192,56621,1,0,0:0:0:0:
256,192,56835,1,2,0:0:0:0:
256,192,57049,1,0,0:0:0:0:
256,192,57478,1,2,0:0:0:0:
256,192,57907,1,2,0:0:0:0:
256,192,58121,1,2,0:0:0:0:
256,192,58335,1,0,0:0:0:0:
256,192,58764,1,0,0:0:0:0:
256,192,58978,1,0,0:0:0:0:
256,192,59192,1,2,0:0:0:0:
256,192,59621,1,2,0:0:0:0:
256,192,59835,1,0,0:0:0:0:
256,192,60264,1,0,0:0:0:0:
256,192,60478,1,2,0:0:0:0:
256,192,60907,1,2,0:0:0:0:
256,192,61121,1,0,0:0:0:0:
256,192,61335,1,2,0:0:0:0:
256,192,61442,1,2,0:0:0:0:
256,192,61549,1,0,0:0:0:0:
256,192,61764,5,4,0:0:0:0:
256,192,62192,1,0,0:0:0:0:
256,192,62407,1,0,0:0:0:0:
256,192,62621,1,2,0:0:0:0:
256,192,63049,1,2,0:0:0:0:
256,192,63264,1,0,0:0:0:0:
256,192,63692,1,0,0:0:0:0:
256,192,63907,1,2,0:0:0:0:
256,192,64335,1,2,0:0:0:0:
256,192,64764,1,2,0:0:0:0:
256,192,64978,1,2,0:0:0:0:
256,192,65192,1,0,0:0:0:0:
256,192,65621,1,0,0:0:0:0:
256,192,66049,1,2,0:0:0:0:
256,192,66478,1,0,0:0:0:0:
256,192,66692,1,2,0:0:0:0:
256,192,67121,1,2,0:0:0:0:
256,192,67335,1,0,0:0:0:0:
256,192,67764,1,2,0:0:0:0:
256,192,67978,1,0,0:0:0:0:
256,192,68192,1,2,0:0:0:0:
256,192,68407,1,2,0:0:0:0:
256,192,68621,1,0,0:0:0:0:
256,192,69049,1,0,0:0:0:0:
256,192,69478,1,2,0:0:0:0:
256,192,69907,1,2,0:0:0:0:
256,192,70121,1,2,0:0:0:0:
256,192,70335,1,0,0:0:0:0:
256,192,70764,1,0,0:0:0:0:
256,192,70978,1,0,0:0:0:0:
256,192,71192,1,2,0:0:0:0:
256,192,71621,1,2,0:0:0:0:
256,192,72049,1,4,0:0:0:0:
256,192,72907,1,0,0:0:0:0:
256,192,73335,1,2,0:0:0:0:
256,192,73764,1,2,0:0:0:0:
256,192,73978,1,2,0:0:0:0:
256,192,74192,1,0,0:0:0:0:
256,192,74621,1,2,0:0:0:0:
256,192,74764,1,2,0:0:0:0:
256,192,74907,1,2,0:0:0:0:
256,192,75049,1,0,0:0:0:0:
256,192,75192,1,0,0:0:0:0:
256,192,75335,1,0,0:0:0:0:
256,192,75478,5,0,0:0:0:0:
256,192,76326,1,2,0:0:0:0:
256,192,76750,1,2,0:0:0:0:
256,192,76963,1,2,0:0:0:0:
256,192,77387,1,2,0:0:0:0:
256,192,77599,1,0,0:0:0:0:
256,192,78023,1,2,0:0:0:0:
256,192,78872,1,0,0:0:0:0:
256,192,79296,1,0,0:0:0:0:
256,192,79509,1,0,0:0:0:0:
256,192,79721,1,2,0:0:0:0:
256,192,80145,1,0,0:0:0:0:
256,192,80357,1,2,0:0:0:0:
256,192,80782,1,2,0:0:0:0:
256,192,80994,1,0,0:0:0:0:
256,192,81418,1,2,0:0:0:0:
256,192,81630,1,2,0:0:0:0:
256,192,81736,1,2,0:0:0:0:
256,192,81842,1,2,0:0:0:0:
256,192,82055,1,2,0:0:0:0:
256,192,82267,1,0,0:0:0:0:
256,192,82691,1,0,0:0:0:0:
256,192,83115,1,2,0:0:0:0:
256,192,83540,1,2,0:0:0:0:
256,192,83752,1,0,0:0:0:0:
256,192,84176,1,0,0:0:0:0:
256,192,84388,1,2,0:0:0:0:
256,192,84813,1,2,0:0:0:0:
256,192,85661,1,0,0:0:0:0:
256,192,86086,1,0,0:0:0:0:
256,192,86298,1,0,0:0:0:0:
256,192,86510,1,2,0:0:0:0:
256,192,86934,1,0,0:0:0:0:
256,192,87147,1,2,0:0:0:0:
256,192,87571,1,2,0:0:0:0:
256,192,87783,1,2,0:0:0:0:
256,192,87995,1,0,0:0:0:0:
256,192,88207,1,2,0:0:0:0:
256,192,88420,1,2,0:0:0:0:
256,192,88632,1,2,0:0:0:0:
256,192,88844,1,2,0:0:0:0:
