osu file format v14

[General]
AudioFilename: audio.mp3
AudioLeadIn: 0
PreviewTime: 123825
Countdown: 0
SampleSet: Soft
StackLeniency: 0.7
Mode: 0
LetterboxInBreaks: 0
WidescreenStoryboard: 0

[Editor]
Bookmarks: 114396,239218
DistanceSpacing: 1.6
BeatDivisor: 4
GridSize: 4
TimelineZoom: 2.1

[Metadata]
Title:Stay Alive
TitleUnicode:Stay Alive
Artist:EMILIA (CV: Rie Takahashi)
ArtistUnicode:エミリア(CV:高橋李依)
Creator:Shurelia
Version:Kalibe's Hard
Source:Re:ゼロから始める異世界生活
Tags:Kalibe Blizs Fantastica Re: Zero Kara Hajimeru Isekai Seikatsu Life in a different world from zero Re:zero Ed Ending full ver EMT
BeatmapID:1411597
BeatmapSetID:636235

[Difficulty]
HPDrainRate:5
CircleSize:4
OverallDifficulty:6
ApproachRate:7
SliderMultiplier:1.7
SliderTickRate:1

[Events]
//Background and Video events
0,0,"emilianew.jpg",0,0
//Break Periods
2,104311,113068
2,179739,192353
//Storyboard Layer 0 (Background)
//Storyboard Layer 1 (Fail)
//Storyboard Layer 2 (Pass)
//Storyboard Layer 3 (Foreground)
//Storyboard Sound Samples

[TimingPoints]
1254,857.142857142857,4,2,2,28,1,0
14968,-83.3333333333333,4,2,1,34,0,0
32111,-83.3333333333333,4,2,2,34,0,0
32218,-83.3333333333333,4,2,1,34,0,0
42396,-125,4,2,2,20,0,0
47968,-125,4,2,2,5,0,0
48396,-166.666666666667,4,2,1,15,0,0
49253,-62.5,4,2,1,62,0,1
49575,-62.5,4,2,1,5,0,1
49682,-62.5,4,2,1,62,0,1
50432,-62.5,4,2,1,5,0,1
50539,-62.5,4,2,1,62,0,1
52146,-62.5,4,2,1,5,0,1
52253,-62.5,4,2,1,62,0,1
53861,-62.5,4,2,1,5,0,1
53968,-62.5,4,2,1,62,0,1
54718,-62.5,4,2,1,5,0,1
54825,-62.5,4,2,1,62,0,1
56003,-62.5,4,2,1,5,0,1
56111,-62.5,4,2,1,62,0,1
58146,-62.5,4,2,1,5,0,1
58253,-62.5,4,2,1,62,0,1
62753,-62.5,4,2,1,62,0,0
62968,-62.5,4,2,1,62,0,1
63289,-62.5,4,2,1,5,0,1
63396,-62.5,4,2,1,62,0,1
64146,-62.5,4,2,1,5,0,1
64253,-62.5,4,2,1,62,0,1
65861,-62.5,4,2,1,5,0,1
65968,-62.5,4,2,1,62,0,1
68432,-62.5,4,2,1,5,0,1
68539,-62.5,4,2,1,62,0,1
76682,-83.3333333333333,4,2,1,38,0,0
104111,-100,4,2,2,24,0,0
113968,-100,4,2,1,39,0,0
114396,-83.3333333333333,4,2,1,40,0,0
117825,-100,4,2,1,42,0,0
123825,-166.666666666667,4,2,1,35,0,0
124682,-62.5,4,2,1,62,0,1
125003,-62.5,4,2,1,5,0,1
125111,-62.5,4,2,1,62,0,1
125861,-62.5,4,2,1,5,0,1
125968,-62.5,4,2,1,62,0,1
127575,-62.5,4,2,1,5,0,1
127682,-62.5,4,2,1,62,0,1
129289,-62.5,4,2,1,5,0,1
129396,-62.5,4,2,1,62,0,1
130146,-62.5,4,2,1,5,0,1
130253,-62.5,4,2,1,62,0,1
131432,-62.5,4,2,1,5,0,1
131539,-62.5,4,2,1,62,0,1
133575,-62.5,4,2,1,5,0,1
133682,-62.5,4,2,1,62,0,1
138182,-62.5,4,2,1,62,0,0
138396,-62.5,4,2,1,62,0,1
138718,-62.5,4,2,1,5,0,1
138825,-62.5,4,2,1,62,0,1
139575,-62.5,4,2,1,5,0,1
139682,-62.5,4,2,1,62,0,1
141289,-62.5,4,2,1,5,0,1
141396,-62.5,4,2,1,62,0,1
143861,-62.5,4,2,1,5,0,1
143968,-62.5,4,2,1,62,0,1
152111,-83.3333333333333,4,2,1,52,0,0
155968,-125,4,2,1,28,0,0
156396,-83.3333333333333,4,2,1,52,0,0
157253,-125,4,2,1,28,0,0
157682,-83.3333333333333,4,2,1,52,0,0
163253,-83.3333333333333,4,2,1,52,0,0
163682,-83.3333333333333,4,2,1,52,0,0
165825,-76.9230769230769,4,2,1,55,0,1
169039,-76.9230769230769,4,2,1,55,0,0
169253,-76.9230769230769,4,2,1,55,0,1
172468,-76.9230769230769,4,2,1,55,0,0
172682,-76.9230769230769,4,2,1,55,0,1
179539,-83.3333333333333,4,2,1,40,0,0
193253,-100,4,2,2,24,0,0
217039,-166.666666666667,4,2,1,5,0,0
218968,-60.6060606060606,4,2,1,66,0,1
219825,-60.6060606060606,4,2,1,66,0,0
220682,-60.6060606060606,4,2,1,66,0,1
221111,-60.6060606060606,4,2,1,66,0,0
221539,-60.6060606060606,4,2,1,66,0,1
221968,-60.6060606060606,4,2,1,66,0,0
222396,-60.6060606060606,4,2,1,66,0,1
222825,-60.6060606060606,4,2,1,66,0,0
223253,-60.6060606060606,4,2,1,66,0,1
223682,-60.6060606060606,4,2,1,66,0,0
224111,-60.6060606060606,4,2,1,66,0,1
224539,-60.6060606060606,4,2,1,66,0,0
224968,-60.6060606060606,4,2,1,66,0,1
225396,-60.6060606060606,4,2,1,66,0,0
225825,-60.6060606060606,4,2,1,66,0,1
226253,-60.6060606060606,4,2,1,66,0,0
227539,-60.6060606060606,4,2,1,66,0,1
231289,-60.6060606060606,4,2,1,5,0,1
231396,-60.6060606060606,4,2,1,66,0,1
234182,-60.6060606060606,4,2,1,66,0,0
234396,-60.6060606060606,4,2,1,66,0,1
234718,-60.6060606060606,4,2,1,5,0,1
234825,-60.6060606060606,4,2,1,66,0,1
237289,-60.6060606060606,4,2,1,5,0,1
237396,-60.6060606060606,4,2,1,66,0,1
248111,-90.9090909090909,4,2,1,42,0,0

[Colours]
Combo1 : 255,128,64
Combo2 : 173,173,173
Combo3 : 170,85,0
Combo4 : 103,28,227
SliderBorder : 207,142,41
SliderTrackOverride : 25,24,25

[HitObjects]
56,348,1254,5,2,0:0:0:0:
56,348,1682,2,0,L|144:360,1,85,0|2,0:0|0:0,0:0:0:0:
230,268,2539,2,0,L|314:279,1,85,0|2,0:0|0:0,0:0:0:0:
432,364,4682,5,2,0:0:0:0:
432,364,5111,2,0,P|412:328|424:280,1,85,0|2,0:0|0:0,0:0:0:0:
312,216,5968,2,0,P|335:181|375:169,1,85,0|2,0:0|0:0,0:0:0:0:
488,52,8111,5,2,0:0:0:0:
488,52,8539,2,0,P|441:44|373:37,1,85,0|2,0:0|0:0,0:0:0:0:
297,110,9396,2,0,P|250:118|182:125,1,85,0|2,0:0|0:0,0:0:0:0:
12,44,11539,5,2,0:0:0:0:
12,44,11968,2,0,P|40:76|36:124,1,85,0|2,0:0|0:0,0:0:0:0:
2,238,12825,2,0,P|34:210|82:214,1,85,0|2,0:0|0:0,0:0:0:0:
305,320,14111,6,0,L|314:271,2,42.5,2|0|2,0:0|0:0|0:0,0:0:0:0:
164,381,14968,6,0,P|141:339|159:284,1,101.999996887207,4|8,0:0|0:0,0:0:0:0:
213,232,15611,1,8,0:0:0:0:
142,191,15825,2,0,L|32:215,1,101.999996887207,10|8,0:0|0:0,0:0:0:0:
44,112,16468,2,0,L|143:90,1,101.999996887207,2|8,0:0|0:0,0:0:0:0:
228,136,17111,1,2,0:0:0:0:
228,136,17325,2,0,B|239:92|216:80|232:36,1,101.999996887207,0|0,0:0|0:0,0:0:0:0:
307,2,17968,1,4,0:0:0:0:
462,52,18396,6,0,P|494:97|474:146,1,101.999996887207,6|8,0:0|0:0,0:0:0:0:
409,178,19039,1,8,0:0:0:0:
353,118,19253,2,0,P|321:163|335:215,1,101.999996887207,10|8,0:0|0:0,0:0:0:0:
383,267,19896,2,0,P|433:260|499:250,1,101.999996887207,2|8,0:0|0:0,0:0:0:0:
472,352,20539,2,0,P|421:359|371:366,1,101.999996887207,2|8,0:0|0:0,0:0:0:0:
296,308,21182,1,8,0:0:0:0:
296,308,21396,2,0,L|284:368,1,50.9999984436036,8|8,0:0|0:0,0:0:0:0:
356,256,21825,6,0,P|316:228|260:236,1,101.999996887207,6|8,0:0|0:0,0:0:0:0:
208,292,22468,1,8,0:0:0:0:
208,292,22682,2,0,P|168:320|112:312,1,101.999996887207,8|8,0:0|0:0,0:0:0:0:
52,364,23325,2,0,B|28:317|28:317|48:270,1,101.999996887207,2|8,0:0|0:0,0:0:0:0:
146,232,23968,2,0,B|170:185|170:185|150:138,1,101.999996887207,2|4,0:0|0:0,0:0:0:0:
150,139,24825,2,0,L|99:131,1,50.9999984436036,4|0,0:0|0:0,0:0:0:0:
32,60,25253,6,0,P|70:32|122:40,1,101.999996887207,6|8,0:0|0:0,0:0:0:0:
241,120,25896,1,8,0:0:0:0:
241,120,26111,2,0,P|202:147|150:139,1,101.999996887207,10|8,0:0|0:0,0:0:0:0:
68,176,26753,2,0,P|43:226|62:278,1,101.999996887207,2|8,0:0|0:0,0:0:0:0:
132,332,27396,2,0,L|248:316,1,101.999996887207,2|8,0:0|0:0,0:0:0:0:
320,256,28039,1,8,0:3:0:0:
248,224,28253,5,4,0:3:0:0:
336,248,28468,1,8,0:3:0:0:
428,276,28682,1,6,0:0:0:0:
428,276,28896,6,0,L|412:168,1,101.999996887207,2|0,0:0|0:0,0:0:0:0:
472,119,29539,2,0,P|432:90|376:102,1,101.999996887207,8|0,0:0|0:0,0:0:0:0:
308,62,30182,1,2,0:0:0:0:
308,62,30396,2,0,P|280:70|252:72,1,50.9999984436036,0|2,0:0|0:0,0:0:0:0:
188,120,30825,2,0,P|162:117|138:109,1,50.9999984436036,0|0,0:0|0:0,0:0:0:0:
40,64,31253,2,0,L|59:175,1,101.999996887207,8|0,0:0|0:0,0:0:0:0:
3,226,31896,5,0,0:0:0:0:
3,226,32003,1,0,0:0:0:0:
3,226,32111,2,0,P|39:194|91:202,1,101.999996887207,4|0,0:0|0:0,0:0:0:0:
152,252,32753,1,2,0:0:0:0:
90,305,32968,2,0,P|127:272|176:279,1,101.999996887207,8|0,0:0|0:0,0:0:0:0:
240,348,33611,5,2,0:0:0:0:
240,348,33825,2,0,L|299:357,1,50.9999984436036,0|2,0:0|0:0,0:0:0:0:
364,304,34253,2,0,L|414:311,1,50.9999984436036,0|0,0:0|0:0,0:0:0:0:
488,372,34682,5,8,0:0:0:0:
440,296,34896,1,2,0:0:0:0:
388,220,35111,5,8,0:0:0:0:
440,157,35325,1,8,0:3:0:0:
381,100,35539,1,6,0:0:0:0:
381,100,35753,6,0,P|342:128|289:122,1,101.999996887207,2|0,0:0|0:0,0:0:0:0:
232,48,36396,2,0,P|193:20|140:26,1,101.999996887207,8|0,0:0|0:0,0:0:0:0:
72,68,37039,1,2,0:0:0:0:
72,68,37253,2,0,P|78:109|84:132,1,50.9999984436036,0|2,0:0|0:0,0:0:0:0:
160,172,37682,2,0,P|156:197|151:222,1,50.9999984436036,2|0,0:0|0:0,0:0:0:0:
80,280,38111,2,0,P|120:252|176:264,1,101.999996887207,8|2,0:0|0:0,0:0:0:0:
232,328,38753,5,0,0:0:0:0:
232,328,38861,1,0,0:0:0:0:
232,328,38968,2,0,L|286:317,1,50.9999984436036,6|2,0:0|0:0,0:0:0:0:
352,268,39396,2,0,L|367:326,1,50.9999984436036,0|0,0:0|0:0,0:0:0:0:
272,232,39825,6,0,L|292:116,1,101.999996887207,8|0,0:0|0:0,0:0:0:0:
304,44,40468,1,2,0:0:0:0:
304,44,40682,1,4,0:0:0:0:
256,216,41111,6,0,L|272:120,1,76.4999976654053,4|0,0:0|0:0,0:0:0:0:
272,124,41539,5,8,0:0:0:0:
192,104,41753,1,0,0:0:0:0:
124,149,41968,1,8,0:3:0:0:
109,229,42182,1,12,0:3:0:0:
164,304,42396,5,2,0:0:0:0:
436,147,44111,5,2,0:0:0:0:
79,37,45825,5,2,0:0:0:0:
256,192,45932,12,0,47968,0:0:0:0:
234,352,48396,5,0,0:0:0:0:
230,348,49253,6,0,L|96:372,1,136
11,310,49896,1,0,0:0:0:0:
11,310,50111,2,0,P|55:265|129:275,1,136,8|2,0:0|0:0,0:0:0:0:
203,344,50753,2,0,B|256:351|256:351|281:338|281:338|338:346,1,136,0|0,0:0|0:0,0:0:0:0:
334,345,51396,1,2,0:0:0:0:
376,251,51611,1,0,0:0:0:0:
432,384,51825,6,0,L|464:236,1,136,12|2,0:0|0:0,0:0:0:0:
400,176,52468,1,2,0:0:0:0:
473,95,52682,6,0,P|408:133|343:110,1,136,4|2,0:0|0:0,0:0:0:0:
287,39,53325,1,0,0:0:0:0:
287,39,53539,2,0,B|200:27|200:27|174:41|184:75,1,136,10|2,0:0|0:0,0:0:0:0:
268,123,54182,1,0,0:0:0:0:
268,123,54396,2,0,L|196:112,1,68,2|0,0:0|0:0,0:0:0:0:
112,164,54825,2,0,P|101:201|111:231,1,68,6|0,0:0|0:0,0:0:0:0:
182,299,55253,5,8,0:0:0:0:
272,251,55468,1,0,0:0:0:0:
185,197,55682,2,0,L|260:213,1,68,6|0,0:0|0:0,0:0:0:0:
258,327,56111,6,0,P|303:280|368:291,1,136,6|2,0:0|0:0,0:0:0:0:
472,160,56753,1,0,0:0:0:0:
472,160,56968,2,0,P|426:207|362:196,1,136,8|2,0:0|0:0,0:0:0:0:
320,120,57611,1,0,0:0:0:0:
320,120,57825,6,0,L|340:40,1,68,2|0,0:0|0:0,0:0:0:0:
212,72,58253,2,0,P|156:80|92:88,1,102,2|0,0:0|0:0,0:0:0:0:
96,64,58682,2,0,B|84:116|84:116|96:148|96:148|84:200,1,136,8|2,0:0|0:0,0:0:0:0:
0,256,59325,1,0,0:0:0:0:
80,336,59539,6,0,B|140:316|148:368|212:344,1,136,2|2,0:0|0:0,0:0:0:0:
292,260,60182,1,0,0:0:0:0:
292,260,60396,2,0,P|358:253|403:306,1,136,8|2,0:0|0:0,0:0:0:0:
313,377,61039,6,0,P|248:384|208:333,1,136,0|0,0:0|0:0,0:0:0:0:
164,232,61682,2,0,L|186:129,1,102,6|0,0:0|0:0,0:0:0:0:
192,108,62111,5,8,0:0:0:0:
276,192,62325,1,8,0:0:0:0:
344,80,62539,2,0,L|328:1,1,68,8|8,0:3|0:3,0:0:0:0:
455,114,62968,6,0,P|406:67|342:81,1,136,6|2,0:0|0:0,0:0:0:0:
264,156,63611,1,2,0:0:0:0:
360,228,63825,2,0,L|496:212,1,136,8|0,0:0|0:0,0:0:0:0:
448,308,64468,6,0,B|395:315|395:315|369:338|369:338|313:346,1,136,2|2,0:0|0:0,0:0:0:0:
321,344,65111,1,2,0:0:0:0:
280,256,65325,1,0,0:0:0:0:
172,376,65539,6,0,L|208:242,1,136,8|2,0:0|0:0,0:0:0:0:
144,180,66182,1,0,0:0:0:0:
95,284,66396,6,0,P|147:236|223:256,1,136,6|2,0:0|0:0,0:0:0:0:
292,156,67039,1,2,0:0:0:0:
292,156,67253,2,0,L|148:140,1,136,8|0,0:0|0:0,0:0:0:0:
48,128,67896,1,2,0:0:0:0:
48,128,68111,2,0,P|35:95|42:50,1,68,0|0,0:0|0:0,0:0:0:0:
120,4,68539,2,0,L|200:16,1,68,2|2,0:0|0:0,0:0:0:0:
296,80,68968,2,0,L|376:68,1,68,12|0,0:0|0:0,0:0:0:0:
468,16,69396,5,8,0:0:0:0:
371,50,69611,1,8,0:0:0:0:
443,121,69825,1,4,0:0:0:0:
443,121,70253,6,0,P|432:161|426:197,1,68,4|0,0:3|0:0,0:0:0:0:
330,219,70682,2,0,P|339:251|345:285,1,68,4|0,0:3|0:0,0:0:0:0:
410,364,71111,2,0,B|334:348|354:391|276:376,1,136,4|4,0:3|0:3,0:0:0:0:
77,337,71968,6,0,P|64:303|66:269,1,68,4|0,0:3|0:0,0:0:0:0:
153,220,72396,2,0,P|166:186|164:152,1,68,4|0,0:3|0:0,0:0:0:0:
103,72,72825,2,0,P|165:113|234:89,1,136,4|4,0:3|0:0,0:0:0:0:
413,30,73682,6,0,B|430:61|430:61|421:103,1,68,4|0,0:0|0:0,0:0:0:0:
335,145,74111,2,0,B|318:176|318:176|327:218,1,68,4|0,0:0|0:0,0:0:0:0:
380,293,74539,2,0,B|334:286|334:286|294:305|294:305|241:298,1,136,4|8,0:0|0:0,0:0:0:0:
162,245,75182,1,2,0:0:0:0:
75,298,75396,2,0,P|60:268|63:230,1,68,8|2,0:3|0:0,0:0:0:0:
152,160,75825,6,0,L|211:169,2,45.3333333333333,8|8|8,0:0|0:0|0:0,0:0:0:0:
70,117,76253,2,0,L|18:125,2,45.3333333333333,8|8|8,0:3|0:3|0:3,0:0:0:0:
144,64,76682,6,0,L|276:80,1,101.999996887207,4|8,0:0|0:0,0:0:0:0:
419,17,77539,2,0,P|448:58|437:114,1,101.999996887207,10|8,0:0|0:0,0:0:0:0:
375,170,78182,2,0,B|318:181|333:152|274:162,1,101.999996887207,2|8,0:0|0:0,0:0:0:0:
189,195,78825,5,2,0:0:0:0:
333,81,79253,1,4,0:0:0:0:
461,212,79682,1,4,0:0:0:0:
318,327,80111,6,0,P|279:297|222:306,1,101.999996887207,6|8,0:0|0:0,0:0:0:0:
55,364,80968,2,0,B|28:322|28:322|51:273,1,101.999996887207,10|8,0:0|0:0,0:0:0:0:
134,237,81611,2,0,B|156:189|156:189|129:147,1,101.999996887207,2|8,0:0|0:0,0:0:0:0:
58,89,82253,1,2,0:0:0:0:
58,89,82682,5,8,0:0:0:0:
128,28,82896,1,8,0:0:0:0:
128,28,83003,1,0,0:0:0:0:
128,28,83111,1,8,0:0:0:0:
200,96,83325,1,8,0:0:0:0:
200,96,83539,6,0,P|260:103|320:112,1,101.999996887207,6|8,0:0|0:0,0:0:0:0:
469,34,84396,2,0,P|440:42|402:50,1,50.9999984436036,10|0,0:0|0:0,0:0:0:0:
330,106,84825,1,8,0:0:0:0:
330,106,85039,2,0,P|381:113|434:140,1,101.999996887207,2|8,0:0|0:0,0:0:0:0:
489,201,85682,2,0,P|438:208|385:235,1,101.999996887207,2|4,0:0|0:0,0:0:0:0:
242,334,86539,1,4,0:0:0:0:
413,267,86968,6,0,P|351:258|300:251,1,101.999996887207,6|8,0:0|0:0,0:0:0:0:
234,202,87611,1,8,0:0:0:0:
234,202,87825,2,0,L|170:215,1,50.9999984436036,10|0,0:0|0:0,0:0:0:0:
113,271,88253,1,8,0:0:0:0:
113,271,88468,2,0,P|88:229|102:178,1,101.999996887207,2|8,0:0|0:0,0:0:0:0:
158,108,89111,2,0,P|187:115|218:120,1,50.9999984436036,2|0,0:0|0:0,0:0:0:0:
293,151,89539,2,0,P|318:146|342:140,1,50.9999984436036,12|0,0:0|0:0,0:0:0:0:
418,88,89968,2,0,L|450:93,3,25.4999992218018,8|8|8|12,0:0|0:0|0:3|0:3,0:0:0:0:
483,69,90396,5,6,0:0:0:0:
411,10,90611,2,0,L|298:28,1,101.999996887207,2|0,0:0|0:0,0:0:0:0:
246,92,91253,2,0,P|189:85|132:75,1,101.999996887207,8|2,0:0|0:3,0:0:0:0:
73,20,91896,2,0,P|116:57|103:113,1,101.999996887207,2|2,0:0|0:0,0:0:0:0:
42,157,92539,1,2,0:3:0:0:
42,157,92753,1,0,0:0:0:0:
104,232,92968,2,0,L|220:208,1,101.999996887207,8|2,0:0|0:3,0:0:0:0:
272,144,93611,1,0,0:0:0:0:
272,144,93718,1,0,0:0:0:0:
272,144,93825,5,4,0:0:0:0:
336,208,94039,2,0,P|304:248|320:308,1,101.999996887207,2|2,0:3|0:0,0:0:0:0:
348,380,94682,2,0,P|296:369|240:360,1,101.999996887207,8|2,0:0|0:3,0:0:0:0:
184,292,95325,1,2,0:0:0:0:
184,292,95539,6,0,P|156:302|126:309,1,50.9999984436036,0|2,0:0|0:0,0:0:0:0:
58,358,95968,2,0,P|33:351|9:342,1,50.9999984436036,2|0,0:3|0:0,0:0:0:0:
70,274,96396,2,0,P|94:280|118:289,1,50.9999984436036,8|2,0:0|0:0,0:0:0:0:
195,340,96825,1,2,0:3:0:0:
268,285,97039,1,8,0:0:0:0:
268,285,97146,1,8,0:0:0:0:
268,285,97253,5,6,0:0:0:0:
201,221,97468,2,0,P|197:178|233:120,1,101.999996887207,2|0,0:0|0:0,0:0:0:0:
305,84,98111,2,0,P|261:109|211:106,1,101.999996887207,8|2,0:0|0:3,0:0:0:0:
135,55,98753,1,2,0:0:0:0:
135,55,98968,6,0,L|77:65,1,50.9999984436036,0|2,0:0|0:0,0:0:0:0:
60,148,99396,2,0,L|118:138,1,50.9999984436036,2|0,0:3|0:0,0:0:0:0:
181,197,99825,2,0,P|173:245|161:309,1,101.999996887207,8|2,0:0|0:3,0:0:0:0:
81,339,100468,1,0,0:0:0:0:
81,339,100575,1,0,0:0:0:0:
81,339,100682,6,0,L|141:324,1,50.9999984436036,6|2,0:0|0:0,0:0:0:0:
216,360,101111,2,0,L|265:347,1,50.9999984436036,2|0,0:3|0:0,0:0:0:0:
336,276,101539,2,0,P|388:288|432:252,1,101.999996887207,8|2,0:0|0:3,0:0:0:0:
483,190,102182,5,2,0:3:0:0:
388,144,102396,1,4,0:0:0:0:
464,88,102611,5,8,0:0:0:0:
388,144,102825,2,0,P|328:132|276:120,1,101.999996887207,8|8,0:0|0:3,0:0:0:0:
224,56,103468,1,12,0:3:0:0:
148,112,103682,1,8,0:0:0:0:
150,121,103789,1,8,0:0:0:0:
152,130,103896,1,4,0:3:0:0:
154,139,104003,1,4,0:3:0:0:
156,147,104111,5,4,0:0:0:0:
42,106,113968,6,0,L|0:100,1,42.5,4|0,0:0|0:0,0:0:0:0:
112,180,114396,6,0,P|170:170|228:160,1,101.999996887207,4|4,0:0|0:3,0:0:0:0:
303,148,115039,1,4,0:3:0:0:
303,148,115253,2,0,P|291:174|290:211,1,50.9999984436036,12|0,0:0|0:0,0:0:0:0:
220,272,115682,2,0,P|223:297|234:320,1,50.9999984436036,2|2,0:0|0:0,0:0:0:0:
322,375,116111,6,0,P|276:342|221:355,1,101.999996887207,12|12,0:0|0:0,0:0:0:0:
147,380,116753,1,2,0:0:0:0:
60,320,116968,2,0,L|74:261,1,50.9999984436036,12|2,0:0|0:0,0:0:0:0:
148,197,117396,1,8,0:0:0:0:
145,187,117503,1,8,0:0:0:0:
142,176,117611,1,4,0:3:0:0:
139,166,117718,1,4,0:3:0:0:
137,156,117825,6,0,B|230:176|208:121|305:146,1,170,4|12,0:0|0:0,0:0:0:0:
412,252,119111,2,0,L|423:200,1,42.5,0|2,0:0|0:0,0:0:0:0:
406,124,119539,6,0,P|333:110|300:150,1,127.5,6|2,0:0|0:0,0:0:0:0:
256,211,120396,2,0,L|266:262,1,42.5,12|2,0:0|0:0,0:0:0:0:
321,310,120825,2,0,L|305:369,1,42.5,12|0,0:0|0:0,0:0:0:0:
216,384,121253,5,6,0:0:0:0:
408,328,121682,1,4,0:3:0:0:
264,252,122111,5,4,0:3:0:0:
476,176,122539,1,4,0:3:0:0:
269,94,122968,5,12,0:0:0:0:
347,76,123182,1,0,0:0:0:0:
425,57,123396,1,8,0:3:0:0:
503,37,123611,1,0,0:0:0:0:
503,37,123825,6,0,L|485:141,1,101.999996887207,14|6,1:0|0:0,0:0:0:0:
288,264,125111,6,0,P|277:229|282:187,1,68,2|0,0:0|0:0,0:0:0:0:
394,245,125539,2,0,P|375:332|365:383,1,136,8|2,0:0|0:0,0:0:0:0:
365,378,126182,1,0,0:0:0:0:
272,340,126396,2,0,P|202:377|143:355,1,136,2|2,0:0|0:0,0:0:0:0:
62,298,127039,1,0,0:0:0:0:
62,298,127253,2,0,P|98:283|129:280,1,68,12|0,0:0|0:0,0:0:0:0:
208,200,127682,1,2,0:0:0:0:
208,200,127896,1,0,0:0:0:0:
76,108,128111,6,0,P|132:120|204:80,1,136,6|2,0:0|0:0,0:0:0:0:
288,20,128753,1,0,0:0:0:0:
288,20,128968,2,0,B|329:28|364:32|364:32|340:96,1,136,10|2,0:0|0:0,0:0:0:0:
412,172,129611,1,0,0:0:0:0:
412,172,129825,2,0,P|426:129|436:104,1,68,6|0,0:0|0:0,0:0:0:0:
302,219,130253,2,0,P|287:178|276:151,1,68,2|0,0:3|0:0,0:0:0:0:
392,252,130682,5,8,0:0:0:0:
308,312,130896,1,0,0:0:0:0:
396,368,131111,2,0,P|360:357|316:352,1,68,6|0,0:0|0:0,0:0:0:0:
224,296,131539,6,0,P|188:306|144:312,1,68,6|0,0:0|0:0,0:0:0:0:
68,380,131968,2,0,P|28:312|56:256,2,136,2|10|2,0:0|0:0|0:0,0:0:0:0:
218,208,133253,6,0,P|176:201|140:195,1,68,6|0,0:0|0:0,0:0:0:0:
104,104,133682,1,2,0:0:0:0:
104,104,133896,1,0,0:0:0:0:
232,32,134111,2,0,P|302:36|326:110,1,136,8|2,0:0|0:0,0:0:0:0:
224,132,134753,1,0,0:0:0:0:
314,216,134968,6,0,P|384:207|462:196,1,136,6|2,0:0|0:0,0:0:0:0:
477,303,135611,1,0,0:0:0:0:
477,303,135825,2,0,P|436:287|405:287,1,68,8|0,0:0|0:0,0:0:0:0:
348,364,136253,1,2,0:0:0:0:
235,319,136468,6,0,P|203:270|234:185,1,136,0|0,0:0|0:0,0:0:0:0:
315,145,137111,2,0,P|340:94|325:39,1,102,4|0,0:0|0:0,0:0:0:0:
317,31,137539,5,8,0:0:0:0:
208,104,137753,1,8,0:0:0:0:
96,28,137968,2,0,B|76:57|76:57|89:106,1,68,8|8,0:3|0:3,0:0:0:0:
187,182,138396,6,0,B|101:192|146:222|55:240,1,136,4|2,0:0|0:0,0:0:0:0:
157,283,139039,1,2,0:0:0:0:
77,357,139253,2,0,P|139:311|200:325,1,136,8|2,0:0|0:0,0:0:0:0:
289,373,139896,6,0,B|358:348|347:393|428:368,1,136,0|2,0:0|0:0,0:0:0:0:
422,369,140539,1,2,0:0:0:0:
476,284,140753,1,0,0:0:0:0:
320,236,140968,6,0,P|387:225|454:213,1,136,12|2,0:0|0:0,0:0:0:0:
512,132,141611,1,2,0:0:0:0:
428,48,141825,6,0,B|382:39|382:39|341:55|341:55|288:46,1,136,6|0,0:0|0:0,0:0:0:0:
296,47,142468,1,2,0:0:0:0:
202,131,142682,2,0,P|192:98|187:64,1,68,8|0,0:0|0:0,0:0:0:0:
80,12,143111,2,0,P|74:45|65:78,1,68,0|2,0:0|0:0,0:0:0:0:
120,168,143539,5,2,0:0:0:0:
32,244,143753,1,0,0:0:0:0:
32,244,143968,2,0,P|41:276|46:317,1,68,2|0,0:0|0:0,0:0:0:0:
139,379,144396,2,0,P|169:368|204:360,1,68,8|0,0:0|0:0,0:0:0:0:
310,383,144825,5,8,0:0:0:0:
263,284,145039,1,8,0:0:0:0:
357,229,145253,1,4,0:0:0:0:
357,229,145682,6,0,P|386:242|430:237,1,68,4|0,0:3|0:0,0:0:0:0:
470,150,146111,2,0,P|441:137|397:142,1,68,4|0,0:3|0:0,0:0:0:0:
317,89,146539,2,0,P|332:167|346:230,1,136,4|4,0:3|0:0,0:0:0:0:
489,366,147396,6,0,P|442:357|391:349,1,68,4|0,0:3|0:0,0:0:0:0:
334,300,147825,2,0,P|287:308|236:317,1,68,4|0,0:3|0:0,0:0:0:0:
189,377,148253,2,0,P|116:361|51:348,1,136,4|4,0:3|0:0,0:0:0:0:
213,204,149111,6,0,P|179:207|147:219,1,68,4|0,0:0|0:0,0:0:0:0:
55,262,149539,2,0,P|43:228|41:178,1,68,4|0,0:0|0:0,0:0:0:0:
78,101,149968,2,0,P|132:129|207:95,1,136,4|8,0:0|0:0,0:0:0:0:
268,28,150611,1,2,0:0:0:0:
272,33,150825,2,0,P|315:42|354:47,1,68,8|4,0:3|0:3,0:0:0:0:
418,109,151253,6,0,P|436:105|501:97,2,45.3333333333333,8|8|8,0:0|0:0|0:3,0:0:0:0:
360,164,151682,2,0,P|325:157|286:152,2,45.3333333333333,8|12|12,0:3|0:3|0:3,0:0:0:0:
416,220,152111,5,4,0:0:0:0:
253,280,152539,1,2,0:0:0:0:
404,372,152968,2,0,P|346:357|293:349,1,101.999996887207,12|2,0:0|0:0,0:0:0:0:
253,280,153611,1,8,0:0:0:0:
176,331,153825,6,0,P|167:305|163:272,1,50.9999984436036,6|0,0:0|0:0,0:0:0:0:
104,212,154253,2,0,P|108:186|116:162,1,50.9999984436036,2|0,0:0|0:0,0:0:0:0:
186,102,154682,2,0,P|267:117|316:65,1,152.999995330811,12|8,0:0|0:0,0:0:0:0:
408,40,155539,6,0,L|399:100,1,50.9999984436036,6|2,0:0|0:0,0:0:0:0:
376,179,155968,1,2,0:0:0:0:
196,141,156396,6,0,L|205:201,1,50.9999984436036,12|0,0:0|0:0,0:0:0:0:
228,280,156825,1,2,0:0:0:0:
228,280,157039,1,2,0:0:0:0:
172,356,157253,5,6,0:0:0:0:
293,218,157682,1,12,0:0:0:0:
293,218,157896,1,2,0:0:0:0:
360,280,158111,2,0,P|416:272|475:265,1,101.999996887207,8|8,0:0|0:0,0:0:0:0:
400,172,158753,5,8,0:0:0:0:
501,185,158968,2,0,P|450:178|399:171,1,101.999996887207,6|2,0:0|0:0,0:0:0:0:
249,65,159825,1,12,0:0:0:0:
426,17,160253,5,2,0:0:0:0:
365,86,160468,1,8,0:0:0:0:
365,86,160682,2,0,P|304:95|257:68,1,101.999996887207,2|2,0:0|0:0,0:0:0:0:
194,133,161325,1,0,0:0:0:0:
257,198,161539,2,0,P|250:249|240:305,1,101.999996887207,12|2,0:0|0:0,0:0:0:0:
171,358,162182,1,8,0:0:0:0:
88,317,162396,6,0,L|71:253,1,50.9999984436036,6|2,0:0|0:0,0:0:0:0:
120,172,162825,1,2,0:0:0:0:
300,223,163253,6,0,L|317:159,1,50.9999984436036,12|0,0:0|0:0,0:0:0:0:
268,78,163682,1,2,0:0:0:0:
268,78,163896,1,2,0:0:0:0:
341,22,164111,5,2,0:0:0:0:
220,160,164539,1,12,0:0:0:0:
220,160,164753,1,0,0:0:0:0:
144,107,164968,6,0,P|118:150|139:204,1,101.999996887207,4|8,0:3|0:0,0:0:0:0:
200,258,165611,1,8,0:0:0:0:
92,282,165825,6,0,L|226:252,1,110.499994941712,4|0,0:0|0:0,0:0:0:0:
275,322,166468,1,2,0:0:0:0:
275,322,166682,2,0,P|301:265|284:218,1,110.499994941712,8|0,0:0|0:0,0:0:0:0:
204,165,167325,2,0,P|261:191|308:174,1,110.499994941712,2|2,0:0|0:0,0:0:0:0:
387,236,167968,2,0,P|413:179|396:132,2,110.499994941712,2|12|2,0:0|0:0|0:0,0:0:0:0:
227,354,169253,6,0,B|167:341|176:376|109:358,1,110.499994941712,6|0,0:0|0:0,0:0:0:0:
32,310,169896,1,2,0:0:0:0:
32,310,170111,2,0,B|16:270|16:270|42:205,1,110.499994941712,8|0,0:0|0:0,0:0:0:0:
4,115,170753,2,0,B|44:99|44:99|109:125,1,110.499994941712,2|2,0:0|0:0,0:0:0:0:
190,69,171396,2,0,B|206:109|206:109|180:174,2,110.499994941712,2|12|8,0:0|0:0|0:0,0:0:0:0:
106,124,172468,1,8,0:0:0:0:
187,180,172682,6,0,P|250:167|303:157,1,110.499994941712,6|8,0:0|0:0,0:0:0:0:
367,89,173325,1,2,0:0:0:0:
367,89,173539,2,0,P|397:95|455:101,1,55.2499974708558,8|2,0:0|0:0,0:0:0:0:
504,180,173968,2,0,P|473:186|416:192,1,55.2499974708558,6|0,0:0|0:0,0:0:0:0:
392,296,174396,6,0,P|381:271|369:233,1,55.2499974708558,8|2,0:0|0:0,0:0:0:0:
295,158,174825,2,0,P|286:184|275:209,1,55.2499974708558,8|2,0:0|0:0,0:0:0:0:
192,288,175253,2,0,P|160:299|126:308,1,55.2499974708558,8|8,0:3|0:3,0:0:0:0:
28,256,175682,5,8,0:0:0:0:
109,205,175896,1,8,0:0:0:0:
36,120,176111,6,0,B|76:127|76:127|106:117|106:117|148:126,1,110.499994941712,6|6,0:0|0:0,0:0:0:0:
382,204,176968,2,0,B|342:211|342:211|312:201|312:201|270:210,1,110.499994941712,6|6,0:0|0:0,0:0:0:0:
188,264,177611,1,0,0:0:0:0:
248,336,177825,5,8,0:0:0:0:
246,341,178039,1,2,0:0:0:0:
340,320,178253,5,12,0:3:0:0:
339,325,178468,1,4,0:3:0:0:
432,296,178682,6,0,L|471:304,2,36.8333316472372,8|8|8,0:0|0:0|0:3,0:0:0:0:
432,217,179111,2,0,L|396:224,2,36.8333316472372,8|12|12,0:3|0:3|0:3,0:0:0:0:
468,148,179539,5,4,0:0:0:0:
52,340,193253,6,0,P|124:324|176:312,1,127.5,2|0,0:0|0:0,0:0:0:0:
252,263,194111,2,0,P|176:271|144:239,2,127.5,0|0|0,0:0|0:0|0:0,0:0:0:0:
324,210,195611,2,0,B|392:194|384:243|448:226,1,127.5,0|0,0:0|0:0,0:0:0:0:
446,226,196468,1,0,0:0:0:0:
512,165,196682,6,0,P|477:142|416:150,1,85,2|0,0:0|0:0,0:0:0:0:
287,41,197539,2,0,P|252:64|191:55,1,85,0|0,0:0|0:0,0:0:0:0:
287,41,199253,6,0,P|252:64|191:55,1,85,0|0,0:0|0:0,0:0:0:0:
125,34,199896,1,0,0:0:0:0:
36,19,200111,6,0,P|88:59|67:131,1,127.5,2|0,0:0|0:0,0:0:0:0:
9,167,200968,2,0,P|39:142|87:140,1,85,0|0,0:0|0:0,0:0:0:0:
135,211,201611,2,0,P|197:225|259:240,1,127.5,0|0,0:0|0:0,0:0:0:0:
337,284,202468,2,0,B|342:235|355:200|355:200|318:167,1,127.5,0|0,0:0|0:0,0:0:0:0:
324,172,203325,1,0,0:0:0:0:
405,135,203539,6,0,P|446:123|503:131,1,85,2|0,0:0|0:0,0:0:0:0:
419,292,204396,2,0,P|376:294|336:283,1,85,0|0,0:0|0:0,0:0:0:0:
336,283,206111,6,0,L|346:230,2,42.5,0|0|0,0:0|0:0|0:0,0:0:0:0:
175,362,206968,6,0,P|152:307|166:241,1,127.5,2|0,0:0|0:0,0:0:0:0:
245,202,207825,2,0,P|209:223|162:225,1,85,0|0,0:0|0:0,0:0:0:0:
82,256,208468,2,0,P|61:220|59:173,1,85,0|0,0:0|0:0,0:0:0:0:
12,100,209111,1,0,0:0:0:0:
12,100,209325,2,0,P|57:61|131:65,1,127.5,0|0,0:0|0:0,0:0:0:0:
254,181,210396,6,0,P|294:175|341:167,1,85,2|0,0:0|0:0,0:0:0:0:
469,47,211253,2,0,P|427:54|385:60,1,85,0|0,0:0|0:0,0:0:0:0:
303,23,211896,1,0,0:0:0:0:
225,68,212111,6,0,L|221:100,3,21.25,0|0|0|0,0:0|0:0|0:0|0:0,0:0:0:0:
187,117,212539,2,0,L|192:141,3,21.25,0|0|0|0,0:0|0:0|0:0|0:0,0:0:0:0:
217,174,212968,2,0,P|208:214|197:266,1,85,0|0,0:0|0:0,0:0:0:0:
120,300,213611,1,0,0:0:0:0:
175,369,213825,6,0,P|212:347|255:347,1,85,2|0,0:0|0:0,0:0:0:0:
416,274,214682,2,0,P|373:273|337:251,1,85,0|0,0:0|0:0,0:0:0:0:
280,176,215325,6,0,B|324:159|324:159|409:196,1,127.5,0|0,0:0|0:0,0:0:0:0:
480,124,216182,2,0,B|512:197|512:197|495:241,1,127.5,0|0,0:0|0:0,0:0:0:0:
424,304,217039,6,0,B|328:268|304:372|196:324,1,229.499992996216,0|12,0:0|0:0,0:0:0:0:
26,189,219396,1,2,0:0:0:0:
226,86,219825,6,0,P|245:90|283:95,2,46.7500004458428,8|8|8,0:0|0:3|0:0,0:0:0:0:
161,133,220253,2,0,P|137:138|99:144,2,46.7500004458428,8|12|12,0:3|0:3|0:3,0:0:0:0:
224,184,220682,5,6,0:0:0:0:
326,230,221111,1,0,0:0:0:0:
478,87,221539,5,6,0:0:0:0:
430,189,221968,1,0,0:0:0:0:
365,12,222396,5,6,0:0:0:0:
459,74,222825,1,0,0:0:0:0:
406,173,223253,5,6,0:0:0:0:
264,61,223682,1,12,0:0:0:0:
264,61,224111,6,0,P|174:54|118:46,1,140.250001337528,6|0,0:0|0:0,0:0:0:0:
47,108,224753,2,0,P|96:164|66:224,1,140.250001337528,0|0,0:0|0:0,0:0:0:0:
73,218,225396,2,0,L|163:195,1,70.1250006687641,0|0,0:0|0:0,0:0:0:0:
248,164,225825,6,0,L|228:236,1,70.1250006687641,6|0,0:0|0:0,0:0:0:0:
192,332,226253,1,8,0:0:0:0:
192,332,226468,1,0,0:0:0:0:
288,368,226682,6,0,B|308:372|308:372|336:360,2,46.7500004458428,8|8|8,0:0|0:0|0:3,0:0:0:0:
326,280,227111,2,0,B|346:276|346:276|370:286,2,46.7500004458428,8|8|8,0:0|0:0|0:3,0:0:0:0:
270,213,227539,5,6,0:0:0:0:
425,87,227968,1,2,0:0:0:0:
505,129,228182,1,0,0:0:0:0:
380,162,228396,6,0,B|458:157|441:210|512:208,2,140.250001337528,8|2|2,0:0|0:0|0:0,0:0:0:0:
295,207,229468,1,0,0:0:0:0:
278,121,229682,5,2,0:0:0:0:
278,121,229896,1,0,0:0:0:0:
370,52,230111,2,0,P|299:40|230:27,1,140.250001337528,12|0,0:0|0:0,0:0:0:0:
144,72,230753,1,0,0:0:0:0:
98,171,230968,6,0,P|168:159|238:146,1,140.250001337528,6|0,0:0|0:0,0:0:0:0:
311,209,231611,1,2,0:0:0:0:
311,209,231825,2,0,P|272:268|306:340,1,140.250001337528,8|2,0:0|0:0,0:0:0:0:
422,264,232468,5,0,0:0:0:0:
422,264,232682,2,0,P|375:272|324:278,1,70.1250006687641,8|2,0:0|0:0,0:0:0:0:
272,368,233111,2,0,P|225:376|174:382,1,70.1250006687641,12|2,0:0|0:0,0:0:0:0:
96,320,233539,2,0,P|84:284|96:248,1,70.1250006687641,8|8,0:0|0:0,0:0:0:0:
184,184,233968,6,0,L|240:192,2,46.7500004458428,8|0|0,0:3|0:0|0:0,0:0:0:0:
172,160,234396,6,0,L|328:180,1,140.250001337528,4|0,0:0|0:0,0:0:0:0:
394,246,235039,1,2,0:0:0:0:
394,246,235253,2,0,P|431:180|401:122,1,140.250001337528,8|0,0:0|0:0,0:0:0:0:
469,45,235896,6,0,P|403:8|345:38,1,140.250001337528,2|2,0:0|0:0,0:0:0:0:
264,120,236539,1,2,0:0:0:0:
180,68,236753,1,0,0:0:0:0:
72,160,236968,2,0,B|57:114|57:114|77:82|77:82|61:30,1,140.250001337528,12|2,0:0|0:0,0:0:0:0:
176,96,237611,1,0,0:0:0:0:
237,196,237825,6,0,P|223:259|215:286,1,70.1250006687641,6|0,0:0|0:0,0:0:0:0:
192,384,238253,1,0,0:0:0:0:
100,332,238468,1,2,0:0:0:0:
221,264,238682,2,0,B|303:254|272:315|361:303,1,140.250001337528,8|0,0:0|0:0,0:0:0:0:
444,372,239325,6,0,P|472:320|447:237,1,140.250001337528,2|2,0:0|0:0,0:0:0:0:
357,178,239968,1,2,0:0:0:0:
448,124,240182,1,0,0:0:0:0:
312,48,240396,2,0,L|439:71,1,70.1250006687641,12|0,0:0|0:0,0:0:0:0:
452,154,240825,5,8,0:0:0:0:
357,178,241039,1,8,0:0:0:0:
262,204,241253,1,4,0:0:0:0:
262,204,241682,6,0,P|280:232|277:274,1,70.1250006687641,4|0,0:3|0:0,0:0:0:0:
220,360,242111,2,0,P|192:378|150:375,1,70.1250006687641,4|0,0:3|0:0,0:0:0:0:
56,336,242539,2,0,P|26:278|57:213,1,140.250001337528,4|4,0:3|0:3,0:0:0:0:
218,101,243396,6,0,L|294:112,1,70.1250006687641,4|0,0:3|0:0,0:0:0:0:
376,52,243825,2,0,L|449:64,1,70.1250006687641,4|0,0:3|0:0,0:0:0:0:
512,172,244253,2,0,B|458:180|458:180|436:206|436:206|378:218,1,140.250001337528,4|4,0:3|0:0,0:0:0:0:
212,360,245111,6,0,P|244:369|281:380,1,70.1250006687641,4|0,0:0|0:0,0:0:0:0:
247,279,245539,2,0,P|237:245|227:211,1,70.1250006687641,4|0,0:0|0:0,0:0:0:0:
100,240,245968,2,0,P|168:248|227:213,1,140.250001337528,4|8,0:0|0:0,0:0:0:0:
312,144,246611,1,2,0:0:0:0:
312,144,246825,2,0,P|281:125|241:125,1,70.1250006687641,8|2,0:3|0:0,0:0:0:0:
136,80,247253,6,0,P|110:84|87:93,2,46.7500004458428,8|8|8,0:0|0:0|0:3,0:0:0:0:
200,28,247682,2,0,P|222:35|245:39,2,46.7500004458428,8|12|12,0:3|0:3|0:3,0:0:0:0:
136,80,248111,6,0,P|116:124|132:168,1,93.5000028533936,4|8,0:0|0:0,0:0:0:0:
247,210,248968,2,0,P|267:254|251:298,1,93.5000028533936,10|10,0:0|0:0,0:0:0:0:
182,340,249611,2,0,L|274:329,1,93.5000028533936,8|10,0:0|0:0,0:0:0:0:
349,368,250253,5,8,0:0:0:0:
459,241,250682,1,4,0:0:0:0:
328,134,251111,1,4,0:0:0:0:
464,36,251539,6,0,P|425:63|367:55,1,93.5000028533936,6|8,0:0|0:0,0:0:0:0:
258,177,252396,2,0,P|219:150|161:158,1,93.5000028533936,8|10,0:0|0:0,0:0:0:0:
114,92,253039,2,0,P|87:131|95:189,1,93.5000028533936,8|10,0:0|0:0,0:0:0:0:
146,236,253682,1,0,0:0:0:0:
146,236,254111,5,8,0:0:0:0:
68,288,254325,1,8,0:0:0:0:
68,288,254432,1,0,0:0:0:0:
68,288,254539,1,8,0:0:0:0:
136,356,254753,1,8,0:0:0:0:
136,356,254968,6,0,P|172:333|237:337,1,93.5000028533936,6|8,0:0|0:0,0:0:0:0:
364,241,255825,2,0,P|317:240|278:216,1,93.5000028533936,10|10,0:0|0:0,0:0:0:0:
201,181,256468,2,0,P|201:134|225:95,1,93.5000028533936,8|10,0:0|0:0,0:0:0:0:
286,36,257111,5,8,0:0:0:0:
423,132,257539,1,4,0:0:0:0:
278,216,257968,1,4,0:0:0:0:
390,340,258396,6,0,P|442:333|492:329,1,93.5000028533936,6|8,0:0|0:0,0:0:0:0:
370,205,259253,2,0,P|317:212|268:216,1,93.5000028533936,10|10,0:0|0:0,0:0:0:0:
213,270,259896,2,0,P|192:228|202:182,1,93.5000028533936,8|10,0:0|0:0,0:0:0:0:
200,184,260539,2,0,L|134:175,1,46.7500014266968,8|0,0:0|0:0,0:0:0:0:
60,132,260968,5,8,0:0:0:0:
76,224,261182,1,8,0:0:0:0:
93,315,261396,1,8,0:0:0:0:
95,318,261611,1,12,0:0:0:0:
