osu file format v14

[General]
AudioFilename: audio.mp3
AudioLeadIn: 0
PreviewTime: 123825
Countdown: 0
SampleSet: Soft
StackLeniency: 0.7
Mode: 0
LetterboxInBreaks: 0
WidescreenStoryboard: 0

[Editor]
Bookmarks: 22253,54825,114396
DistanceSpacing: 1.1
BeatDivisor: 8
GridSize: 4
TimelineZoom: 2.1

[Metadata]
Title:Stay Alive
TitleUnicode:Stay Alive
Artist:EMILIA (CV: Rie Takahashi)
ArtistUnicode:エミリア(CV:高橋李依)
Creator:Shurelia
Version:F Ant's Easy
Source:Re:ゼロから始める異世界生活
Tags:Kalibe Blizs Fantastica Re: Zero Kara Hajimeru Isekai Seikatsu Life in a different world from zero Re:zero Ed Ending full ver EMT
BeatmapID:1414629
BeatmapSetID:636235

[Difficulty]
HPDrainRate:2
CircleSize:3
OverallDifficulty:2.5
ApproachRate:3
SliderMultiplier:1.6
SliderTickRate:2

[Events]
//Background and Video events
0,0,"emilianew.jpg",0,0
//Break Periods
2,80311,88956
2,179739,191813
//Storyboard Layer 0 (Background)
//Storyboard Layer 1 (Fail)
//Storyboard Layer 2 (Pass)
//Storyboard Layer 3 (Foreground)
//Storyboard Sound Samples

[TimingPoints]
1254,857.142857142857,4,2,2,28,1,0
14968,-100,4,2,1,34,0,0
32111,-100,4,2,2,34,0,0
32218,-100,4,2,1,34,0,0
32539,-100,4,2,1,34,0,0
42396,-100,4,2,2,20,0,0
47968,-100,4,2,2,5,0,0
48396,-100,4,2,1,5,0,0
49253,-100,4,2,1,62,0,1
62753,-100,4,2,1,62,0,0
62968,-100,4,2,1,62,0,1
76682,-100,4,2,1,38,0,0
104111,-100,4,2,2,24,0,0
113968,-100,4,2,1,39,0,0
114396,-100,4,2,1,40,0,0
117825,-100,4,2,1,42,0,0
123825,-100,4,2,1,35,0,0
124682,-100,4,2,1,62,0,1
138182,-100,4,2,1,62,0,0
138396,-100,4,2,1,62,0,1
152111,-100,4,2,1,52,0,0
165825,-100,4,2,1,55,0,1
168825,-100,4,2,1,55,0,0
169253,-100,4,2,1,55,0,1
172468,-100,4,2,1,55,0,0
172682,-100,4,2,1,55,0,1
179539,-100,4,2,1,40,0,0
193253,-100,4,2,2,24,0,0
217039,-100,4,2,1,5,0,0
218968,-100,4,2,1,66,0,0
219396,-100,4,2,1,66,0,1
219825,-100,4,2,1,66,0,0
220682,-100,4,2,1,66,0,1
221111,-100,4,2,1,66,0,0
221539,-100,4,2,1,66,0,1
221968,-100,4,2,1,66,0,0
222396,-100,4,2,1,66,0,1
222825,-100,4,2,1,66,0,0
223253,-100,4,2,1,66,0,1
223682,-100,4,2,1,66,0,0
224111,-100,4,2,1,66,0,1
224539,-100,4,2,1,66,0,0
224968,-100,4,2,1,66,0,1
225396,-100,4,2,1,66,0,0
225825,-100,4,2,1,66,0,1
226253,-100,4,2,1,66,0,0
227539,-100,4,2,1,66,0,1
234182,-100,4,2,1,66,0,0
234396,-100,4,2,1,66,0,1
248111,-100,4,2,1,42,0,0

[Colours]
Combo1 : 255,128,64
Combo2 : 173,173,173
Combo3 : 170,85,0
Combo4 : 64,0,128
SliderBorder : 207,142,41
SliderTrackOverride : 25,24,25

[HitObjects]
120,79,1254,6,0,P|86:60|47:57,2,80,2|0|2,0:0|0:0|0:0,0:0:0:0:
61,146,2539,2,0,B|115:186|173:152|173:152|231:118|285:158,1,240,0|2,0:0|0:0,0:0:0:0:
388,300,4682,6,0,P|422:319|461:322,2,80,2|0|2,0:0|0:0|0:0,0:0:0:0:
448,234,5968,2,0,B|394:194|336:228|336:228|278:262|224:222,1,240,0|2,0:0|0:0,0:0:0:0:
199,137,7682,1,0,0:0:0:0:
269,82,8111,6,0,P|286:118|285:157,2,80,2|0|2,0:0|0:0|0:0,0:0:0:0:
186,48,9396,2,0,B|132:88|74:54|74:54|15:87|23:154,1,240,0|2,0:0|0:0,0:0:0:0:
128,295,11539,6,0,P|129:334|112:370,2,80,2|0|2,0:0|0:0|0:0,0:0:0:0:
75,224,12825,2,0,B|132:188|187:227|187:227|241:266|299:231,1,240,0|2,0:0|0:0,0:0:0:0:
331,149,14539,1,2,0:0:0:0:
266,88,14968,6,0,P|245:122|243:161,1,80,4|8,0:0|0:0,0:0:0:0:
299,231,15825,2,0,P|243:251|186:230,2,120,10|2|2,0:0|0:0|0:0,0:0:0:0:
331,149,17539,1,4,0:0:0:0:
419,135,17968,1,4,0:0:0:0:
475,204,18396,6,0,L|470:295,1,80,6|8,0:0|0:0,0:0:0:0:
398,334,19253,2,0,P|342:314|287:334,2,120,10|2|2,0:0|0:0|0:0,0:0:0:0:
470,283,20968,2,0,L|475:204,1,80,8|8,0:0|0:0,0:0:0:0:
419,135,21825,6,0,P|379:137|345:157,1,80,6|8,0:0|0:0,0:0:0:0:
287,224,22682,2,0,L|167:217,2,120,8|2|2,0:0|0:0|0:0,0:0:0:0:
346,158,24396,2,0,L|341:78,1,80,4|4,0:0|0:0,0:0:0:0:
254,61,25253,6,0,L|259:141,1,80,6|8,0:0|0:0,0:0:0:0:
287,224,26111,2,0,P|341:247|397:230,2,120,10|2|2,0:0|0:0|0:0,0:0:0:0:
248,144,27825,2,0,L|168:148,1,80,8|4,0:0|0:3,0:0:0:0:
90,107,28682,5,6,0:0:0:0:
49,186,29110,1,0,0:0:0:0:
128,227,29539,2,0,L|121:347,2,120,8|2|0,0:0|0:0|0:0,0:0:0:0:
168,148,31253,2,0,L|164:68,1,80,8|0,0:0|0:0,0:0:0:0:
240,24,32111,5,4,0:0:0:0:
316,68,32540,1,0,0:0:0:0:
392,24,32968,2,0,P|453:23|500:56,2,120,8|2|0,0:0|0:0|0:0,0:0:0:0:
316,68,34682,2,0,L|320:148,1,80,8|8,0:0|0:0,0:0:0:0:
367,221,35539,5,6,0:0:0:0:
327,299,35967,1,0,0:0:0:0:
374,372,36396,2,0,L|494:365,2,120,8|2|2,0:0|0:0|0:0,0:0:0:0:
327,299,38111,2,0,L|247:295,1,80,8|2,0:0|0:0,0:0:0:0:
194,365,38968,6,0,P|157:296|191:227,1,160,6|8,0:0|0:0,0:0:0:0:
268,186,40253,1,0,0:0:0:0:
345,144,40682,2,0,L|425:140,1,80,4|4,0:0|0:0,0:0:0:0:
484,74,41539,2,0,P|449:54|410:52,1,80,8|8,0:0|0:3,0:0:0:0:
322,59,42396,6,0,B|274:68|238:130|268:186|268:186|254:227|271:263,1,240,2|0,0:0|0:0,0:0:0:0:
327,332,44111,2,0,B|270:368|215:329|215:329|182:350|182:350|147:327|100:335,1,240,2|0,0:0|0:0,0:0:0:0:
25,376,45825,6,0,B|0:313|48:266|48:266|96:219|70:157|70:157|117:205|179:179|179:179|212:116|282:126,1,480,2|0,0:0|0:0,0:0:0:0:
441,191,49253,6,0,L|445:270,1,80,6|2,0:0|0:0,0:0:0:0:
382,333,50111,1,8,0:0:0:0:
296,310,50539,2,0,P|259:324|230:353,2,80,2|2|2,0:0|0:0|0:0,0:0:0:0:
382,333,51825,1,12,0:0:0:0:
445,271,52253,1,2,0:0:0:0:
422,185,52682,6,0,L|428:56,2,120,4|2|2,0:0|0:0|0:0,0:0:0:0:
357,246,54396,2,0,P|317:247|280:236,1,80,2|6,0:0|0:0,0:0:0:0:
212,182,55253,2,0,P|172:179|134:191,1,80,8|6,0:0|0:0,0:0:0:0:
77,259,56111,5,6,0:0:0:0:
48,176,56539,2,0,L|52:93,2,80,2|8|2,0:0|0:0|0:0,0:0:0:0:
134,191,57825,2,0,P|172:179|212:182,1,80,2|2,0:0|0:0,0:0:0:0:
281,237,58682,2,0,L|285:316,1,80,8|2,0:0|0:0,0:0:0:0:
356,369,59539,6,0,P|410:373|462:334,2,120,2|2|2,0:0|0:0|0:0,0:0:0:0:
285,316,61253,2,0,P|245:313|207:325,1,80,2|6,0:0|0:0,0:0:0:0:
137,379,62111,1,8,0:0:0:0:
82,308,62539,1,8,0:3:0:0:
152,254,62968,6,0,L|148:171,1,80,6|2,0:0|0:0,0:0:0:0:
224,130,63825,1,8,0:0:0:0:
300,174,64253,2,0,P|340:177|378:162,2,80,2|2|2,0:0|0:0|0:0,0:0:0:0:
224,130,65539,1,8,0:0:0:0:
148,174,65968,1,2,0:0:0:0:
72,130,66396,6,0,P|53:74|78:17,2,120,6|2|0,0:0|0:0|0:0,0:0:0:0:
148,174,68111,2,0,P|161:211|158:250,1,80,4|2,0:0|0:0,0:0:0:0:
110,325,68968,2,0,P|147:338|187:334,1,80,12|8,0:0|0:0,0:0:0:0:
255,279,69825,5,4,0:0:0:0:
337,310,70253,2,0,P|360:342|368:382,2,80,4|4|4,0:3|0:3|0:3,0:0:0:0:
255,279,71539,1,4,0:3:0:0:
240,191,71967,2,0,P|256:155|286:129,2,80,4|4|4,0:3|0:3|0:3,0:0:0:0:
255,279,73253,6,0,L|89:271,1,160,4|4,0:0|0:0,0:0:0:0:
57,191,74539,1,4,0:0:0:0:
95,110,74968,2,0,L|255:103,1,160,8|8,0:0|0:0,0:0:0:0:
327,153,76253,2,0,P|337:190|327:229,1,80,8|4,0:3|0:0,0:0:0:0:
256,192,76896,12,6,80111,0:0:0:0:
326,229,90396,5,6,0:0:0:0:
245,193,90825,1,0,0:0:0:0:
174,246,91253,2,0,L|180:375,2,120,8|2|2,0:0|0:0|0:3,0:0:0:0:
93,210,92968,2,0,L|96:130,1,80,8|2,0:0|0:3,0:0:0:0:
156,65,93825,5,4,0:0:0:0:
244,61,94253,1,0,0:0:0:0:
309,121,94682,2,0,P|369:128|425:99,2,120,8|2|2,0:0|0:0|0:3,0:0:0:0:
244,61,96396,2,0,P|223:94|224:143,1,80,8|2,0:0|0:3,0:0:0:0:
277,203,97253,5,6,0:0:0:0:
267,290,97682,1,0,0:0:0:0:
199,346,98111,2,0,L|70:352,2,120,8|2|2,0:0|0:0|0:3,0:0:0:0:
267,290,99825,2,0,L|346:293,1,80,8|2,0:0|0:3,0:0:0:0:
420,342,100682,1,6,0:0:0:0:
469,269,101111,1,2,0:3:0:0:
396,220,101539,6,0,B|377:185|393:142|393:142|409:99|390:64,1,160,8|4,0:0|0:0,0:0:0:0:
311,103,102825,1,8,0:0:0:0:
238,53,103253,2,0,L|157:57,1,80,8|8,0:3|0:0,0:0:0:0:
78,17,104111,6,0,B|50:66|77:127|133:147|133:147|76:179|53:232|53:232|112:248|158:286|158:286|192:237|258:225|299:263,1,560,4|0,0:0|0:0,0:0:0:0:
241,329,107539,6,0,B|310:390|418:318|379:227|379:227|394:190|394:190|327:152|327:66|394:27|394:27|353:42|313:39,1,560,2|0,0:0|0:0,0:0:0:0:
254,101,110968,6,0,B|254:170|288:214|288:214|225:190|162:216|132:268|132:268|97:335|1:294|26:221,1,480,2|0,0:0|0:0,0:0:0:0:
91,162,113968,1,4,0:0:0:0:
44,85,114396,6,0,P|35:47|41:7,1,80,4|4,0:0|0:3,0:0:0:0:
130,5,115253,2,0,P|139:44|133:84,1,80,12|2,0:0|0:0,0:0:0:0:
91,162,116111,2,0,P|84:201|93:240,2,80,12|12|12,0:0|0:0|0:0,0:0:0:0:
133,83,117396,1,8,0:0:0:0:
211,126,117825,6,0,B|248:139|288:116|288:116|328:94|366:107,1,160,4|12,0:0|0:0,0:0:0:0:
425,171,119111,1,0,0:0:0:0:
464,248,119539,2,0,P|387:251|339:191,1,160,6|12,0:0|0:0,0:0:0:0:
365,107,120825,1,12,0:0:0:0:
305,42,121253,6,0,P|265:47|229:64,1,80,6|4,0:0|0:3,0:0:0:0:
204,149,122111,2,0,P|228:180|260:203,1,80,4|4,0:3|0:3,0:0:0:0:
346,184,122968,2,0,P|361:147|365:108,2,80,12|8|4,0:0|0:3|1:0,0:0:0:0:
239,323,124682,6,0,L|160:320,1,80,6|2,0:0|0:0,0:0:0:0:
89,266,125539,1,8,0:0:0:0:
7,300,125968,2,0,P|-1:339|3:378,2,80,2|2|2,0:0|0:0|0:0,0:0:0:0:
89,266,127253,1,12,0:0:0:0:
159,320,127682,1,2,0:0:0:0:
241,286,128111,6,0,L|370:280,2,120,6|2|2,0:0|0:0|0:0,0:0:0:0:
171,232,129825,2,0,P|166:192|174:153,1,80,2|6,0:0|0:0,0:0:0:0:
251,110,130682,2,0,L|330:113,1,80,8|6,0:0|0:0,0:0:0:0:
407,156,131539,5,6,0:0:0:0:
482,111,131968,2,0,P|486:71|478:32,2,80,2|10|2,0:0|0:0|0:0,0:0:0:0:
407,156,133253,2,0,P|402:195|410:234,1,80,6|2,0:0|0:0,0:0:0:0:
397,322,134111,2,0,L|318:319,1,80,8|2,0:0|0:0,0:0:0:0:
249,262,134968,6,0,P|227:316|247:372,2,120,6|2|2,0:0|0:0|0:0,0:0:0:0:
332,232,136682,2,0,L|411:235,1,80,2|4,0:0|0:0,0:0:0:0:
481,180,137539,1,8,0:0:0:0:
468,92,137967,1,8,0:3:0:0:
385,59,138396,6,0,L|305:62,1,80,6|2,0:0|0:0,0:0:0:0:
255,135,139253,1,8,0:0:0:0:
313,203,139682,2,0,P|319:242|310:281,2,80,2|2|2,0:0|0:0|0:0,0:0:0:0:
255,135,140968,2,0,L|176:132,1,80,12|2,0:0|0:0,0:0:0:0:
104,184,141825,6,0,P|84:129|107:75,2,120,6|2|0,0:0|0:0|0:0,0:0:0:0:
190,206,143539,2,0,P|193:167|175:132,1,80,2|2,0:0|0:0,0:0:0:0:
190,44,144396,2,0,L|270:41,1,80,8|8,0:0|0:0,0:0:0:0:
336,99,145253,5,4,0:0:0:0:
277,165,145682,2,0,P|270:204|279:242,2,80,4|4|4,0:3|0:3|0:3,0:0:0:0:
336,99,146968,1,4,0:0:0:0:
403,158,147396,2,0,P|442:165|480:156,2,80,4|4|4,0:3|0:3|0:3,0:0:0:0:
336,99,148682,6,0,P|262:77|199:122,1,160,4|4,0:0|0:0,0:0:0:0:
202,212,149968,1,4,0:0:0:0:
229,295,150396,2,0,P|285:241|277:165,1,160,8|8,0:0|0:0,0:0:0:0:
199,123,151682,1,8,0:3:0:0:
115,93,152111,6,0,P|111:133|124:170,1,80,4|2,0:0|0:0,0:0:0:0:
202,212,152968,2,0,L|331:206,2,120,12|8|2,0:0|0:0|0:0,0:0:0:0:
123,169,154682,2,0,P|107:134|107:94,1,80,12|8,0:0|0:0,0:0:0:0:
171,34,155539,6,0,L|265:29,1,80,6|2,0:0|0:0,0:0:0:0:
320,83,156396,1,12,0:0:0:0:
399,121,156825,2,0,P|408:82|398:43,1,80,2|6,0:0|0:0,0:0:0:0:
320,83,157682,1,12,0:0:0:0:
241,122,158111,2,0,P|231:160|241:199,1,80,8|8,0:0|0:0,0:0:0:0:
313,249,158968,6,0,L|407:244,1,80,6|2,0:0|0:0,0:0:0:0:
480,240,159825,2,0,L|474:359,2,120,12|8|2,0:0|0:0|0:0,0:0:0:0:
431,167,161539,2,0,L|426:72,1,80,12|2,0:0|0:0,0:0:0:0:
361,28,162396,6,0,P|322:18|283:27,1,80,6|2,0:0|0:0,0:0:0:0:
244,106,163253,1,12,0:0:0:0:
204,184,163682,2,0,P|165:193|127:184,1,80,2|2,0:0|0:0,0:0:0:0:
87,106,164539,1,12,0:0:0:0:
40,180,164968,2,0,L|44:274,1,80,4|8,0:3|0:0,0:0:0:0:
39,348,165825,6,0,B|77:350|110:319|110:319|143:286|182:289,1,160,4|8,0:0|0:0,0:0:0:0:
256,337,167111,1,2,0:3:0:0:
329,289,167539,2,0,B|368:286|401:319|401:319|434:350|473:348,1,160,2|12,0:0|0:0,0:0:0:0:
468,259,168825,1,2,0:0:0:0:
395,210,169253,6,0,L|388:50,1,160,6|8,0:0|0:0,0:0:0:0:
303,24,170539,1,2,0:0:0:0:
237,84,170968,2,0,L|230:244,1,160,2|12,0:0|0:0,0:0:0:0:
150,274,172253,1,8,0:0:0:0:
84,214,172682,6,0,P|44:215|10:235,2,80,6|8|8,0:0|0:0|0:0,0:0:0:0:
150,274,173968,1,6,0:0:0:0:
216,334,174396,2,0,P|255:332|289:312,2,80,8|8|8,0:0|0:0|0:3,0:0:0:0:
230,244,175682,1,8,0:0:0:0:
320,227,176111,6,0,L|414:231,1,80,6|6,0:0|0:0,0:0:0:0:
467,173,176968,2,0,P|473:130|463:93,1,80,6|6,0:0|0:0,0:0:0:0:
385,55,177825,2,0,L|291:59,1,80,8|12,0:0|0:3,0:0:0:0:
244,122,178682,2,0,P|171:97|100:130,1,160,8|4,0:0|0:0,0:0:0:0:
101,131,193253,6,0,B|57:172|80:245|144:248|144:248|148:291|181:319|225:319|225:319|260:294|268:251|246:213|246:213|268:173|268:173|237:142|234:98|261:65,1,560,2|0,0:0|0:0,0:0:0:0:
336,25,196682,6,0,B|379:-1|430:19|455:79|420:128|370:140|334:113|334:113|379:165|344:224|344:224|405:244|458:212|458:212|432:246|435:289,1,560,2|0,0:0|0:0,0:0:0:0:
483,360,200111,6,0,B|434:391|373:374|352:317|352:317|286:304|237:339|237:339|270:281|252:223|252:223|214:210|214:210|160:249|152:308,1,560,2|0,0:0|0:0,0:0:0:0:
105,381,203539,6,0,B|73:362|55:317|70:277|70:277|85:237|67:192|34:172|34:172|72:196|121:180|152:128|122:70|69:55|29:85|29:85|37:46|82:24,1,560,2|0,0:0|0:0,0:0:0:0:
167,25,206968,6,0,B|225:90|202:174|202:174|268:160|314:202|314:202|277:259|215:262|215:262|208:300|208:300|272:292|330:324,1,560,2|0,0:0|0:0,0:0:0:0:
409,341,210396,6,0,B|457:354|501:322|509:258|463:219|412:221|384:256|384:256|408:219|401:182|401:182|446:180|479:138|472:78|414:49|362:66|346:114,1,560,2|0,0:0|0:0,0:0:0:0:
316,197,213825,6,0,B|280:186|251:148|255:105|255:105|259:63|230:24|193:13|193:13|152:23|152:23|128:54|127:102|155:134|155:134|137:169|137:169|165:201|164:249|140:280|140:280|97:277|77:238,1,640,2|0,0:0|0:0,0:0:0:0:
77,238,218968,5,14,0:0:0:0:
158,206,219396,1,2,0:0:0:0:
227,260,219825,2,0,L|307:255,1,80,8|8,0:0|0:0,0:0:0:0:
392,283,220682,6,0,B|404:245|382:205|382:205|359:165|372:128,3,160,6|6|6|6,0:0|0:0|0:0|0:0,0:0:0:0:
457,157,223682,1,8,0:0:0:0:
438,69,224111,6,0,P|366:39|298:77,2,160,6|6|6,0:0|0:0|0:0,0:0:0:0:
372,129,226253,1,8,0:0:0:0:
290,166,226682,2,0,L|210:161,1,80,8|8,0:0|0:0,0:0:0:0:
134,204,227539,5,6,0:0:0:0:
59,159,227968,2,0,P|55:119|63:80,2,80,2|8|2,0:0|0:0|0:0,0:0:0:0:
134,204,229253,2,0,P|139:243|131:282,1,80,2|2,0:0|0:0,0:0:0:0:
186,351,230111,2,0,L|266:346,1,80,8|0,0:0|0:0,0:0:0:0:
309,269,230968,6,0,L|429:276,2,120,6|2|2,0:0|0:0|0:0,0:0:0:0:
264,193,232682,2,0,P|259:154|267:115,1,80,8|12,0:0|0:0,0:0:0:0:
336,59,233539,1,8,0:0:0:0:
424,68,233968,1,8,0:3:0:0:
480,137,234396,6,0,P|485:176|477:215,1,80,6|2,0:0|0:0,0:0:0:0:
396,251,235253,1,8,0:0:0:0:
316,287,235682,2,0,L|321:367,2,80,2|2|2,0:0|0:0|0:0,0:0:0:0:
244,235,236968,2,0,P|205:230|166:238,1,80,12|2,0:0|0:0,0:0:0:0:
109,306,237825,6,0,P|55:309|6:261,2,120,6|2|0,0:0|0:0|0:0,0:0:0:0:
166,238,239539,2,0,L|171:158,1,80,2|2,0:0|0:0,0:0:0:0:
231,93,240396,2,0,P|270:88|309:96,1,80,12|8,0:0|0:0,0:0:0:0:
363,165,241253,5,4,0:0:0:0:
449,153,241682,2,0,P|476:123|491:87,2,80,4|4|4,0:3|0:3|0:3,0:0:0:0:
363,165,242968,1,4,0:3:0:0:
329,246,243397,2,0,P|341:283|365:315,2,80,4|4|0,0:3|0:3|0:0,0:0:0:0:
277,177,244682,6,0,L|117:186,1,160,4|4,0:0|0:0,0:0:0:0:
72,262,245968,1,4,0:0:0:0:
123,330,246397,2,0,L|283:321,1,160,8|8,0:0|0:0,0:0:0:0:
329,246,247682,1,8,0:3:0:0:
277,177,248111,6,0,P|264:140|266:100,1,80,4|8,0:0|0:0,0:0:0:0:
330,41,248968,2,0,L|455:51,2,120,10|8|8,0:0|0:0|0:0,0:0:0:0:
266,100,250682,2,0,L|184:93,1,80,4|4,0:0|0:0,0:0:0:0:
116,147,251539,6,0,P|130:185|126:225,1,80,6|8,0:0|0:0,0:0:0:0:
55,275,252396,2,0,P|47:333|77:384,2,120,8|8|8,0:0|0:0|0:0,0:0:0:0:
128,225,254111,1,8,0:0:0:0:
208,263,254540,1,8,0:0:0:0:
281,213,254968,6,0,L|363:206,1,80,6|8,0:0|0:0,0:0:0:0:
400,127,255825,2,0,P|369:76|377:17,2,120,10|8|8,0:0|0:0|0:0,0:0:0:0:
448,200,257539,2,0,P|461:237|458:277,1,80,4|4,0:0|0:0,0:0:0:0:
399,342,258396,6,0,L|317:335,1,80,6|8,0:0|0:0,0:0:0:0:
264,266,259253,2,0,L|138:276,2,120,10|8|8,0:0|0:0|0:0,0:0:0:0:
310,190,260968,2,0,P|317:131|287:80,1,120,8|6,0:0|0:0,0:0:0:0:
