osu file format v14

[General]
AudioFilename: audio.mp3
AudioLeadIn: 0
PreviewTime: 123825
Countdown: 0
SampleSet: Soft
StackLeniency: 0.7
Mode: 0
LetterboxInBreaks: 0
WidescreenStoryboard: 0

[Editor]
Bookmarks: 54825,114396
DistanceSpacing: 1.2
BeatDivisor: 4
GridSize: 4
TimelineZoom: 2.1

[Metadata]
Title:Stay Alive
TitleUnicode:Stay Alive
Artist:EMILIA (CV: Rie Takahashi)
ArtistUnicode:エミリア(CV:高橋李依)
Creator:Shurelia
Version:Normal
Source:Re:ゼロから始める異世界生活
Tags:Kalibe Blizs Fantastica Re: Zero Kara Hajimeru Isekai Seikatsu Life in a different world from zero Re:zero Ed Ending full ver EMT
BeatmapID:1368375
BeatmapSetID:636235

[Difficulty]
HPDrainRate:3.3
CircleSize:3.4
OverallDifficulty:4.1
ApproachRate:4.9
SliderMultiplier:1.8
SliderTickRate:1

[Events]
//Background and Video events
0,0,"emilianew.jpg",0,0
//Break Periods
2,179739,192042
//Storyboard Layer 0 (Background)
//Storyboard Layer 1 (Fail)
//Storyboard Layer 2 (Pass)
//Storyboard Layer 3 (Foreground)
//Storyboard Sound Samples

[TimingPoints]
1254,857.142857142857,4,2,2,28,1,0
14968,-90.9090909090909,4,2,1,34,0,0
32111,-90.9090909090909,4,2,2,34,0,0
32218,-90.9090909090909,4,2,1,34,0,0
32539,-90.9090909090909,4,2,1,34,0,0
42396,-100,4,2,2,20,0,0
47968,-100,4,2,2,5,0,0
48396,-100,4,2,1,5,0,0
49253,-83.3333333333333,4,2,1,62,0,1
49575,-83.3333333333333,4,2,1,5,0,1
49682,-83.3333333333333,4,2,1,62,0,1
50432,-83.3333333333333,4,2,1,5,0,1
50539,-83.3333333333333,4,2,1,62,0,1
52146,-83.3333333333333,4,2,1,5,0,1
52253,-83.3333333333333,4,2,1,62,0,1
53861,-83.3333333333333,4,2,1,5,0,1
53968,-83.3333333333333,4,2,1,62,0,1
54718,-83.3333333333333,4,2,1,5,0,1
54825,-83.3333333333333,4,2,1,62,0,1
56003,-83.3333333333333,4,2,1,5,0,1
56111,-83.3333333333333,4,2,1,62,0,1
58146,-83.3333333333333,4,2,1,5,0,1
58253,-83.3333333333333,4,2,1,62,0,1
62753,-83.3333333333333,4,2,1,62,0,0
62968,-83.3333333333333,4,2,1,62,0,1
63289,-83.3333333333333,4,2,1,5,0,1
63396,-83.3333333333333,4,2,1,62,0,1
64146,-83.3333333333333,4,2,1,5,0,1
64253,-83.3333333333333,4,2,1,62,0,1
65861,-83.3333333333333,4,2,1,5,0,1
65968,-83.3333333333333,4,2,1,62,0,1
68432,-83.3333333333333,4,2,1,5,0,1
68539,-83.3333333333333,4,2,1,62,0,1
76682,-90.9090909090909,4,2,1,38,0,0
104111,-100,4,2,2,24,0,0
113968,-100,4,2,1,39,0,0
114396,-90.9090909090909,4,2,1,40,0,0
117825,-90.9090909090909,4,2,1,42,0,0
123825,-100,4,2,1,35,0,0
124468,-100,4,2,1,5,0,0
124682,-83.3333333333333,4,2,1,62,0,1
125003,-83.3333333333333,4,2,1,5,0,1
125111,-83.3333333333333,4,2,1,62,0,1
125861,-83.3333333333333,4,2,1,5,0,1
125968,-83.3333333333333,4,2,1,62,0,1
127575,-83.3333333333333,4,2,1,5,0,1
127682,-83.3333333333333,4,2,1,62,0,1
129289,-83.3333333333333,4,2,1,5,0,1
129396,-83.3333333333333,4,2,1,62,0,1
130146,-83.3333333333333,4,2,1,5,0,1
130253,-83.3333333333333,4,2,1,62,0,1
131432,-83.3333333333333,4,2,1,5,0,1
131539,-83.3333333333333,4,2,1,62,0,1
133575,-83.3333333333333,4,2,1,5,0,1
133682,-83.3333333333333,4,2,1,62,0,1
138182,-83.3333333333333,4,2,1,62,0,0
138396,-83.3333333333333,4,2,1,62,0,1
138718,-83.3333333333333,4,2,1,5,0,1
138825,-83.3333333333333,4,2,1,62,0,1
139575,-83.3333333333333,4,2,1,5,0,1
139682,-83.3333333333333,4,2,1,62,0,1
141289,-83.3333333333333,4,2,1,5,0,1
141396,-83.3333333333333,4,2,1,62,0,1
143861,-83.3333333333333,4,2,1,5,0,1
143968,-83.3333333333333,4,2,1,62,0,1
152111,-100,4,2,1,52,0,0
155968,-100,4,2,1,28,0,0
156396,-100,4,2,1,52,0,0
157253,-100,4,2,1,28,0,0
157682,-100,4,2,1,52,0,0
163253,-100,4,2,1,52,0,0
163682,-100,4,2,1,52,0,0
165825,-83.3333333333333,4,2,1,55,0,1
168825,-83.3333333333333,4,2,1,55,0,0
169253,-83.3333333333333,4,2,1,55,0,1
172468,-83.3333333333333,4,2,1,55,0,0
172682,-83.3333333333333,4,2,1,55,0,1
179539,-100,4,2,1,40,0,0
193253,-100,4,2,2,24,0,0
217039,-100,4,2,1,5,0,0
218968,-100,4,2,1,66,0,0
219396,-100,4,2,1,66,0,1
219825,-100,4,2,1,66,0,0
220682,-83.3333333333333,4,2,1,66,0,1
221111,-83.3333333333333,4,2,1,66,0,0
221539,-83.3333333333333,4,2,1,66,0,1
221968,-83.3333333333333,4,2,1,66,0,0
222396,-83.3333333333333,4,2,1,66,0,1
222825,-83.3333333333333,4,2,1,66,0,0
223253,-83.3333333333333,4,2,1,66,0,1
223682,-83.3333333333333,4,2,1,66,0,0
224111,-83.3333333333333,4,2,1,66,0,1
224539,-83.3333333333333,4,2,1,66,0,0
224968,-83.3333333333333,4,2,1,66,0,1
225396,-83.3333333333333,4,2,1,66,0,0
225825,-83.3333333333333,4,2,1,66,0,1
226253,-83.3333333333333,4,2,1,66,0,0
227539,-83.3333333333333,4,2,1,66,0,1
231289,-83.3333333333333,4,2,1,5,0,1
231396,-83.3333333333333,4,2,1,66,0,1
234182,-83.3333333333333,4,2,1,66,0,0
234396,-83.3333333333333,4,2,1,66,0,1
234718,-83.3333333333333,4,2,1,5,0,1
234825,-83.3333333333333,4,2,1,66,0,1
237289,-83.3333333333333,4,2,1,5,0,1
237396,-83.3333333333333,4,2,1,66,0,1
248111,-90.9090909090909,4,2,1,42,0,0

[Colours]
Combo1 : 255,128,64
Combo2 : 173,173,173
Combo3 : 170,85,0
Combo4 : 64,0,128
SliderBorder : 207,142,41
SliderTrackOverride : 25,24,25

[HitObjects]
420,324,1254,6,0,P|375:324|331:313,1,90,2|0,0:0|0:0,0:0:0:0:
292,212,2111,2,0,L|305:168,1,45,2|0,0:0|0:0,0:0:0:0:
324,116,2539,1,0,0:0:0:0:
268,23,2968,2,0,B|210:73|221:140|221:140|168:178|168:178|188:234|177:248,1,270,2|0,0:0|0:0,0:0:0:0:
123,341,4682,6,0,P|166:353|210:350,1,90,2|0,0:0|0:0,0:0:0:0:
316,326,5539,2,0,L|360:317,1,45,2|0,0:0|0:0,0:0:0:0:
413,305,5968,1,0,0:0:0:0:
435,199,6396,2,0,P|424:156|429:112,1,90,2|0,0:0|0:0,0:0:0:0:
468,12,7253,2,0,L|512:3,2,45,2|0|2,0:0|0:0|0:0,0:0:0:0:
416,28,7896,1,0,0:0:0:0:
364,40,8111,6,0,P|319:43|277:60,1,90,2|0,0:0|0:0,0:0:0:0:
252,164,8968,2,0,L|249:208,1,45,2|0,0:0|0:0,0:0:0:0:
244,264,9396,1,0,0:0:0:0:
334,325,9825,2,0,B|215:380|172:308|172:308|131:308|131:308|96:274,1,270,2|0,0:0|0:0,0:0:0:0:
32,187,11539,6,0,P|21:144|24:100,1,90,2|0,0:0|0:0,0:0:0:0:
88,8,12396,2,0,L|115:44,1,45,2|0,0:0|0:0,0:0:0:0:
144,88,12825,1,0,0:0:0:0:
156,196,13253,2,0,P|155:240|166:284,1,90,2|0,0:0|0:0,0:0:0:0:
256,344,14111,2,0,L|299:333,1,45,2|0,0:0|0:0,0:0:0:0:
340,296,14539,2,0,L|383:285,1,45,2|0,0:0|0:0,0:0:0:0:
408,232,14968,6,0,B|400:188|400:188|416:136,1,99.0000030212403,4|8,0:0|0:0,0:0:0:0:
332,52,15825,2,0,L|233:45,1,99.0000030212403,8|2,0:0|0:0,0:0:0:0:
184,80,16468,2,0,L|85:73,1,99.0000030212403,10|10,0:0|0:0,0:0:0:0:
32,96,17111,1,2,0:0:0:0:
95,195,17539,2,0,P|103:244|94:292,1,99.0000030212403,4|0,0:0|0:0,0:0:0:0:
100,352,18182,1,0,0:0:0:0:
156,335,18396,6,0,P|205:331|253:340,1,99.0000030212403,6|8,0:0|0:0,0:0:0:0:
371,315,19253,2,0,P|372:266|388:219,1,99.0000030212403,8|2,0:0|0:0,0:0:0:0:
428,176,19896,2,0,P|427:126|411:79,1,99.0000030212403,2|8,0:0|0:0,0:0:0:0:
368,40,20539,1,2,0:0:0:0:
276,112,20968,1,8,0:0:0:0:
168,60,21396,1,8,0:0:0:0:
136,112,21610,1,8,0:0:0:0:
144,172,21825,6,0,L|138:270,1,99.0000030212403,6|8,0:0|0:0,0:0:0:0:
244,327,22682,2,0,P|252:279|249:229,1,99.0000030212403,8|0,0:0|0:0,0:0:0:0:
228,176,23325,2,0,L|326:181,1,99.0000030212403,2|10,0:0|0:0,0:0:0:0:
380,208,23968,1,2,0:0:0:0:
476,139,24396,2,0,P|495:185|495:234,1,99.0000030212403,4|0,0:0|0:0,0:0:0:0:
472,288,25039,1,0,0:0:0:0:
428,328,25253,6,0,L|329:322,1,99.0000030212403,6|8,0:0|0:0,0:0:0:0:
236,247,26111,2,0,P|252:201|253:152,1,99.0000030212403,10|8,0:0|0:0,0:0:0:0:
256,92,26753,2,0,L|158:75,1,99.0000030212403,2|8,0:0|0:0,0:0:0:0:
100,68,27396,1,2,0:0:0:0:
40,170,27825,2,0,L|50:218,1,49.5000015106202,8|8,0:0|0:3,0:0:0:0:
76,272,28253,1,4,0:3:0:0:
128,300,28467,1,8,0:3:0:0:
188,288,28682,6,0,P|212:288|237:292,1,49.5000015106202,6|2,0:0|0:0,0:0:0:0:
355,306,29325,1,2,0:0:0:0:
415,295,29539,2,0,P|416:271|422:247,1,49.5000015106202,8|0,0:0|0:0,0:0:0:0:
440,192,29968,1,0,0:0:0:0:
464,135,30182,2,0,P|463:86|449:39,1,99.0000030212403,2|0,0:0|0:0,0:0:0:0:
392,20,30825,1,0,0:0:0:0:
283,68,31253,2,0,P|259:72|235:68,1,49.5000015106202,8|0,0:0|0:0,0:0:0:0:
184,40,31682,2,0,P|159:36|135:40,1,49.5000015106202,2|0,0:0|0:0,0:0:0:0:
84,68,32111,6,0,L|78:166,1,99.0000030212403,4|0,0:0|0:0,0:0:0:0:
164,247,32968,2,0,P|213:248|259:263,1,99.0000030212403,8|0,0:0|0:0,0:0:0:0:
312,292,33611,1,2,0:0:0:0:
371,291,33825,2,0,P|372:267|380:244,1,49.5000015106202,2|0,0:0|0:0,0:0:0:0:
396,188,34253,2,0,P|395:163|387:140,1,49.5000015106202
364,88,34682,1,8,0:0:0:0:
261,27,35111,1,8,0:0:0:0:
207,52,35325,1,8,0:3:0:0:
155,84,35539,6,0,P|146:132|149:181,1,99.0000030212403,6|0,0:0|0:0,0:0:0:0:
192,296,36396,2,0,P|143:300|95:287,1,99.0000030212403,8|0,0:0|0:0,0:0:0:0:
40,304,37039,2,0,L|56:206,1,99.0000030212403,2|0,0:0|0:0,0:0:0:0:
28,156,37682,2,0,L|44:58,1,99.0000030212403,2|8,0:0|0:0,0:0:0:0:
160,32,38539,1,2,0:0:0:0:
208,64,38753,1,0,0:0:0:0:
260,88,38968,6,0,P|309:88|358:93,1,99.0000030212403,6|0,0:0|0:0,0:0:0:0:
412,200,39825,2,0,P|362:199|313:194,1,99.0000030212403,8|0,0:0|0:0,0:0:0:0:
256,184,40468,1,2,0:0:0:0:
199,159,40682,2,0,P|175:157|150:159,1,49.5000015106202,4|0,0:0|0:0,0:0:0:0:
104,196,41111,2,0,P|101:220|103:245,1,49.5000015106202,4|0,0:0|0:0,0:0:0:0:
128,300,41539,1,8,0:0:0:0:
240,300,41968,1,8,0:3:0:0:
296,280,42182,1,12,0:3:0:0:
348,280,42396,6,0,B|348:232|360:172|360:172|348:144|339:103,1,180,2|0,0:0|0:0,0:0:0:0:
136,28,44111,2,0,B|127:68|115:96|115:96|127:156|127:204,1,180,2|0,0:0|0:0,0:0:0:0:
332,268,45825,1,2,0:0:0:0:
256,192,46039,12,0,47539,0:0:0:0:
144,320,48396,5,0,0:0:0:0:
144,320,49253,6,0,P|139:266|150:213,1,107.999996704102,6|2,0:0|0:0,0:0:0:0:
216,100,50111,2,0,P|268:112|322:112,1,107.999996704102,8|2,0:0|0:0,0:0:0:0:
384,100,50753,1,0,0:0:0:0:
448,104,50968,2,0,L|451:157,1,53.9999983520508,2|0,0:0|0:0,0:0:0:0:
492,208,51396,2,0,L|488:261,1,53.9999983520508,2|0,0:0|0:0,0:0:0:0:
444,312,51825,2,0,P|390:317|337:306,1,107.999996704102,8|2,0:0|0:0,0:0:0:0:
244,216,52682,6,0,P|191:205|137:210,1,107.999996704102,4|2,0:0|0:0,0:0:0:0:
76,236,53325,1,0,0:0:0:0:
16,260,53539,2,0,L|37:154,1,107.999996704102,8|2,0:0|0:0,0:0:0:0:
60,96,54182,1,0,0:0:0:0:
116,64,54396,2,0,L|170:64,1,53.9999983520508,2|0,0:0|0:0,0:0:0:0:
228,88,54825,2,0,L|282:88,1,53.9999983520508,2|0,0:0|0:0,0:0:0:0:
339,116,55253,2,0,P|344:142|342:169,2,53.9999983520508,10|0|6,0:0|0:0|0:0,0:0:0:0:
292,236,56111,6,0,P|343:251|395:239,1,107.999996704102,6|0,0:0|0:0,0:0:0:0:
472,136,56968,1,8,0:0:0:0:
344,120,57396,1,2,0:0:0:0:
394,239,57825,2,0,P|388:292|403:343,1,107.999996704102,2|0,0:0|0:0,0:0:0:0:
500,256,58682,2,0,P|515:204|508:151,1,107.999996704102,8|2,0:0|0:0,0:0:0:0:
476,96,59325,1,0,0:0:0:0:
415,124,59539,6,0,P|362:128|310:115,1,107.999996704102,2|0,0:0|0:0,0:0:0:0:
252,88,60182,2,0,P|199:74|146:79,1,107.999996704102
102,126,60825,2,0,L|89:233,1,107.999996704102,2|0,0:0|0:0,0:0:0:0:
80,297,61468,1,0,0:0:0:0:
74,361,61682,2,0,P|99:368|126:370,2,53.9999983520508,2|2|8,0:0|0:0|0:0,0:0:0:0:
89,233,62539,1,8,0:3:0:0:
150,213,62753,1,8,0:3:0:0:
211,232,62968,6,0,P|263:216|317:210,1,107.999996704102,6|2,0:0|0:0,0:0:0:0:
444,208,63825,2,0,P|450:261|465:313,1,107.999996704102,8|2,0:0|0:0,0:0:0:0:
456,376,64468,1,2,0:0:0:0:
392,364,64682,2,0,P|365:360|338:359,1,53.9999983520508,0|2,0:0|0:0,0:0:0:0:
276,344,65111,2,0,P|249:347|222:348,1,53.9999983520508,2|0,0:0|0:0,0:0:0:0:
172,307,65539,2,0,P|191:258|189:204,1,107.999996704102,8|2,0:0|0:0,0:0:0:0:
140,84,66396,6,0,L|248:84,1,107.999996704102,4|2,0:0|0:0,0:0:0:0:
360,144,67253,2,0,P|311:165|277:207,1,107.999996704102,8|0,0:0|0:0,0:0:0:0:
244,264,67896,1,2,0:0:0:0:
180,248,68111,2,0,L|164:196,1,53.9999983520508
104,172,68539,2,6,L|88:120,1,53.9999983520508,2|2,0:0|0:0,0:0:0:0:
69,58,68968,1,12,0:0:0:0:
196,36,69396,1,8,0:0:0:0:
256,60,69611,1,8,0:0:0:0:
316,36,69825,6,0,L|369:129,1,107.999996704102,4|0,0:0|0:3,0:0:0:0:
372,260,70682,2,0,L|318:353,1,107.999996704102,2|0,0:0|0:3,0:0:0:0:
188,352,71539,2,4,L|134:258,1,107.999996704102,4|4,0:3|0:3,0:0:0:0:
128,128,72396,2,4,L|181:34,1,107.999996704102,4|4,0:3|0:3,0:0:0:0:
272,124,73253,6,0,P|328:132|384:116,2,107.999996704102,4|4|4,0:0|0:0|0:0,0:0:0:0:
143,142,74539,2,0,P|130:164|121:190,1,53.9999983520508,2|2,0:0|0:0,0:0:0:0:
121,256,74968,2,0,P|151:300|197:327,1,107.999996704102,8|2,0:0|0:0,0:0:0:0:
261,316,75611,1,2,0:0:0:0:
298,263,75825,2,8,P|292:209|266:162,1,107.999996704102,8|8,0:0|0:3,0:0:0:0:
232,107,76468,1,4,0:3:0:0:
197,58,76682,6,0,B|153:74|98:69,1,99.0000030212403,4|8,0:0|0:0,0:0:0:0:
30,165,77539,2,0,L|23:264,1,99.0000030212403,2|8,0:0|0:0,0:0:0:0:
21,322,78182,2,0,P|70:323|115:341,1,99.0000030212403,2|8,0:0|0:0,0:0:0:0:
162,378,78825,1,2,0:0:0:0:
229,278,79253,2,0,P|219:229|227:180,1,99.0000030212403,4|0,0:0|0:0,0:0:0:0:
276,148,79896,1,0,0:0:0:0:
328,180,80111,6,0,P|337:228|329:277,1,99.0000030212403,6|8,0:0|0:0,0:0:0:0:
224,328,80968,2,0,B|175:329|175:329|128:345,1,99.0000030212403,2|8,0:0|0:0,0:0:0:0:
72,328,81611,2,0,B|72:276|72:276|62:229,1,99.0000030212403,2|8,0:0|0:0,0:0:0:0:
44,172,82253,1,2,0:0:0:0:
128,88,82682,2,0,L|176:100,1,49.5000015106202,8|8,0:0|0:0,0:0:0:0:
233,115,83110,1,8,0:0:0:0:
289,127,83324,1,0,0:0:0:0:
346,142,83539,6,0,L|340:240,1,99.0000030212403,6|8,0:0|0:0,0:0:0:0:
444,298,84396,2,0,L|450:200,1,99.0000030212403,10|8,0:0|0:0,0:0:0:0:
480,148,85039,2,0,L|485:50,1,99.0000030212403,10|10,0:0|0:0,0:0:0:0:
448,4,85682,1,2,0:0:0:0:
332,32,86110,2,0,P|283:43|234:44,1,99.0000030212403,4|0,0:0|0:0,0:0:0:0:
176,44,86753,1,0,0:0:0:0:
132,84,86968,6,0,P|140:132|136:181,1,99.0000030212403,6|8,0:0|0:0,0:0:0:0:
144,300,87825,2,0,P|190:316|239:317,1,99.0000030212403,8|10,0:0|0:0,0:0:0:0:
300,316,88468,2,0,P|349:316|395:332,1,99.0000030212403,2|10,0:0|0:0,0:0:0:0:
448,360,89110,1,2,0:0:0:0:
464,240,89539,1,12,0:0:0:0:
468,180,89753,1,0,0:0:0:0:
460,119,89968,2,0,P|452:96|443:73,1,49.5000015106202,8|0,0:0|0:3,0:0:0:0:
388,56,90396,6,0,P|363:55|338:51,1,49.5000015106202,6|2,0:0|0:0,0:0:0:0:
220,39,91039,1,2,0:0:0:0:
220,98,91253,2,0,P|226:121|238:143,1,49.5000015106202,8|0,0:0|0:0,0:0:0:0:
296,156,91682,1,2,0:3:0:0:
356,168,91896,2,0,P|355:217|341:264,1,99.0000030212403,0|2,0:0|0:0,0:0:0:0:
308,316,92539,1,2,0:3:0:0:
252,340,92753,1,0,0:0:0:0:
196,320,92968,2,0,P|171:315|147:319,1,49.5000015106202,8|0,0:0|0:0,0:0:0:0:
96,344,93396,2,0,P|71:347|47:343,1,49.5000015106202,2|0,0:3|0:0,0:0:0:0:
28,288,93825,6,4,L|34:190,1,99.0000030212403,4|0,0:0|0:0,0:0:0:0:
107,95,94682,2,0,P|157:96|205:86,1,99.0000030212403,8|0,0:0|0:3,0:0:0:0:
264,72,95325,1,2,0:0:0:0:
324,64,95539,2,0,L|384:60,1,49.5000015106202,0|2,0:0|0:0,0:0:0:0:
431,59,95967,2,0,P|441:82|454:103,1,49.5000015106202,2|0,0:3|0:0,0:0:0:0:
475,160,96396,2,0,P|464:207|470:256,1,99.0000030212403,8|2,0:0|0:3,0:0:0:0:
508,304,97039,1,8,0:0:0:0:
472,352,97253,6,12,L|374:346,1,99.0000030212403,6|2,0:0|0:0,0:0:0:0:
272,284,98111,2,0,P|224:271|175:275,1,99.0000030212403,8|2,0:0|0:3,0:0:0:0:
116,283,98753,1,2,0:0:0:0:
110,224,98968,2,0,B|119:175,1,49.5000015106202,2|0,0:0|0:0,0:0:0:0:
168,140,99396,2,0,L|184:42,1,99.0000030212403,2|8,0:3|0:0,0:0:0:0:
68,16,100253,1,2,0:3:0:0:
36,64,100467,1,0,0:0:0:0:
12,120,100682,6,0,P|0:167|6:216,1,99.0000030212403,4|2,0:0|0:3,0:0:0:0:
76,316,101539,2,0,P|123:327|172:322,1,99.0000030212403,8|2,0:0|0:3,0:0:0:0:
232,312,102182,1,2,0:3:0:0:
287,331,102396,2,0,L|287:381,2,49.5000015106202,4|8|8,0:0|0:0|0:0,0:0:0:0:
371,247,103253,1,8,0:3:0:0:
406,199,103467,1,12,0:3:0:0:
440,151,103682,2,0,L|424:104,1,49.5000015106202,8|4,0:0|0:3,0:0:0:0:
404,55,104111,6,0,P|337:67|270:64,1,135,4|0,0:0|0:0,0:0:0:0:
220,44,104968,2,0,L|223:0,2,45
179,80,105611,2,0,P|137:95|93:100,1,90
44,124,106253,2,0,L|41:168,1,45
112,316,107111,1,0,0:0:0:0:
112,315,107539,6,0,P|153:299|198:295,1,90,2|0,0:0|0:0,0:0:0:0:
308,295,108396,2,0,P|330:296|352:301,2,45,0|0|0,0:0|0:0|0:0,0:0:0:0:
284,248,109039,2,0,P|292:181|280:114,1,135
216,27,110111,2,0,P|257:12|302:12,1,90
392,76,110968,6,0,L|403:165,1,90,2|0,0:0|0:0,0:0:0:0:
394,221,111611,2,0,B|316:236|252:96|116:224|152:340|236:372|284:341,1,405
392,328,113968,1,4,0:0:0:0:
496,272,114396,6,0,P|493:176|415:120,1,198.000006042481,4|8,0:0|0:0,0:0:0:0:
308,68,115682,1,2,0:0:0:0:
196,116,116111,2,0,L|146:120,1,49.5000015106202,12|2,0:0|0:0,0:0:0:0:
156,180,116539,2,0,L|205:173,1,49.5000015106202,12|2,0:0|0:0,0:0:0:0:
216,232,116968,2,0,L|166:236,1,49.5000015106202,12|2,0:0|0:0,0:0:0:0:
176,296,117396,2,0,L|225:289,1,49.5000015106202,12|8,0:0|0:3,0:0:0:0:
284,284,117825,6,0,B|384:296|384:296|478:273,1,198.000006042481,4|8,0:0|0:0,0:0:0:0:
476,153,119111,1,0,0:0:0:0:
468,96,119325,1,2,0:0:0:0:
468,96,119539,2,0,B|368:84|368:84|273:106,1,198.000006042481,6|0,0:0|0:0,0:0:0:0:
158,137,120825,1,0,0:0:0:0:
107,167,121039,1,0,0:0:0:0:
107,167,121253,6,0,P|91:213|103:260,1,99.0000030212403,6|4,0:0|0:3,0:0:0:0:
183,346,122111,2,0,P|229:362|276:350,1,99.0000030212403,4|4,0:3|0:3,0:0:0:0:
355,260,122968,2,0,P|366:212|350:166,1,99.0000030212403,12|8,0:0|0:3,0:0:0:0:
322,61,123825,6,2,P|255:70|191:50,1,135,4|0,1:0|1:0,1:0:0:0:
128,44,124682,6,0,L|124:151,1,107.999996704102,4|2,0:0|0:0,0:0:0:0:
183,267,125540,2,0,P|236:280|290:279,1,107.999996704102,8|2,0:0|0:0,0:0:0:0:
353,269,126182,1,0,0:0:0:0:
413,244,126396,2,0,L|437:196,1,53.9999983520508,2|0,0:0|0:0,0:0:0:0:
467,138,126825,2,0,L|469:84,1,53.9999983520508,2|0,0:0|0:0,0:0:0:0:
466,19,127254,2,0,P|413:8|359:13,1,107.999996704102,10|2,0:0|0:0,0:0:0:0:
255,90,128111,6,0,P|201:94|148:83,1,107.999996704102,6|2,0:0|0:0,0:0:0:0:
87,59,128754,1,0,0:0:0:0:
38,102,128969,2,0,L|17:208,1,107.999996704102,10|2,0:0|0:0,0:0:0:0:
14,272,129611,1,0,0:0:0:0:
56,320,129825,2,0,L|110:320,1,53.9999983520508,2|0,0:0|0:0,0:0:0:0:
171,340,130253,2,0,L|225:340,1,53.9999983520508,6|2,0:0|0:0,0:0:0:0:
290,340,130682,2,0,P|293:313|288:286,2,53.9999983520508,10|0|6,0:0|0:0|0:0,0:0:0:0:
408,287,131539,6,0,B|423:235|423:235|408:183,1,107.999996704102,6|2,0:0|0:0,0:0:0:0:
350,67,132397,1,10,0:0:0:0:
479,71,132825,1,2,0:0:0:0:
408,183,133253,2,0,B|356:198|356:198|303:192,1,107.999996704102,6|2,0:0|0:0,0:0:0:0:
189,128,134111,2,0,P|174:179|185:231,1,107.999996704102,10|2,0:0|0:0,0:0:0:0:
224,283,134754,1,0,0:0:0:0:
263,334,134968,6,0,P|209:336|155:338,1,107.999996704102,6|2,0:0|0:0,0:0:0:0:
90,339,135611,2,0,P|76:286|62:234,1,107.999996704102
62,169,136253,2,0,P|76:116|90:64,1,107.999996704102,2|0,0:0|0:0,0:0:0:0:
149,37,136897,1,0,0:0:0:0:
213,46,137111,2,0,L|266:55,2,53.9999983520508,4|0|8,0:0|0:0|0:0,0:0:0:0:
157,162,137968,1,8,0:3:0:0:
220,149,138182,1,8,0:3:0:0:
281,170,138397,6,0,L|387:189,1,107.999996704102,4|2,0:0|0:0,0:0:0:0:
512,224,139253,2,0,P|518:278|498:327,1,107.999996704102,10|2,0:0|0:0,0:0:0:0:
456,376,139897,1,0,0:0:0:0:
394,350,140111,2,0,P|368:345|341:345,1,53.9999983520508,2|2,0:0|0:0,0:0:0:0:
277,354,140539,2,0,P|250:354|223:348,1,53.9999983520508,2|0,0:0|0:0,0:0:0:0:
159,338,140968,2,0,P|139:287|142:234,1,107.999996704102,12|2,0:0|0:0,0:0:0:0:
108,108,141825,6,0,L|0:108,1,107.999996704102,6|2,0:0|0:0,0:0:0:0:
88,12,142682,2,0,L|196:12,1,107.999996704102,8|2,0:0|0:0,0:0:0:0:
260,16,143325,1,2,0:0:0:0:
322,28,143540,2,0,P|332:52|337:79,1,53.9999983520508,2|0,0:0|0:0,0:0:0:0:
345,143,143968,2,0,P|350:169|360:194,1,53.9999983520508,2|0,0:0|0:0,0:0:0:0:
397,247,144396,1,8,0:0:0:0:
471,141,144825,1,8,0:0:0:0:
498,199,145040,1,8,0:0:0:0:
497,263,145253,6,0,P|504:316|495:369,1,107.999996704102,4|4,0:0|0:3,0:0:0:0:
380,309,146111,2,0,P|326:299|273:307,1,107.999996704102,4|0,0:3|0:3,0:0:0:0:
155,360,146968,2,0,P|101:367|48:358,1,107.999996704102,4|0,0:0|0:3,0:0:0:0:
103,240,147825,2,0,P|110:186|101:133,1,107.999996704102,4|0,0:3|0:3,0:0:0:0:
192,40,148682,6,0,P|245:30|298:38,2,107.999996704102,4|4|4,0:0|0:0|0:0,0:0:0:0:
246,157,149968,2,0,P|273:162|300:163,1,53.9999983520508,2|2,0:0|0:0,0:0:0:0:
360,185,150396,2,0,P|413:178|466:187,1,107.999996704102,8|2,0:0|0:0,0:0:0:0:
459,122,151039,1,2,0:0:0:0:
438,59,151253,2,0,P|384:51|331:60,1,107.999996704102,8|2,0:0|0:3,0:0:0:0:
269,81,151897,1,4,0:3:0:0:
224,110,152111,6,0,P|179:118|135:115,1,90,4|2,0:0|0:0,0:0:0:0:
37,162,152968,2,0,B|38:251,1,90,12|0,0:0|0:0,0:0:0:0:
62,300,153611,1,8,0:0:0:0:
100,340,153825,2,0,P|144:332|188:339,1,90,6|2,0:0|0:0,0:0:0:0:
296,332,154682,2,0,P|280:289|252:255,1,90,12|8,0:0|0:0,0:0:0:0:
217,213,155325,1,8,0:0:0:0:
181,172,155539,6,0,B|136:172,2,45,6|2|2,0:0|0:0|0:0,0:0:0:0:
257,96,156396,1,12,0:0:0:0:
257,96,156825,2,0,B|302:96,2,45,2|2|2,0:0|0:0|0:0,0:0:0:0:
172,30,157682,1,12,0:0:0:0:
172,30,158111,2,0,L|128:30,1,45,8|0,0:0|0:0,0:0:0:0:
91,70,158539,2,0,L|46:70,1,45,8|8,0:0|0:0,0:0:0:0:
9,110,158968,6,0,P|18:153|12:198,1,90,6|2,0:0|0:0,0:0:0:0:
33,304,159825,2,0,P|77:309|121:300,1,90,12|2,0:0|0:0,0:0:0:0:
171,279,160468,1,8,0:0:0:0:
218,253,160682,2,0,P|261:243|306:249,1,90,2|0,0:0|0:0,0:0:0:0:
358,264,161325,1,0,0:0:0:0:
408,283,161539,2,0,L|415:193,1,90,12|2,0:0|0:0,0:0:0:0:
419,139,162182,1,8,0:0:0:0:
428,84,162396,6,0,L|462:56,2,45,6|2|2,0:0|0:0|0:0,0:0:0:0:
332,43,163253,1,12,0:0:0:0:
332,43,163682,2,0,L|298:14,2,45,2|2|2,0:0|0:0|0:0,0:0:0:0:
332,43,164539,2,0,L|326:133,1,90,12|8,0:0|0:3,0:0:0:0:
312,240,165396,1,8,0:0:0:0:
305,293,165611,1,8,0:0:0:0:
292,356,165825,6,0,P|239:343|185:345,1,107.999996704102,4|0,0:0|0:0,0:0:0:0:
84,268,166682,2,0,L|73:160,1,107.999996704102,8|0,0:0|0:0,0:0:0:0:
67,95,167325,1,2,0:0:0:0:
61,30,167539,2,0,P|34:32|7:28,2,53.9999983520508,0|2|2,0:0|0:0|0:0,0:0:0:0:
177,88,168396,2,0,P|230:93|283:85,1,107.999996704102,12|2,0:0|0:0,0:0:0:0:
406,115,169253,6,0,L|389:9,1,107.999996704102,6|2,0:0|0:0,0:0:0:0:
283,85,170111,2,0,L|301:191,1,107.999996704102,8|2,0:0|0:0,0:0:0:0:
313,255,170753,1,2,0:0:0:0:
331,317,170968,2,0,L|384:320,2,53.9999983520508,0|2|2,0:0|0:0|0:0,0:0:0:0:
203,292,171825,2,0,L|95:287,1,107.999996704102,12|8,0:0|0:0,0:0:0:0:
31,284,172468,1,8,0:0:0:0:
0,228,172682,5,6,0:0:0:0:
63,114,173111,1,8,0:0:0:0:
63,114,173325,1,2,0:0:0:0:
63,114,173539,1,8,0:0:0:0:
174,179,173968,1,6,0:0:0:0:
180,49,174396,1,8,0:0:0:0:
180,49,174611,1,2,0:0:0:0:
180,49,174825,1,8,0:0:0:0:
285,123,175253,1,8,0:3:0:0:
366,21,175682,1,8,0:0:0:0:
420,56,175896,1,8,0:0:0:0:
476,87,176111,6,0,L|471:140,1,53.9999983520508,6|0,0:0|0:0,0:0:0:0:
446,200,176539,2,0,L|441:253,1,53.9999983520508,6|0,0:0|0:0,0:0:0:0:
376,254,176968,2,0,L|371:200,1,53.9999983520508,6|0,0:0|0:0,0:0:0:0:
346,141,177396,2,0,L|341:87,1,53.9999983520508,6|0,0:0|0:0,0:0:0:0:
339,22,177825,2,0,B|306:16|276:28|276:28|233:7|233:7|181:30|175:87,1,215.999993408203,8|0,0:0|0:0,0:0:0:0:
257,287,179539,5,4,0:0:0:0:
175,85,193253,6,0,P|138:112|95:123,1,90,2|0,0:0|0:0,0:0:0:0:
24,208,194111,2,0,P|35:251|61:287,1,90,0|0,0:0|0:0,0:0:0:0:
108,316,194753,2,0,L|197:305,1,90,0|0,0:0|0:0,0:0:0:0:
252,300,195396,2,0,L|291:321,2,45,0|0|0,0:0|0:0|0:0,0:0:0:0:
192,212,196253,1,0,0:0:0:0:
192,156,196468,1,0,0:0:0:0:
192,104,196682,6,0,B|223:87|263:107|263:107|303:87|303:87|304:133|304:133|344:105|344:105|360:153|360:153|412:145|448:177,1,360,2|0,0:0|0:0,0:0:0:0:
449,178,200111,6,0,P|464:220|466:264,1,90,2|0,0:0|0:0,0:0:0:0:
380,328,200968,2,0,P|337:312|293:310,1,90,0|0,0:0|0:0,0:0:0:0:
240,312,201611,2,0,P|195:313|153:329,1,90,0|0,0:0|0:0,0:0:0:0:
108,356,202253,2,0,L|71:381,2,45,0|0|0,0:0|0:0|0:0,0:0:0:0:
124,248,203111,1,0,0:0:0:0:
128,196,203325,1,0,0:0:0:0:
136,144,203539,6,0,B|198:136|198:136|248:156|248:156|280:132|320:135|320:135|284:96|289:58|289:58|244:72|211:51,1,360,2|0,0:0|0:0,0:0:0:0:
210,51,206968,6,0,P|167:39|123:44,1,90,2|0,0:0|0:0,0:0:0:0:
44,120,207825,2,0,P|39:164|51:207,1,90
92,243,208468,2,0,P|136:239|179:251,1,90,0|0,0:0|0:0,0:0:0:0:
224,280,209111,2,0,L|221:324,2,45,0|0|0,0:0|0:0|0:0,0:0:0:0:
319,228,209968,2,0,L|355:256,1,45
396,289,210396,6,0,P|400:333|396:378,2,90,2|0|0,0:0|0:0|0:0,0:0:0:0:
445,236,211539,2,0,P|473:228|503:227,2,60
382,148,212539,1,0,0:0:0:0:
290,90,212968,2,0,P|246:90|202:80,1,90
149,64,213611,1,0,0:0:0:0:
101,38,213825,6,0,L|78:125,1,90,2|0,0:0|0:0,0:0:0:0:
57,231,214682,2,0,P|100:242|144:240,1,90
191,211,215325,2,0,P|235:208|278:220,1,90
327,247,215968,1,0,0:0:0:0:
371,275,216182,2,0,P|414:286|458:284,1,90,0|0,0:0|0:0,0:0:0:0:
512,272,216825,1,0,0:0:0:0:
508,220,217039,6,0,B|468:196|420:200|420:200|420:176|400:156|400:156|420:128|422:77|422:77|348:92|304:52|304:52|276:72|253:72,1,405,0|12,0:0|0:0,0:0:0:0:
151,107,219396,5,2,0:0:0:0:
173,212,219825,2,0,P|181:255|171:299,1,90,8|8,0:0|0:3,0:0:0:0:
178,353,220468,1,0,0:0:0:0:
236,380,220682,6,0,L|344:380,1,107.999996704102,6|0,0:0|0:0,0:0:0:0:
396,260,221539,2,0,L|288:260,1,107.999996704102,6|0,0:0|0:0,0:0:0:0:
240,140,222396,2,0,L|348:140,1,107.999996704102,6|0,0:0|0:0,0:0:0:0:
400,20,223253,2,0,L|292:20,1,107.999996704102,6|8,0:0|0:0,0:0:0:0:
172,64,224111,6,0,P|141:107|136:160,1,107.999996704102,6|0,0:0|0:0,0:0:0:0:
256,116,224968,2,0,P|286:72|291:19,1,107.999996704102,6|0,0:0|0:0,0:0:0:0:
416,56,225825,2,0,P|385:99|380:152,1,107.999996704102,6|8,0:0|0:0,0:0:0:0:
388,284,226682,1,8,0:0:0:0:
368,344,226896,1,8,0:0:0:0:
312,375,227111,2,0,P|285:379|258:377,1,53.9999983520508,8|8,0:0|0:0,0:0:0:0:
200,348,227539,6,0,P|146:339|93:349,1,107.999996704102,6|2,0:0|0:0,0:0:0:0:
16,244,228396,1,8,0:0:0:0:
144,224,228825,1,2,0:0:0:0:
64,124,229253,2,0,P|114:105|168:103,1,107.999996704102,2|2,0:0|0:0,0:0:0:0:
284,164,230111,1,8,0:0:0:0:
276,36,230539,1,0,0:0:0:0:
391,95,230968,6,0,P|407:147|405:201,1,107.999996704102,6|2,0:0|0:0,0:0:0:0:
376,260,231611,2,0,P|324:275|270:273,1,107.999996704102,2|0,0:0|0:0,0:0:0:0:
216,240,232253,2,0,P|205:215|200:188,1,53.9999983520508,2|0,0:0|0:0,0:0:0:0:
196,124,232682,6,0,P|144:139|90:137,1,107.999996704102,8|4,0:0|0:0,0:0:0:0:
128,12,233539,1,8,0:0:0:0:
256,12,233968,1,8,0:3:0:0:
320,12,234182,1,8,0:3:0:0:
384,12,234396,6,0,L|365:118,1,107.999996704102,4|0,0:0|0:0,0:0:0:0:
324,240,235253,2,0,P|270:246|221:226,1,107.999996704102,8|0,0:0|0:0,0:0:0:0:
180,176,235896,1,2,0:0:0:0:
180,112,236111,2,0,P|185:84|185:57,1,53.9999983520508,0|2,0:0|0:0,0:0:0:0:
136,16,236539,2,0,P|107:16|81:21,1,53.9999983520508,2|0,0:0|0:0,0:0:0:0:
20,40,236968,2,2,L|20:148,1,107.999996704102,12|2,0:0|0:0,0:0:0:0:
30,275,237825,6,0,P|83:283|136:275,1,107.999996704102,6|2,0:0|0:0,0:0:0:0:
236,192,238682,2,0,P|289:184|342:192,1,107.999996704102,8|0,0:0|0:0,0:0:0:0:
404,216,239324,1,2,0:0:0:0:
456,256,239539,2,0,P|466:284|471:311,1,53.9999983520508,0|2,0:0|0:0,0:0:0:0:
424,352,239968,2,0,P|397:357|372:367,1,53.9999983520508,2|0,0:0|0:0,0:0:0:0:
308,364,240396,1,12,0:0:0:0:
220,272,240824,1,8,0:0:0:0:
160,292,241039,1,8,0:0:0:0:
96,308,241253,6,0,P|86:254|93:201,1,107.999996704102,4|4,0:0|0:3,0:0:0:0:
212,148,242111,2,0,P|221:95|214:42,1,107.999996704102,4|4,0:3|0:3,0:0:0:0:
95,95,242968,2,0,P|85:148|92:202,1,107.999996704102,4|4,0:3|0:3,0:0:0:0:
40,320,243825,2,4,P|92:328|146:322,1,107.999996704102,2|2,0:0|0:0,0:0:0:0:
260,264,244682,6,0,P|269:316|262:370,2,107.999996704102,4|4|4,0:0|0:0|0:0,0:0:0:0:
208,144,245968,2,0,P|224:122|244:103,1,53.9999983520508,2|2,0:0|0:0,0:0:0:0:
304,84,246396,2,0,P|354:101|397:134,1,107.999996704102,8|2,0:0|0:0,0:0:0:0:
432,188,247039,1,2,0:0:0:0:
444,252,247253,2,0,P|452:305|444:358,1,107.999996704102,8|8,0:0|0:3,0:0:0:0:
384,384,247896,1,4,0:3:0:0:
332,352,248111,6,0,B|280:336|280:336|236:344,1,99.0000030212403,4|8,0:0|0:0,0:0:0:0:
120,372,248968,2,0,B|76:380|76:380|24:364,1,99.0000030212403,8|2,0:0|0:0,0:0:0:0:
12,304,249611,2,0,L|19:205,1,99.0000030212403,8|2,0:0|0:0,0:0:0:0:
22,145,250254,1,8,0:0:0:0:
108,60,250682,2,0,P|156:69|205:61,1,99.0000030212403,4|0,0:0|0:0,0:0:0:0:
264,44,251325,1,0,0:0:0:0:
320,32,251539,6,0,P|328:80|318:129,1,99.0000030212403,6|2,0:0|0:0,0:0:0:0:
260,232,252396,2,0,P|211:240|162:230,1,99.0000030212403,8|2,0:0|0:0,0:0:0:0:
108,212,253039,2,0,P|98:260|106:309,1,99.0000030212403,8|2,0:0|0:0,0:0:0:0:
144,352,253682,1,0,0:0:0:0:
262,337,254111,1,8,0:0:0:0:
376,376,254539,1,8,0:0:0:0:
432,352,254753,1,8,0:0:0:0:
484,324,254968,6,0,L|490:226,1,99.0000030212403,6|8,0:0|0:0,0:0:0:0:
500,108,255825,2,0,P|452:100|402:103,1,99.0000030212403,8|2,0:0|0:0,0:0:0:0:
348,128,256468,2,0,P|298:131|249:123,1,99.0000030212403,8|2,0:0|0:0,0:0:0:0:
200,92,257111,1,8,0:0:0:0:
96,36,257539,2,0,L|74:132,1,99.0000030212403,4|0,0:0|0:0,0:0:0:0:
64,192,258182,1,0,0:0:0:0:
56,252,258396,6,0,L|155:258,1,99.0000030212403,6|8,0:0|0:0,0:0:0:0:
276,260,259253,2,0,L|375:254,1,99.0000030212403,8|2,0:0|0:0,0:0:0:0:
423,219,259896,2,0,P|423:170|432:121,1,99.0000030212403,8|2,0:0|0:0,0:0:0:0:
452,64,260539,1,8,0:0:0:0:
336,44,260968,1,8,0:0:0:0:
276,44,261182,1,8,0:0:0:0:
216,44,261396,1,8,0:0:0:0:
156,44,261611,1,4,0:0:0:0:
