osu file format v14

[General]
AudioFilename: audio.mp3
AudioLeadIn: 0
PreviewTime: 123825
Countdown: 0
SampleSet: Soft
StackLeniency: 0.7
Mode: 0
LetterboxInBreaks: 0
WidescreenStoryboard: 0

[Editor]
Bookmarks: 114396,239218
DistanceSpacing: 1.6
BeatDivisor: 12
GridSize: 32
TimelineZoom: 2.1

[Metadata]
Title:Stay Alive
TitleUnicode:Stay Alive
Artist:EMILIA (CV: Rie Takahashi)
ArtistUnicode:エミリア(CV:高橋李依)
Creator:Shurelia
Version:Insane
Source:Re:ゼロから始める異世界生活
Tags:Kalibe Blizs Fantastica Re: Zero Kara Hajimeru Isekai Seikatsu Life in a different world from zero Re:zero Ed Ending full ver EMT
BeatmapID:1350071
BeatmapSetID:636235

[Difficulty]
HPDrainRate:6.4
CircleSize:4.2
OverallDifficulty:7.6
ApproachRate:8.2
SliderMultiplier:2
SliderTickRate:1

[Events]
//Background and Video events
0,0,"emilianew.jpg",0,0
//Break Periods
2,179739,192533
//Storyboard Layer 0 (Background)
//Storyboard Layer 1 (Fail)
//Storyboard Layer 2 (Pass)
//Storyboard Layer 3 (Foreground)
//Storyboard Sound Samples

[TimingPoints]
1254,857.142857142857,4,2,2,28,1,0
14968,-83.3333333333333,4,2,1,34,0,0
32111,-83.3333333333333,4,2,2,34,0,0
32218,-83.3333333333333,4,2,1,34,0,0
42396,-125,4,2,2,20,0,0
47968,-125,4,2,2,5,0,0
48396,-166.666666666667,4,2,1,5,0,0
49253,-62.5,4,2,1,62,0,1
49575,-62.5,4,2,1,5,0,1
49682,-62.5,4,2,1,62,0,1
50432,-62.5,4,2,1,5,0,1
50539,-62.5,4,2,1,62,0,1
52146,-62.5,4,2,1,5,0,1
52253,-62.5,4,2,1,62,0,1
53861,-62.5,4,2,1,5,0,1
53968,-62.5,4,2,1,62,0,1
54718,-62.5,4,2,1,5,0,1
54825,-62.5,4,2,1,62,0,1
56003,-62.5,4,2,1,5,0,1
56111,-62.5,4,2,1,62,0,1
58146,-62.5,4,2,1,5,0,1
58253,-62.5,4,2,1,62,0,1
62753,-62.5,4,2,1,62,0,0
62968,-62.5,4,2,1,62,0,1
63289,-62.5,4,2,1,5,0,1
63396,-62.5,4,2,1,62,0,1
64146,-62.5,4,2,1,5,0,1
64253,-62.5,4,2,1,62,0,1
65861,-62.5,4,2,1,5,0,1
65968,-62.5,4,2,1,62,0,1
68432,-62.5,4,2,1,5,0,1
68539,-62.5,4,2,1,62,0,1
76682,-83.3333333333333,4,2,1,38,0,0
104111,-100,4,2,2,24,0,0
113968,-100,4,2,1,39,0,0
114396,-83.3333333333333,4,2,1,40,0,0
117825,-100,4,2,1,42,0,0
123825,-166.666666666667,4,2,1,35,0,0
124682,-62.5,4,2,1,62,0,1
125003,-62.5,4,2,1,5,0,1
125111,-62.5,4,2,1,62,0,1
125861,-62.5,4,2,1,5,0,1
125968,-62.5,4,2,1,62,0,1
127575,-62.5,4,2,1,5,0,1
127682,-62.5,4,2,1,62,0,1
129289,-62.5,4,2,1,5,0,1
129396,-62.5,4,2,1,62,0,1
130146,-62.5,4,2,1,5,0,1
130253,-62.5,4,2,1,62,0,1
131432,-62.5,4,2,1,5,0,1
131539,-62.5,4,2,1,62,0,1
133575,-62.5,4,2,1,5,0,1
133682,-62.5,4,2,1,62,0,1
138182,-62.5,4,2,1,62,0,0
138396,-62.5,4,2,1,62,0,1
138718,-62.5,4,2,1,5,0,1
138825,-62.5,4,2,1,62,0,1
139575,-62.5,4,2,1,5,0,1
139682,-62.5,4,2,1,62,0,1
141289,-62.5,4,2,1,5,0,1
141396,-62.5,4,2,1,62,0,1
143861,-62.5,4,2,1,5,0,1
143968,-62.5,4,2,1,62,0,1
152111,-83.3333333333333,4,2,1,52,0,0
165825,-76.9230769230769,4,2,1,55,0,1
169039,-76.9230769230769,4,2,1,55,0,0
169253,-76.9230769230769,4,2,1,55,0,1
172468,-76.9230769230769,4,2,1,55,0,0
172682,-76.9230769230769,4,2,1,55,0,1
179539,-83.3333333333333,4,2,1,40,0,0
193253,-100,4,2,2,24,0,0
217039,-166.666666666667,4,2,1,5,0,0
218968,-60.6060606060606,4,2,1,66,0,1
219825,-60.6060606060606,4,2,1,66,0,0
220682,-60.6060606060606,4,2,1,66,0,1
221111,-60.6060606060606,4,2,1,66,0,0
221539,-60.6060606060606,4,2,1,66,0,1
221968,-60.6060606060606,4,2,1,66,0,0
222396,-60.6060606060606,4,2,1,66,0,1
222825,-60.6060606060606,4,2,1,66,0,0
223253,-60.6060606060606,4,2,1,66,0,1
223682,-60.6060606060606,4,2,1,66,0,0
224111,-60.6060606060606,4,2,1,66,0,1
224539,-60.6060606060606,4,2,1,66,0,0
224968,-60.6060606060606,4,2,1,66,0,1
225396,-60.6060606060606,4,2,1,66,0,0
225825,-60.6060606060606,4,2,1,66,0,1
226253,-60.6060606060606,4,2,1,66,0,0
227539,-60.6060606060606,4,2,1,66,0,1
231289,-60.6060606060606,4,2,1,5,0,1
231396,-60.6060606060606,4,2,1,66,0,1
234182,-60.6060606060606,4,2,1,66,0,0
234396,-60.6060606060606,4,2,1,66,0,1
234718,-60.6060606060606,4,2,1,5,0,1
234825,-60.6060606060606,4,2,1,66,0,1
237289,-60.6060606060606,4,2,1,5,0,1
237396,-60.6060606060606,4,2,1,66,0,1
248111,-90.9090909090909,4,2,1,42,0,0

[Colours]
Combo1 : 255,128,64
Combo2 : 173,173,173
Combo3 : 170,85,0
Combo4 : 103,28,227
SliderBorder : 207,142,41
SliderTrackOverride : 25,24,25

[HitObjects]
160,88,1254,6,0,P|209:88|258:77,1,100,2|0,0:0|0:0,0:0:0:0:
392,12,2111,2,0,P|396:36|406:59,1,50,2|0,0:0|0:0,0:0:0:0:
452,120,2539,1,0,0:0:0:0:
504,260,2968,2,0,P|458:241|408:240,1,100,2|0,0:0|0:0,0:0:0:0:
500,360,3825,2,0,P|460:329|412:316,1,100,2|0,0:0|0:0,0:0:0:0:
212,232,4682,6,0,L|186:328,1,100,2|0,0:0|0:0,0:0:0:0:
156,180,5539,2,0,L|168:132,1,50,2|0,0:0|0:0,0:0:0:0:
192,60,5967,1,0,0:0:0:0:
336,75,6396,2,0,P|295:104|246:116,1,100,2|0,0:0|0:0,0:0:0:0:
252,248,7253,2,0,P|236:267|223:288,2,50,2|0|0,0:0|0:0|0:0,0:0:0:0:
348,244,7896,1,0,0:0:0:0:
436,300,8111,6,0,P|436:250|452:203,1,100,2|0,0:0|0:0,0:0:0:0:
364,324,8968,2,0,P|340:316|315:311,1,50,2|0,0:0|0:0,0:0:0:0:
240,316,9396,1,0,0:0:0:0:
92,348,9825,2,0,L|116:250,1,100,2|0,0:0|0:0,0:0:0:0:
228,148,10682,2,0,L|203:245,1,100,2|0,0:0|0:0,0:0:0:0:
150,180,11325,2,0,L|156:153,1,25
188,72,11539,6,0,P|138:72|93:94,1,100,2|0,0:0|0:0,0:0:0:0:
48,236,12396,2,0,L|52:186,1,50,2|0,0:0|0:0,0:0:0:0:
24,116,12824,1,0,0:0:0:0:
96,304,13253,2,0,P|139:327|189:331,1,100,2|0,0:0|0:0,0:0:0:0:
340,312,14111,5,2,0:0:0:0:
252,272,14325,1,0,0:0:0:0:
404,244,14539,1,2,0:0:0:0:
268,368,14753,1,0,0:0:0:0:
460,288,14968,6,0,L|452:198,1,89.9999972534181,4|0,0:0|0:0,0:0:0:0:
472,164,15396,2,0,L|486:150,4,19.9999993896485,8|8|8|8|8,0:0|0:0|0:0|0:0|0:0,0:0:0:0:
380,152,15825,2,0,P|350:155|320:156,1,59.9999981689454,10|0,0:0|0:0,0:0:0:0:
244,108,16253,1,8,0:0:0:0:
386,185,16468,2,0,P|356:181|327:173,1,59.9999981689454,2|0,0:0|0:0,0:0:0:0:
266,107,16896,1,8,0:0:0:0:
387,215,17111,2,0,P|379:245|377:274,2,59.9999981689454,2|0|4,0:0|0:0|0:0,0:0:0:0:
464,264,17753,1,0,0:0:0:0:
428,348,17968,2,0,P|398:351|368:350,1,59.9999981689454,4|0,0:0|0:0,0:0:0:0:
220,348,18396,6,0,P|175:348|132:336,1,89.9999972534181,6|0,0:0|0:0,0:0:0:0:
100,312,18825,2,0,L|87:296,4,19.9999993896485,8|8|8|8|0,0:0|0:0|0:0|0:0|0:0,0:0:0:0:
152,252,19253,2,0,P|165:225|174:196,1,59.9999981689454,10|0,0:0|0:0,0:0:0:0:
188,108,19682,1,8,0:0:0:0:
171,276,19896,2,0,P|176:247|178:217,1,59.9999981689454,2|0,0:0|0:0,0:0:0:0:
168,128,20325,1,8,0:0:0:0:
268,240,20539,2,0,L|300:244,2,29.9999990844727,2|0|0,0:0|0:0|0:0,0:0:0:0:
168,128,20968,5,8,0:0:0:0:
292,168,21182,1,8,0:0:0:0:
171,276,21396,1,8,0:0:0:0:
244,100,21611,1,8,0:0:0:0:
300,276,21825,6,0,P|342:291|386:293,1,89.9999972534181,6|0,0:0|0:0,0:0:0:0:
424,304,22253,2,0,L|436:320,4,19.9999993896485,8|8|8|8|8,0:0|0:0|0:0|0:0|0:0,0:0:0:0:
443,227,22682,2,0,P|444:198|451:169,1,59.9999981689454,8|0,0:0|0:0,0:0:0:0:
488,84,23111,1,8,0:0:0:0:
440,244,23325,2,0,P|442:214|452:186,1,59.9999981689454,2|0,0:0|0:0,0:0:0:0:
496,104,23754,1,8,0:0:0:0:
364,186,23968,2,0,P|334:186|305:177,2,59.9999981689454,2|0|4,0:0|0:3|0:0,0:0:0:0:
404,108,24611,1,0,0:0:0:0:
440,244,24825,2,0,P|413:258|384:265,1,59.9999981689454,4|2,0:0|0:3,0:0:0:0:
256,312,25253,6,0,P|216:332|171:336,1,89.9999972534181,6|0,0:0|0:0,0:0:0:0:
132,332,25682,2,0,L|112:328,4,19.9999993896485,8|8|8|8|8,0:0|0:0|0:0|0:0|0:0,0:0:0:0:
160,268,26111,2,0,P|160:238|155:208,1,59.9999981689454,10|0,0:0|0:0,0:0:0:0:
128,124,26539,1,8,0:0:0:0:
252,212,26753,2,0,P|252:182|248:152,1,59.9999981689454,2|0,0:0|0:0,0:0:0:0:
224,64,27182,1,8,0:0:0:0:
344,152,27396,2,0,P|344:122|340:92,1,59.9999981689454,2|0,0:0|0:0,0:0:0:0:
224,64,27825,5,8,0:0:0:0:
168,232,28039,1,8,0:3:0:0:
132,44,28253,1,4,0:3:0:0:
52,216,28468,1,8,0:3:0:0:
192,0,28682,5,6,0:0:0:0:
216,140,28896,2,0,P|240:159|258:183,1,59.9999981689454,2|0,0:0|0:0,0:0:0:0:
320,248,29325,1,0,0:0:0:0:
424,140,29539,2,0,P|400:158|382:182,1,59.9999981689454,8|0,0:0|0:0,0:0:0:0:
320,248,29968,1,0,0:0:0:0:
460,276,30182,6,0,P|459:246|452:217,1,59.9999981689454,2|0,0:0|0:0,0:0:0:0:
380,316,30611,1,2,0:0:0:0:
236,276,30825,1,0,0:0:0:0:
320,248,31039,1,0,0:0:0:0:
160,324,31253,2,0,P|152:295|151:265,1,59.9999981689454,8|0,0:0|0:0,0:0:0:0:
216,137,31682,2,0,P|215:167|208:196,1,59.9999981689454
72,216,32003,1,0,0:0:0:0:
60,196,32111,6,0,L|75:138,1,59.9999981689454,4|2,0:0|0:0,0:0:0:0:
144,84,32539,1,0,0:0:0:0:
216,137,32753,1,2,0:0:0:0:
348,20,32968,2,0,L|376:136,1,119.999996337891,8|0,0:0|0:0,0:0:0:0:
404,224,33611,1,2,0:0:0:0:
452,304,33825,2,0,L|511:300,1,59.9999981689454,0|2,0:0|0:0,0:0:0:0:
344,292,34253,2,0,L|284:288,1,59.9999981689454
192,284,34682,1,8,0:0:0:0:
316,216,34896,1,2,0:0:0:0:
192,284,35111,1,8,0:0:0:0:
304,364,35325,1,8,0:3:0:0:
112,300,35539,6,0,L|123:241,1,59.9999981689454,6|2,0:0|0:0,0:0:0:0:
180,144,35968,2,0,L|168:85,1,59.9999981689454
344,132,36396,2,0,P|319:148|290:158,1,59.9999981689454,8|0,0:0|0:0,0:0:0:0:
200,148,36825,1,0,0:0:0:0:
356,156,37039,2,0,P|328:166|298:168,1,59.9999981689454,2|0,0:0|0:0,0:0:0:0:
213,135,37468,1,2,0:0:0:0:
284,80,37682,2,0,P|314:72|343:68,1,59.9999981689454,2|0,0:0|0:0,0:0:0:0:
431,183,38111,2,0,P|439:213|443:242,1,59.9999981689454,8|0,0:0|0:0,0:0:0:0:
368,366,38539,2,0,P|372:337|380:308,1,59.9999981689454,2|0,0:0|0:0,0:0:0:0:
324,244,38861,1,0,0:0:0:0:
307,228,38968,6,0,P|278:225|249:216,1,59.9999981689454,6|2,0:0|0:0,0:0:0:0:
168,184,39396,2,0,P|138:186|109:195,1,59.9999981689454
160,324,39825,2,0,L|176:266,1,59.9999981689454,8|0,0:0|0:0,0:0:0:0:
88,276,40253,1,0,0:0:0:0:
252,316,40468,1,2,0:0:0:0:
231,127,40682,2,0,P|202:93|167:66,1,89.9999972534181,4|0,0:0|0:0,0:0:0:0:
92,67,41111,2,0,P|58:95|32:132,1,89.9999972534181,4|0,0:0|0:0,0:0:0:0:
132,176,41539,2,0,L|132:236,1,59.9999981689454,8|2,0:0|0:0,0:0:0:0:
136,328,41968,5,8,0:3:0:0:
224,332,42182,1,12,0:3:0:0:
284,256,42396,6,0,L|363:252,1,80,2|0,0:0|0:0,0:0:0:0:
420,64,43253,1,0,0:0:0:0:
336,152,43682,2,0,L|256:157,1,80,0|2,0:0|0:0,0:0:0:0:
48,40,44753,1,0,0:0:0:0:
48,40,44968,2,0,L|127:45,1,80
256,192,45825,5,2,0:0:0:0:
256,192,45932,12,0,47968,0:0:0:0:
217,173,48396,6,0,P|192:136|170:174,1,104.999996795654
265,92,49253,6,0,P|213:63|154:71,1,120,6|0,0:0|0:0,0:0:0:0:
126,99,49682,1,2,0:0:0:0:
217,173,49896,1,2,0:0:0:0:
358,119,50111,2,0,P|389:169|397:228,1,120,8|0,0:0|0:0,0:0:0:0:
396,268,50539,1,2,0:0:0:0:
309,350,50753,1,0,0:0:0:0:
282,231,50968,2,0,P|275:192|255:158,1,80,2|0,0:0|0:0,0:0:0:0:
192,301,51396,2,0,P|157:320|118:327,1,80,2|0,0:0|0:0,0:0:0:0:
108,184,51825,2,0,B|92:124|92:124|94:66,1,120,12|0,0:0|0:0,0:0:0:0:
96,28,52253,1,2,0:0:0:0:
212,36,52468,1,2,0:0:0:0:
370,127,52682,6,0,P|331:131|292:123,1,80,4|0,0:0|0:0,0:0:0:0:
212,36,53111,1,2,0:0:0:0:
332,24,53325,1,0,0:0:0:0:
191,136,53539,2,0,P|164:189|153:247,1,120,10|0,0:0|0:0,0:0:0:0:
176,280,53968,2,0,P|215:284|253:298,1,80,2|0,0:0|0:0,0:0:0:0:
431,347,54396,2,0,P|405:294|365:250,1,120,2|0,0:0|0:0,0:0:0:0:
360,208,54825,2,0,L|440:208,1,80,6|0,0:0|0:0,0:0:0:0:
336,368,55253,1,8,0:0:0:0:
240,228,55468,1,0,0:0:0:0:
92,384,55682,2,0,L|101:264,1,120,6|0,0:0|0:0,0:0:0:0:
176,172,56111,6,0,P|249:201|329:201,1,160,6|2,0:0|0:0,0:0:0:0:
440,152,56753,1,0,0:0:0:0:
338,87,56968,2,0,P|300:77|260:75,1,80,8|0,0:0|0:0,0:0:0:0:
440,152,57396,2,0,P|451:189|450:229,1,80,2|0,0:0|0:0,0:0:0:0:
371,359,57825,2,0,P|314:343|254:342,1,120,2|0,0:0|0:0,0:0:0:0:
220,360,58253,2,0,P|181:363|141:357,1,80,2|0,0:0|0:0,0:0:0:0:
284,244,58682,2,0,P|323:240|363:246,1,80,8|0,0:0|0:0,0:0:0:0:
460,316,59111,1,2,0:0:0:0:
460,316,59325,1,0,0:0:0:0:
316,128,59539,6,0,B|276:116|276:116|237:111,1,80,2|0,0:0|0:0,0:0:0:0:
132,172,59968,1,2,0:0:0:0:
136,52,60182,1,0,0:0:0:0:
240,232,60396,2,0,B|280:220|280:220|318:215,1,80,8|0,0:0|0:0,0:0:0:0:
436,196,60825,1,2,0:0:0:0:
396,308,61039,1,0,0:0:0:0:
280,336,61253,2,0,B|241:339|241:339|200:334,1,80,2|0,0:0|0:0,0:0:0:0:
108,260,61682,2,0,B|107:220|107:220|115:180,1,80,6|0,0:0|0:0,0:0:0:0:
200,68,62111,5,8,0:0:0:0:
200,68,62218,1,8,0:0:0:0:
200,68,62325,1,8,0:0:0:0:
204,236,62539,1,8,0:3:0:0:
204,236,62646,1,8,0:3:0:0:
204,236,62753,1,8,0:3:0:0:
396,336,62968,6,0,B|452:216,1,120,6|0,0:0|0:0,0:0:0:0:
468,192,63396,1,2,0:0:0:0:
472,72,63611,1,2,0:0:0:0:
303,44,63825,2,0,P|244:51|184:52,1,120,8|0,0:0|0:0,0:0:0:0:
144,48,64253,1,0,0:0:0:0:
60,132,64468,1,2,0:0:0:0:
168,184,64682,2,0,L|156:264,1,80,0|2,0:0|0:0,0:0:0:0:
280,160,65111,2,0,L|292:80,1,80,2|0,0:0|0:0,0:0:0:0:
407,264,65539,2,0,P|349:275|295:301,1,120,8|0,0:0|0:0,0:0:0:0:
264,324,65968,1,2,0:0:0:0:
216,216,66182,1,0,0:0:0:0:
324,40,66396,6,0,L|334:199,1,160,6|2,0:0|0:0,0:0:0:0:
292,312,67039,1,2,0:0:0:0:
107,311,67253,2,0,P|95:274|99:234,1,80,8|0,0:0|0:0,0:0:0:0:
196,74,67682,2,0,P|200:114|188:152,1,80,0|2,0:0|0:0,0:0:0:0:
144,11,68111,2,0,P|202:0|258:19,1,120
292,44,68539,2,0,P|328:60|367:65,1,80,2|2,0:0|0:0,0:0:0:0:
480,232,68968,2,0,P|479:172|463:114,1,120,12|0,0:0|0:0,0:0:0:0:
364,156,69396,6,0,L|332:180,1,40,8|0,0:0|0:0,0:0:0:0:
368,280,69611,2,0,L|407:282,1,40,8|0,0:0|0:0,0:0:0:0:
488,328,69825,5,4,0:0:0:0:
212,56,70253,1,4,0:3:0:0:
264,336,70682,1,4,0:3:0:0:
452,40,71111,1,4,0:3:0:0:
112,192,71539,1,4,0:3:0:0:
432,264,71968,1,4,0:3:0:0:
164,52,72396,1,4,0:3:0:0:
228,100,72611,1,0,0:0:0:0:
294,55,72825,1,4,0:3:0:0:
231,4,73039,1,0,0:0:0:0:
112,192,73253,6,0,L|191:194,1,80,4|0,0:0|0:0,0:0:0:0:
416,256,73682,2,0,L|336:258,1,80,4|0,0:0|0:0,0:0:0:0:
112,180,74111,2,0,L|191:182,1,80,4|0,0:0|0:0,0:0:0:0:
416,268,74540,2,0,L|336:270,1,80,4|0,0:0|0:0,0:0:0:0:
176,272,74968,1,8,0:0:0:0:
320,180,75182,1,2,0:0:0:0:
236,360,75396,1,8,0:3:0:0:
112,180,75611,1,2,0:0:0:0:
320,180,75825,6,0,P|321:153|313:127,1,53.3333333333333,8|8,0:0|0:0,0:0:0:0:
244,88,76111,1,8,0:0:0:0:
248,168,76253,2,0,P|246:194|254:219,1,53.3333333333333,8|8,0:3|0:3,0:0:0:0:
296,288,76539,1,4,0:3:0:0:
362,340,76682,6,0,L|452:340,1,89.9999972534181,4|0,0:0|0:0,0:0:0:0:
491,342,77111,2,0,L|504:358,4,19.9999993896485,8|8|8|8|8,0:0|0:0|0:0|0:0|0:0,0:0:0:0:
451,260,77540,2,0,P|421:261|392:264,1,59.9999981689454,10|0,0:0|0:0,0:0:0:0:
492,180,77968,1,8,0:0:0:0:
348,155,78182,2,0,P|378:154|408:152,1,59.9999981689454,2|0,0:0|0:0,0:0:0:0:
476,92,78611,1,8,0:0:0:0:
323,127,78825,2,0,P|295:119|265:118,2,59.9999981689454,2|0|4,0:0|0:0|0:0,0:0:0:0:
407,152,79468,1,0,0:0:0:0:
483,268,79682,2,0,P|482:238|474:210,1,59.9999981689454,4|2,0:0|0:3,0:0:0:0:
400,300,80111,6,0,P|355:300|311:287,1,89.9999972534181,6|0,0:0|0:0,0:0:0:0:
284,260,80539,2,0,L|282:240,4,19.9999993896485,8|8|8|8|8,0:0|0:0|0:0|0:0|0:0,0:0:0:0:
208,324,80968,2,0,P|179:315|152:302,1,59.9999981689454,10|0,0:0|0:0,0:0:0:0:
112,224,81396,1,8,0:0:0:0:
267,331,81611,2,0,P|237:329|207:323,1,59.9999981689454,2|0,0:0|0:0,0:0:0:0:
204,232,82039,1,8,0:0:0:0:
326,322,82253,2,0,P|296:327|266:330,1,59.9999981689454,2|0,0:0|0:0,0:0:0:0:
204,232,82683,5,8,0:0:0:0:
396,304,82897,1,8,0:0:0:0:
316,228,83111,1,8,0:0:0:0:
266,330,83326,1,8,0:0:0:0:
260,144,83539,6,0,P|302:128|347:127,1,89.9999972534181,6|0,0:0|0:0,0:0:0:0:
384,140,83968,2,0,L|396:155,4,19.9999993896485,8|8|8|8|8,0:0|0:0|0:0|0:0|0:0,0:0:0:0:
396,44,84396,2,0,P|366:36|337:35,1,59.9999981689454,10|0,0:0|0:0,0:0:0:0:
248,52,84825,1,8,0:0:0:0:
316,206,85039,2,0,P|314:236|304:264,1,59.9999981689454,2|0,0:0|0:0,0:0:0:0:
264,348,85469,1,8,0:0:0:0:
204,203,85682,2,0,P|206:173|216:145,2,59.9999981689454,2|0|4,0:0|0:0|0:0,0:0:0:0:
259,274,86325,1,0,0:0:0:0:
373,225,86539,2,0,P|343:219|316:206,1,59.9999981689454,4|2,0:0|0:0,0:0:0:0:
324,48,86968,6,0,P|364:27|408:23,1,89.9999972534181,6|0,0:0|0:0,0:0:0:0:
448,28,87396,2,0,L|467:33,4,19.9999993896485,8|8|8|8|8,0:0|0:0|0:0|0:0|0:0,0:0:0:0:
430,102,87825,2,0,P|424:132|426:162,1,59.9999981689454,8|0,0:0|0:0,0:0:0:0:
456,248,88254,1,8,0:0:0:0:
324,280,88468,2,0,P|295:276|265:278,1,59.9999981689454,2|0,0:0|0:0,0:0:0:0:
196,340,88896,1,8,0:0:0:0:
173,192,89111,2,0,P|172:222|176:252,1,59.9999981689454,2|0,0:0|0:0,0:0:0:0:
296,368,89540,5,12,0:0:0:0:
175,251,89754,1,0,0:0:0:0:
68,356,89968,1,8,0:0:0:0:
52,332,90075,1,8,0:0:0:0:
40,304,90182,1,8,0:3:0:0:
40,276,90289,1,12,0:3:0:0:
44,244,90397,5,6,0:0:0:0:
44,156,90611,2,0,P|42:126|48:96,1,59.9999981689454,2|0,0:0|0:0,0:0:0:0:
108,28,91040,1,0,0:0:0:0:
201,145,91253,2,0,P|177:127|160:104,1,59.9999981689454,8|0,0:0|0:0,0:0:0:0:
208,28,91683,1,2,0:3:0:0:
343,63,91896,2,0,P|313:71|284:72,1,59.9999981689454,2|0,0:0|0:0,0:0:0:0:
208,28,92326,1,2,0:0:0:0:
296,172,92540,1,2,0:3:0:0:
160,104,92754,1,0,0:0:0:0:
248,252,92968,2,0,P|256:281|257:311,1,59.9999981689454,8|0,0:0|0:0,0:0:0:0:
296,172,93397,2,0,P|316:193|332:219,1,59.9999981689454,2|0,0:3|0:0,0:0:0:0:
388,320,93718,1,0,0:0:0:0:
410,346,93825,6,0,P|409:317|414:287,1,59.9999981689454,4|2,0:0|0:3,0:0:0:0:
456,208,94253,1,0,0:0:0:0:
496,128,94468,1,2,0:0:0:0:
363,24,94682,2,0,P|368:83|391:138,1,119.999996337891,8|2,0:0|0:3,0:0:0:0:
444,212,95326,1,2,0:0:0:0:
308,164,95540,2,0,P|278:164|248:168,1,59.9999981689454,0|2,0:0|0:0,0:0:0:0:
144,256,95968,2,0,P|173:255|203:251,1,59.9999981689454,2|0,0:3|0:0,0:0:0:0:
292,248,96397,1,8,0:0:0:0:
152,172,96611,1,2,0:0:0:0:
256,332,96825,1,2,0:3:0:0:
384,196,97039,1,8,0:0:0:0:
384,196,97146,1,8,0:0:0:0:
384,196,97253,6,0,P|393:224|397:254,1,59.9999981689454,6|0,0:0|0:0,0:0:0:0:
482,224,97682,1,2,0:0:0:0:
384,196,97896,1,0,0:0:0:0:
509,114,98111,2,0,P|484:130|456:140,1,59.9999981689454,8|0,0:0|0:0,0:0:0:0:
380,92,98540,1,2,0:3:0:0:
300,132,98754,2,0,P|290:104|288:74,1,59.9999981689454,2|0,0:0|0:0,0:0:0:0:
352,8,99183,1,2,0:0:0:0:
208,44,99396,2,0,P|178:42|149:33,1,59.9999981689454,2|0,0:3|0:0,0:0:0:0:
256,204,99825,2,0,P|264:234|268:263,1,59.9999981689454,8|0,0:0|0:0,0:0:0:0:
180,372,100253,2,0,P|184:343|192:314,1,59.9999981689454,2|0,0:3|0:0,0:0:0:0:
320,332,100576,1,0,0:0:0:0:
344,328,100682,6,0,P|372:319|402:315,1,59.9999981689454,6|2,0:0|0:0,0:0:0:0:
256,204,101111,2,0,P|226:206|197:215,1,59.9999981689454,2|0,0:3|0:0,0:0:0:0:
380,200,101540,2,0,P|390:172|395:142,1,59.9999981689454,8|0,0:0|0:0,0:0:0:0:
400,52,101968,1,2,0:3:0:0:
284,152,102182,2,0,L|252:104,1,29.9999990844727,2|0,0:3|0:0,0:0:0:0:
240,76,102396,5,4,0:0:0:0:
124,99,102611,1,8,0:0:0:0:
301,185,102825,1,8,0:0:0:0:
240,76,103039,1,2,0:0:0:0:
183,187,103253,1,8,0:3:0:0:
124,99,103468,1,12,0:3:0:0:
84,268,103683,5,8,0:0:0:0:
96,296,103789,1,8,0:0:0:0:
116,316,103897,1,4,0:3:0:0:
144,328,104003,1,4,0:3:0:0:
174,326,104111,6,0,P|222:314|270:326,1,100,4|0,0:0|0:0,0:0:0:0:
336,352,104753,1,0,0:0:0:0:
372,284,104968,2,0,P|379:234|397:188,1,100
296,232,105611,2,0,P|249:213|200:206,1,100
128,224,106253,1,0,0:0:0:0:
81,340,106468,2,0,P|50:286|54:225,1,125
67,190,107111,2,0,P|79:154|77:117,1,75
89,43,107539,6,0,L|188:39,2,100,2|0|0,0:0|0:0|0:0,0:0:0:0:
16,148,108825,1,0,0:0:0:0:
16,148,109039,2,0,P|24:197|18:246,1,100
41,354,109682,2,0,P|52:331|60:308,1,50
112,251,110111,2,0,P|156:229|205:223,1,100
256,64,110968,6,0,L|268:164,1,100,2|0,0:0|0:0,0:0:0:0:
348,320,111611,6,0,B|336:220|336:220|352:184|352:184|340:64|340:64|384:80|432:64|432:64|412:112|437:156,1,450
448,276,113753,1,0,0:0:0:0:
352,352,113968,2,0,B|320:336|278:340,1,75,4|0,0:0|0:0,0:0:0:0:
199,271,114396,6,0,P|189:243|186:214,1,59.9999981689454,4|0,0:0|0:0,0:0:0:0:
216,88,114825,1,4,0:3:0:0:
216,88,114932,1,4,0:3:0:0:
216,88,115039,1,4,0:3:0:0:
280,208,115253,1,12,0:0:0:0:
116,156,115468,1,0,0:0:0:0:
312,120,115682,2,0,P|341:124|369:135,1,59.9999981689454,2|2,0:0|0:0,0:0:0:0:
440,216,116111,5,12,0:0:0:0:
312,120,116325,1,2,0:0:0:0:
433,247,116539,1,12,0:0:0:0:
328,118,116753,1,2,0:0:0:0:
420,277,116968,1,12,0:0:0:0:
344,120,117182,1,2,0:0:0:0:
400,316,117396,1,8,0:0:0:0:
372,304,117503,1,8,0:0:0:0:
340,304,117611,1,4,0:3:0:0:
312,316,117718,1,4,0:3:0:0:
280,336,117825,6,0,P|231:331|186:309,1,100,4|0,0:0|0:0,0:0:0:0:
148,244,118468,1,2,0:0:0:0:
83,203,118682,2,0,P|88:154|75:106,1,100,12|0,0:0|0:0,0:0:0:0:
36,40,119325,1,2,0:0:0:0:
152,88,119539,2,0,P|199:103|248:99,1,100,6|0,0:0|0:0,0:0:0:0:
320,72,120182,1,2,0:0:0:0:
428,188,120396,1,12,0:0:0:0:
428,72,120611,1,2,0:0:0:0:
319,188,120825,2,0,P|301:204|286:224,1,50,12|0,0:0|0:0,0:0:0:0:
232,360,121253,5,6,0:0:0:0:
172,44,121682,1,4,0:3:0:0:
28,228,122111,1,4,0:3:0:0:
232,360,122539,1,4,0:3:0:0:
418,138,122968,2,0,P|429:116|446:97,1,50,12|0,0:0|0:0,0:0:0:0:
288,64,123396,2,0,P|284:38|288:14,1,50,8|0,0:3|0:0,0:0:0:0:
309,216,123825,6,2,P|325:265|309:314,1,104.999996795654,4|0,1:0|0:0,1:0:0:0:
240,265,124682,6,0,L|120:250,1,120,6|0,0:0|0:0,0:0:0:0:
80,246,125111,1,2,0:0:0:0:
188,380,125325,1,0,0:0:0:0:
0,260,125539,2,0,P|16:203|62:166,1,120,8|0,0:0|0:0,0:0:0:0:
100,156,125968,1,2,0:0:0:0:
216,128,126182,1,0,0:0:0:0:
258,292,126396,2,0,P|260:253|278:217,1,80,2|0,0:0|0:0,0:0:0:0:
443,308,126825,2,0,P|404:304|368:287,1,80,2|0,0:0|0:0,0:0:0:0:
420,100,127254,2,0,B|448:156|434:216,1,120,12|0,0:0|0:0,0:0:0:0:
420,252,127682,1,2,0:0:0:0:
340,164,127897,1,0,0:0:0:0:
252,304,128111,6,0,P|213:309|174:301,1,80,6|0,0:0|0:0,0:0:0:0:
96,208,128540,1,2,0:0:0:0:
48,320,128754,1,0,0:0:0:0:
216,188,128968,2,0,P|205:129|177:75,1,120,10|0,0:0|0:0,0:0:0:0:
144,52,129396,2,0,P|105:48|67:34,1,80,2|0,0:0|0:0,0:0:0:0:
248,120,129825,2,0,P|301:145|360:139,1,120,6|0,0:0|0:0,0:0:0:0:
400,144,130254,2,0,L|415:222,1,80,2|0,0:3|0:0,0:0:0:0:
316,64,130682,1,8,0:0:0:0:
492,152,130897,1,0,0:0:0:0:
320,318,131111,2,0,P|332:260|317:203,1,120,6|0,0:0|0:0,0:0:0:0:
236,136,131540,6,0,P|157:137|84:167,1,160,6|2,0:0|0:0,0:0:0:0:
176,244,132182,1,0,0:0:0:0:
306,168,132397,2,0,P|275:145|236:136,1,80,10|0,0:0|0:0,0:0:0:0:
104,44,132825,2,0,P|137:22|176:13,1,80,2|0,0:0|0:0,0:0:0:0:
336,40,133254,2,0,P|376:82|386:141,1,120,6|0,0:0|0:0,0:0:0:0:
384,180,133682,2,0,P|381:219|387:259,1,80,2|0,0:0|0:0,0:0:0:0:
300,120,134111,2,0,P|260:113|220:117,1,80,8|0,0:0|0:0,0:0:0:0:
104,148,134539,1,2,0:0:0:0:
79,265,134754,1,0,0:0:0:0:
240,272,134968,6,0,P|255:235|257:195,1,80,6|0,0:0|0:0,0:0:0:0:
236,76,135396,1,2,0:0:0:0:
120,48,135611,1,0,0:0:0:0:
100,232,135825,2,0,P|136:215|176:214,1,80,8|0,0:0|0:0,0:0:0:0:
300,264,136254,1,2,0:0:0:0:
388,188,136468,1,0,0:0:0:0:
375,363,136682,2,0,P|336:363|296:355,1,80,2|0,0:0|0:0,0:0:0:0:
464,272,137111,2,0,P|471:311|470:351,1,80,4|0,0:0|0:0,0:0:0:0:
328,172,137540,5,8,0:0:0:0:
328,172,137647,1,8,0:0:0:0:
328,172,137754,1,8,0:0:0:0:
204,272,137968,1,8,0:3:0:0:
204,272,138075,1,8,0:3:0:0:
204,272,138182,1,8,0:3:0:0:
72,128,138397,6,0,P|108:80|161:54,1,120,4|0,0:0|0:0,0:0:0:0:
200,48,138825,1,2,0:0:0:0:
319,42,139039,1,2,0:0:0:0:
395,243,139254,2,0,P|376:187|385:128,1,120,8|0,0:0|0:0,0:0:0:0:
400,92,139682,1,2,0:0:0:0:
488,176,139896,1,0,0:0:0:0:
295,268,140111,2,0,P|256:268|218:257,1,80,0|2,0:0|0:0,0:0:0:0:
280,104,140540,2,0,L|268:184,1,80,2|0,0:0|0:0,0:0:0:0:
111,319,140968,2,0,P|88:265|93:206,1,120,12|0,0:0|0:0,0:0:0:0:
104,168,141396,1,2,0:0:0:0:
188,84,141611,1,2,0:0:0:0:
252,264,141825,6,0,P|330:251|410:253,1,160,6|0,0:0|0:0,0:0:0:0:
504,332,142468,1,2,0:0:0:0:
467,160,142682,2,0,P|428:153|392:136,1,80,8|0,0:0|0:0,0:0:0:0:
260,8,143111,2,0,P|299:14|336:32,1,80,0|2,0:0|0:0,0:0:0:0:
252,120,143540,2,0,P|192:114|135:131,1,120,2|0,0:0|0:0,0:0:0:0:
112,164,143968,2,0,P|95:200|91:240,1,80,2|0,0:0|0:0,0:0:0:0:
184,356,144397,2,0,P|241:340|301:339,1,120,8|0,0:0|0:0,0:0:0:0:
340,340,144825,2,0,L|352:292,1,40,8|0,0:0|0:0,0:0:0:0:
485,276,145039,2,0,L|446:266,1,40,8|0,0:0|0:0,0:0:0:0:
362,190,145254,5,4,0:0:0:0:
288,268,145682,1,4,0:3:0:0:
320,80,146111,1,4,0:3:0:0:
200,332,146540,1,4,0:3:0:0:
232,20,146968,1,4,0:0:0:0:
388,80,147396,1,4,0:3:0:0:
94,77,147825,1,4,0:3:0:0:
379,168,148254,1,4,0:3:0:0:
330,242,148468,1,0,0:0:0:0:
237,335,148682,6,0,L|239:255,1,80,4|0,0:0|0:0,0:0:0:0:
296,48,149111,2,0,L|298:127,1,80,4|0,0:0|0:0,0:0:0:0:
220,336,149539,2,0,L|222:256,1,80,4|0,0:0|0:0,0:0:0:0:
312,48,149968,2,0,L|314:127,1,80,4|0,0:0|0:0,0:0:0:0:
380,268,150397,1,8,0:0:0:0:
392,176,150611,1,2,0:0:0:0:
228,128,150825,1,8,0:3:0:0:
296,252,151039,1,4,0:3:0:0:
272,48,151253,6,0,P|246:40|219:38,1,53.3333333333333,8|8,0:0|0:0,0:0:0:0:
144,60,151539,1,8,0:0:0:0:
140,138,151682,2,0,P|165:145|192:147,1,53.3333333333333,8|0,0:3|0:3,0:0:0:0:
144,60,151968,1,4,0:3:0:0:
64,160,152111,6,0,P|63:189|57:219,1,59.9999981689454,4|0,0:0|0:0,0:0:0:0:
180,272,152539,2,0,P|164:297|145:320,1,59.9999981689454,2|0,0:0|0:0,0:0:0:0:
300,360,152968,2,0,P|329:360|359:354,1,59.9999981689454,12|0,0:0|0:0,0:0:0:0:
440,316,153396,1,2,0:0:0:0:
512,368,153611,1,8,0:0:0:0:
363,271,153825,2,0,P|359:242|359:212,1,59.9999981689454,6|0,0:0|0:0,0:0:0:0:
416,76,154253,2,0,P|416:106|412:136,1,59.9999981689454,2|0,0:0|0:0,0:0:0:0:
276,288,154682,2,0,P|216:286|160:265,1,119.999996337891,12|8,0:0|0:0,0:0:0:0:
76,128,155325,1,8,0:0:0:0:
76,128,155432,1,8,0:0:0:0:
76,128,155539,6,0,L|72:188,1,59.9999981689454,6|2,0:0|0:0,0:0:0:0:
160,265,155968,2,0,L|218:252,1,59.9999981689454,2|0,0:0|0:0,0:0:0:0:
330,195,156396,2,0,L|272:182,1,59.9999981689454,12|0,0:0|0:0,0:0:0:0:
181,175,156825,1,2,0:0:0:0:
234,105,157039,1,2,0:0:0:0:
398,159,157253,2,0,P|403:188|404:218,1,59.9999981689454,4|0,0:0|0:0,0:0:0:0:
347,288,157682,1,12,0:0:0:0:
433,313,157896,1,2,0:0:0:0:
477,157,158111,2,0,P|476:127|470:97,1,59.9999981689454,8|0,0:0|0:0,0:0:0:0:
384,80,158539,2,0,L|372:44,2,29.9999990844727,8|0|8,0:0|0:0|0:0,0:0:0:0:
324,152,158861,1,0,0:0:0:0:
303,171,158968,6,0,P|275:164|245:163,1,59.9999981689454,6|0,0:0|0:0,0:0:0:0:
141,231,159396,2,0,P|170:239|200:240,1,59.9999981689454,2|0,0:0|0:0,0:0:0:0:
187,92,159825,2,0,P|191:62|189:32,1,59.9999981689454,12|0,0:0|0:0,0:0:0:0:
104,64,160253,1,2,0:0:0:0:
96,152,160468,1,8,0:0:0:0:
199,240,160682,2,0,P|228:241|258:236,1,59.9999981689454,6|0,0:0|0:0,0:0:0:0:
372,256,161111,2,0,P|371:226|380:197,1,59.9999981689454,2|0,0:0|0:0,0:0:0:0:
234,340,161539,2,0,P|204:340|175:331,1,59.9999981689454,12|0,0:0|0:0,0:0:0:0:
132,316,161861,1,0,0:0:0:0:
96,288,161968,2,0,L|96:228,1,59.9999981689454,2|8,0:0|0:0,0:0:0:0:
63,143,162396,6,0,P|47:119|38:90,2,59.9999981689454,6|2|2,0:0|0:0|0:0,0:0:0:0:
183,240,163253,2,0,L|242:235,1,59.9999981689454,12|0,0:0|0:0,0:0:0:0:
334,335,163682,2,0,L|312:280,1,59.9999981689454,2|2,0:0|0:0,0:0:0:0:
320,200,164111,1,2,0:0:0:0:
320,200,164539,2,0,L|297:144,1,59.9999981689454,12|0,0:0|0:0,0:0:0:0:
144,56,164968,1,4,0:3:0:0:
136,84,165075,1,4,0:3:0:0:
132,112,165182,1,4,0:3:0:0:
132,140,165289,1,4,0:3:0:0:
136,168,165396,1,8,0:0:0:0:
256,44,165611,1,8,0:0:0:0:
320,267,165825,6,0,P|376:235|440:226,1,129.999994049073,4|0,0:0|0:0,0:0:0:0:
500,304,166468,1,2,0:0:0:0:
264,344,166682,2,0,P|207:311|143:302,1,129.999994049073,8|0,0:0|0:0,0:0:0:0:
52,336,167325,1,2,0:0:0:0:
224,275,167539,2,0,P|229:243|230:211,1,64.9999970245363,0|2,0:0|0:0,0:0:0:0:
162,83,167968,2,0,P|157:115|156:148,1,64.9999970245363,2|0,0:0|0:0,0:0:0:0:
368,144,168396,2,0,P|306:124|241:125,1,129.999994049073,12|2,0:0|0:0,0:0:0:0:
148,160,169039,1,2,0:0:0:0:
264,355,169253,6,0,P|287:296|286:231,1,129.999994049073,6|0,0:0|0:0,0:0:0:0:
241,124,169896,1,2,0:0:0:0:
68,220,170111,2,0,P|128:241|175:286,1,129.999994049073,8|0,0:0|0:0,0:0:0:0:
88,328,170753,1,2,0:0:0:0:
248,344,170968,2,0,L|312:349,1,64.9999970245363,0|2,0:0|0:0,0:0:0:0:
64,216,171396,2,0,L|0:210,1,64.9999970245363,2|0,0:0|0:0,0:0:0:0:
256,124,171825,2,0,B|296:116|348:136|348:136|383:128,1,129.999994049073,12|8,0:0|0:0,0:0:0:0:
456,320,172468,1,8,0:0:0:0:
456,320,172575,1,0,0:0:0:0:
456,320,172682,6,0,B|456:252|456:252|474:192,1,129.999994049073,6|8,0:0|0:0,0:0:0:0:
508,100,173325,1,2,0:0:0:0:
376,233,173539,2,0,L|312:240,1,64.9999970245363,8|2,0:0|0:0,0:0:0:0:
220,272,173968,1,6,0:0:0:0:
288,340,174182,1,0,0:0:0:0:
236,176,174396,2,0,P|203:175|172:186,1,64.9999970245363,8|2,0:0|0:0,0:0:0:0:
44,336,174825,2,0,P|43:303|54:272,1,64.9999970245363,8|2,0:0|0:0,0:0:0:0:
80,176,175253,1,8,0:3:0:0:
80,176,175361,1,8,0:3:0:0:
80,176,175468,1,8,0:3:0:0:
188,80,175682,2,0,L|220:72,1,32.4999985122681,8|0,0:0|0:0,0:0:0:0:
280,116,175896,2,0,L|310:104,1,32.4999985122681,8|0,0:0|0:0,0:0:0:0:
384,71,176111,6,0,P|383:104|381:136,1,64.9999970245363,6|0,0:0|0:0,0:0:0:0:
321,316,176539,2,0,P|321:284|324:252,1,64.9999970245363,6|0,0:0|0:0,0:0:0:0:
508,244,176968,2,0,P|476:244|444:241,1,64.9999970245363,6|0,0:0|0:0,0:0:0:0:
230,162,177396,2,0,P|262:163|294:165,1,64.9999970245363,6|0,0:0|0:0,0:0:0:0:
381,135,177825,1,8,0:0:0:0:
440,316,178039,1,2,0:0:0:0:
256,248,178253,1,12,0:3:0:0:
484,208,178468,1,4,0:3:0:0:
306,70,178682,5,8,0:0:0:0:
238,81,178824,1,8,0:0:0:0:
193,135,178968,1,8,0:0:0:0:
204,203,179110,1,8,0:3:0:0:
256,248,179253,1,8,0:3:0:0:
324,237,179395,1,8,0:3:0:0:
276,158,179539,5,4,0:0:0:0:
367,48,193253,6,0,P|338:87|320:134,1,100,2|0,0:0|0:0,0:0:0:0:
316,208,193896,1,0,0:0:0:0:
416,268,194111,2,0,P|391:268|367:266,1,50
300,304,194539,1,0,0:0:0:0:
160,209,194753,2,0,P|209:217|252:244,1,100
300,304,195396,1,0,0:0:0:0:
176,280,195611,2,0,P|208:213|209:138,1,150
192,56,196468,1,0,0:0:0:0:
296,148,196682,6,0,P|341:167|390:165,1,100,2|0,0:0|0:0,0:0:0:0:
456,124,197325,1,0,0:0:0:0:
472,196,197539,2,0,P|485:217|504:232,1,50
508,308,197968,2,0,P|494:329|475:344,1,50
388,220,198611,2,0,P|401:241|420:256,1,50
288,328,199253,1,0,0:0:0:0:
216,348,199468,1,0,0:0:0:0:
150,310,199682,1,0,0:0:0:0:
130,238,199897,1,0,0:0:0:0:
52,120,200111,6,0,P|98:103|148:99,1,100,2|0,0:0|0:0,0:0:0:0:
216,132,200753,1,0,0:0:0:0:
280,168,200968,2,0,L|329:164,1,50
392,204,201396,1,0,0:0:0:0:
445,68,201611,2,0,L|456:168,1,100
392,204,202253,1,0,0:0:0:0:
480,252,202468,2,0,L|330:248,1,150
256,220,203325,1,0,0:0:0:0:
195,359,203539,6,0,P|188:309|188:260,1,100,2|0,0:0|0:0,0:0:0:0:
188,184,204182,1,0,0:0:0:0:
120,220,204396,2,0,L|70:223,2,50
120,220,206111,1,0,0:0:0:0:
140,144,206325,1,0,0:0:0:0:
200,96,206539,1,0,0:0:0:0:
272,72,206753,1,0,0:0:0:0:
140,144,206968,6,0,P|103:145|66:150,1,75,2|0,0:0|0:0,0:0:0:0:
40,168,207396,2,0,L|32:184,6,12.5
112,216,207825,2,0,P|127:235|139:257,1,50
240,376,208253,1,0,0:0:0:0:
239,272,208468,2,0,P|263:228|303:199,1,100
455,251,209111,1,0,0:0:0:0:
455,251,209325,2,0,P|468:273|475:297,1,50
456,372,209753,1,0,0:0:0:0:
392,184,209968,2,0,P|407:150|415:114,1,75
396,85,210396,6,0,L|346:91,1,50,2|0,0:0|0:0,0:0:0:0:
272,92,210825,1,0,0:0:0:0:
196,104,211039,1,0,0:0:0:0:
154,166,211253,2,0,P|129:168|104:164,1,50
88,184,211539,2,0,P|119:195|152:199,1,66.6666666666667
212,352,212111,2,0,B|225:252,1,100
248,104,212968,1,0,0:0:0:0:
368,196,213396,1,0,0:0:0:0:
320,136,213611,1,0,0:0:0:0:
225,252,213825,6,0,P|200:256|175:255,1,50,2|0,0:0|0:0,0:0:0:0:
98,244,214253,1,0,0:0:0:0:
148,184,214468,1,0,0:0:0:0:
99,127,214682,2,0,P|95:103|97:78,1,50
220,204,215111,2,0,P|244:204|269:202,1,50
383,85,215539,2,0,L|340:176,1,100
348,318,216182,2,0,L|392:228,1,100
464,204,216825,1,0,0:0:0:0:
308,80,217039,6,0,B|252:60|200:76|200:76|176:64|160:40|160:40|168:84|149:128,1,254.999992218018
148,252,218968,6,2,L|158:361,1,110.000001049042,14|2,0:0|0:0,1:0:0:0:
329,320,219396,2,0,L|339:210,1,110.000001049042,2|0,0:0|0:0,0:0:0:0:
380,66,219825,5,8,0:0:0:0:
297,35,219968,1,8,0:3:0:0:
237,94,220111,1,8,0:0:0:0:
255,179,220253,1,8,0:0:0:0:
338,210,220396,1,8,0:3:0:0:
398,151,220539,1,8,0:0:0:0:
460,24,220682,6,0,B|487:93|487:93|476:184,1,165.000001573563,6|0,0:0|0:0,0:0:0:0:
52,360,221539,2,0,B|25:291|25:291|36:200,1,165.000001573563,6|0,0:0|0:0,0:0:0:0:
414,23,222396,2,0,B|441:92|441:92|426:181,1,165.000001573563,6|0,0:0|0:0,0:0:0:0:
98,361,223253,2,0,B|71:292|71:292|86:203,1,165.000001573563,6|0,0:0|0:0,0:0:0:0:
403,102,224111,6,0,B|335:114|335:114|303:106|303:106|241:118,1,165.000001573563,6|0,0:0|0:0,0:0:0:0:
56,332,224968,2,0,B|124:344|124:344|156:336|156:336|217:348,1,165.000001573563,6|0,0:0|0:0,0:0:0:0:
409,133,225825,2,0,B|341:145|341:145|309:137|309:137|247:149,1,165.000001573563,6|8,0:0|0:0,0:0:0:0:
71,280,226682,5,8,0:0:0:0:
149,254,226825,1,8,0:0:0:0:
227,280,226968,1,8,0:3:0:0:
298,320,227111,1,8,0:0:0:0:
376,346,227254,1,12,0:3:0:0:
454,320,227397,1,12,0:3:0:0:
456,180,227539,6,0,P|398:162|337:168,1,123.750001180172,6|0,0:0|0:0,0:0:0:0:
304,192,227968,2,0,P|296:232|299:274,1,82.5000007867813,2|0,0:0|0:0,0:0:0:0:
195,132,228396,2,0,P|193:91|178:53,1,82.5000007867813,8|0,0:0|0:0,0:0:0:0:
160,251,228825,2,0,P|164:292|178:331,1,82.5000007867813,2|0,0:0|0:0,0:0:0:0:
68,169,229253,2,0,P|52:110|56:49,1,123.750001180172,2|0,0:0|0:0,0:0:0:0:
97,38,229682,2,0,P|137:50|178:52,1,82.5000007867813,2|0,0:0|0:0,0:0:0:0:
340,222,230111,2,0,P|300:233|259:235,1,82.5000007867813,8|0,0:0|0:0,0:0:0:0:
416,136,230539,2,0,P|455:147|489:170,1,82.5000007867813
260,236,230968,6,0,P|264:174|284:116,1,123.750001180172,6|0,0:0|0:0,0:0:0:0:
304,80,231396,1,0,0:0:0:0:
398,162,231611,1,2,0:0:0:0:
211,96,231825,2,0,P|170:95|129:99,1,82.5000007867813,8|0,0:0|0:0,0:0:0:0:
20,156,232253,1,2,0:0:0:0:
24,32,232468,1,0,0:0:0:0:
172,172,232682,2,0,P|176:213|175:254,1,82.5000007867813,8|2,0:0|0:0,0:0:0:0:
268,336,233111,2,0,P|309:338|350:333,1,82.5000007867813,12|2,0:0|0:0,0:0:0:0:
426,236,233539,5,8,0:0:0:0:
384,165,233682,1,8,0:0:0:0:
343,236,233825,1,8,0:0:0:0:
441,227,233968,1,8,0:0:0:0:
371,157,234111,1,4,0:3:0:0:
346,253,234253,1,4,0:3:0:0:
315,72,234396,6,0,P|257:91|196:90,1,123.750001180172,4|0,0:0|0:0,0:0:0:0:
156,80,234825,1,0,0:0:0:0:
64,164,235039,1,2,0:0:0:0:
264,164,235253,2,0,B|268:232|268:232|256:264|256:264|256:326,1,165.000001573563,8|0,0:0|0:0,0:0:0:0:
132,332,235896,1,2,0:0:0:0:
180,216,236111,2,0,L|178:133,1,82.5000007867813,0|2,0:0|0:0,0:0:0:0:
340,260,236539,2,0,L|341:177,1,82.5000007867813,2|0,0:0|0:0,0:0:0:0:
100,56,236968,2,0,P|83:115|100:173,1,123.750001180172,12|0,0:0|0:0,0:0:0:0:
128,204,237396,1,2,0:0:0:0:
230,133,237611,1,0,0:0:0:0:
422,171,237825,6,0,P|381:169|341:177,1,82.5000007867813,6|0,0:0|0:0,0:0:0:0:
244,254,238253,1,0,0:0:0:0:
230,133,238468,1,2,0:0:0:0:
440,279,238682,2,0,P|456:200|424:125,1,165.000001573563,8|0,0:0|0:0,0:0:0:0:
332,44,239325,1,2,0:0:0:0:
279,223,239539,2,0,P|321:224|361:214,1,82.5000007867813,0|2,0:0|0:0,0:0:0:0:
302,104,239968,1,2,0:0:0:0:
183,137,240182,1,0,0:0:0:0:
73,314,240396,2,0,P|76:256|60:192,1,123.750001180172,12|0,0:0|0:0,0:0:0:0:
44,156,240825,2,0,L|36:115,1,41.2500003933907,8|0,0:0|0:0,0:0:0:0:
101,50,241039,2,0,L|73:19,1,41.2500003933907,8|0,0:0|0:0,0:0:0:0:
134,134,241253,5,4,0:0:0:0:
279,78,241682,1,4,0:3:0:0:
136,224,242111,1,4,0:3:0:0:
418,141,242539,1,4,0:3:0:0:
136,304,242968,1,4,0:3:0:0:
134,134,243396,1,4,0:3:0:0:
292,216,243825,1,4,0:3:0:0:
248,332,244039,1,0,0:0:0:0:
420,340,244253,2,0,P|423:299|417:259,1,82.5000007867813,4|0,0:3|0:0,0:0:0:0:
364,108,244682,6,0,P|323:118|288:138,1,82.5000007867813,4|0,0:0|0:0,0:0:0:0:
364,240,245111,2,0,P|404:230|439:210,1,82.5000007867813,4|0,0:0|0:0,0:0:0:0:
232,80,245539,2,0,P|211:115|202:155,1,82.5000007867813,4|0,0:0|0:0,0:0:0:0:
469,286,245968,2,0,P|459:245|439:210,1,82.5000007867813,4|0,0:0|0:0,0:0:0:0:
332,140,246396,1,8,0:0:0:0:
148,248,246611,1,2,0:0:0:0:
336,312,246825,1,8,0:3:0:0:
232,80,247039,1,2,0:0:0:0:
463,61,247253,6,0,P|468:87|469:115,1,55.0000005245209,8|8,0:0|0:0,0:0:0:0:
456,197,247539,1,8,0:0:0:0:
377,232,247682,2,0,P|371:205|370:177,1,55.0000005245209,8|8,0:3|0:3,0:0:0:0:
454,202,247968,1,4,0:3:0:0:
473,322,248111,6,0,P|433:315|392:315,1,82.5000025177003,4|0,0:0|0:0,0:0:0:0:
357,304,248539,2,0,L|341:297,4,18.3333338928223,8|8|8|8|8,0:0|0:0|0:0|0:0|0:0,0:0:0:0:
288,228,248968,2,0,L|234:213,1,55.0000016784668,10|0,0:0|0:0,0:0:0:0:
156,188,249396,1,10,0:0:0:0:
287,199,249611,2,0,L|233:213,1,55.0000016784668,8|0,0:0|0:0,0:0:0:0:
152,230,250039,1,10,0:0:0:0:
272,174,250253,2,0,L|233:212,1,55.0000016784668,8|0,0:0|0:0,0:0:0:0:
299,268,250682,2,0,L|353:267,1,55.0000016784668,4|0,0:0|0:0,0:0:0:0:
206,345,251111,2,0,L|260:344,1,55.0000016784668,4|0,0:0|0:0,0:0:0:0:
201,228,251539,6,0,P|160:228|120:236,1,82.5000025177003,6|0,0:0|0:0,0:0:0:0:
84,236,251968,2,0,L|67:232,4,18.3333338928223,8|8|8|8|8,0:0|0:0|0:0|0:0|0:0,0:0:0:0:
111,156,252396,2,0,P|136:142|157:125,1,55.0000016784668,8|0,0:0|0:0,0:0:0:0:
212,64,252825,1,10,0:0:0:0:
40,80,253039,2,0,P|67:80|94:76,1,55.0000016784668,8|0,0:0|0:0,0:0:0:0:
148,16,253468,1,10,0:0:0:0:
260,136,253682,2,0,P|287:135|314:139,1,55.0000016784668
392,168,254111,1,8,0:0:0:0:
280,216,254325,1,8,0:0:0:0:
376,84,254539,1,8,0:0:0:0:
204,196,254753,1,8,0:0:0:0:
456,320,254968,6,0,P|456:278|452:237,1,82.5000025177003,6|0,0:0|0:0,0:0:0:0:
476,212,255396,2,0,L|482:194,4,18.3333338928223,8|8|8|8|8,0:0|0:0|0:0|0:0|0:0,0:0:0:0:
412,164,255825,2,0,L|358:152,1,55.0000016784668,10|0,0:0|0:0,0:0:0:0:
276,140,256253,1,10,0:0:0:0:
142,167,256468,2,0,L|196:156,1,55.0000016784668,8|0,0:0|0:0,0:0:0:0:
276,140,256896,1,10,0:0:0:0:
97,49,257111,2,0,L|93:103,1,55.0000016784668,8|0,0:0|0:0,0:0:0:0:
58,234,257539,2,0,L|64:180,1,55.0000016784668,4|0,0:0|0:0,0:0:0:0:
147,221,257968,2,0,L|142:167,1,55.0000016784668,4|0,0:0|0:0,0:0:0:0:
206,375,258396,6,0,L|172:300,1,82.5000025177003,6|0,0:0|0:0,0:0:0:0:
156,268,258825,2,0,L|149:252,4,18.3333338928223,8|8|8|8|8,0:0|0:0|0:0|0:0|0:0,0:0:0:0:
152,160,259253,2,0,L|196:128,1,55.0000016784668,10|0,0:0|0:0,0:0:0:0:
269,84,259682,1,10,0:0:0:0:
359,180,259896,2,0,P|334:168|312:149,1,55.0000016784668,8|0,0:0|0:0,0:0:0:0:
348,75,260325,1,10,0:0:0:0:
442,193,260539,2,0,P|431:217|417:241,1,55.0000016784668,8|0,0:0|0:0,0:0:0:0:
360,303,260968,5,8,0:0:0:0:
441,91,261182,1,8,0:0:0:0:
213,117,261396,1,8,0:0:0:0:
442,192,261611,1,4,0:0:0:0:
