osu file format v14

[General]
AudioFilename: audio.mp3
AudioLeadIn: 0
PreviewTime: 111043
Countdown: 1
SampleSet: Normal
StackLeniency: 0.5
Mode: 0
LetterboxInBreaks: 0
WidescreenStoryboard: 0

[Editor]
Bookmarks: 1475,12509,23543,34578,45612,50440,56647,60785,62509,67681,71819,75957,78716,84233,95268,100785,104923,111130,117337,122854,132509,138716,143716,150440,154578,166992,176561,187854,189061,191906,199406,204233,211043
DistanceSpacing: 1
BeatDivisor: 8
GridSize: 8
TimelineZoom: 2.5

[Metadata]
Title:Stay Alive (Jun Kuroda Bootleg Remix)
TitleUnicode:Stay Alive (Jun Kuroda Bootleg Remix)
Artist:EMILIA (CV: Rie Takahashi)
ArtistUnicode:EMILIA (CV: Rie Takahashi)
Creator:Peuniak
Version:Alive
Source:Re:ゼロから始める異世界生活
Tags:re zero emilia japanese drum and bass anime remix ending
BeatmapID:1173749
BeatmapSetID:554406

[Difficulty]
HPDrainRate:7.4
CircleSize:4
OverallDifficulty:7.5
ApproachRate:9.3
SliderMultiplier:1.8
SliderTickRate:1

[Events]
//Background and Video events
0,0,"background.jpg",0,0
//Break Periods
2,156157,166438
//Storyboard Layer 0 (Background)
//Storyboard Layer 1 (Fail)
//Storyboard Layer 2 (Pass)
//Storyboard Layer 3 (Foreground)
//Storyboard Sound Samples

[TimingPoints]
1475,344.827586206897,4,1,1,40,1,0
1475,-133.333333333333,4,2,1,40,0,0
12509,-125,4,2,1,40,0,0
21819,-166.666666666667,4,2,1,40,0,0
22164,-125,4,2,1,40,0,0
23543,-111.111111111111,4,2,1,60,0,0
34578,-100,4,1,1,60,0,0
45612,-133.333333333333,4,2,1,40,0,0
50440,-200,4,2,1,40,0,0
51130,-86.9565217391304,4,1,1,75,0,1
62164,-200,4,2,1,75,0,0
62509,-86.9565217391303,4,1,1,75,0,1
71819,-133.333333333333,4,1,1,40,0,0
73199,-100,4,1,1,65,0,0
84233,-111.111111111111,4,2,1,60,0,0
93888,-142.857142857143,4,2,1,60,0,0
95268,-99.9999999999999,4,1,1,60,0,0
106302,-133.333333333333,4,2,1,40,0,0
111130,-200,4,2,1,40,0,0
111819,-86.9565217391304,4,1,1,75,0,1
122854,-200,4,2,1,75,0,0
123199,-86.9565217391303,4,1,1,75,0,1
132509,-142.857142857143,4,1,1,40,0,0
133371,-142.857142857143,4,1,1,70,0,0
133888,-66.6666666666667,4,1,1,75,0,1
135095,-200,4,1,1,75,0,1
135440,-66.6666666666667,4,1,1,75,0,1
139406,-100,4,1,1,75,0,1
139750,-66.6666666666667,4,1,1,75,0,1
140612,-200,4,1,1,75,0,1
140957,-66.6666666666667,4,1,1,75,0,1
144923,-90.9090909090909,4,1,1,60,0,0
155268,-200,4,1,1,40,0,0
155957,-200,4,2,1,70,0,0
166992,-142.857142857143,4,2,1,40,0,0
177337,-142.857142857143,4,2,1,50,0,0
178026,-100,4,1,1,60,0,0
189061,-86.9565217391304,4,1,1,75,0,1
200095,-200,4,2,1,75,0,0
200440,-86.9565217391303,4,1,1,75,0,1
209750,-142.857142857143,4,1,1,40,0,0
211130,-142.857142857143,4,2,1,40,0,0

[Colours]
Combo1 : 163,53,253
Combo2 : 192,192,192
Combo3 : 128,128,255
Combo4 : 128,255,128

[HitObjects]
112,144,1475,6,0,P|176:136|248:96,1,135.000005149842,2|0,0:0|0:0,0:0:0:0:
344,24,2164,2,0,P|352:80|368:112,1,67.5000025749208
355,89,2509,1,0,0:0:0:0:
456,208,2854,6,0,P|392:216|320:256,1,135.000005149842
251,303,3371,1,0,0:0:0:0:
197,375,3543,1,0,0:0:0:0:
164,250,3716,1,0,0:0:0:0:
180,357,3888,1,0,0:0:0:0:
258,279,4061,1,0,0:0:0:0:
73,194,4233,6,0,P|126:150|210:155,1,135.000005149842
366,315,4923,2,0,P|354:261|357:230,1,67.5000025749208
354,249,5268,1,0,0:0:0:0:
375,104,5612,6,0,P|339:113|284:104,1,67.5000025749208
230,85,5957,1,0,0:0:0:0:
153,57,6130,1,0,0:0:0:0:
185,161,6302,1,0,0:0:0:0:
274,9,6475,1,0,0:0:0:0:
118,155,6647,2,0,B|149:168|209:155,1,67.5000025749208
319,161,6992,6,0,B|264:147|180:161,1,135.000005149842
51,320,7681,2,0,B|88:323|88:323|132:311,1,67.5000025749208
117,315,8026,1,0,0:0:0:0:
319,161,8371,6,0,B|307:236|307:236|302:279|336:309,1,135.000005149842
459,301,8888,1,0,0:0:0:0:
405,230,9060,1,0,0:0:0:0:
512,214,9233,1,0,0:0:0:0:
387,247,9405,1,0,0:0:0:0:
483,308,9578,1,0,0:0:0:0:
453,166,9750,6,0,B|395:150|311:161,1,135.000005149842
67,95,10440,2,0,P|122:97|158:85,1,67.5000025749208
133,95,10785,1,0,0:0:0:0:
322,94,11130,6,0,B|313:129|313:129|324:188,1,67.5000025749208
350,234,11475,1,0,0:0:0:0:
380,307,11647,1,0,0:0:0:0:
421,173,11819,1,0,0:0:0:0:
247,294,11992,1,0,0:0:0:0:
447,312,12164,2,0,B|415:306|415:306|360:308,1,67.5000025749208
247,294,12509,6,0,B|319:311|319:311|379:306,1,135.000005149842,4|0,0:0|0:0,0:0:0:0:
296,117,13199,2,0,B|262:139|262:139|231:177,1,72,8|0,0:0|0:0,0:0:0:0:
242,163,13543,1,0,0:0:0:0:
143,296,13888,6,0,P|154:220|151:145,1,144
60,59,14406,1,0,0:0:0:0:
66,169,14578,1,8,0:0:0:0:
164,39,14750,1,0,0:0:0:0:
42,76,14923,1,0,0:0:0:0:
181,57,15095,1,0,0:0:0:0:
151,153,15268,6,0,B|205:166|246:133|246:133|304:144,1,144
436,75,15957,2,0,L|336:56,1,72,8|0,0:0|0:0,0:0:0:0:
365,61,16302,1,0,0:0:0:0:
408,321,16647,6,0,P|394:269|394:230,1,72
401,164,16992,1,0,0:0:0:0:
410,78,17164,1,0,0:0:0:0:
495,175,17337,1,8,0:0:0:0:
279,129,17509,1,0,0:0:0:0:
477,56,17681,2,0,P|422:77|402:77,1,72,0|8,0:0|0:0,0:0:0:0:
279,129,18026,6,0,P|364:83|413:77,1,144
122,24,18716,2,0,P|175:57|205:61,1,72,8|0,0:0|0:0,0:0:0:0:
183,58,19061,1,0,0:0:0:0:
178,309,19406,6,0,B|190:234|190:234|197:197|234:170,1,144
289,253,19923,1,0,0:0:0:0:
318,131,20095,1,8,0:0:0:0:
306,271,20268,1,0,0:0:0:0:
148,131,20440,1,0,0:0:0:0:
336,114,20612,1,0,0:0:0:0:
443,237,20785,6,0,B|407:256|372:254|372:254|329:249|291:281,1,144
129,333,21475,2,0,P|160:272|160:248,1,72,8|0,0:0|0:0,0:0:0:0:
78,138,21819,2,0,B|121:133|121:133|162:119,1,80.9999975280763
188,111,22164,5,6,0:0:0:0:
235,177,22337,1,0,0:0:0:0:
258,24,22509,1,0,0:0:0:0:
116,65,22681,1,0,0:0:0:0:
318,139,22854,1,0,0:0:0:0:
321,283,23026,1,0,0:0:0:0:
258,24,23199,1,4,0:0:0:0:
97,277,23543,6,0,B|137:268|137:268|172:250,1,80.9999975280763
279,197,23888,1,8,0:0:0:0:
251,33,24061,1,0,0:0:0:0:
251,33,24147,1,0,0:0:0:0:
251,33,24233,2,0,L|255:91,1,40.4999987640381
279,197,24406,2,0,P|295:246|326:286,1,80.9999975280763,0|8,0:0|0:0,0:0:0:0:
512,219,24750,2,0,L|461:212,1,40.4999987640381
378,203,24923,6,0,P|410:146|454:124,2,80.9999975280763,0|0|8,0:0|0:0|0:0,0:0:0:0:
273,93,25440,1,0,0:0:0:0:
273,93,25526,1,0,0:0:0:0:
273,93,25612,2,0,P|250:94|214:81,1,40.4999987640381
90,58,25785,1,2,0:0:0:0:
218,168,25957,2,0,P|233:92|226:63,1,80.9999975280763,8|0,0:0|0:0,0:0:0:0:
120,190,26302,6,0,P|145:237|193:267,1,80.9999975280763,2|0,0:0|0:0,0:0:0:0:
258,286,26647,1,8,0:0:0:0:
345,148,26819,1,2,0:0:0:0:
351,184,26906,1,0,0:0:0:0:
348,220,26992,1,0,0:0:0:0:
258,286,27164,1,0,0:0:0:0:
424,138,27337,2,0,P|357:149|316:142,1,80.9999975280763,8|0,0:0|0:0,0:0:0:0:
200,84,27681,6,0,L|210:166,1,80.9999975280763
226,260,28026,2,0,L|271:296,1,40.4999987640381,8|0,0:0|0:0,0:0:0:0:
341,336,28199,1,0,0:0:0:0:
337,312,28285,1,0,0:0:0:0:
332,288,28371,1,0,0:0:0:0:
328,264,28457,1,0,0:0:0:0:
323,236,28543,2,0,L|316:196,1,40.4999987640381
303,116,28716,2,0,L|316:205,1,80.9999975280763,8|0,0:0|0:0,0:0:0:0:
368,64,29061,6,0,P|334:38|272:39,1,80.9999975280763,2|0,0:0|0:0,0:0:0:0:
177,53,29406,1,8,0:0:0:0:
189,240,29578,1,0,0:0:0:0:
189,240,29664,1,0,0:0:0:0:
189,240,29750,2,0,L|196:200,1,40.4999987640381
75,246,29923,2,0,L|55:356,1,80.9999975280763,0|8,0:0|0:0,0:0:0:0:
195,200,30268,2,0,L|202:160,1,40.4999987640381
321,114,30440,6,0,L|340:3,2,80.9999975280763,0|0|8,0:0|0:0|0:0,0:0:0:0:
383,241,30957,1,0,0:0:0:0:
366,266,31043,1,0,0:0:0:0:
343,286,31129,1,0,0:0:0:0:
316,300,31215,1,0,0:0:0:0:
287,307,31302,2,0,P|221:284|195:284,1,80.9999975280763,2|8,0:0|0:0,0:0:0:0:
61,325,31647,1,0,0:0:0:0:
141,223,31819,6,0,P|164:157|164:131,1,80.9999975280763,2|0,0:0|0:0,0:0:0:0:
142,35,32164,1,8,0:0:0:0:
271,127,32337,1,2,0:0:0:0:
291,126,32423,1,0,0:0:0:0:
311,125,32509,1,0,0:0:0:0:
142,35,32681,1,0,0:0:0:0:
311,125,32854,2,0,P|288:191|288:217,1,80.9999975280763,8|0,0:0|0:0,0:0:0:0:
319,323,33199,5,0,0:0:0:0:
311,125,33371,1,0,0:0:0:0:
141,223,33543,2,0,P|210:229|241:221,1,80.9999975280763,4|0,0:0|0:0,0:0:0:0:
382,41,33888,1,0,0:0:0:0:
378,73,33975,1,0,0:0:0:0:
382,104,34061,2,0,L|399:172,1,40.4999987640381
470,210,34233,1,0,0:0:0:0:
474,242,34320,1,0,0:0:0:0:
470,273,34406,2,0,L|453:341,1,40.4999987640381
352,353,34578,6,0,P|343:303|348:244,1,90,2|0,0:0|0:0,0:0:0:0:
388,132,34923,1,8,0:0:0:0:
209,264,35095,1,0,0:0:0:0:
242,267,35181,1,0,0:0:0:0:
276,268,35267,1,0,0:0:0:0:
310,267,35353,1,0,0:0:0:0:
344,264,35440,2,0,P|353:214|348:155,1,90,0|8,0:0|0:0,0:0:0:0:
308,43,35785,1,0,0:0:0:0:
165,75,35957,6,0,P|123:92|89:121,2,90,2|0|8,0:0|0:0|0:0,0:0:0:0:
256,120,36475,1,0,0:0:0:0:
256,120,36561,1,0,0:0:0:0:
256,120,36647,2,0,L|304:120,1,45
384,120,36819,1,0,0:0:0:0:
165,166,36992,2,0,P|123:149|89:120,1,90,8|0,0:0|0:0,0:0:0:0:
88,296,37337,6,0,P|152:272|184:272,1,90,2|0,0:0|0:0,0:0:0:0:
296,296,37681,1,8,0:0:0:0:
192,116,37854,2,0,P|244:159|260:187,1,90
296,296,38198,1,0,0:0:0:0:
401,116,38371,2,0,P|389:183|373:211,1,90,8|0,0:0|0:0,0:0:0:0:
88,296,38716,5,2,0:0:0:0:
192,116,38888,1,0,0:0:0:0:
401,116,39061,1,8,0:0:0:0:
296,296,39233,1,0,0:0:0:0:
243,296,39319,1,0,0:0:0:0:
191,296,39406,1,0,0:0:0:0:
139,296,39492,1,0,0:0:0:0:
87,296,39578,1,0,0:0:0:0:
72,96,39750,2,0,P|96:176|96:200,1,90,8|0,0:0|0:0,0:0:0:0:
296,296,40095,6,0,P|272:216|272:192,1,90,2|0,0:0|0:0,0:0:0:0:
304,64,40440,1,8,0:0:0:0:
480,136,40612,1,0,0:0:0:0:
480,136,40699,1,0,0:0:0:0:
480,136,40785,2,0,L|416:160,1,45
288,168,40957,1,0,0:0:0:0:
176,64,41130,1,8,0:0:0:0:
176,336,41302,1,0,0:0:0:0:
176,336,41388,1,0,0:0:0:0:
176,336,41475,6,0,P|168:264|176:224,1,90,2|0,0:0|0:0,0:0:0:0:
176,64,41819,1,8,0:0:0:0:
296,168,41992,2,0,P|336:176|360:168,1,45
296,48,42164,2,0,P|274:40|252:40,1,45
416,152,42337,1,0,0:0:0:0:
176,64,42509,1,8,0:0:0:0:
268,284,42681,1,0,0:0:0:0:
268,284,42768,1,0,0:0:0:0:
268,284,42854,6,0,L|372:265,1,90,2|0,0:0|0:0,0:0:0:0:
441,200,43199,1,8,0:0:0:0:
242,151,43371,1,0,0:0:0:0:
248,184,43457,1,0,0:0:0:0:
254,217,43543,1,0,0:0:0:0:
260,250,43629,1,0,0:0:0:0:
267,283,43716,2,0,L|163:264,1,90,0|8,0:0|0:0,0:0:0:0:
42,150,44061,1,0,0:0:0:0:
215,20,44233,5,2,0:0:0:0:
267,283,44406,2,0,P|215:266|199:257,1,45
42,150,44578,1,8,0:0:0:0:
76,159,44664,1,0,0:0:0:0:
112,166,44750,1,2,0:0:0:0:
147,169,44836,1,0,0:0:0:0:
183,168,44923,5,0,0:0:0:0:
219,163,45009,1,0,0:0:0:0:
254,155,45095,1,2,0:0:0:0:
289,144,45181,1,0,0:0:0:0:
324,136,45268,1,8,0:0:0:0:
359,131,45353,1,0,0:0:0:0:
395,131,45440,1,2,0:0:0:0:
431,133,45526,1,0,0:0:0:0:
466,140,45612,6,0,L|464:168,1,16.8750006437302,4|0,0:0|0:0,0:0:0:0:
456,312,45785,1,0,0:0:0:0:
384,272,45957,1,0,0:0:0:0:
304,256,46130,1,0,0:0:0:0:
224,280,46302,1,0,0:0:0:0:
133,198,46474,1,0,0:0:0:0:
249,161,46646,1,0,0:0:0:0:
224,280,46819,1,0,0:0:0:0:
46,244,46949,6,0,L|48:216,1,16.8750006437302,4|0,0:0|0:0,0:0:0:0:
56,72,47164,1,0,0:0:0:0:
234,108,47509,2,0,L|232:136,1,16.8750006437302,4|0,0:0|0:0,0:0:0:0:
224,280,47854,2,0,B|224:293|217:306|217:306|224:326|237:340|237:340|250:326|257:306|257:306|250:293|250:280,1,135.000005149842
236,280,48285,2,0,L|236:248,1,16.8750006437302,4|0,0:0|0:0,0:0:0:0:
236,144,48543,6,0,B|205:105|150:66|127:4|181:-34|228:-34|282:4|259:66|205:105|174:143,1,371.250014162064
156,160,49578,1,0,0:0:0:0:
145,176,49664,1,0,0:0:0:0:
139,195,49750,1,0,0:0:0:0:
384,272,50440,6,0,B|404:237|384:190|384:190|363:142|384:108,1,157.5
399,20,51130,6,0,P|382:112|347:156,1,103.500001974106,2|0,0:0|0:0,0:0:0:0:
143,202,51475,1,8,0:0:0:0:
245,214,51647,2,0,B|298:243|349:254|349:254|341:282|325:302|325:302|269:262,1,207.000003948212,0|2,0:0|0:0,0:0:0:0:
143,202,52164,1,8,0:0:0:0:
102,107,52336,2,0,B|100:46|84:-3|84:-3|112:-10|138:-6|138:-6|131:62,1,207.000003948212,0|2,0:0|0:0,0:0:0:0:
143,202,52854,1,8,0:0:0:0:
81,284,53026,2,0,B|29:315|-5:354|-5:354|-25:333|-35:309|-35:309|27:280,1,207.000003948212,0|2,0:0|0:0,0:0:0:0:
102,107,53543,2,0,P|121:167|152:216,1,103.500001974106,8|0,0:0|0:0,0:0:0:0:
264,280,53888,5,2,0:0:0:0:
190,122,54061,1,0,0:0:0:0:
214,106,54147,1,0,0:0:0:0:
246,98,54233,1,8,0:0:0:0:
278,98,54319,1,0,0:0:0:0:
310,106,54406,2,0,P|334:144|299:115,1,103.500001974106
190,122,54750,1,2,0:0:0:0:
214,339,54923,2,0,P|182:291|170:228,1,103.500001974106,8|0,0:0|0:0,0:0:0:0:
111,60,55268,5,2,0:0:0:0:
177,246,55440,1,0,0:0:0:0:
209,262,55526,1,0,0:0:0:0:
241,270,55612,2,0,P|273:278|329:270,1,51.7500009870529,8|0,0:0|0:0,0:0:0:0:
335,138,55785,1,0,0:0:0:0:
303,122,55871,1,0,0:0:0:0:
271,114,55957,2,0,P|239:106|183:114,1,51.7500009870529
177,246,56130,1,2,0:0:0:0:
335,138,56302,1,8,0:0:0:0:
111,60,56475,1,0,0:0:0:0:
214,339,56647,5,2,0:0:0:0:
403,279,56819,1,0,0:0:0:0:
373,269,56906,1,0,0:0:0:0:
342,271,56992,2,0,P|322:271|280:282,1,51.7500009870529,8|0,0:0|0:0,0:0:0:0:
91,346,57164,1,0,0:0:0:0:
93,294,57250,1,0,0:0:0:0:
88,242,57336,1,0,0:0:0:0:
75,192,57422,1,0,0:0:0:0:
54,145,57508,1,2,0:0:0:0:
274,151,57681,2,0,B|225:163|225:163|172:155,1,103.500001974106,8|0,0:0|0:0,0:0:0:0:
324,65,58026,6,0,P|371:138|364:190,1,103.500001974106,2|0,0:0|0:0,0:0:0:0:
291,277,58371,1,8,0:0:0:0:
153,106,58543,1,0,0:0:0:0:
153,106,58630,1,0,0:0:0:0:
153,106,58716,2,0,P|169:137|177:167,1,51.7500009870529
54,145,58888,2,0,P|37:113|30:84,1,51.7500009870529,2|0,0:0|0:0,0:0:0:0:
174,152,59061,1,8,0:0:0:0:
91,346,59233,1,0,0:0:0:0:
129,331,59319,1,0,0:0:0:0:
165,311,59406,6,0,P|204:268|233:213,1,103.500001974106,2|0,0:0|0:0,0:0:0:0:
174,64,59750,1,8,0:0:0:0:
384,196,59923,2,0,P|366:140|333:88,1,103.500001974106
174,64,60267,1,2,0:0:0:0:
165,311,60440,2,0,P|204:268|233:213,1,103.500001974106,8|0,0:0|0:0,0:0:0:0:
174,64,60784,5,2,0:0:0:0:
384,196,60957,1,2,0:0:0:0:
338,64,61130,1,8,0:0:0:0:
128,196,61303,1,2,0:0:0:0:
296,320,61475,1,8,0:0:0:0:
296,320,61561,1,8,0:0:0:0:
296,320,61647,1,2,0:0:0:0:
174,64,61819,1,8,0:0:0:0:
174,64,61906,1,8,0:0:0:0:
174,64,61992,1,2,0:0:0:0:
438,280,62164,6,0,P|431:229|421:202,1,67.5,4|0,0:0|0:0,0:0:0:0:
410,180,62509,5,8,0:0:0:0:
168,104,62681,2,0,B|93:104|49:70|59:40|59:40|65:9|96:16|110:54,1,207.000003948212
251,147,63199,1,8,0:0:0:0:
254,240,63371,2,0,B|276:310|257:361|224:362|224:362|192:365|190:333|223:308,1,207.000003948212
251,147,63888,1,8,0:0:0:0:
329,96,64061,2,0,B|378:41|433:31|449:59|449:59|468:85|441:103|404:87,1,207.000003948212
168,104,64578,2,0,P|192:176|192:216,1,103.500001974106,8|0,0:0|0:0,0:0:0:0:
136,352,64923,6,0,L|232:336,1,51.7500009870529,2|0,0:0|0:0,0:0:0:0:
408,352,65095,2,0,L|312:336,1,51.7500009870529,2|0,0:0|0:0,0:0:0:0:
272,328,65268,1,8,0:0:0:0:
272,88,65440,2,0,L|272:144,1,51.7500009870529,4|0,0:0|0:0,0:0:0:0:
454,151,65785,1,2,0:0:0:0:
414,135,65871,1,2,0:0:0:0:
374,135,65957,2,0,P|302:143|254:135,1,103.500001974106,8|0,0:0|0:0,0:0:0:0:
168,88,66302,5,2,0:0:0:0:
261,269,66475,2,0,P|254:306|236:336,1,51.7500009870529
141,375,66647,1,8,0:0:0:0:
131,324,66733,1,0,0:0:0:0:
136,273,66819,1,2,0:0:0:0:
157,226,66905,1,0,0:0:0:0:
192,187,66991,1,0,0:0:0:0:
236,161,67078,5,0,0:0:0:0:
280,134,67164,1,2,0:0:0:0:
301,87,67250,1,0,0:0:0:0:
282,38,67336,1,8,0:0:0:0:
232,21,67422,1,0,0:0:0:0:
180,24,67508,1,2,0:0:0:0:
133,48,67595,1,0,0:0:0:0:
91,84,67681,5,2,0:0:0:0:
267,92,67854,1,2,0:0:0:0:
91,84,68026,5,2,0:0:0:0:
239,178,68199,1,2,0:0:0:0:
91,84,68371,5,2,0:0:0:0:
172,239,68544,1,2,0:0:0:0:
91,84,68716,5,2,0:0:0:0:
83,259,68889,1,2,0:0:0:0:
83,259,68975,1,2,0:0:0:0:
83,259,69061,5,2,0:0:0:0:
283,316,69234,1,2,0:0:0:0:
355,124,69406,5,2,0:0:0:0:
195,204,69579,1,2,0:0:0:0:
355,284,69751,5,2,0:0:0:0:
259,52,69924,1,2,0:0:0:0:
219,332,70096,5,2,0:0:0:0:
355,44,70269,1,2,0:0:0:0:
355,44,70354,1,2,0:0:0:0:
355,44,70440,5,2,0:0:0:0:
115,140,70612,1,2,0:0:0:0:
371,182,70785,5,8,0:0:0:0:
123,148,70957,1,2,0:0:0:0:
123,148,71043,1,2,0:0:0:0:
123,148,71130,5,8,0:0:0:0:
443,92,71302,1,2,0:0:0:0:
83,259,71475,5,2,0:0:0:0:
435,324,71647,1,8,0:0:0:0:
256,192,71819,12,4,72854,0:0:0:0:
240,168,73199,38,0,B|197:74|94:45|94:45|109:162|211:206|211:206|153:236|153:309|153:309|241:280|256:236|256:236|270:280|358:309|358:309|358:236|300:206|300:206|402:162|417:45|417:45|314:74|256:192,1,1350
144,32,75957,6,0,L|192:48,1,45,2|0,0:0|0:0,0:0:0:0:
368,32,76130,2,0,L|320:48,1,45,2|0,0:0|0:0,0:0:0:0:
256,80,76302,1,8,0:0:0:0:
256,304,76475,2,0,L|256:240,1,45,4|0,0:0|0:0,0:0:0:0:
475,129,76819,1,2,0:0:0:0:
451,153,76906,1,2,0:0:0:0:
419,169,76992,2,0,P|355:153|323:137,1,90,8|0,0:0|0:0,0:0:0:0:
128,32,77337,5,2,0:0:0:0:
256,304,77509,2,0,L|256:240,1,45
290,85,77681,1,8,0:0:0:0:
250,63,77767,1,0,0:0:0:0:
206,56,77853,1,2,0:0:0:0:
162,64,77939,1,0,0:0:0:0:
124,87,78025,5,0,0:0:0:0:
96,122,78112,1,0,0:0:0:0:
81,164,78198,1,2,0:0:0:0:
82,209,78284,1,0,0:0:0:0:
99,251,78370,1,8,0:0:0:0:
128,285,78456,1,0,0:0:0:0:
168,306,78543,1,2,0:0:0:0:
212,312,78629,1,0,0:0:0:0:
256,303,78716,5,2,0:0:0:0:
200,128,78888,1,2,0:0:0:0:
128,285,79061,5,2,0:0:0:0:
384,200,79233,1,2,0:0:0:0:
104,160,79406,5,2,0:0:0:0:
376,272,79578,1,2,0:0:0:0:
110,302,79750,5,2,0:0:0:0:
408,120,79923,1,2,0:0:0:0:
408,120,80009,1,2,0:0:0:0:
408,120,80095,5,2,0:0:0:0:
256,303,80268,1,2,0:0:0:0:
320,40,80440,5,2,0:0:0:0:
352,296,80612,1,2,0:0:0:0:
232,64,80785,5,2,0:0:0:0:
247,326,80957,1,2,0:0:0:0:
328,17,81130,5,2,0:0:0:0:
56,72,81302,1,2,0:0:0:0:
56,72,81388,1,2,0:0:0:0:
56,72,81475,5,2,0:0:0:0:
247,326,81647,1,2,0:0:0:0:
298,60,81819,5,8,0:0:0:0:
56,292,81992,1,2,0:0:0:0:
56,292,82078,1,2,0:0:0:0:
56,292,82164,5,8,0:0:0:0:
188,49,82337,1,2,0:0:0:0:
247,326,82509,5,2,0:0:0:0:
56,292,82681,1,8,0:0:0:0:
256,192,82854,12,0,83888,0:0:0:0:
72,240,84233,6,0,P|128:208|176:200,1,80.9999975280763,2|0,0:0|0:0,0:0:0:0:
272,208,84578,1,8,0:0:0:0:
352,352,84750,1,0,0:0:0:0:
352,352,84837,1,0,0:0:0:0:
352,352,84923,2,0,P|328:328|312:304,1,40.4999987640381
272,208,85095,2,0,P|272:136|288:104,1,80.9999975280763,0|8,0:0|0:0,0:0:0:0:
380,53,85440,2,0,L|316:49,1,40.4999987640381
231,59,85612,6,0,L|287:149,1,80.9999975280763
417,171,85957,1,8,0:0:0:0:
364,319,86130,2,0,P|324:326|287:326,1,40.4999987640381
196,220,86302,2,0,P|189:260|189:297,1,40.4999987640381
179,357,86475,1,2,0:0:0:0:
108,178,86647,2,0,P|147:135|197:123,1,80.9999975280763
355,73,86992,6,0,P|316:116|266:128,1,80.9999975280763,2|0,0:0|0:0,0:0:0:0:
167,126,87337,1,8,0:0:0:0:
150,272,87509,1,0,0:0:0:0:
150,272,87595,1,0,0:0:0:0:
150,272,87681,2,0,P|185:260|221:259,1,40.4999987640381
286,261,87854,1,0,0:0:0:0:
109,346,88026,2,0,P|77:311|66:246,1,80.9999975280763,8|0,0:0|0:0,0:0:0:0:
124,60,88371,6,0,P|156:95|167:160,1,80.9999975280763
66,279,88716,2,0,P|98:271|134:249,1,40.4999987640381,8|0,0:0|0:0,0:0:0:0:
207,279,88888,1,0,0:0:0:0:
228,254,88975,1,0,0:0:0:0:
251,234,89061,1,0,0:0:0:0:
278,220,89147,1,0,0:0:0:0:
307,213,89233,2,0,P|351:208|379:213,1,40.4999987640381,2|0,0:0|0:0,0:0:0:0:
426,212,89406,2,0,P|351:209|331:200,1,80.9999975280763,8|0,0:0|0:0,0:0:0:0:
166,126,89750,5,2,0:0:0:0:
8,8,89923,2,0,P|64:0|112:16,1,80.9999975280763,0|8,0:0|0:0,0:0:0:0:
230,118,90268,1,0,0:0:0:0:
198,126,90354,1,0,0:0:0:0:
166,126,90440,1,0,0:0:0:0:
288,40,90612,2,0,P|328:104|328:128,1,80.9999975280763,0|8,0:0|0:0,0:0:0:0:
307,213,90957,1,0,0:0:0:0:
467,284,91130,6,0,P|391:286|370:274,1,80.9999975280763
307,213,91475,1,8,0:0:0:0:
166,317,91647,1,0,0:0:0:0:
169,297,91733,1,0,0:0:0:0:
177,278,91819,1,0,0:0:0:0:
189,262,91905,1,0,0:0:0:0:
204,248,91992,2,0,P|224:179|222:144,1,80.9999975280763,2|8,0:0|0:0,0:0:0:0:
232,56,92337,1,0,0:0:0:0:
32,120,92509,6,0,P|96:112|144:128,1,80.9999975280763,2|0,0:0|0:0,0:0:0:0:
238,176,92854,1,8,0:0:0:0:
88,327,93026,2,0,P|113:267|150:234,1,80.9999975280763
238,176,93371,1,0,0:0:0:0:
294,382,93543,2,0,P|254:330|244:281,1,80.9999975280763,8|0,0:0|0:0,0:0:0:0:
238,176,93888,5,4,0:0:0:0:
408,256,94578,2,0,L|520:256,1,94.499997116089
313,256,94923,2,0,L|425:256,1,94.499997116089
249,316,95268,6,0,B|225:268|225:268|233:196,1,90,2|0,0:0|0:0,0:0:0:0:
256,80,95612,1,8,0:0:0:0:
130,144,95785,1,0,0:0:0:0:
147,172,95871,1,0,0:0:0:0:
170,197,95957,1,0,0:0:0:0:
197,217,96043,1,0,0:0:0:0:
228,231,96130,2,0,P|288:240|336:272,1,90,0|8,0:0|0:0,0:0:0:0:
408,336,96475,1,0,0:0:0:0:
432,216,96647,6,0,P|427:171|408:130,1,90,2|0,0:0|0:0,0:0:0:0:
320,40,96992,1,8,0:0:0:0:
192,96,97164,2,0,B|176:112|176:112|160:152,1,45
228,231,97337,2,0,B|244:215|244:215|260:175,1,45
320,40,97509,1,0,0:0:0:0:
85,119,97681,2,0,B|125:143|125:143|189:127,1,90,8|0,0:0|0:0,0:0:0:0:
91,36,98026,6,0,P|27:60|3:108,1,90,2|0,0:0|0:0,0:0:0:0:
228,231,98371,1,8,0:0:0:0:
440,120,98543,1,0,0:0:0:0:
395,123,98629,1,0,0:0:0:0:
350,127,98715,1,0,0:0:0:0:
305,131,98801,1,0,0:0:0:0:
260,135,98888,2,0,L|200:144,1,45
127,154,99061,2,0,L|239:138,1,90,8|0,0:0|0:0,0:0:0:0:
350,127,99406,6,0,L|307:231,1,90,2|0,0:0|0:0,0:0:0:0:
240,304,99750,1,8,0:0:0:0:
73,191,99923,1,0,0:0:0:0:
106,185,100009,1,0,0:0:0:0:
139,180,100095,1,0,0:0:0:0:
172,174,100181,1,0,0:0:0:0:
206,169,100268,2,0,L|249:65,1,90,0|8,0:0|0:0,0:0:0:0:
73,191,100612,1,0,0:0:0:0:
350,127,100785,6,0,B|358:175|358:175|344:214,1,90,2|0,0:0|0:0,0:0:0:0:
240,304,101130,1,8,0:0:0:0:
481,115,101302,1,0,0:0:0:0:
449,125,101388,1,0,0:0:0:0:
417,136,101474,1,0,0:0:0:0:
383,132,101560,1,0,0:0:0:0:
350,127,101647,2,0,B|302:119|302:119|262:132,1,90,0|8,0:0|0:0,0:0:0:0:
73,191,101992,1,0,0:0:0:0:
196,189,102164,6,0,P|252:147|271:109,1,90,2|0,0:0|0:0,0:0:0:0:
307,32,102509,1,8,0:0:0:0:
115,110,102681,1,0,0:0:0:0:
101,127,102767,1,0,0:0:0:0:
89,147,102853,1,0,0:0:0:0:
79,167,102939,1,0,0:0:0:0:
72,188,103026,2,0,P|83:253|116:290,1,90,0|8,0:0|0:0,0:0:0:0:
262,131,103371,1,0,0:0:0:0:
448,248,103543,6,0,B|404:266|404:266|340:251,1,90,2|0,0:0|0:0,0:0:0:0:
262,131,103888,1,8,0:0:0:0:
192,320,104061,1,0,0:0:0:0:
192,320,104147,1,0,0:0:0:0:
192,320,104233,2,0,L|200:272,1,45
262,131,104406,1,0,0:0:0:0:
76,14,104578,2,0,B|120:-4|120:-4|184:11,1,90,8|0,0:0|0:0,0:0:0:0:
72,188,104923,5,2,0:0:0:0:
199,275,105095,2,0,P|236:268|262:274,1,45
352,320,105268,1,8,0:0:0:0:
395,330,105354,1,0,0:0:0:0:
437,316,105440,1,2,0:0:0:0:
466,282,105526,1,0,0:0:0:0:
473,239,105612,5,0,0:0:0:0:
440,207,105698,1,0,0:0:0:0:
403,182,105784,1,2,0:0:0:0:
361,165,105870,1,0,0:0:0:0:
318,155,105956,1,8,0:0:0:0:
273,153,106043,1,0,0:0:0:0:
228,160,106129,1,2,0:0:0:0:
186,174,106215,1,0,0:0:0:0:
144,200,106302,6,0,L|160:224,1,16.8750006437302,4|0,0:0|0:0,0:0:0:0:
152,328,106475,1,0,0:0:0:0:
88,278,106647,1,0,0:0:0:0:
62,200,106820,1,0,0:0:0:0:
113,137,106992,1,0,0:0:0:0:
79,25,107164,1,0,0:0:0:0:
4,114,107336,1,0,0:0:0:0:
113,137,107509,1,0,0:0:0:0:
256,32,107638,6,0,L|256:56,1,16.8750006437302,4|0,0:0|0:0,0:0:0:0:
256,192,107854,1,0,0:0:0:0:
376,296,108199,2,0,L|376:264,1,16.8750006437302,4|0,0:0|0:0,0:0:0:0:
368,80,108543,2,0,B|353:70|353:70|353:56|358:46|358:46|368:42|377:28|377:28|386:42|396:46|396:46|401:56|401:70|401:70|386:80,1,135.000005149842
376,80,108975,2,0,L|376:104,1,16.8750006437302,4|0,0:0|0:0,0:0:0:0:
352,208,109233,2,0,B|321:245|267:284|244:346|298:385|344:385|399:346|375:284|321:245|290:207,1,371.250014162064
272,192,110268,1,0,0:0:0:0:
252,184,110354,1,0,0:0:0:0:
228,180,110440,1,0,0:0:0:0:
8,68,111130,6,0,B|56:48|56:48|108:72|108:72|168:48,1,157.5
255,45,111819,6,0,B|216:61|174:41|126:61,1,103.500001974106,2|0,0:0|0:0,0:0:0:0:
284,200,112164,1,8,0:0:0:0:
344,136,112337,2,0,B|357:76|434:62|403:30|403:30|374:-6|359:31|323:51,1,207.000003948212
284,200,112854,1,8,0:0:0:0:
309,283,113027,2,0,B|353:323|327:398|370:387|370:387|416:380|391:349|392:307,1,207.000003948212
284,200,113543,1,8,0:0:0:0:
198,180,113716,2,0,B|140:198|89:138|76:181|76:181|59:224|99:218|135:239,1,207.000003948212
284,200,114233,2,0,P|288:128|272:96,1,103.500001974106,8|0,0:0|0:0,0:0:0:0:
180,4,114578,5,2,0:0:0:0:
284,200,114750,1,0,0:0:0:0:
320,216,114836,1,0,0:0:0:0:
357,226,114922,1,8,0:0:0:0:
396,230,115008,1,0,0:0:0:0:
434,227,115095,2,0,P|457:182|416:216,1,103.500001974106
284,200,115440,1,2,0:0:0:0:
72,280,115612,2,0,P|160:288|216:272,1,103.500001974106,8|0,0:0|0:0,0:0:0:0:
284,200,115957,5,2,0:0:0:0:
496,120,116130,2,0,P|408:112|352:128,1,103.500001974106,0|8,0:0|0:0,0:0:0:0:
210,159,116475,1,0,0:0:0:0:
188,196,116561,1,0,0:0:0:0:
177,234,116647,2,0,P|172:267|175:296,1,51.7500009870529
296,313,116819,1,2,0:0:0:0:
318,276,116905,1,0,0:0:0:0:
328,237,116992,2,0,P|332:203|329:174,1,51.7500009870529,8|0,0:0|0:0,0:0:0:0:
304,64,117164,1,0,0:0:0:0:
113,133,117337,6,0,B|170:135|170:135|233:173,1,103.500001974106,2|0,0:0|0:0,0:0:0:0:
296,313,117681,1,8,0:0:0:0:
431,253,117854,1,0,0:0:0:0:
431,253,117940,1,0,0:0:0:0:
431,253,118026,2,0,P|415:213|415:189,1,51.7500009870529
302,65,118199,2,0,P|318:105|318:129,1,51.7500009870529,2|0,0:0|0:0,0:0:0:0:
296,313,118371,1,8,0:0:0:0:
113,133,118543,1,0,0:0:0:0:
364,23,118716,6,0,P|393:95|393:139,1,103.500001974106,2|0,0:0|0:0,0:0:0:0:
296,313,119061,1,8,0:0:0:0:
67,138,119233,1,0,0:0:0:0:
113,133,119319,1,0,0:0:0:0:
159,139,119406,2,0,P|170:172|168:197,1,51.7500009870529
271,174,119578,2,0,P|259:206|242:225,1,51.7500009870529,2|0,0:0|0:0,0:0:0:0:
167,282,119750,1,8,0:0:0:0:
245,14,119923,1,0,0:0:0:0:
256,42,120009,1,0,0:0:0:0:
262,72,120095,6,0,P|274:143|266:191,1,103.500001974106,2|0,0:0|0:0,0:0:0:0:
167,282,120440,1,8,0:0:0:0:
373,347,120612,1,0,0:0:0:0:
363,309,120698,1,0,0:0:0:0:
361,270,120784,1,0,0:0:0:0:
365,232,120870,1,0,0:0:0:0:
377,195,120957,1,2,0:0:0:0:
66,137,121130,1,8,0:0:0:0:
167,282,121302,1,2,0:0:0:0:
236,91,121475,5,2,0:0:0:0:
278,286,121647,1,2,0:0:0:0:
66,137,121819,1,8,0:0:0:0:
377,195,121992,1,2,0:0:0:0:
167,282,122164,1,8,0:0:0:0:
167,282,122250,1,8,0:0:0:0:
167,282,122337,1,2,0:0:0:0:
336,51,122509,1,8,0:0:0:0:
336,51,122595,1,8,0:0:0:0:
336,51,122681,1,2,0:0:0:0:
61,17,122854,6,0,P|50:56|52:97,1,67.5,4|0,0:0|0:0,0:0:0:0:
70,107,123199,5,8,0:0:0:0:
270,231,123371,2,0,B|381:256|381:256|343:300|343:300|306:265,1,207.000003948212
176,192,123888,1,8,0:0:0:0:
162,91,124061,2,0,B|127:-17|127:-17|184:-7|184:-7|173:41,1,207.000003948212
176,192,124578,1,8,0:0:0:0:
95,253,124750,2,0,B|16:335|16:335|-2:281|-2:281|38:272,1,207.000003948212
273,160,125268,2,0,P|217:184|161:192,1,103.500001974106,8|0,0:0|0:0,0:0:0:0:
64,292,125612,6,0,L|80:344,1,51.7500009870529,2|0,0:0|0:0,0:0:0:0:
64,91,125785,2,0,L|80:40,1,51.7500009870529,2|0,0:0|0:0,0:0:0:0:
64,192,125957,1,8,0:0:0:0:
175,191,126130,2,0,L|226:191,1,51.7500009870529,4|0,0:0|0:0,0:0:0:0:
360,334,126475,1,2,0:0:0:0:
320,310,126561,1,2,0:0:0:0:
280,278,126647,2,0,P|240:222|224:182,1,103.500001974106,8|0,0:0|0:0,0:0:0:0:
288,24,126992,5,2,0:0:0:0:
280,278,127164,2,0,P|240:267|211:271,1,51.7500009870529
132,328,127337,1,8,0:0:0:0:
95,291,127423,1,0,0:0:0:0:
67,248,127509,1,2,0:0:0:0:
49,200,127595,1,0,0:0:0:0:
42,148,127681,1,0,0:0:0:0:
60,99,127768,1,0,0:0:0:0:
94,60,127854,1,2,0:0:0:0:
143,44,127940,1,0,0:0:0:0:
193,54,128026,1,8,0:0:0:0:
228,91,128112,1,0,0:0:0:0:
238,142,128199,1,2,0:0:0:0:
228,192,128285,1,0,0:0:0:0:
204,237,128371,5,2,0:0:0:0:
296,112,128543,1,2,0:0:0:0:
280,278,128716,5,2,0:0:0:0:
176,80,128888,1,2,0:0:0:0:
64,336,129061,5,2,0:0:0:0:
176,64,129233,1,2,0:0:0:0:
288,288,129406,5,2,0:0:0:0:
176,48,129578,1,2,0:0:0:0:
176,48,129664,1,2,0:0:0:0:
176,48,129750,5,2,0:0:0:0:
376,144,129923,1,2,0:0:0:0:
128,136,130095,5,2,0:0:0:0:
392,48,130268,1,2,0:0:0:0:
80,48,130440,5,2,0:0:0:0:
384,216,130612,1,2,0:0:0:0:
280,24,130785,5,2,0:0:0:0:
144,264,130957,1,2,0:0:0:0:
144,264,131043,1,2,0:0:0:0:
144,264,131130,5,2,0:0:0:0:
176,48,131302,1,2,0:0:0:0:
296,320,131475,5,10,0:0:0:0:
352,16,131647,1,2,0:0:0:0:
352,16,131733,1,2,0:0:0:0:
352,16,131820,5,8,0:0:0:0:
294,333,131992,1,2,0:0:0:0:
74,177,132165,5,2,0:0:0:0:
438,207,132337,1,8,0:0:0:0:
192,32,132509,6,0,B|192:80|192:80|176:120|176:120|192:160|192:160|192:192,1,157.499995193482
113,248,133026,1,2,0:0:0:0:
151,275,133112,1,2,0:0:0:0:
193,294,133198,1,2,0:0:0:0:
240,298,133285,1,2,0:0:0:0:
286,286,133370,5,2,0:0:0:0:
353,244,133457,1,2,0:0:0:0:
396,177,133543,1,2,0:0:0:0:
392,97,133629,1,2,0:0:0:0:
344,34,133715,1,2,0:0:0:0:
268,9,133801,1,2,0:0:0:0:
192,32,133888,5,4,0:0:0:0:
159,206,134061,2,0,B|169:244|169:244|159:273|159:273,1,67.5000025749208
12,192,134233,2,0,B|2:153|2:153|12:124|12:124,1,67.5000025749208
27,267,134406,2,0,B|115:283|115:283|218:254,1,135.000005149842,2|8,0:0|0:0,0:0:0:0:
363,384,134750,2,0,P|369:356|369:314,1,67.5000025749208
448,141,134923,2,0,P|420:148|384:169,1,67.5000025749208,2|0,0:0|0:0,0:0:0:0:
192,188,135095,6,0,P|213:207|249:228,1,67.5000025749208,2|0,0:0|0:0,0:0:0:0:
316,72,135440,6,0,B|305:109|305:109|324:159,1,67.5000025749208
144,104,135612,2,0,B|152:141|152:141|194:175,1,67.5000025749208
283,243,135785,1,0,0:0:0:0:
86,326,135957,2,0,B|86:310|86:310|78:294|78:294|86:278|86:278|86:262,1,67.5000025749208,8|0,0:0|0:0,0:0:0:0:
175,223,136130,2,0,B|175:207|175:207|167:191|167:191|175:175|175:175|175:159,1,67.5000025749208,2|0,0:0|0:0,0:0:0:0:
263,119,136302,2,0,B|263:103|263:103|255:87|255:87|263:71|263:71|263:55,1,67.5000025749208
341,149,136475,2,0,P|311:186|257:207,1,67.5000025749208,2|0,0:0|0:0,0:0:0:0:
175,223,136647,5,2,0:0:0:0:
360,255,136819,2,0,P|315:272|258:263,1,67.5000025749208
313,351,136992,2,0,P|265:343|220:307,1,67.5000025749208
52,204,137164,1,2,0:0:0:0:
52,204,137250,1,0,0:0:0:0:
52,204,137337,2,0,P|99:203|150:231,1,67.5000025749208,8|0,0:0|0:0,0:0:0:0:
120,121,137509,2,0,P|161:144|191:193,1,67.5000025749208
224,96,137681,2,0,P|248:137|250:195,1,67.5000025749208,2|0,0:0|0:0,0:0:0:0:
328,128,137854,2,0,P|328:175|301:226,2,67.5000025749208,2|0|0,0:0|0:0|0:0,0:0:0:0:
52,204,138199,5,8,0:0:0:0:
328,128,138371,1,2,0:0:0:0:
296,272,138543,1,2,0:0:0:0:
200,72,138716,2,0,P|202:35|207:18,10,33.7500012874604,8|0|0|0|0|0|0|0|0|0|0,0:0|0:0|0:0|0:0|0:0|0:0|0:0|0:0|0:0|0:0|0:0,0:0:0:0:
204,152,139233,1,0,0:0:0:0:
256,213,139319,1,0,0:0:0:0:
329,249,139406,6,0,P|375:266|395:271,2,45,2|0|0,0:0|0:0|0:0,0:0:0:0:
363,124,139750,2,0,B|350:178|323:204|323:204|332:282,1,135.000005149842,4|2,0:0|0:0,0:0:0:0:
378,359,140095,1,8,0:0:0:0:
293,305,140268,2,0,B|319:274|319:274|336:230,1,67.5000025749208
178,283,140440,2,0,B|215:270|215:270|252:240,1,67.5000025749208,2|0,0:0|0:0,0:0:0:0:
103,205,140612,6,0,B|141:212|141:212|188:205,1,67.5000025749208,2|0,0:0|0:0,0:0:0:0:
328,248,140957,6,0,P|364:218|378:192,1,67.5000025749208,2|0,0:0|0:0,0:0:0:0:
216,161,141130,2,0,P|179:190|165:216,1,67.5000025749208,2|0,0:0|0:0,0:0:0:0:
174,330,141302,1,0,0:0:0:0:
155,301,141388,1,0,0:0:0:0:
142,270,141474,1,8,0:0:0:0:
136,237,141560,1,0,0:0:0:0:
135,203,141647,2,0,P|141:134|152:104,1,67.5000025749208
221,137,141819,2,0,P|260:79|285:58,1,67.5000025749208,2|0,0:0|0:0,0:0:0:0:
332,115,141992,2,0,P|395:84|426:79,1,67.5000025749208,2|0,0:0|0:0,0:0:0:0:
472,230,142164,5,2,0:0:0:0:
472,230,142250,1,0,0:0:0:0:
472,230,142337,2,0,P|440:217|412:199,1,67.5000025749208
338,233,142510,2,0,P|316:206|300:177,1,67.5000025749208
258,81,142681,2,0,P|312:57|328:122,1,135.000005149842,2|8,0:0|0:0,0:0:0:0:
168,152,143026,2,0,L|80:160,1,67.5000025749208
34,238,143199,2,0,L|112:232,1,67.5000025749208,2|0,0:0|0:0,0:0:0:0:
184,304,143371,2,0,L|96:312,2,67.5000025749208,2|0|0,0:0|0:0|0:0,0:0:0:0:
376,264,143716,5,8,0:0:0:0:
231,29,143888,1,2,0:0:0:0:
184,304,144061,1,2,0:0:0:0:
416,144,144233,1,8,0:0:0:0:
96,112,144406,1,8,0:0:0:0:
416,144,144578,1,2,0:0:0:0:
184,304,144923,6,0,B|208:256|208:256|216:184,1,99.0000030212403,2|0,0:0|0:0,0:0:0:0:
184,72,145268,1,8,0:0:0:0:
30,153,145440,1,0,0:0:0:0:
69,182,145526,1,0,0:0:0:0:
114,202,145612,1,0,0:0:0:0:
163,212,145698,1,0,0:0:0:0:
212,210,145785,2,0,P|288:192|352:200,1,99.0000030212403,0|8,0:0|0:0,0:0:0:0:
440,232,146130,1,0,0:0:0:0:
250,300,146302,6,0,P|216:230|210:165,1,99.0000030212403,2|0,0:0|0:0,0:0:0:0:
216,72,146647,1,8,0:0:0:0:
408,160,146819,1,0,0:0:0:0:
408,160,146906,1,0,0:0:0:0:
408,160,146992,2,0,B|384:168|384:168|352:168,1,49.5000015106202
216,72,147164,2,0,B|240:64|240:64|272:64,1,49.5000015106202
212,209,147337,1,8,0:0:0:0:
80,280,147509,1,0,0:0:0:0:
33,175,147681,6,0,P|97:167|147:186,1,99.0000030212403,2|0,0:0|0:0,0:0:0:0:
250,300,148026,1,8,0:0:0:0:
415,235,148199,1,0,0:0:0:0:
415,235,148285,1,0,0:0:0:0:
415,235,148371,2,0,P|368:265|346:271,1,49.5000015106202
250,300,148543,1,0,0:0:0:0:
129,176,148716,1,8,0:0:0:0:
292,135,148888,1,0,0:0:0:0:
415,235,149061,6,0,B|371:227|333:248|290:228,1,99.0000030212403,2|0,0:0|0:0,0:0:0:0:
129,176,149406,1,8,0:0:0:0:
210,58,149578,2,0,L|282:77,1,49.5000015106202
334,161,149750,2,0,L|406:142,1,49.5000015106202
458,56,149923,1,0,0:0:0:0:
210,58,150095,1,8,0:0:0:0:
316,235,150268,1,0,0:0:0:0:
458,56,150440,6,0,P|394:46|332:55,1,99.0000030212403,2|0,0:0|0:0,0:0:0:0:
210,58,150785,1,8,0:0:0:0:
298,297,150957,1,0,0:0:0:0:
321,268,151043,1,0,0:0:0:0:
335,234,151129,1,0,0:0:0:0:
340,197,151215,1,0,0:0:0:0:
334,161,151302,2,0,P|269:180|225:208,1,99.0000030212403,0|8,0:0|0:0,0:0:0:0:
145,295,151647,1,0,0:0:0:0:
242,195,151819,6,0,P|223:130|195:86,1,99.0000030212403,2|0,0:0|0:0,0:0:0:0:
104,9,152164,1,8,0:0:0:0:
49,136,152337,1,0,0:0:0:0:
60,173,152423,1,0,0:0:0:0:
79,207,152509,2,0,L|116:247,1,49.5000015106202
217,298,152681,2,0,L|195:347,1,49.5000015106202
49,136,152854,2,0,P|104:126|172:138,1,99.0000030212403,8|0,0:0|0:0,0:0:0:0:
463,248,153199,6,0,P|408:258|340:246,1,99.0000030212403,2|0,0:0|0:0,0:0:0:0:
146,130,153543,1,8,0:0:0:0:
388,61,153716,1,0,0:0:0:0:
394,109,153802,1,0,0:0:0:0:
393,159,153888,1,0,0:0:0:0:
382,207,153974,1,0,0:0:0:0:
364,253,154061,2,0,P|351:324|362:371,1,99.0000030212403,0|8,0:0|0:0,0:0:0:0:
388,61,154406,1,0,0:0:0:0:
120,144,154578,5,2,0:0:0:0:
456,104,154750,1,2,0:0:0:0:
136,318,154923,1,8,0:0:0:0:
112,30,155095,1,2,0:0:0:0:
408,184,155268,6,0,B|372:202|324:178|324:178|284:154|234:166,1,180
184,272,166992,6,0,P|192:216|184:144,1,125.999996154785,4|0,0:0|0:0,0:0:0:0:
112,48,167681,2,0,P|80:96|80:120,1,62.9999980773926,8|0,0:0|0:0,0:0:0:0:
79,99,168026,1,0,0:0:0:0:
184,272,168371,6,0,P|264:256|320:256,1,125.999996154785
408,312,168888,1,0,0:0:0:0:
360,184,169061,1,8,0:0:0:0:
414,335,169233,1,0,0:0:0:0:
464,144,169406,1,0,0:0:0:0:
338,193,169578,1,0,0:0:0:0:
184,272,169750,6,0,B|200:200|200:200|208:160|168:120,1,125.999996154785
192,48,170440,2,0,P|237:60|280:96,1,62.9999980773926,8|0,0:0|0:0,0:0:0:0:
250,68,170784,1,0,0:0:0:0:
404,207,171130,6,0,B|369:216|369:216|321:200,1,62.9999980773926
264,179,171475,1,0,0:0:0:0:
191,149,171647,1,0,0:0:0:0:
296,88,171819,1,8,0:0:0:0:
192,272,171992,1,0,0:0:0:0:
183,86,172164,2,0,P|191:134|183:182,1,62.9999980773926,0|8,0:0|0:0,0:0:0:0:
192,272,172509,6,0,P|184:184|192:136,1,125.999996154785
277,98,173199,2,0,P|291:141|284:177,1,62.9999980773926,8|0,0:0|0:0,0:0:0:0:
290,157,173543,1,0,0:0:0:0:
504,96,173888,6,0,P|431:115|373:106,1,125.999996154785
224,56,174406,1,0,0:0:0:0:
295,161,174578,1,8,0:0:0:0:
159,193,174750,1,0,0:0:0:0:
316,152,174923,1,0,0:0:0:0:
215,35,175095,1,0,0:0:0:0:
110,80,175268,6,0,B|134:128|134:168|134:168|158:192,1,125.999996154785
250,232,175957,2,0,P|219:271|184:288,1,62.9999980773926,8|0,0:0|0:0,0:0:0:0:
208,277,176302,1,0,0:0:0:0:
282,53,176647,6,0,P|306:53|338:69,3,31.4999990386963
330,149,176992,6,0,P|352:157|376:184,3,31.4999990386963
410,237,177337,5,8,0:0:0:0:
408,264,177423,1,0,0:0:0:0:
399,290,177509,1,0,0:0:0:0:
384,313,177595,1,0,0:0:0:0:
364,332,177681,1,0,0:0:0:0:
340,345,177768,1,0,0:0:0:0:
313,352,177854,1,8,0:0:0:0:
286,352,177940,1,0,0:0:0:0:
259,345,178026,6,0,P|194:325|146:325,1,90,2|0,0:0|0:0,0:0:0:0:
50,349,178371,1,8,0:0:0:0:
96,152,178543,1,0,0:0:0:0:
96,152,178630,1,0,0:0:0:0:
96,152,178716,2,0,P|152:160|176:168,1,45
172,323,178888,2,0,P|116:315|92:307,1,45
11,226,179061,1,8,0:0:0:0:
118,81,179233,1,0,0:0:0:0:
134,117,179319,1,0,0:0:0:0:
140,157,179406,6,0,P|139:212|117:265,1,90,2|0,0:0|0:0,0:0:0:0:
48,336,179750,1,8,0:0:0:0:
140,157,179923,1,0,0:0:0:0:
173,161,180009,1,0,0:0:0:0:
205,170,180095,1,0,0:0:0:0:
236,184,180181,1,0,0:0:0:0:
264,203,180267,1,0,0:0:0:0:
140,157,180440,2,0,P|141:102|163:49,1,90,8|0,0:0|0:0,0:0:0:0:
264,203,180785,6,0,P|263:258|241:311,2,90,2|0|8,0:0|0:0|0:0,0:0:0:0:
11,118,181302,1,0,0:0:0:0:
43,128,181388,1,0,0:0:0:0:
75,137,181474,1,0,0:0:0:0:
107,147,181560,1,0,0:0:0:0:
135,161,181647,2,0,L|185:177,1,45
264,203,181819,2,0,L|139:163,1,90,8|0,0:0|0:0,0:0:0:0:
252,290,182164,6,0,L|376:329,1,90,2|0,0:0|0:0,0:0:0:0:
456,359,182509,1,8,0:0:0:0:
353,246,182681,1,0,0:0:0:0:
337,213,182768,1,0,0:0:0:0:
328,178,182854,2,0,P|323:125|325:102,1,45
401,40,183026,2,0,P|406:93|404:116,1,45
328,178,183199,1,8,0:0:0:0:
50,51,183371,1,0,0:0:0:0:
85,49,183457,1,0,0:0:0:0:
120,53,183543,6,0,P|195:71|233:90,1,90,2|0,0:0|0:0,0:0:0:0:
322,133,183888,1,8,0:0:0:0:
387,245,184061,1,0,0:0:0:0:
353,246,184147,1,0,0:0:0:0:
319,248,184233,1,0,0:0:0:0:
285,249,184319,1,0,0:0:0:0:
252,251,184405,1,0,0:0:0:0:
139,193,184578,1,8,0:0:0:0:
252,251,184750,1,0,0:0:0:0:
145,103,184923,6,0,P|137:167|141:207,1,90,2|0,0:0|0:0,0:0:0:0:
181,311,185268,1,8,0:0:0:0:
270,150,185440,1,0,0:0:0:0:
242,131,185526,1,0,0:0:0:0:
211,117,185612,1,0,0:0:0:0:
178,107,185698,1,0,0:0:0:0:
145,103,185785,2,0,P|139:136|137:155,1,45
181,311,185957,1,8,0:0:0:0:
270,150,186130,1,0,0:0:0:0:
145,103,186302,6,0,P|137:167|141:207,1,90,2|0,0:0|0:0,0:0:0:0:
181,311,186647,1,8,0:0:0:0:
360,208,186819,1,0,0:0:0:0:
360,208,186906,1,0,0:0:0:0:
360,208,186992,2,0,B|335:202|335:202|296:208,1,45
264,336,187164,2,0,B|289:342|289:342|328:336,1,45
432,304,187337,1,8,0:0:0:0:
400,96,187509,1,2,0:0:0:0:
315,204,187681,5,2,0:0:0:0:
48,288,187854,2,0,L|96:304,1,45
224,352,188026,1,8,0:0:0:0:
230,307,188112,1,0,0:0:0:0:
221,263,188199,1,2,0:0:0:0:
197,225,188284,1,0,0:0:0:0:
162,197,188371,5,0,0:0:0:0:
123,176,188457,1,0,0:0:0:0:
104,137,188543,1,2,0:0:0:0:
112,93,188629,1,0,0:0:0:0:
143,62,188716,1,8,0:0:0:0:
185,47,188802,1,0,0:0:0:0:
229,51,188888,1,2,0:0:0:0:
270,67,188974,1,0,0:0:0:0:
312,96,189061,6,0,P|330:149|321:220,1,103.500001974106,4|0,3:0|0:0,3:0:0:0:
224,163,189406,1,8,0:0:0:0:
133,113,189578,6,0,B|102:85|56:80|56:80|68:51|59:11|59:11|92:20|111:49,1,207.000003948212
224,163,190095,1,8,0:0:0:0:
227,267,190268,6,0,B|218:307|236:350|236:350|205:354|175:382|175:382|166:349|182:318,1,207.000003948212
224,163,190785,1,8,0:0:0:0:
313,110,190957,6,0,B|352:97|380:59|380:59|399:84|438:96|438:96|414:120|379:122,1,207.000003948212
133,113,191475,2,0,P|134:176|160:241,1,103.500001974106,8|0,0:0|0:0,0:0:0:0:
226,334,191819,5,2,0:0:0:0:
439,228,191992,1,0,0:0:0:0:
401,217,192078,1,0,0:0:0:0:
363,212,192164,1,8,0:0:0:0:
324,210,192250,1,0,0:0:0:0:
285,214,192337,2,0,P|263:255|315:260,1,103.500001974106
439,228,192681,2,0,P|442:157|435:103,1,103.500001974106,2|8,0:0|0:0,0:0:0:0:
363,0,193026,1,0,0:0:0:0:
170,82,193199,6,0,B|208:108|208:108|293:106,1,103.500001974106,2|0,0:0|0:0,0:0:0:0:
363,0,193543,1,8,0:0:0:0:
265,106,193716,1,0,0:0:0:0:
259,157,193802,1,0,0:0:0:0:
267,208,193888,1,0,0:0:0:0:
288,255,193974,1,0,0:0:0:0:
321,294,194061,1,2,0:0:0:0:
438,124,194233,1,8,0:0:0:0:
170,82,194406,1,0,0:0:0:0:
221,285,194578,5,2,0:0:0:0:
438,124,194750,1,0,0:0:0:0:
400,142,194837,1,0,0:0:0:0:
358,144,194923,2,0,P|320:139|287:127,1,51.7500009870529,8|0,0:0|0:0,0:0:0:0:
175,75,195095,1,0,0:0:0:0:
183,125,195181,1,0,0:0:0:0:
182,177,195267,1,0,0:0:0:0:
173,228,195353,1,0,0:0:0:0:
155,276,195440,1,2,0:0:0:0:
389,240,195612,2,0,B|337:238|337:238|270:260,1,103.500001974106,8|0,0:0|0:0,0:0:0:0:
446,317,195957,6,0,P|481:238|468:185,1,103.500001974106,2|0,0:0|0:0,0:0:0:0:
426,88,196302,1,8,0:0:0:0:
256,76,196475,1,0,0:0:0:0:
256,76,196561,1,0,0:0:0:0:
256,76,196647,2,0,P|229:74|191:88,1,51.7500009870529
172,227,196819,2,0,P|198:229|223:223,1,51.7500009870529
426,88,196992,1,8,0:0:0:0:
205,80,197164,1,0,0:0:0:0:
288,288,197337,6,0,P|315:241|298:179,1,103.500001974106,2|0,0:0|0:0,0:0:0:0:
205,80,197681,1,8,0:0:0:0:
67,256,197854,2,0,P|121:256|166:211,1,103.500001974106
205,80,198199,1,2,0:0:0:0:
288,288,198371,2,0,P|315:241|298:179,1,103.500001974106,8|2,0:0|0:0,0:0:0:0:
205,80,198716,5,2,0:0:0:0:
195,328,198888,1,2,0:0:0:0:
280,53,199061,1,8,0:0:0:0:
332,320,199233,1,2,0:0:0:0:
67,256,199406,1,8,0:0:0:0:
67,256,199492,1,8,0:0:0:0:
67,256,199578,1,2,0:0:0:0:
307,194,199750,1,8,0:0:0:0:
307,194,199837,1,8,0:0:0:0:
307,194,199923,1,2,0:0:0:0:
142,58,200095,6,0,P|143:118|151:144,1,67.5,4|0,0:0|0:0,0:0:0:0:
155,154,200440,5,8,0:0:0:0:
368,208,200612,2,0,B|415:218|454:253|454:253|472:232|464:199|464:199|453:173|416:175,1,207.000003948212
258,189,201130,1,8,0:0:0:0:
187,275,201301,2,0,B|154:310|103:326|103:326|113:352|144:362|144:362|173:365|188:331,1,207.000003948212
258,189,201819,1,8,0:0:0:0:
220,85,201992,2,0,B|204:38|215:-12|215:-12|188:-16|164:5|164:5|146:27|166:58,1,207.000003948212
258,189,202509,2,0,L|381:189,1,103.500001974106,8|0,0:0|0:0,0:0:0:0:
470,325,202854,6,0,L|454:229,1,51.7500009870529,2|0,0:0|0:0,0:0:0:0:
470,53,203026,2,0,L|454:149,1,51.7500009870529,2|0,0:0|0:0,0:0:0:0:
446,189,203199,1,8,0:0:0:0:
206,189,203371,2,0,L|262:189,1,51.7500009870529,4|0,0:0|0:0,0:0:0:0:
280,4,203716,1,2,0:0:0:0:
268,46,203802,1,2,0:0:0:0:
260,86,203888,2,0,P|252:150|260:198,1,103.500001974106,8|0,0:0|0:0,0:0:0:0:
369,281,204233,5,2,0:0:0:0:
266,278,204406,2,0,P|223:287|210:293,1,51.7500009870529
128,324,204578,1,8,0:0:0:0:
77,321,204664,1,0,0:0:0:0:
35,291,204750,1,2,0:0:0:0:
17,243,204836,1,0,0:0:0:0:
29,194,204922,1,0,0:0:0:0:
66,158,205009,1,0,0:0:0:0:
111,133,205095,1,2,0:0:0:0:
160,118,205181,1,0,0:0:0:0:
212,115,205267,1,8,0:0:0:0:
263,123,205354,1,0,0:0:0:0:
312,138,205440,1,2,0:0:0:0:
357,163,205526,1,0,0:0:0:0:
393,200,205612,5,2,0:0:0:0:
193,242,205785,1,2,0:0:0:0:
393,296,205957,5,2,0:0:0:0:
263,123,206130,1,2,0:0:0:0:
325,324,206302,5,2,0:0:0:0:
335,66,206475,1,2,0:0:0:0:
107,185,206647,5,2,0:0:0:0:
405,137,206819,1,2,0:0:0:0:
405,137,206906,1,2,0:0:0:0:
405,137,206992,5,2,0:0:0:0:
287,323,207164,1,2,0:0:0:0:
349,43,207337,5,2,0:0:0:0:
204,336,207509,1,2,0:0:0:0:
116,24,207681,5,2,0:0:0:0:
405,113,207854,1,2,0:0:0:0:
104,284,208026,5,2,0:0:0:0:
417,201,208199,1,2,0:0:0:0:
417,201,208285,1,2,0:0:0:0:
417,201,208371,5,2,0:0:0:0:
190,37,208543,1,2,0:0:0:0:
210,343,208716,5,8,0:0:0:0:
399,110,208888,1,2,0:0:0:0:
399,110,208975,1,2,0:0:0:0:
399,110,209061,5,8,0:0:0:0:
64,232,209233,1,2,0:0:0:0:
430,288,209406,5,2,0:0:0:0:
64,232,209578,1,10,0:0:0:0:
350,38,209750,6,0,B|340:106|293:180|293:180|254:235|204:212|189:170|203:129|237:106|278:114|294:148|315:204|428:224,1,503.999984619141,0|4,0:0|0:0,0:0:0:0:
408,219,211475,5,0,0:0:0:0:
379,313,211819,2,0,P|335:283|317:253,1,62.9999980773926
329,275,212164,1,0,0:0:0:0:
86,264,212509,6,0,P|163:225|206:218,1,125.999996154785
335,231,213026,1,0,0:0:0:0:
260,127,213199,1,0,0:0:0:0:
352,249,213371,1,0,0:0:0:0:
223,297,213543,1,0,0:0:0:0:
243,109,213716,1,0,0:0:0:0:
450,82,213888,6,0,B|414:83|391:66|391:66|367:77|367:77|344:71|305:71,1,125.999996154785
241,47,214578,2,0,P|238:92|253:131,1,62.9999980773926
242,108,214923,1,0,0:0:0:0:
333,307,215268,6,0,P|335:261|320:222,1,62.9999980773926
291,174,215612,1,0,0:0:0:0:
242,108,215785,1,0,0:0:0:0:
405,169,215957,1,0,0:0:0:0:
175,168,216130,1,0,0:0:0:0:
387,108,216302,2,0,P|400:161|412:182,1,62.9999980773926
433,288,216647,6,0,P|426:226|400:163,1,125.999996154785
308,164,217337,2,0,P|329:113|356:91,1,62.9999980773926
333,107,217681,1,0,0:0:0:0:
239,311,218026,6,0,B|216:280|216:280|192:253|211:175,1,125.999996154785
294,60,218543,1,0,0:0:0:0:
324,158,218716,1,0,0:0:0:0:
168,97,218888,1,0,0:0:0:0:
310,41,219061,1,0,0:0:0:0:
151,79,219233,1,0,0:0:0:0:
437,125,219406,6,0,P|376:122|321:160,1,125.999996154785
239,311,220095,2,0,P|289:309|314:296,1,62.9999980773926
300,304,220440,1,0,0:0:0:0:
157,103,220785,6,0,L|167:194,1,62.9999980773926
239,311,221130,1,0,0:0:0:0:
102,212,221302,1,0,0:0:0:0:
260,153,221475,1,0,0:0:0:0:
77,210,221647,1,0,0:0:0:0:
264,329,221819,1,0,0:0:0:0:
157,103,221992,1,4,0:0:0:0:
