osu file format v14

[General]
AudioFilename: audio.mp3
AudioLeadIn: 0
PreviewTime: 48107
Countdown: 0
SampleSet: Soft
StackLeniency: 0.7
Mode: 3
LetterboxInBreaks: 0
SpecialStyle: 0
WidescreenStoryboard: 1

[Editor]
DistanceSpacing: 1
BeatDivisor: 4
GridSize: 16
TimelineZoom: 2.600003

[Metadata]
Title:Stay Alive
TitleUnicode:Stay Alive
Artist:EMILIA (CV: Rie Takahashi)
ArtistUnicode:エミリア(CV:高橋李依)
Creator:Ayachi-
Version:KK's 7K Hard
Source:Re:ゼロから始める異世界生活
Tags:ed Sky_Demon Kuo Kyoka Re:zero kara hajimeru isekai seikatsu starting life in another world
BeatmapID:1084067
BeatmapSetID:480963

[Difficulty]
HPDrainRate:8
CircleSize:7
OverallDifficulty:8
ApproachRate:5
SliderMultiplier:1.4
SliderTickRate:1

[Events]
//Background and Video events
0,0,"59514938_p0.jpg",0,0
Video,0,"Re Zero kara Hajimeru Isekai Seikatsu - 16 [1080p] - Segment1(00_23_05.825-00_24_35.950).avi"
//Break Periods
//Storyboard Layer 0 (Background)
//Storyboard Layer 1 (Fail)
//Storyboard Layer 2 (Pass)
//Storyboard Layer 3 (Foreground)
//Storyboard Sound Samples
Sample,15232,0,"drum.wav",25
Sample,15303,0,"drum.wav",25
Sample,15375,0,"drum.wav",25
Sample,15446,0,"drum.wav",25
Sample,15518,0,"drum.wav",25
Sample,15589,0,"bass.wav",45
Sample,18660,0,"drum.wav",25
Sample,18732,0,"drum.wav",25
Sample,18803,0,"drum.wav",25
Sample,18875,0,"drum.wav",25
Sample,18946,0,"drum.wav",25
Sample,19018,0,"bass.wav",45
Sample,22089,0,"drum.wav",25
Sample,22160,0,"drum.wav",25
Sample,22232,0,"drum.wav",25
Sample,22303,0,"drum.wav",25
Sample,22375,0,"drum.wav",25
Sample,22446,0,"drum.wav",25
Sample,25518,0,"drum.wav",25
Sample,25589,0,"drum.wav",25
Sample,25660,0,"drum.wav",25
Sample,25732,0,"drum.wav",25
Sample,25803,0,"drum.wav",25
Sample,25875,0,"drum.wav",25
Sample,31768,0,"hihat.wav",30
Sample,38625,0,"hihat.wav",30
Sample,76446,0,"crash.wav",45
Sample,76446,0,"kick.wav",45
Sample,76940,0,"drum.wav",25
Sample,77011,0,"drum.wav",25
Sample,77082,0,"drum.wav",25
Sample,77152,0,"drum.wav",25
Sample,77223,0,"drum.wav",25
Sample,77294,0,"bass.wav",45
Sample,80334,0,"drum.wav",25
Sample,80404,0,"drum.wav",25
Sample,80475,0,"drum.wav",25
Sample,80546,0,"drum.wav",25
Sample,80617,0,"drum.wav",25
Sample,80687,0,"bass.wav",45
Sample,83727,0,"drum.wav",25
Sample,83798,0,"drum.wav",25
Sample,83869,0,"drum.wav",25
Sample,83939,0,"drum.wav",25
Sample,84010,0,"drum.wav",25
Sample,84081,0,"bass.wav",45
Sample,87121,0,"drum.wav",25
Sample,87191,0,"drum.wav",25
Sample,87262,0,"drum.wav",25
Sample,87333,0,"drum.wav",25
Sample,87403,0,"drum.wav",25
Sample,87474,0,"bass.wav",45

[TimingPoints]
1018,428.571428571429,4,2,1,30,1,0
48160,-200,4,2,1,30,0,0
49018,-100,4,2,1,30,0,1
76446,424.178154825027,4,2,1,30,1,0

[HitObjects]
36,192,1018,5,0,0:0:0:0:
182,192,1232,1,0,0:0:0:0:
329,192,1446,1,0,0:0:0:0:
475,192,1660,1,0,0:0:0:0:
109,192,1875,128,0,2303:0:0:0:0:
256,192,2089,128,0,2303:0:0:0:0:
402,192,2303,128,0,4446:0:0:0:0:
182,192,2732,1,0,0:0:0:0:
109,192,3160,1,0,0:0:0:0:
36,192,3589,128,0,4446:0:0:0:0:
182,192,4018,128,0,4446:0:0:0:0:
475,192,4446,1,0,0:0:0:0:
329,192,4660,1,0,0:0:0:0:
182,192,4875,1,0,0:0:0:0:
36,192,5089,1,0,0:0:0:0:
402,192,5303,128,0,5732:0:0:0:0:
256,192,5518,128,0,5732:0:0:0:0:
109,192,5732,128,0,7875:0:0:0:0:
329,192,6375,128,0,6803:0:0:0:0:
182,192,6589,128,0,6803:0:0:0:0:
475,192,7018,128,0,7125:0:0:0:0:
402,192,7232,128,0,7339:0:0:0:0:
329,192,7446,128,0,7553:0:0:0:0:
402,192,7660,128,0,7768:0:0:0:0:
182,192,7875,1,0,0:0:0:0:
475,192,7875,128,0,7982:0:0:0:0:
36,192,8089,1,0,0:0:0:0:
329,192,8303,1,0,0:0:0:0:
475,192,8518,1,0,0:0:0:0:
109,192,8732,128,0,9160:0:0:0:0:
256,192,8946,128,0,9160:0:0:0:0:
402,192,9160,128,0,11303:0:0:0:0:
182,192,9589,1,0,0:0:0:0:
109,192,10018,1,0,0:0:0:0:
36,192,10446,128,0,11303:0:0:0:0:
182,192,10875,128,0,11303:0:0:0:0:
475,192,11303,1,0,0:0:0:0:
329,192,11518,1,0,0:0:0:0:
36,192,11732,1,0,0:0:0:0:
182,192,11946,1,0,0:0:0:0:
402,192,12160,128,0,12589:0:0:0:0:
256,192,12375,128,0,12589:0:0:0:0:
109,192,12589,128,0,14732:0:0:0:0:
329,192,13018,1,0,0:0:0:0:
402,192,13446,1,0,0:0:0:0:
475,192,13875,128,0,13982:0:0:0:0:
402,192,14089,128,0,14196:0:0:0:0:
329,192,14303,128,0,14410:0:0:0:0:
402,192,14518,128,0,14625:0:0:0:0:
256,192,14732,1,0,0:0:0:45:crash.wav
36,192,14732,1,0,0:0:0:0:
475,192,14732,128,0,14839:0:0:0:45:bass.wav
256,192,15160,128,0,15589:0:0:0:25:drum.wav
36,192,15160,128,0,15589:0:0:0:0:
475,192,15589,1,0,0:0:0:25:drum.wav
182,192,15589,1,0,0:0:0:45:snare.wav
36,192,16018,1,0,0:0:0:45:snare.wav
256,192,16018,1,0,0:0:0:0:
475,192,16018,1,0,0:0:0:0:
402,192,16232,1,0,0:0:0:45:snare.wav
182,192,16232,1,0,0:0:0:45:bass.wav
182,192,16660,1,0,0:0:0:45:snare.wav
402,192,16660,1,0,0:0:0:0:
36,192,16660,1,0,0:0:0:0:
329,192,16875,1,0,0:0:0:45:snare.wav
109,192,16875,1,0,0:0:0:45:bass.wav
109,192,17303,128,0,18160:0:0:0:25:crash.wav
329,192,17303,128,0,18160:0:0:0:0:
182,192,17732,128,0,18160:0:0:0:25:crash.wav
402,192,17732,128,0,18160:0:0:0:0:
256,192,18160,1,0,0:0:0:45:bass.wav
475,192,18160,1,0,0:0:0:45:crash.wav
36,192,18160,1,0,0:0:0:0:
256,192,18589,128,0,19018:0:0:0:25:drum.wav
475,192,18589,128,0,19018:0:0:0:0:
36,192,19018,1,0,0:0:0:25:drum.wav
182,192,19018,1,0,0:0:0:45:snare.wav
109,192,19446,1,0,0:0:0:45:snare.wav
329,192,19446,1,0,0:0:0:0:
475,192,19446,1,0,0:0:0:0:
182,192,19660,1,0,0:0:0:45:snare.wav
402,192,19660,1,0,0:0:0:45:bass.wav
182,192,20089,1,0,0:0:0:45:snare.wav
402,192,20089,1,0,0:0:0:0:
36,192,20089,1,0,0:0:0:0:
256,192,20303,1,0,0:0:0:45:snare.wav
475,192,20303,1,0,0:0:0:45:bass.wav
256,192,20732,1,0,0:0:0:45:snare.wav
36,192,20732,1,0,0:0:0:0:
182,192,20946,1,0,0:0:0:0:
109,192,21160,1,0,0:0:0:45:snare.wav
329,192,21160,1,0,0:0:0:0:
182,192,21375,1,0,0:0:0:45:snare.wav
402,192,21375,1,0,0:0:0:0:
36,192,21589,1,0,0:0:0:45:bass.wav
256,192,21589,1,0,0:0:0:45:crash.wav
475,192,21589,1,0,0:0:0:0:
256,192,22018,128,0,22446:0:0:0:25:drum.wav
36,192,22018,128,0,22446:0:0:0:0:
182,192,22446,1,0,0:0:0:45:bass.wav
475,192,22446,1,0,0:0:0:45:snare.wav
36,192,22875,1,0,0:0:0:45:snare.wav
256,192,22875,1,0,0:0:0:0:
475,192,22875,1,0,0:0:0:0:
182,192,23089,1,0,0:0:0:45:bass.wav
402,192,23089,1,0,0:0:0:45:snare.wav
182,192,23518,1,0,0:0:0:45:snare.wav
402,192,23518,1,0,0:0:0:0:
36,192,23518,1,0,0:0:0:0:
109,192,23732,1,0,0:0:0:45:bass.wav
329,192,23732,1,0,0:0:0:45:snare.wav
109,192,24160,128,0,24589:0:0:0:25:crash.wav
329,192,24160,128,0,24589:0:0:0:0:
182,192,24589,1,0,0:0:0:25:crash.wav
402,192,24589,1,0,0:0:0:0:
109,192,24803,1,0,0:0:0:25:crash.wav
329,192,24803,1,0,0:0:0:0:
256,192,25018,1,0,0:0:0:45:crash.wav
475,192,25018,1,0,0:0:0:45:bass.wav
36,192,25018,1,0,0:0:0:0:
256,192,25446,128,0,25875:0:0:0:25:drum.wav
475,192,25446,128,0,25875:0:0:0:0:
329,192,25875,1,0,0:0:0:45:bass.wav
36,192,25875,1,0,0:0:0:45:snare.wav
36,192,26303,1,0,0:0:0:45:snare.wav
256,192,26303,1,0,0:0:0:0:
475,192,26303,1,0,0:0:0:0:
109,192,26518,1,0,0:0:0:45:bass.wav
329,192,26518,1,0,0:0:0:45:snare.wav
109,192,26946,1,0,0:0:0:45:snare.wav
329,192,26946,1,0,0:0:0:0:
475,192,26946,1,0,0:0:0:0:
182,192,27160,1,0,0:0:0:45:bass.wav
402,192,27160,1,0,0:0:0:45:snare.wav
182,192,27375,128,2,27589:0:0:0:0:
36,192,27375,128,0,27589:0:0:0:0:
475,192,27589,1,0,0:0:0:0:
329,192,27589,1,0,0:0:0:45:snare.wav
256,192,27803,1,0,0:0:0:45:kick.wav
402,192,27803,1,0,0:0:0:0:
329,192,28018,1,0,0:0:0:45:snare.wav
182,192,28018,1,0,0:0:0:0:
256,192,28232,1,0,0:0:0:45:bass.wav
109,192,28232,1,0,0:0:0:0:
182,192,28446,1,0,0:0:0:45:bass.wav
36,192,28446,1,0,0:0:0:45:crash.wav
402,192,28446,1,0,0:0:0:0:
475,192,28446,1,0,0:0:0:30:hihat.wav
402,192,28660,1,0,0:0:0:45:bass.wav
475,192,28660,1,0,0:0:0:30:hihat.wav
256,192,28875,1,0,0:0:0:30:hihat.wav
182,192,29089,1,0,0:0:0:30:hihat.wav
402,192,29303,1,0,0:0:0:45:snare.wav
475,192,29303,1,0,0:0:0:45:bass.wav
109,192,29303,1,0,0:0:0:0:
36,192,29303,1,0,0:0:0:0:
256,192,29518,1,0,0:0:0:30:hihat.wav
329,192,29732,1,0,0:0:0:30:hihat.wav
402,192,29946,1,0,0:0:0:45:bass.wav
475,192,29946,1,0,0:0:0:30:hihat.wav
182,192,29946,1,0,0:0:0:0:
109,192,30160,1,0,0:0:0:30:hihat.wav
475,192,30375,1,0,0:0:0:45:bass.wav
402,192,30375,1,0,0:0:0:30:hihat.wav
36,192,30375,1,0,0:0:0:0:
182,192,30589,1,0,0:0:0:30:hihat.wav
256,192,30803,1,0,0:0:0:30:hihat.wav
329,192,31018,1,0,0:0:0:30:hihat.wav
402,192,31018,1,0,0:0:0:45:snare.wav
475,192,31018,1,0,0:0:0:45:bass.wav
109,192,31018,1,0,0:0:0:0:
182,192,31232,1,0,0:0:0:30:hihat.wav
402,192,31446,1,0,0:0:0:0:
36,192,31446,1,0,0:0:0:0:
475,192,31446,1,0,0:0:0:45:bass.wav
256,192,31446,1,0,0:0:0:30:hihat.wav
256,192,31660,1,0,0:0:0:30:hihat.wav
475,192,31875,1,0,0:0:0:30:hihat.wav
402,192,31875,1,0,0:0:0:45:bass.wav
109,192,31875,1,0,0:0:0:0:
36,192,31875,1,0,0:0:0:0:
109,192,32089,1,0,0:0:0:45:bass.wav
36,192,32089,1,0,0:0:0:30:hihat.wav
256,192,32303,1,0,0:0:0:30:hihat.wav
329,192,32518,1,0,0:0:0:30:hihat.wav
36,192,32732,1,0,0:0:0:45:snare.wav
109,192,32732,1,0,0:0:0:45:bass.wav
402,192,32732,1,0,0:0:0:0:
475,192,32732,1,0,0:0:0:0:
182,192,32946,1,0,0:0:0:30:hihat.wav
256,192,33160,1,0,0:0:0:30:hihat.wav
109,192,33375,1,0,0:0:0:30:hihat.wav
36,192,33375,1,0,0:0:0:45:bass.wav
475,192,33375,1,0,0:0:0:0:
402,192,33589,1,0,0:0:0:30:hihat.wav
109,192,33803,1,0,0:0:0:30:hihat.wav
36,192,33803,1,0,0:0:0:45:bass.wav
329,192,33803,1,0,0:0:0:0:
182,192,34018,1,0,0:0:0:30:hihat.wav
256,192,34232,1,0,0:0:0:30:hihat.wav
109,192,34446,1,0,0:0:0:45:bass.wav
36,192,34446,1,0,0:0:0:45:snare.wav
329,192,34446,1,0,0:0:0:0:
475,192,34446,1,0,0:0:0:0:
182,192,34660,1,0,0:0:0:45:bass.wav
109,192,34660,1,0,0:0:0:0:
182,192,34875,1,0,0:0:0:45:bass.wav
256,192,34875,1,0,0:0:0:45:snare.wav
475,192,34875,1,0,0:0:0:0:
402,192,34875,1,0,0:0:0:0:
256,192,35089,1,0,0:0:0:45:kick.wav
329,192,35089,1,0,0:0:0:0:
329,192,35303,1,0,0:0:0:45:bass.wav
402,192,35303,1,0,0:0:0:45:crash.wav
36,192,35303,1,0,0:0:0:0:
109,192,35303,1,0,0:0:0:0:
475,192,35303,1,0,0:0:0:30:hihat.wav
36,192,35518,1,0,0:0:0:45:bass.wav
109,192,35518,1,0,0:0:0:30:hihat.wav
256,192,35732,1,0,0:0:0:30:hihat.wav
182,192,35946,1,0,0:0:0:30:hihat.wav
109,192,36160,1,0,0:0:0:45:snare.wav
36,192,36160,1,0,0:0:0:45:bass.wav
329,192,36160,1,0,0:0:0:0:
475,192,36160,1,0,0:0:0:30:hihat.wav
256,192,36375,1,0,0:0:0:30:hihat.wav
182,192,36589,1,0,0:0:0:30:hihat.wav
109,192,36803,1,0,0:0:0:30:hihat.wav
36,192,36803,1,0,0:0:0:45:bass.wav
329,192,36803,1,0,0:0:0:0:
402,192,37018,1,0,0:0:0:30:hihat.wav
109,192,37232,1,0,0:0:0:30:hihat.wav
36,192,37232,1,0,0:0:0:45:bass.wav
475,192,37232,1,0,0:0:0:0:
182,192,37446,1,0,0:0:0:30:hihat.wav
256,192,37660,1,0,0:0:0:30:hihat.wav
109,192,37875,1,0,0:0:0:30:hihat.wav
329,192,37875,1,0,0:0:0:45:snare.wav
475,192,37875,1,0,0:0:0:45:bass.wav
36,192,37875,1,0,0:0:0:0:
402,192,38089,1,0,0:0:0:30:hihat.wav
109,192,38303,1,0,0:0:0:45:bass.wav
36,192,38303,1,0,0:0:0:30:hihat.wav
256,192,38303,1,0,0:0:0:0:
182,192,38518,1,0,0:0:0:30:hihat.wav
329,192,38732,1,0,0:0:0:45:bass.wav
475,192,38732,1,0,0:0:0:45:crash.wav
36,192,38732,1,0,0:0:0:30:hihat.wav
329,192,38946,1,0,0:0:0:45:bass.wav
475,192,38946,1,0,0:0:0:30:hihat.wav
182,192,39160,1,0,0:0:0:30:hihat.wav
109,192,39375,1,0,0:0:0:30:hihat.wav
256,192,39589,1,0,0:0:0:45:bass.wav
36,192,39589,1,0,0:0:0:0:
402,192,39589,1,0,0:0:0:45:snare.wav
475,192,39589,1,0,0:0:0:30:hihat.wav
182,192,39803,1,0,0:0:0:30:hihat.wav
109,192,40018,1,0,0:0:0:30:hihat.wav
329,192,40232,1,0,0:0:0:45:bass.wav
475,192,40232,1,0,0:0:0:30:hihat.wav
402,192,40446,1,0,0:0:0:45:crash.wav
36,192,40446,1,0,0:0:0:0:
182,192,40446,1,0,0:0:0:45:bass.wav
256,192,40875,1,0,0:0:0:45:crash.wav
109,192,40875,1,0,0:0:0:45:bass.wav
402,192,40875,1,0,0:0:0:0:
182,192,41303,1,0,0:0:0:45:bass.wav
329,192,41303,1,0,0:0:0:45:snare.wav
109,192,41518,1,0,0:0:0:45:bass.wav
36,192,41518,1,0,0:0:0:0:
256,192,41732,1,0,0:0:0:45:kick.wav
402,192,41732,1,0,0:0:0:0:
182,192,41946,1,0,0:0:0:45:kick.wav
109,192,41946,1,0,0:0:0:0:
329,192,42160,128,0,47303:0:0:0:0:
475,192,42160,128,0,48160:0:0:0:0:
182,192,43875,128,0,47303:0:0:0:0:
36,192,43875,128,0,48160:0:0:0:0:
402,192,45589,128,0,47732:0:0:0:0:
109,192,45589,128,0,47732:0:0:0:0:
256,192,48160,128,0,49018:0:0:0:0:
182,192,49018,1,0,0:0:0:45:bass.wav
36,192,49018,1,0,0:0:0:45:crash.wav
329,192,49018,1,0,0:0:0:0:
475,192,49018,1,0,0:0:0:0:
402,192,49018,1,0,0:0:0:0:
182,192,49446,1,0,0:0:0:45:bass.wav
36,192,49446,1,0,0:0:0:0:
329,192,49446,1,0,0:0:0:0:
256,192,49875,1,0,0:0:0:45:snare.wav
475,192,49875,1,0,0:0:0:45:bass.wav
109,192,49875,1,0,0:0:0:0:
402,192,49875,1,0,0:0:0:0:
182,192,50303,1,0,0:0:0:45:bass.wav
36,192,50303,1,0,0:0:0:0:
329,192,50303,1,0,0:0:0:0:
182,192,50732,1,0,0:0:0:45:bass.wav
36,192,50732,1,0,0:0:0:0:
329,192,50732,1,0,0:0:0:0:
182,192,51160,1,0,0:0:0:45:bass.wav
36,192,51160,1,0,0:0:0:0:
329,192,51160,1,0,0:0:0:0:
109,192,51589,1,0,0:0:0:45:bass.wav
256,192,51589,1,0,0:0:0:45:snare.wav
402,192,51589,1,0,0:0:0:0:
475,192,51589,1,0,0:0:0:0:
182,192,52018,1,0,0:0:0:45:bass.wav
36,192,52018,1,0,0:0:0:0:
329,192,52018,1,0,0:0:0:0:
182,192,52446,1,0,0:0:0:45:bass.wav
36,192,52446,1,0,0:0:0:45:crash.wav
329,192,52446,1,0,0:0:0:0:
475,192,52446,1,0,0:0:0:0:
402,192,52446,1,0,0:0:0:0:
329,192,52875,1,0,0:0:0:45:bass.wav
475,192,52875,1,0,0:0:0:0:
182,192,52875,1,0,0:0:0:0:
256,192,53303,1,0,0:0:0:45:bass.wav
109,192,53303,1,0,0:0:0:45:snare.wav
36,192,53303,1,0,0:0:0:0:
402,192,53303,1,0,0:0:0:0:
329,192,53732,1,0,0:0:0:45:bass.wav
475,192,53732,1,0,0:0:0:0:
182,192,53732,1,0,0:0:0:0:
329,192,54160,1,0,0:0:0:45:bass.wav
475,192,54160,1,0,0:0:0:0:
182,192,54160,1,0,0:0:0:0:
475,192,54589,1,0,0:0:0:45:bass.wav
329,192,54589,1,0,0:0:0:45:crash.wav
36,192,54589,1,0,0:0:0:0:
109,192,54589,1,0,0:0:0:0:
182,192,54589,1,0,0:0:0:0:
36,192,55018,1,0,0:0:0:45:snare.wav
109,192,55018,1,0,0:0:0:45:bass.wav
256,192,55018,1,0,0:0:0:0:
402,192,55018,1,0,0:0:0:0:
329,192,55446,1,0,0:0:0:45:crash.wav
182,192,55446,1,0,0:0:0:45:bass.wav
36,192,55446,1,0,0:0:0:0:
109,192,55446,1,0,0:0:0:0:
475,192,55446,1,0,0:0:0:0:
109,192,55875,1,0,0:0:0:45:bass.wav
36,192,55875,1,0,0:0:0:45:crash.wav
256,192,55875,1,0,0:0:0:0:
475,192,55875,1,0,0:0:0:0:
402,192,55875,1,0,0:0:0:0:
109,192,56303,1,0,0:0:0:45:bass.wav
256,192,56303,1,0,0:0:0:0:
402,192,56303,1,0,0:0:0:0:
402,192,56732,1,0,0:0:0:45:bass.wav
475,192,56732,1,0,0:0:0:45:snare.wav
36,192,56732,1,0,0:0:0:0:
182,192,56732,1,0,0:0:0:0:
109,192,57160,1,0,0:0:0:45:bass.wav
256,192,57160,1,0,0:0:0:0:
402,192,57160,1,0,0:0:0:0:
109,192,57589,1,0,0:0:0:45:bass.wav
256,192,57589,1,0,0:0:0:0:
402,192,57589,1,0,0:0:0:0:
109,192,58018,1,0,0:0:0:45:bass.wav
256,192,58018,1,0,0:0:0:0:
402,192,58018,1,0,0:0:0:0:
475,192,58446,1,0,0:0:0:45:bass.wav
182,192,58446,1,0,0:0:0:45:snare.wav
36,192,58446,1,0,0:0:0:0:
402,192,58446,1,0,0:0:0:0:
256,192,58875,1,0,0:0:0:45:bass.wav
109,192,58875,1,0,0:0:0:0:
402,192,58875,1,0,0:0:0:0:
256,192,59303,1,0,0:0:0:45:bass.wav
402,192,59303,1,0,0:0:0:45:crash.wav
36,192,59303,1,0,0:0:0:0:
109,192,59303,1,0,0:0:0:0:
475,192,59303,1,0,0:0:0:0:
256,192,59732,1,0,0:0:0:45:bass.wav
402,192,59732,1,0,0:0:0:0:
109,192,59732,1,0,0:0:0:0:
329,192,60160,1,0,0:0:0:45:bass.wav
475,192,60160,1,0,0:0:0:45:snare.wav
109,192,60160,1,0,0:0:0:0:
36,192,60160,1,0,0:0:0:0:
256,192,60589,1,0,0:0:0:45:bass.wav
402,192,60589,1,0,0:0:0:0:
109,192,60589,1,0,0:0:0:0:
256,192,61018,1,0,0:0:0:45:bass.wav
402,192,61018,1,0,0:0:0:0:
109,192,61018,1,0,0:0:0:0:
256,192,61446,1,0,0:0:0:45:bass.wav
402,192,61446,1,0,0:0:0:45:crash.wav
36,192,61446,1,0,0:0:0:0:
109,192,61446,1,0,0:0:0:0:
475,192,61446,1,0,0:0:0:0:
329,192,61875,1,0,0:0:0:45:bass.wav
475,192,61875,1,0,0:0:0:45:snare.wav
109,192,61875,1,0,0:0:0:0:
36,192,61875,1,0,0:0:0:0:
182,192,62089,1,0,0:0:0:45:bass.wav
109,192,62089,1,0,0:0:0:0:
36,192,62303,1,0,0:0:0:45:kick.wav
256,192,62303,1,0,0:0:0:0:
182,192,62303,1,0,0:0:0:0:
475,192,62303,1,0,0:0:0:0:
402,192,62303,1,0,0:0:0:0:
256,192,62518,1,0,0:0:0:45:kick.wav
329,192,62518,1,0,0:0:0:0:
475,192,62732,1,0,0:0:0:45:crash.wav
36,192,62732,1,0,0:0:0:45:bass.wav
329,192,62732,1,0,0:0:0:0:
402,192,62732,1,0,0:0:0:0:
109,192,62732,1,0,0:0:0:0:
402,192,63375,1,0,0:0:0:45:bass.wav
109,192,63375,1,0,0:0:0:0:
475,192,63589,1,0,0:0:0:45:snare.wav
329,192,63589,1,0,0:0:0:45:bass.wav
182,192,63589,1,0,0:0:0:0:
36,192,63589,1,0,0:0:0:0:
329,192,64232,1,0,0:0:0:45:bass.wav
475,192,64232,1,0,0:0:0:0:
329,192,64660,1,0,0:0:0:45:bass.wav
475,192,64660,1,0,0:0:0:0:
475,192,64875,1,0,0:0:0:45:bass.wav
329,192,64875,1,0,0:0:0:0:
475,192,65303,1,0,0:0:0:45:snare.wav
329,192,65303,1,0,0:0:0:45:bass.wav
402,192,65303,1,0,0:0:0:0:
182,192,65303,1,0,0:0:0:0:
36,192,65303,1,0,0:0:0:0:
36,192,65518,1,0,0:0:0:0:
475,192,65732,1,0,0:0:0:45:bass.wav
182,192,65732,1,0,0:0:0:0:
256,192,65732,1,0,0:0:0:0:
182,192,65946,1,0,0:0:0:30:hihat.wav
109,192,65946,1,0,0:0:0:0:
256,192,66053,1,0,0:0:0:30:hihat.wav
109,192,66160,1,0,0:0:0:45:bass.wav
329,192,66160,1,0,0:0:0:45:crash.wav
475,192,66160,1,0,0:0:0:30:hihat.wav
36,192,66160,1,0,0:0:0:0:
109,192,66803,1,0,0:0:0:45:bass.wav
402,192,66803,1,0,0:0:0:0:
475,192,67018,1,0,0:0:0:45:snare.wav
182,192,67018,1,0,0:0:0:45:bass.wav
36,192,67018,1,0,0:0:0:0:
329,192,67018,1,0,0:0:0:0:
182,192,67660,1,0,0:0:0:45:bass.wav
36,192,67660,1,0,0:0:0:0:
182,192,68089,1,0,0:0:0:45:bass.wav
36,192,68089,1,0,0:0:0:0:
182,192,68303,1,0,0:0:0:45:bass.wav
36,192,68303,1,0,0:0:0:0:
36,192,68732,1,0,0:0:0:45:bass.wav
182,192,68732,1,0,0:0:0:45:snare.wav
475,192,68732,1,0,0:0:0:0:
402,192,68732,1,0,0:0:0:0:
109,192,68946,1,0,0:0:0:0:
256,192,68946,1,0,0:0:0:0:
182,192,69160,1,0,0:0:0:45:snare.wav
329,192,69160,1,0,0:0:0:45:bass.wav
475,192,69160,1,0,0:0:0:0:
256,192,69375,1,0,0:0:0:45:snare.wav
402,192,69375,1,0,0:0:0:45:bass.wav
109,192,69375,1,0,0:0:0:0:
329,192,69589,1,0,0:0:0:45:crash.wav
182,192,69589,1,0,0:0:0:45:bass.wav
36,192,69589,128,0,73018:0:0:0:0:
182,192,70018,1,0,0:0:0:45:bass.wav
329,192,70018,1,0,0:0:0:0:
182,192,70446,1,0,0:0:0:45:bass.wav
329,192,70446,1,0,0:0:0:0:
182,192,70875,1,0,0:0:0:45:bass.wav
329,192,70875,1,0,0:0:0:0:
182,192,71303,128,0,73018:0:0:0:45:bass.wav
329,192,71303,1,0,0:0:0:45:snare.wav
475,192,71303,1,0,0:0:0:0:
402,192,71303,1,0,0:0:0:0:
329,192,71732,1,0,0:0:0:45:bass.wav
402,192,71732,1,0,0:0:0:45:snare.wav
475,192,71732,1,0,0:0:0:0:
329,192,72160,1,0,0:0:0:45:bass.wav
402,192,72160,1,0,0:0:0:45:snare.wav
475,192,72160,1,0,0:0:0:0:
329,192,72589,1,0,0:0:0:45:bass.wav
402,192,72589,1,0,0:0:0:45:snare.wav
475,192,72589,1,0,0:0:0:0:
329,192,73018,128,0,73446:0:0:0:45:bass.wav
402,192,73018,128,0,73446:0:0:0:45:crash.wav
475,192,73018,128,0,73446:0:0:0:0:
182,192,73446,128,0,73875:0:0:0:45:crash.wav
109,192,73446,128,0,73875:0:0:0:45:bass.wav
36,192,73446,128,0,73875:0:0:0:0:
329,192,73875,128,0,74303:0:0:0:45:crash.wav
402,192,73875,128,0,74303:0:0:0:45:bass.wav
475,192,73875,128,0,74303:0:0:0:0:
182,192,74303,128,0,74732:0:0:0:45:bass.wav
109,192,74303,128,0,74732:0:0:0:45:crash.wav
36,192,74303,128,0,74732:0:0:0:0:
329,192,74732,1,0,0:0:0:45:crash.wav
475,192,74732,1,0,0:0:0:45:bass.wav
402,192,74732,1,0,0:0:0:0:
36,192,74946,1,0,0:0:0:45:bass.wav
329,192,74946,1,0,0:0:0:0:
109,192,75160,1,0,0:0:0:45:kick.wav
402,192,75160,1,0,0:0:0:0:
182,192,75375,1,0,0:0:0:45:kick.wav
475,192,75375,1,0,0:0:0:0:
182,192,75589,1,0,0:0:0:45:snare.wav
109,192,75589,1,0,0:0:0:45:bass.wav
36,192,75589,1,0,0:0:0:0:
182,192,75732,1,0,0:0:0:45:snare.wav
36,192,75732,1,0,0:0:0:45:bass.wav
109,192,75732,1,0,0:0:0:0:
329,192,75875,1,0,0:0:0:45:kick.wav
475,192,75875,1,0,0:0:0:0:
256,192,76018,1,0,0:0:0:45:kick.wav
402,192,76018,1,0,0:0:0:0:
182,192,76160,1,0,0:0:0:45:kick.wav
329,192,76160,1,0,0:0:0:0:
109,192,76303,1,0,0:0:0:45:kick.wav
256,192,76303,1,0,0:0:0:0:
182,192,76446,1,0,0:0:0:45:bass.wav
475,192,76446,1,0,0:0:0:0:
36,192,76446,1,0,0:0:0:0:
182,192,76870,128,0,77294:0:0:0:25:drum.wav
36,192,76870,128,0,77294:0:0:0:0:
256,192,77294,1,0,0:0:0:25:drum.wav
475,192,77294,1,0,0:0:0:45:snare.wav
256,192,77718,1,0,0:0:0:45:snare.wav
36,192,77718,1,0,0:0:0:0:
475,192,77718,1,0,0:0:0:0:
402,192,77930,1,0,0:0:0:45:bass.wav
182,192,77930,1,0,0:0:0:45:snare.wav
182,192,78354,1,0,0:0:0:45:snare.wav
402,192,78354,1,0,0:0:0:0:
36,192,78354,1,0,0:0:0:0:
329,192,78566,1,0,0:0:0:45:snare.wav
109,192,78566,1,0,0:0:0:45:bass.wav
109,192,78991,128,0,79839:0:0:0:25:crash.wav
329,192,78991,128,0,79839:0:0:0:0:
182,192,79415,128,0,79839:0:0:0:25:crash.wav
402,192,79415,128,0,79839:0:0:0:0:
256,192,79839,1,0,0:0:0:45:bass.wav
475,192,79839,1,0,0:0:0:45:crash.wav
36,192,79839,1,0,0:0:0:0:
329,192,80263,128,0,80687:0:0:0:25:drum.wav
475,192,80263,128,0,80687:0:0:0:0:
256,192,80687,1,0,0:0:0:25:drum.wav
36,192,80687,1,0,0:0:0:45:snare.wav
36,192,81111,1,0,0:0:0:45:snare.wav
256,192,81111,1,0,0:0:0:0:
475,192,81111,1,0,0:0:0:0:
109,192,81324,1,0,0:0:0:45:snare.wav
329,192,81324,1,0,0:0:0:45:bass.wav
109,192,81748,1,0,0:0:0:45:snare.wav
329,192,81748,1,0,0:0:0:0:
475,192,81748,1,0,0:0:0:0:
182,192,81960,1,0,0:0:0:45:snare.wav
402,192,81960,1,0,0:0:0:45:bass.wav
402,192,82384,1,0,0:0:0:45:bass.wav
182,192,82384,1,0,0:0:0:45:snare.wav
36,192,82384,1,0,0:0:0:0:
182,192,82596,128,0,82808:0:0:0:45:bass.wav
402,192,82596,128,0,82808:0:0:0:0:
109,192,82808,1,0,0:0:0:45:bass.wav
329,192,82808,1,0,0:0:0:45:snare.wav
182,192,83020,1,0,0:0:0:45:bass.wav
402,192,83020,1,0,0:0:0:45:snare.wav
36,192,83232,1,0,0:0:0:45:bass.wav
256,192,83232,1,0,0:0:0:45:crash.wav
475,192,83232,1,0,0:0:0:0:
256,192,83657,128,0,84081:0:0:0:25:drum.wav
36,192,83657,128,0,84081:0:0:0:0:
475,192,84081,1,0,0:0:0:25:drum.wav
329,192,84081,1,0,0:0:0:45:snare.wav
36,192,84505,1,0,0:0:0:45:snare.wav
182,192,84505,1,0,0:0:0:0:
402,192,84505,1,0,0:0:0:0:
329,192,84717,1,0,0:0:0:45:snare.wav
109,192,84717,1,0,0:0:0:45:bass.wav
475,192,85141,1,0,0:0:0:45:snare.wav
109,192,85141,1,0,0:0:0:0:
329,192,85141,1,0,0:0:0:0:
256,192,85353,1,0,0:0:0:45:snare.wav
36,192,85353,1,0,0:0:0:45:bass.wav
36,192,85777,128,0,86202:0:0:0:25:crash.wav
475,192,85777,128,0,86202:0:0:0:0:
109,192,85990,128,0,86414:0:0:0:25:crash.wav
402,192,85990,128,0,86414:0:0:0:0:
182,192,86202,128,0,86626:0:0:0:25:crash.wav
329,192,86202,128,0,86626:0:0:0:0:
475,192,86626,1,0,0:0:0:45:crash.wav
256,192,86626,1,0,0:0:0:45:bass.wav
36,192,86626,1,0,0:0:0:0:
256,192,87050,128,0,87474:0:0:0:25:drum.wav
475,192,87050,128,0,87474:0:0:0:0:
182,192,87474,1,0,0:0:0:25:drum.wav
36,192,87474,1,0,0:0:0:45:snare.wav
329,192,87898,1,0,0:0:0:45:snare.wav
475,192,87898,1,0,0:0:0:0:
109,192,87898,1,0,0:0:0:0:
182,192,88110,1,0,0:0:0:45:snare.wav
402,192,88110,1,0,0:0:0:45:bass.wav
182,192,88535,1,0,0:0:0:45:snare.wav
402,192,88535,1,0,0:0:0:0:
36,192,88535,1,0,0:0:0:0:
475,192,88747,1,0,0:0:0:45:snare.wav
256,192,88747,1,0,0:0:0:45:bass.wav
36,192,88959,1,0,0:0:0:0:
109,192,89171,1,0,0:0:0:45:snare.wav
402,192,89171,1,0,0:0:0:45:bass.wav
182,192,89383,1,0,0:0:0:45:bass.wav
329,192,89383,1,0,0:0:0:45:snare.wav
256,192,89595,1,0,0:0:0:45:bass.wav
109,192,89595,1,0,0:0:0:45:snare.wav
402,192,89807,1,0,0:0:0:45:crash.wav
475,192,89807,1,0,0:0:0:45:bass.wav
182,192,89807,128,0,90019:0:0:0:0:
36,192,89807,128,0,90019:0:0:0:0:
